osu file format v14

[General]
AudioFilename: audio.mp3
AudioLeadIn: 0
PreviewTime: 34327
Countdown: 0
SampleSet: Soft
StackLeniency: 0.4
Mode: 2
LetterboxInBreaks: 0
WidescreenStoryboard: 1

[Editor]
Bookmarks: 45773
DistanceSpacing: 1
BeatDivisor: 4
GridSize: 8
TimelineZoom: 1.9

[Metadata]
Title:Kizuato
TitleUnicode:キズアト
Artist:a*ru
ArtistUnicode:a☆ru
Creator:Benny-
Version:Salad
Source:東方妖々夢 ~ Perfect Cherry Blossom.
Tags:東方Project ALiCE'S EMOTiON th7 touhou youyomu ayumi nomiya redalice scar ブクレシュティの人形師 the doll maker of bucuresti overdrive Alice Margatroid アリス・マーガトロイド pcb c83 comiket83 Benny BennyBananas Ascendance
BeatmapID:1414781
BeatmapSetID:668807

[Difficulty]
HPDrainRate:4
CircleSize:3
OverallDifficulty:7
ApproachRate:7
SliderMultiplier:1.4
SliderTickRate:1

[Events]
//Background and Video events
0,0,"ALICE.jpg",0,0
//Break Periods
//Storyboard Layer 0 (Background)
//Storyboard Layer 1 (Fail)
//Storyboard Layer 2 (Pass)
//Storyboard Layer 3 (Foreground)
//Storyboard Sound Samples

[TimingPoints]
1380,346.820809248555,4,2,1,50,1,0
12478,-100,4,2,1,70,0,0
34674,-100,4,2,1,80,0,1
45426,-100,4,2,1,80,0,0
45773,-100,4,2,1,80,0,1
56524,-100,4,2,1,40,0,0
56871,-100,4,2,1,70,0,1
67969,-100,4,2,1,60,0,0
69356,-100,4,2,1,70,0,1
79067,-100,4,2,1,60,0,0
88778,-100,4,2,1,50,0,0
89125,-100,4,2,1,40,0,0
89472,-100,4,2,1,30,0,0
89819,-100,4,2,1,20,0,0
90166,-100,4,2,1,10,0,0

[Colours]
Combo1 : 148,214,189
Combo2 : 255,255,138
Combo3 : 255,108,108

[HitObjects]
296,312,1380,6,0,P|368:296|424:160,2,210,6|0|0,0:0|0:0|0:0,0:0:0:0:
120,312,2767,2,0,L|315:194,1,210,2|0,0:0|0:0,0:0:0:0:
477,184,3807,1,0,0:0:0:0:
296,184,4154,6,0,P|168:152|136:88,2,210,2|0|0,0:0|0:0|0:0,0:0:0:0:
120,280,5541,2,0,L|310:179,1,210,2|0,0:0|0:0,0:0:0:0:
152,128,6582,1,0,0:0:0:0:
328,272,6929,6,0,P|416:248|456:144,2,210,2|0|0,0:0|0:0|0:0,0:0:0:0:
152,272,8316,2,0,L|368:200,2,210,2|0|0,0:0|0:0|0:0,0:0:0:0:
328,312,9703,6,0,P|392:244|316:185,1,210,2|0,0:0|0:0,0:0:0:0:
184,176,10744,1,0,0:0:0:0:
360,224,11090,2,0,L|384:368,1,140,2|0,0:0|0:0,0:0:0:0:
208,360,11784,2,0,L|336:288,1,140,0|0,0:0|0:0,0:0:0:0:
40,312,12478,6,0,P|24:272|99:183,1,140,4|0,1:2|0:0,0:0:0:0:
208,176,13171,1,8,0:2:0:0:
344,256,13518,2,0,L|368:336,1,70
256,328,13865,6,0,L|376:256,2,140,0|0|8,1:2|0:0|0:2,0:0:0:0:
117,343,14906,2,0,L|109:255,1,70
216,280,15252,6,0,P|304:240|312:176,2,140,0|0|8,1:2|0:0|0:0,0:0:0:0:
364,307,16293,2,0,L|444:307,1,70,0|0,0:0|1:2,0:0:0:0:
328,272,16640,6,0,L|176:248,2,140,0|0|8,1:2|0:0|0:2,0:0:0:0:
152,328,17680,1,0,1:2:0:0:
432,337,18027,6,0,P|465:294|431:212,1,140,0|0,1:0|0:0,0:0:0:0:
345,209,18547,1,0,0:0:0:0:
250,205,18721,2,0,P|194:255|197:327,1,140,8|0,0:2|0:0,0:0:0:0:
268,338,19241,1,0,0:0:0:0:
364,343,19414,6,0,P|446:320|481:253,2,140,0|0|8,1:0|0:0|0:0,0:0:0:0:
253,272,20455,2,0,L|203:212,1,70
314,179,20801,6,0,P|366:147|329:84,1,140,0|0,1:0|0:0,0:0:0:0:
251,77,21322,1,0,0:0:0:0:
143,113,21495,2,0,P|103:164|143:215,1,140,8|0,0:0|0:0,0:0:0:0:
240,229,22015,1,0,1:2:0:0:
71,196,22189,6,0,P|75:127|124:79,1,140,4|0,1:2|0:0,0:0:0:0:
221,58,22709,1,0,0:0:0:0:
307,107,22882,1,8,0:0:0:0:
150,295,23229,1,8,0:0:0:0:
472,248,23576,6,0,P|496:192|256:136,1,420,12|0,0:0|1:0,0:0:0:0:
88,168,24963,2,0,P|96:216|368:192,1,420,0|0,1:0|1:0,0:0:0:0:
200,224,26351,6,0,P|136:184|320:64,1,420,0|0,1:0|1:2,0:0:0:0:
480,104,27738,2,0,L|296:232,2,210,0|0|0,1:2|0:0|1:2,0:0:0:0:
192,192,29125,5,4,1:0:0:0:
312,216,29472,1,0,1:2:0:0:
432,248,29819,1,0,1:2:0:0:
312,216,30166,1,0,1:2:0:0:
48,224,30512,5,0,1:2:0:0:
168,200,30859,1,0,1:2:0:0:
288,176,31206,1,0,1:2:0:0:
168,200,31553,1,0,1:2:0:0:
448,208,31900,5,0,1:2:0:0:
464,120,32073,1,0,1:0:0:0:
408,48,32247,1,0,1:0:0:0:
320,40,32420,1,0,1:0:0:0:
224,88,32593,1,0,1:2:0:0:
176,184,32767,1,0,1:0:0:0:
344,240,32940,6,0,L|360:336,1,70,4|4,0:1|0:1,0:0:0:0:
80,312,33460,2,0,L|72:224,1,70,4|4,0:1|0:1,0:0:0:0:
239,223,33981,2,0,L|239:191,1,17.5,8|8,0:2|0:0,0:0:0:0:
144,152,34327,1,0,2:3:0:0:
432,160,34674,6,0,P|471:227|435:273,1,140,4|8,1:0|0:0,0:0:0:0:
333,274,35195,2,0,L|478:226,1,140
361,187,35715,1,8,0:0:0:0:
80,240,36062,6,0,P|32:200|80:152,1,140,0|8,1:2|0:0,0:0:0:0:
179,152,36582,2,0,L|329:181,1,140
422,246,37102,1,8,0:0:0:0:
143,276,37449,6,0,P|114:211|162:174,1,140,0|8,1:2|0:0,0:0:0:0:
265,172,37969,2,0,L|140:91,1,140
254,94,38489,1,8,0:0:0:0:
328,200,38663,1,0,1:0:0:0:
160,128,38836,5,0,1:2:0:0:
88,184,39010,1,0,1:2:0:0:
80,272,39183,1,8,0:0:0:0:
160,320,39356,1,0,1:2:0:0:
248,312,39530,1,8,0:0:0:0:
280,280,39616,1,8,1:2:0:0:
288,240,39703,1,8,1:2:0:0:
184,224,39877,2,0,L|160:152,1,70,8|0,0:2|0:0,0:0:0:0:
336,176,40223,5,0,1:2:0:0:
416,160,40397,2,0,P|435:125|372:51,1,140,0|0,1:0|0:0,0:0:0:0:
324,50,40917,1,0,1:0:0:0:
120,152,41264,2,0,L|128:232,1,70,8|0,0:0|0:0,0:0:0:0:
304,208,41611,6,0,P|368:168|352:112,1,140,0|8,1:2|0:0,0:0:0:0:
256,112,42131,1,0,1:2:0:0:
80,184,42478,2,0,P|48:216|88:320,1,140,0|0,1:0|0:0,0:0:0:0:
232,304,42998,5,2,1:2:0:0:
300,297,43171,1,0,1:2:0:0:
358,258,43344,1,0,1:2:0:0:
390,196,43518,1,2,1:2:0:0:
389,127,43691,1,0,1:2:0:0:
216,128,43865,2,0,L|182:189,1,70,2|8,1:2|0:2,0:0:0:0:
264,208,44212,1,0,1:0:0:0:
440,256,44385,5,4,1:0:0:0:
482,314,44559,1,0,1:0:0:0:
425,366,44732,1,8,0:0:0:0:
319,358,44906,2,0,L|461:299,1,140
343,234,45426,1,0,0:3:0:0:
80,160,45773,6,0,P|41:227|77:273,1,140,4|8,1:0|0:0,0:0:0:0:
179,274,46294,2,0,L|34:226,1,140
151,187,46814,1,8,0:0:0:0:
432,240,47161,6,0,P|480:200|432:152,1,140,0|8,1:2|0:0,0:0:0:0:
333,152,47681,2,0,L|183:181,1,140
90,240,48201,1,8,0:0:0:0:
370,277,48548,6,0,P|399:222|324:171,1,140,0|8,1:2|0:0,0:0:0:0:
247,172,49068,2,0,L|372:91,1,140
258,94,49588,1,8,0:0:0:0:
184,200,49762,1,0,1:0:0:0:
352,128,49935,5,0,1:2:0:0:
424,184,50109,1,0,1:2:0:0:
432,272,50282,1,8,0:0:0:0:
352,320,50455,1,0,1:2:0:0:
264,312,50629,1,8,0:0:0:0:
232,280,50715,1,8,1:2:0:0:
224,240,50802,1,8,1:2:0:0:
328,224,50976,2,0,L|352:152,1,70,8|0,0:2|0:0,0:0:0:0:
176,176,51322,5,0,1:2:0:0:
96,160,51496,2,0,P|77:125|140:51,1,140,0|0,1:0|0:0,0:0:0:0:
188,50,52016,1,0,1:0:0:0:
392,152,52363,2,0,L|384:232,1,70,8|0,0:0|0:0,0:0:0:0:
208,208,52710,6,0,P|144:168|160:112,1,140,0|8,1:2|0:0,0:0:0:0:
256,112,53230,1,0,1:2:0:0:
432,184,53577,2,0,P|464:216|424:320,1,140,0|0,1:0|0:0,0:0:0:0:
280,304,54097,5,2,1:2:0:0:
212,297,54270,1,0,1:2:0:0:
154,258,54443,1,0,1:2:0:0:
122,196,54617,1,2,1:2:0:0:
123,127,54790,1,0,1:2:0:0:
296,128,54964,2,0,L|336:200,1,70,2|8,1:2|0:2,0:0:0:0:
248,208,55311,1,0,1:0:0:0:
72,256,55484,5,4,1:0:0:0:
30,314,55658,1,0,1:0:0:0:
87,366,55831,1,8,0:0:0:0:
193,358,56005,2,0,L|51:299,1,140
169,234,56525,1,0,0:3:0:0:
432,288,56871,6,0,P|472:240|392:136,1,210,4|0,1:0|0:0,0:0:0:0:
224,160,57738,2,0,L|160:232,1,70,0|8,1:2|0:0,0:0:0:0:
240,272,58085,1,0,0:0:0:0:
72,296,58258,6,0,P|16:264|80:160,1,210,0|0,1:2|0:0,0:0:0:0:
224,152,59125,1,0,1:2:0:0:
320,176,59299,1,8,0:0:0:0:
344,264,59472,1,0,0:0:0:0:
176,288,59645,6,0,L|343:142,1,210,0|0,1:2|0:0,0:0:0:0:
207,240,60512,2,0,L|191:144,1,70,0|8,1:2|0:0,0:0:0:0:
279,168,60859,1,0,0:0:0:0:
447,176,61033,6,0,P|471:120|343:56,1,210,0|0,1:2|0:0,0:0:0:0:
192,80,61900,1,0,1:2:0:0:
160,144,62073,1,8,0:0:0:0:
200,200,62247,1,0,0:0:0:0:
368,136,62420,6,0,P|416:176|344:304,1,210,0|0,1:2|0:0,0:0:0:0:
209,297,63287,2,0,L|201:217,1,70,0|8,1:2|0:0,0:0:0:0:
289,225,63634,1,0,0:0:0:0:
128,208,63807,6,0,P|72:192|112:64,1,210,0|0,1:2|0:0,0:0:0:0:
240,88,64674,2,0,L|184:168,1,70,0|8,1:2|0:0,0:0:0:0:
280,184,65021,1,0,0:0:0:0:
448,192,65195,6,0,L|452:280,1,70,0|0,1:0|1:0,1:0:0:0:
351,264,65541,1,8,0:0:0:0:
204,244,65715,2,0,L|358:204,1,140,0|0,1:0|1:0,0:0:0:0:
374,290,66235,1,8,0:0:0:0:
304,320,66409,1,8,0:0:0:0:
136,336,66582,6,0,P|145:283|237:266,1,140,4|4,1:0|1:0,0:0:0:0:
430,259,67275,2,0,L|465:192,2,70,0|0|8,1:0|1:0|0:0,0:0:0:0:
144,104,67969,5,0,1:2:0:0:
64,144,68143,1,0,1:2:0:0:
32,216,68316,1,0,1:2:0:0:
48,288,68489,1,0,1:2:0:0:
96,360,68663,1,0,1:2:0:0:
176,384,68836,1,0,1:2:0:0:
344,360,69010,2,0,L|416:320,1,70,8|8,0:0|1:2,0:0:0:0:
240,304,69356,6,0,P|136:272|144:176,1,210,4|0,1:0|0:0,0:0:0:0:
288,160,70223,2,0,L|352:232,1,70,0|8,1:2|0:0,0:0:0:0:
272,272,70570,1,0,0:0:0:0:
440,296,70743,6,0,P|474:254|380:152,1,210,0|0,1:2|0:0,0:0:0:0:
249,149,71610,1,0,1:2:0:0:
152,174,71784,1,8,0:0:0:0:
107,258,71957,1,0,0:0:0:0:
275,290,72130,6,0,L|102:157,1,210,0|0,1:2|0:0,0:0:0:0:
248,224,72997,2,0,L|264:128,1,70,0|8,1:2|0:0,0:0:0:0:
176,152,73344,1,0,0:0:0:0:
8,160,73518,6,0,L|201:71,1,210,0|0,1:2|0:0,0:0:0:0:
360,120,74385,1,0,1:2:0:0:
368,200,74559,1,8,0:0:0:0:
312,256,74732,1,0,0:0:0:0:
144,136,74905,6,0,P|96:176|168:304,1,210,0|0,1:2|0:0,0:0:0:0:
304,300,75772,2,0,L|312:220,1,70,0|8,1:2|0:0,0:0:0:0:
224,228,76119,1,8,0:0:0:0:
384,208,76292,6,0,P|440:192|400:64,1,210,8|10,0:0|0:0,0:0:0:0:
272,88,77159,2,0,L|328:168,1,70,2|8,1:2|0:0,0:0:0:0:
232,184,77506,1,0,1:2:0:0:
64,192,77680,6,0,L|163:294,1,140,8|8,0:0|0:0,0:0:0:0:
316,310,78374,2,0,L|390:312,2,70,0|8|0,1:2|0:0|0:0,0:0:0:0:
36,256,79067,6,0,L|251:239,2,210,0|0|0,1:0|0:0|1:0,0:0:0:0:
188,297,80455,2,0,P|252:219|182:155,1,210,0|0,1:0|0:0,0:0:0:0:
41,155,81495,1,0,1:0:0:0:
190,160,81842,6,0,L|411:147,2,210,0|0|0,1:0|0:0|1:0,0:0:0:0:
344,246,83229,2,0,L|127:299,2,210,0|0|0,1:0|0:0|1:0,0:0:0:0:
256,192,84616,12,0,88432,1:0:0:0:
276,304,88778,6,0,B|260:296|260:296|284:288|284:288|260:280|260:280|284:272|284:272|260:264|260:264|284:256|284:256|260:248|260:248|284:240|284:240|260:232|260:232|284:224|284:224|260:216|260:216|284:208|284:208|260:200|260:200|284:192|284:192|260:184|260:184|284:176|284:176|260:168|260:168|284:160|284:160|260:152|260:152|284:144|284:144|260:136|260:136|284:128|284:128|260:120|260:120,1,560,0|0,1:2|0:2,0:0:0:0:
