osu file format v14

[General]
AudioFilename: audio.mp3
AudioLeadIn: 0
PreviewTime: 34327
Countdown: 0
SampleSet: Soft
StackLeniency: 0.4
Mode: 2
LetterboxInBreaks: 0
WidescreenStoryboard: 1

[Editor]
DistanceSpacing: 1.1
BeatDivisor: 4
GridSize: 8
TimelineZoom: 1.9

[Metadata]
Title:Kizuato
TitleUnicode:キズアト
Artist:a*ru
ArtistUnicode:a☆ru
Creator:Benny-
Version:Platter
Source:東方妖々夢 ~ Perfect Cherry Blossom.
Tags:東方Project ALiCE'S EMOTiON th7 touhou youyomu ayumi nomiya redalice scar ブクレシュティの人形師 the doll maker of bucuresti overdrive Alice Margatroid アリス・マーガトロイド pcb c83 comiket83 Benny BennyBananas Ascendance
BeatmapID:1414780
BeatmapSetID:668807

[Difficulty]
HPDrainRate:5
CircleSize:3.5
OverallDifficulty:8
ApproachRate:8
SliderMultiplier:1.5
SliderTickRate:2

[Events]
//Background and Video events
0,0,"ALICE.jpg",0,0
//Break Periods
//Storyboard Layer 0 (Background)
//Storyboard Layer 1 (Fail)
//Storyboard Layer 2 (Pass)
//Storyboard Layer 3 (Foreground)
//Storyboard Sound Samples

[TimingPoints]
1380,346.820809248555,4,2,1,50,1,0
23576,-133.333333333333,4,2,1,40,0,0
29125,-100,4,2,1,60,0,0
34674,-83.3333333333333,4,2,1,80,0,1
45426,-83.3333333333333,4,2,1,80,0,0
45773,-83.3333333333333,4,2,1,80,0,1
56524,-83.3333333333333,4,2,1,40,0,0
56871,-100,4,2,1,70,0,1
67969,-100,4,2,1,60,0,0
69356,-100,4,2,1,70,0,1
79067,-100,4,2,1,60,0,0
88778,-100,4,2,1,50,0,0
88952,-100,4,2,1,45,0,0
89125,-100,4,2,1,40,0,0
89299,-100,4,2,1,35,0,0
89472,-100,4,2,1,30,0,0
89645,-100,4,2,1,25,0,0
89819,-100,4,2,1,20,0,0
89992,-100,4,2,1,15,0,0
90166,-100,4,2,1,10,0,0

[Colours]
Combo1 : 148,214,189
Combo2 : 255,255,138
Combo3 : 255,108,108

[HitObjects]
264,288,1380,6,0,P|308:304|410:182,1,225,6|0,0:0|0:0,0:0:0:0:
256,144,2247,1,0,0:0:0:0:
155,165,2420,2,0,L|136:256,1,75
305,250,2767,6,0,L|58:250,1,225,2|0,0:0|0:0,0:0:0:0:
192,229,3460,2,0,L|192:137,1,75
305,155,3807,2,0,L|297:263,1,75
134,238,4154,6,0,P|21:151|62:85,1,225,2|0,0:0|0:0,0:0:0:0:
216,128,5021,2,0,L|324:124,2,75,0|0|0,0:0|0:0|0:0,0:0:0:0:
382,197,5541,6,0,P|390:133|246:53,1,225,2|0,0:0|0:0,0:0:0:0:
96,288,6408,1,0,0:0:0:0:
200,276,6582,2,0,L|216:192,1,75,0|0,0:0|0:0,0:0:0:0:
48,185,6929,6,0,P|48:137|200:57,1,225,2|0,0:0|0:0,0:0:0:0:
352,88,7796,1,0,0:0:0:0:
432,160,7969,2,0,L|420:264,1,75,0|0,0:0|0:0,0:0:0:0:
258,270,8316,6,0,P|210:254|274:134,1,225,2|0,0:0|0:0,0:0:0:0:
424,158,9010,2,0,L|490:246,1,75
304,152,9356,2,0,L|264:88,1,75
430,50,9703,6,0,L|190:58,1,225,2|0,0:0|0:0,0:0:0:0:
336,192,10570,2,0,L|424:224,2,75,0|0|0,0:0|0:0|0:0,0:0:0:0:
170,190,11090,6,0,L|82:190,2,75,2|0|0,0:0|0:0|0:0,0:0:0:0:
376,88,11784,2,0,P|448:96|488:184,1,150,0|0,0:0|0:0,0:0:0:0:
24,232,12478,6,0,P|16:168|96:104,1,150,4|0,1:2|0:0,0:0:0:0:
192,104,12998,2,0,L|32:104,1,150,0|0,0:0|0:0,0:0:0:0:
160,192,13518,2,0,L|248:192,1,75,0|0,0:0|0:0,0:0:0:0:
64,256,13865,6,0,L|214:256,1,150,0|0,1:2|0:0,0:0:0:0:
336,256,14385,2,0,P|350:185|297:136,1,150,0|0,0:0|0:0,0:0:0:0:
176,160,14906,2,0,L|144:240,1,75,0|0,0:0|0:0,0:0:0:0:
312,240,15252,6,0,P|400:200|416:144,1,150,0|0,1:2|0:0,0:0:0:0:
288,144,15773,2,0,L|464:144,1,150,0|0,0:0|0:0,0:0:0:0:
272,48,16293,2,0,L|368:48,1,75,0|0,0:0|1:2,0:0:0:0:
176,136,16640,6,0,P|112:136|32:80,1,150,0|0,1:2|0:0,0:0:0:0:
160,72,17160,2,0,P|256:80|312:136,1,150,0|0,0:0|0:0,0:0:0:0:
176,184,17680,2,0,L|160:264,1,75,0|0,1:2|0:0,0:0:0:0:
328,272,18027,5,0,1:2:0:0:
208,272,18200,2,0,L|200:176,1,75
288,192,18547,1,0,0:0:0:0:
408,200,18721,2,0,L|424:112,1,75,8|0,0:2|0:0,0:0:0:0:
328,120,19067,1,0,0:0:0:0:
162,135,19241,6,0,L|314:135,1,150
232,208,19761,2,0,L|216:304,1,75,0|0,0:0|0:0,0:0:0:0:
344,288,20108,2,0,L|424:288,1,75,8|0,0:2|0:0,0:0:0:0:
302,258,20455,2,0,L|222:258,1,75
392,184,20801,5,0,1:2:0:0:
464,128,20975,2,0,L|392:64,1,75,0|0,0:0|0:0,0:0:0:0:
312,80,21322,1,0,0:0:0:0:
148,130,21495,2,0,P|100:154|156:218,1,150,8|0,0:0|0:0,0:0:0:0:
304,224,22015,1,0,1:2:0:0:
40,248,22189,6,0,P|24:208|96:136,1,150,4|0,1:2|0:0,0:0:0:0:
184,136,22709,1,0,0:0:0:0:
348,145,22882,1,8,0:0:0:0:
184,248,23229,2,0,L|160:336,1,75,8|8,0:0|0:0,0:0:0:0:
344,320,23576,6,0,P|440:208|320:96,1,337.500012874604,12|0,0:0|1:0,0:0:0:0:
48,216,24963,2,0,L|224:184,2,168.750006437302,0|0|0,1:0|0:0|1:0,0:0:0:0:
384,256,26351,6,0,P|376:176|160:176,1,337.500012874604,0|0,1:0|1:2,0:0:0:0:
488,248,27738,2,0,P|392:232|344:160,2,168.750006437302,0|0|0,1:2|0:0|1:2,0:0:0:0:
32,256,29125,6,0,P|16:208|80:144,1,150,12|0,1:2|1:2,0:0:0:0:
248,152,29819,2,0,P|272:88|208:32,1,150,0|0,1:2|1:2,0:0:0:0:
456,64,30512,2,0,L|312:144,1,150,0|0,1:2|1:2,0:0:0:0:
120,200,31206,2,0,L|256:272,1,150,0|0,1:2|1:2,0:0:0:0:
24,280,31900,6,0,L|8:192,1,75,0|0,1:2|1:0,0:0:0:0:
136,208,32247,2,0,L|152:120,1,75,0|0,1:0|1:0,0:0:0:0:
272,160,32593,6,0,L|256:72,1,75,0|0,1:2|1:0,0:0:0:0:
384,104,32940,2,0,L|397:37,2,37.5,4|4|0,0:1|0:1|0:0,0:0:0:0:
136,112,33460,2,0,L|120:200,1,75,4|4,0:1|0:1,0:0:0:0:
280,216,33981,6,0,L|288:248,1,18.75,8|8,0:2|0:0,0:0:0:0:
24,296,34327,1,0,2:3:0:0:
488,304,34674,6,0,P|488:224|384:168,1,179.999994506836,4|8,1:0|0:0,0:0:0:0:
304,170,35195,2,0,L|459:51,1,179.999994506836,0|0,0:0|1:2,0:0:0:0:
272,274,35715,2,0,L|216:346,1,89.9999972534181,8|0,0:2|0:2,0:0:0:0:
464,344,36062,6,0,P|504:288|432:224,1,179.999994506836,0|8,1:2|0:0,0:0:0:0:
326,230,36582,2,0,P|254:222|190:134,1,179.999994506836,0|0,0:0|1:2,0:0:0:0:
365,136,37102,2,0,L|413:48,1,89.9999972534181,8|0,0:0|0:0,0:0:0:0:
96,56,37449,6,0,P|72:120|168:168,1,179.999994506836,0|8,1:2|0:0,0:0:0:0:
261,201,37969,2,0,L|64:233,1,179.999994506836,0|0,0:0|1:2,0:0:0:0:
153,288,38489,1,8,0:0:0:0:
407,239,38663,6,0,P|429:207|330:111,1,179.999994506836,0|0,1:2|1:2,0:0:0:0:
264,96,39183,1,8,0:0:0:0:
160,128,39356,1,0,1:2:0:0:
333,176,39530,2,0,L|365:128,2,44.999998626709,8|8|8,0:0|1:2|1:2,0:0:0:0:
160,128,39877,2,0,L|72:216,1,89.9999972534181,8|0,0:2|0:0,0:0:0:0:
336,256,40223,6,0,P|392:184|336:136,1,179.999994506836,0|8,1:2|0:0,0:0:0:0:
165,140,40744,1,0,1:2:0:0:
90,190,40917,2,0,P|91:250|221:283,1,179.999994506836,0|8,0:0|0:0,0:0:0:0:
312,305,41437,1,0,0:0:0:0:
48,304,41611,6,0,L|24:208,1,89.9999972534181,0|0,1:2|1:2,0:0:0:0:
120,216,41958,1,8,0:0:0:0:
291,221,42131,2,0,P|331:165|251:93,1,179.999994506836,0|0,1:2|1:0,0:0:0:0:
162,94,42651,1,8,0:0:0:0:
80,176,42825,1,0,0:0:0:0:
344,200,42998,6,0,L|424:256,2,89.9999972534181,2|0|0,1:2|1:2|1:2,0:0:0:0:
171,220,43518,2,0,L|83:300,1,89.9999972534181,2|0,1:2|1:2,0:0:0:0:
408,320,43865,1,2,1:2:0:0:
472,224,44038,1,8,0:2:0:0:
368,184,44212,1,0,1:0:0:0:
112,248,44385,5,4,1:0:0:0:
51,195,44558,1,0,1:0:0:0:
110,142,44731,1,8,0:0:0:0:
283,155,44906,2,0,P|322:81|258:26,1,179.999994506836,0|0,1:2|0:0,0:0:0:0:
431,116,45426,2,0,L|379:204,1,89.9999972534181,0|0,0:3|0:3,0:0:0:0:
80,304,45773,6,0,P|40:224|128:168,1,179.999994506836,4|8,1:0|0:0,0:0:0:0:
208,167,46294,2,0,L|69:38,1,179.999994506836,0|0,0:0|1:2,0:0:0:0:
246,243,46814,2,0,L|302:315,1,89.9999972534181,8|0,0:0|0:0,0:0:0:0:
48,344,47161,6,0,P|8:288|80:224,1,179.999994506836,0|8,1:2|0:0,0:0:0:0:
186,238,47681,2,0,P|258:230|322:142,1,179.999994506836,0|0,0:0|1:2,0:0:0:0:
148,147,48201,2,0,L|100:59,1,89.9999972534181,8|0,0:0|0:0,0:0:0:0:
416,56,48548,6,0,P|432:128|352:184,1,179.999994506836,0|8,1:2|0:0,0:0:0:0:
246,205,49068,2,0,L|429:232,1,179.999994506836,0|0,0:0|1:2,0:0:0:0:
362,304,49588,1,8,0:0:0:0:
116,253,49762,6,0,P|76:206|135:122,1,179.999994506836,0|0,1:2|1:2,0:0:0:0:
243,95,50282,1,8,0:0:0:0:
352,128,50455,1,0,1:2:0:0:
180,180,50629,2,0,L|148:132,2,44.999998626709,8|8|0,0:0|0:0|0:0,0:0:0:0:
352,128,50976,2,0,L|440:216,1,89.9999972534181,8|0,0:0|0:0,0:0:0:0:
176,256,51322,6,0,P|120:184|176:136,1,179.999994506836,0|8,1:2|0:0,0:0:0:0:
347,140,51842,1,0,1:2:0:0:
394,204,52015,2,0,P|388:265|274:310,1,179.999994506836,0|8,1:2|0:0,0:0:0:0:
188,303,52536,1,0,0:0:0:0:
464,304,52710,6,0,L|488:208,1,89.9999972534181,0|0,1:2|0:0,0:0:0:0:
392,216,53057,1,8,0:0:0:0:
144,224,53230,2,0,P|125:166|216:99,1,179.999994506836,0|0,1:2|1:2,0:0:0:0:
322,103,53750,1,8,0:0:0:0:
424,152,53924,1,0,0:0:0:0:
168,200,54097,6,0,L|120:288,2,89.9999972534181,2|0|0,1:2|1:2|1:2,0:0:0:0:
340,220,54616,2,0,L|452:236,1,89.9999972534181,2|0,1:2|1:2,0:0:0:0:
152,320,54964,1,2,1:2:0:0:
56,296,55137,1,8,0:2:0:0:
24,200,55311,1,0,1:2:0:0:
296,224,55484,5,4,1:0:0:0:
380,202,55657,1,0,1:0:0:0:
423,126,55830,1,8,0:0:0:0:
251,161,56004,2,0,P|91:169|41:86,1,269.999991760254,0|0,1:2|0:3,0:0:0:0:
103,43,56697,1,0,0:0:0:0:
344,34,56871,6,0,P|408:48|448:120,1,150,4|8,1:0|0:0,0:0:0:0:
334,149,57391,2,0,P|286:197|350:237,1,150,0|0,0:0|1:2,0:0:0:0:
486,245,57911,2,0,L|455:336,1,75,8|0,0:0|0:0,0:0:0:0:
176,288,58258,6,0,P|120:256|160:184,1,150,0|8,1:2|0:0,0:0:0:0:
261,196,58778,2,0,P|301:156|245:84,1,150,0|0,0:0|1:2,0:0:0:0:
109,84,59299,2,0,L|45:156,1,75,8|0,0:0|0:0,0:0:0:0:
336,144,59645,6,0,P|387:194|332:241,1,150,0|8,1:2|0:0,0:0:0:0:
230,241,60166,2,0,P|190:265|238:361,1,150,0|0,0:0|1:2,0:0:0:0:
361,361,60686,2,0,L|383:280,1,75,8|0,0:0|0:0,0:0:0:0:
88,246,61033,6,0,P|48:192|128:144,1,150,0|8,1:2|0:0,0:0:0:0:
208,115,61553,2,0,L|118:258,1,150,0|0,0:0|1:2,0:0:0:0:
284,233,62073,2,0,L|326:319,1,75,8|0,0:0|0:0,0:0:0:0:
24,224,62420,6,0,P|8:176|80:112,1,150,0|8,1:2|0:0,0:0:0:0:
184,194,62940,2,0,L|8:186,1,150,0|0,0:0|1:2,0:0:0:0:
184,194,63460,2,0,L|120:272,1,75,8|0,0:0|0:0,0:0:0:0:
448,192,63807,6,0,P|480:224|416:280,1,150,0|8,1:2|0:0,0:0:0:0:
305,283,64327,2,0,L|429:173,1,150,0|0,0:0|1:2,0:0:0:0:
240,247,64848,2,0,L|192:159,1,75,8|0,0:0|0:0,0:0:0:0:
480,208,65195,6,0,L|496:128,1,75,0|0,1:2|1:0,0:0:0:0:
408,128,65541,1,8,0:0:0:0:
256,121,65715,2,0,P|208:161|272:225,1,150,0|0,1:2|1:2,0:0:0:0:
398,231,66235,2,0,L|422:143,1,75,8|0,0:0|1:2,0:0:0:0:
120,160,66582,6,0,L|71:244,1,75,4|0,1:0|0:0,0:0:0:0:
233,245,66929,2,0,L|309:316,1,75,4|0,1:0|0:0,0:0:0:0:
53,303,67275,2,0,L|14:221,2,75,4|0|8,1:0|1:0|0:0,0:0:0:0:
312,192,67969,5,0,1:2:0:0:
384,192,68143,1,0,1:2:0:0:
288,200,68316,1,0,1:2:0:0:
400,184,68489,1,0,1:2:0:0:
264,208,68663,1,0,1:2:0:0:
424,176,68836,1,0,1:2:0:0:
184,176,69010,2,0,L|80:176,1,75,8|0,0:0|1:2,0:0:0:0:
368,24,69356,6,0,P|432:40|448:120,1,150,4|8,1:0|0:0,0:0:0:0:
335,129,69876,2,0,P|287:177|351:217,1,150,0|0,0:0|1:2,0:0:0:0:
487,225,70396,2,0,L|519:313,1,75,8|0,0:0|0:0,0:0:0:0:
259,285,70743,6,0,L|148:185,1,150,0|8,1:2|0:0,0:0:0:0:
262,202,71264,2,0,P|302:162|246:90,1,150,0|0,0:0|1:2,0:0:0:0:
110,115,71784,2,0,L|68:203,1,75,8|0,0:0|0:0,0:0:0:0:
336,144,72131,6,0,P|379:202|331:243,1,150,0|8,1:2|0:0,0:0:0:0:
217,250,72651,2,0,L|353:353,1,150,0|0,0:0|1:2,0:0:0:0:
186,351,73171,2,0,L|113:319,1,75,8|0,0:0|0:0,0:0:0:0:
424,246,73518,6,0,P|464:192|384:144,1,150,0|8,1:2|0:0,0:0:0:0:
303,219,74038,2,0,L|416:120,1,150,0|0,0:0|1:2,0:0:0:0:
264,232,74558,2,0,L|184:288,1,75,8|0,0:0|0:0,0:0:0:0:
488,224,74905,6,0,P|504:176|432:112,1,150,0|8,1:2|0:0,0:0:0:0:
327,131,75426,2,0,L|167:139,1,150,0|0,0:0|1:2,0:0:0:0:
327,131,75945,2,0,L|359:219,1,75,8|8,0:0|0:0,0:0:0:0:
64,192,76293,6,0,P|32:224|96:280,1,150,10|0,0:0|1:2,0:0:0:0:
252,285,76813,2,0,L|92:306,1,150,10|0,0:0|1:2,0:0:0:0:
275,295,77333,2,0,L|313:373,1,75,10|0,0:0|1:2,0:0:0:0:
136,368,77680,5,10,0:0:0:0:
449,322,78027,2,8,P|489:274|441:194,1,150,8|0,0:0|1:0,0:0:0:0:
305,229,78547,2,0,L|459:196,1,150,8|0,0:0|0:0,0:0:0:0:
208,181,79067,6,0,P|112:157|80:37,2,225,0|0|0,1:2|0:0|1:0,0:0:0:0:
360,189,80455,2,0,P|352:125|200:53,1,225,0|0,1:2|0:0,0:0:0:0:
8,125,81495,1,0,1:0:0:0:
168,237,81842,6,0,P|240:229|304:93,2,225,0|0|0,1:2|0:0|1:0,0:0:0:0:
328,253,83229,2,0,P|392:237|440:93,2,225,0|0|0,1:2|0:0|1:2,0:0:0:0:
176,261,84616,5,0,1:0:0:0:
256,192,84790,12,0,88432,1:0:0:0:
303,71,88778,6,0,P|97:227|307:378,1,600,0|0,1:2|0:2,0:0:0:0:
