osu file format v14

[General]
AudioFilename: audio.mp3
AudioLeadIn: 0
PreviewTime: 34154
Countdown: 0
SampleSet: Normal
StackLeniency: 0.7
Mode: 1
LetterboxInBreaks: 0
WidescreenStoryboard: 0

[Editor]
Bookmarks: -7,12478,23576,34674,45773,56871,69356,79067,90166
DistanceSpacing: 0.8
BeatDivisor: 1
GridSize: 32
TimelineZoom: 0.4999999

[Metadata]
Title:Kizuato
TitleUnicode:キズアト
Artist:a*ru
ArtistUnicode:a☆ru
Creator:-Sh1n1-
Version:Volta's Kantan
Source:東方妖々夢 ~ Perfect Cherry Blossom.
Tags:ALiCE'S EMOTiON th7 touhou youyomu ayumi nomiya redalice scar ブクレシュティの人形師 the doll maker of bucuresti overdrive Alice Margatroid アリス・マーガトロイド pcb c83 comiket83 shini Volta Flying_Pan
BeatmapID:1430213
BeatmapSetID:674738

[Difficulty]
HPDrainRate:8
CircleSize:2
OverallDifficulty:3
ApproachRate:0
SliderMultiplier:1.4
SliderTickRate:1

[Events]
//Background and Video events
0,0,"AliceBG.jpg",0,100
//Break Periods
//Storyboard Layer 0 (Background)
//Storyboard Layer 1 (Fail)
//Storyboard Layer 2 (Pass)
//Storyboard Layer 3 (Foreground)
//Storyboard Sound Samples

[TimingPoints]
1380,346.820809248555,4,1,0,70,1,0
12478,-100,4,1,0,80,0,0
34674,-100,4,1,0,90,0,1
45426,-100,4,1,0,90,0,0
45773,-100,4,1,0,90,0,1
56524,-100,4,1,0,90,0,0
56871,-100,4,1,0,80,0,1
67969,-100,4,1,0,80,0,0
69356,-100,4,1,0,80,0,1
79067,-100,4,1,0,70,0,0

[HitObjects]
288,192,1380,5,12,0:0:0:0:
128,128,2767,1,2,0:0:0:0:
288,192,4154,1,8,0:0:0:0:
288,192,5541,1,8,0:0:0:0:
320,96,6235,1,2,0:0:0:0:
160,96,6929,1,8,0:0:0:0:
64,64,8316,1,10,0:0:0:0:
160,96,9703,1,8,0:0:0:0:
96,64,11090,1,8,0:0:0:0:
192,128,11784,1,2,0:0:0:0:
96,64,12478,1,4,0:0:0:0:
96,64,13171,1,8,0:0:0:0:
96,64,14559,1,2,0:0:0:0:
160,128,15252,1,0,0:0:0:0:
32,128,15946,1,8,0:0:0:0:
192,128,17333,1,2,0:0:0:0:
192,96,17680,1,0,0:0:0:0:
128,160,18027,1,0,0:0:0:0:
128,160,18721,1,8,0:0:0:0:
128,192,20108,1,2,0:0:0:0:
128,192,20801,1,0,0:0:0:0:
128,192,21495,1,8,0:0:0:0:
320,160,21842,1,0,0:0:0:0:
320,160,22189,1,6,0:0:0:0:
320,128,23576,1,2,0:0:0:0:
128,128,24963,1,2,0:0:0:0:
192,128,25657,1,2,0:0:0:0:
320,128,26351,1,8,0:0:0:0:
288,128,27738,1,8,0:0:0:0:
96,128,28432,1,2,0:0:0:0:
224,256,29125,1,4,0:0:0:0:
224,160,29819,1,0,0:0:0:0:
256,160,30512,1,0,0:0:0:0:
128,128,30859,1,0,0:0:0:0:
128,128,31206,1,0,0:0:0:0:
128,128,31900,1,8,0:0:0:0:
160,160,33287,1,8,0:0:0:0:
96,160,33981,1,2,0:0:0:0:
256,160,34674,1,4,0:0:0:0:
256,160,35021,1,8,0:0:0:0:
160,160,35715,1,2,0:0:0:0:
160,160,36062,1,0,0:0:0:0:
192,160,36408,1,8,0:0:0:0:
96,128,37102,1,2,0:0:0:0:
192,160,37449,1,0,0:0:0:0:
192,160,38143,1,8,0:0:0:0:
160,160,38836,1,0,0:0:0:0:
160,160,39183,1,8,0:0:0:0:
160,160,39530,1,2,0:0:0:0:
128,96,40223,1,0,0:0:0:0:
128,96,40917,1,8,0:0:0:0:
128,96,41611,1,2,0:0:0:0:
128,96,41958,1,0,0:0:0:0:
128,96,42304,1,8,0:0:0:0:
128,96,42998,1,0,0:0:0:0:
96,160,44385,5,2,0:0:0:0:
160,64,44732,1,2,0:0:0:0:
128,128,45079,1,2,0:0:0:0:
96,160,45773,1,4,0:0:0:0:
288,160,46119,5,8,0:0:0:0:
96,160,46813,1,2,0:0:0:0:
96,160,47160,1,0,0:0:0:0:
96,160,47507,1,8,0:0:0:0:
96,160,48200,1,2,0:0:0:0:
96,160,48547,1,0,0:0:0:0:
160,128,49241,1,8,0:0:0:0:
160,128,49934,1,0,0:0:0:0:
160,128,50281,1,8,0:0:0:0:
160,128,50628,1,2,0:0:0:0:
160,128,51322,1,0,0:0:0:0:
160,128,52015,1,0,0:0:0:0:
160,128,52709,1,0,0:0:0:0:
160,128,53056,1,8,0:0:0:0:
160,128,53403,1,0,0:0:0:0:
160,128,54096,1,2,0:0:0:0:
128,160,55484,1,0,0:0:0:0:
192,128,55830,1,8,0:0:0:0:
192,128,56524,1,0,0:0:0:0:
192,128,56871,1,4,0:0:0:0:
128,128,57911,1,8,0:0:0:0:
128,128,58258,1,0,0:0:0:0:
128,128,58952,1,2,0:0:0:0:
128,128,59645,1,0,0:0:0:0:
128,128,60339,1,0,0:0:0:0:
128,128,60686,1,8,0:0:0:0:
128,128,61033,1,2,0:0:0:0:
32,160,61726,1,0,0:0:0:0:
128,160,62420,1,8,0:0:0:0:
192,128,63807,1,8,0:0:0:0:
192,128,64501,1,2,0:0:0:0:
192,128,64848,1,8,0:0:0:0:
192,128,65195,1,0,0:0:0:0:
192,128,65888,1,0,0:0:0:0:
192,128,66582,1,2,0:0:0:0:
192,128,66929,1,8,0:0:0:0:
96,128,67275,1,2,0:0:0:0:
64,160,67969,2,0,L|224:160,3,140
64,128,69356,1,12,0:0:0:0:
128,160,70397,1,2,0:0:0:0:
128,128,70744,1,0,0:0:0:0:
128,160,71437,1,0,0:0:0:0:
128,160,72131,1,8,0:0:0:0:
128,160,72825,1,8,0:0:0:0:
224,96,73171,1,2,0:0:0:0:
96,160,73518,1,0,0:0:0:0:
96,160,74906,1,8,0:0:0:0:
96,160,75599,1,8,0:0:0:0:
96,160,75946,1,2,0:0:0:0:
96,160,76293,1,0,0:0:0:0:
96,160,76986,1,0,0:0:0:0:
96,160,77680,1,2,0:0:0:0:
192,128,78374,1,2,0:0:0:0:
192,128,79067,1,4,0:0:0:0:
224,96,80455,1,0,0:0:0:0:
224,96,81842,1,0,0:0:0:0:
224,96,83229,1,0,0:0:0:0:
160,128,83923,1,0,0:0:0:0:
224,96,84616,1,2,0:0:0:0:
224,96,86004,1,2,0:0:0:0:
224,96,87391,1,2,0:0:0:0:
192,96,88778,1,2,0:0:0:0:
256,192,89125,12,0,90166,0:0:0:0:
