osu file format v14

[General]
AudioFilename: audio.mp3
AudioLeadIn: 0
PreviewTime: 34154
Countdown: 0
SampleSet: Normal
StackLeniency: 0.7
Mode: 1
LetterboxInBreaks: 0
WidescreenStoryboard: 0

[Editor]
DistanceSpacing: 0.8
BeatDivisor: 4
GridSize: 32
TimelineZoom: 1

[Metadata]
Title:Kizuato
TitleUnicode:キズアト
Artist:a*ru
ArtistUnicode:a☆ru
Creator:-Sh1n1-
Version:Muzukashii
Source:東方妖々夢 ~ Perfect Cherry Blossom.
Tags:ALiCE'S EMOTiON th7 touhou youyomu ayumi nomiya redalice scar ブクレシュティの人形師 the doll maker of bucuresti overdrive Alice Margatroid アリス・マーガトロイド pcb c83 comiket83 shini Volta Flying_Pan
BeatmapID:1427589
BeatmapSetID:674738

[Difficulty]
HPDrainRate:6
CircleSize:2
OverallDifficulty:5
ApproachRate:0
SliderMultiplier:1.4
SliderTickRate:1

[Events]
//Background and Video events
0,0,"AliceBG.jpg",0,100
//Break Periods
//Storyboard Layer 0 (Background)
//Storyboard Layer 1 (Fail)
//Storyboard Layer 2 (Pass)
//Storyboard Layer 3 (Foreground)
//Storyboard Sound Samples

[TimingPoints]
1380,346.820809248555,4,1,0,70,1,0
12478,-100,4,1,0,80,0,0
34674,-100,4,1,0,90,0,1
45426,-100,4,1,0,90,0,0
45773,-100,4,1,0,90,0,1
56524,-100,4,1,0,90,0,0
56871,-100,4,1,0,80,0,1
67969,-100,4,1,0,80,0,0
69356,-100,4,1,0,80,0,1
79067,-100,4,1,0,70,0,0

[HitObjects]
256,192,1380,5,12,0:0:0:0:
256,192,1900,1,8,0:0:0:0:
256,192,2420,1,8,0:0:0:0:
256,192,2593,1,8,0:0:0:0:
256,192,2767,1,0,0:0:0:0:
256,192,3287,1,8,0:0:0:0:
256,192,3807,1,8,0:0:0:0:
256,192,3981,1,0,0:0:0:0:
256,192,4154,1,8,0:0:0:0:
256,192,4674,1,8,0:0:0:0:
256,192,5195,1,8,0:0:0:0:
256,192,5368,1,8,0:0:0:0:
256,192,5541,1,0,0:0:0:0:
256,192,6062,1,8,0:0:0:0:
256,192,6582,1,0,0:0:0:0:
256,192,6755,1,0,0:0:0:0:
256,192,6929,1,8,0:0:0:0:
256,192,7449,1,8,0:0:0:0:
256,192,7969,1,8,0:0:0:0:
256,192,8142,1,8,0:0:0:0:
256,192,8316,1,0,0:0:0:0:
256,192,8836,1,8,0:0:0:0:
256,192,9183,1,0,0:0:0:0:
256,192,9356,1,8,0:0:0:0:
256,192,9530,1,0,0:0:0:0:
256,192,9703,1,8,0:0:0:0:
256,192,10223,1,8,0:0:0:0:
256,192,10570,1,0,0:0:0:0:
256,192,10744,1,8,0:0:0:0:
256,192,10917,1,8,0:0:0:0:
256,192,11090,1,0,0:0:0:0:
256,192,11437,1,8,0:0:0:0:
256,192,11784,1,0,0:0:0:0:
256,192,12131,1,8,0:0:0:0:
256,192,12478,1,12,0:0:0:0:
256,192,13171,1,8,0:0:0:0:
256,192,13345,1,8,0:0:0:0:
256,192,13518,1,0,0:0:0:0:
256,192,13865,1,8,0:0:0:0:
256,192,14212,1,0,0:0:0:0:
256,192,14385,1,0,0:0:0:0:
256,192,14559,1,8,0:0:0:0:
256,192,14906,1,8,0:0:0:0:
256,192,15079,1,0,0:0:0:0:
256,192,15252,1,8,0:0:0:0:
256,192,15599,1,0,0:0:0:0:
256,192,15946,1,8,0:0:0:0:
256,192,16119,1,0,0:0:0:0:
256,192,16293,1,8,0:0:0:0:
256,192,16466,1,0,0:0:0:0:
256,192,16640,1,0,0:0:0:0:
256,192,16986,1,8,0:0:0:0:
256,192,17333,1,8,0:0:0:0:
256,192,17507,1,0,0:0:0:0:
256,192,17593,1,0,0:0:0:0:
256,192,17680,1,0,0:0:0:0:
256,192,17853,1,0,0:0:0:0:
256,192,18027,1,8,0:0:0:0:
256,192,18720,1,8,0:0:0:0:
256,192,18894,1,8,0:0:0:0:
256,192,19067,1,0,0:0:0:0:
256,192,19414,1,8,0:0:0:0:
256,192,19761,1,0,0:0:0:0:
256,192,19934,1,0,0:0:0:0:
256,192,20108,1,8,0:0:0:0:
256,192,20281,1,0,0:0:0:0:
256,192,20455,1,8,0:0:0:0:
256,192,20801,1,8,0:0:0:0:
256,192,21148,1,0,0:0:0:0:
256,192,21495,1,8,0:0:0:0:
256,192,21668,1,0,0:0:0:0:
256,192,21842,1,8,0:0:0:0:
256,192,22015,1,0,0:0:0:0:
256,192,22189,1,12,0:0:0:0:
256,192,22882,1,8,0:0:0:0:
256,192,23229,1,8,0:0:0:0:
256,192,23402,1,0,0:0:0:0:
256,192,23489,1,0,0:0:0:0:
256,192,23576,1,0,0:0:0:0:
256,192,24270,1,8,0:0:0:0:
256,192,24616,1,8,0:0:0:0:
256,192,24963,1,8,0:0:0:0:
256,192,25657,1,8,0:0:0:0:
256,192,26004,1,0,0:0:0:0:
256,192,26177,1,0,0:0:0:0:
256,192,26351,1,8,0:0:0:0:
256,192,26697,1,8,0:0:0:0:
256,192,27044,1,8,0:0:0:0:
256,192,27738,5,8,0:0:0:0:
256,192,28085,1,8,0:0:0:0:
256,192,28258,1,8,0:0:0:0:
256,192,28432,1,0,0:0:0:0:
256,192,28778,1,8,0:0:0:0:
256,192,29125,5,4,0:0:0:0:
256,192,29819,1,8,0:0:0:0:
256,192,30166,1,8,0:0:0:0:
256,192,30512,1,0,0:0:0:0:
256,192,30859,1,8,0:0:0:0:
256,192,31206,1,0,0:0:0:0:
256,192,31553,1,0,0:0:0:0:
256,192,31900,1,8,0:0:0:0:
256,192,32073,1,8,0:0:0:0:
256,192,32247,1,0,0:0:0:0:
256,192,32593,1,8,0:0:0:0:
256,192,32940,1,8,0:0:0:0:
256,192,33114,1,8,0:0:0:0:
256,192,33287,1,0,0:0:0:0:
256,192,33460,1,8,0:0:0:0:
256,192,33634,1,8,0:0:0:0:
256,192,33981,1,8,0:0:0:0:
256,192,34154,1,0,0:0:0:0:
256,192,34327,1,8,0:0:0:0:
256,192,34414,1,8,0:0:0:0:
256,192,34501,1,8,0:0:0:0:
256,192,34674,1,4,0:0:0:0:
256,192,35021,1,8,0:0:0:0:
256,192,35195,1,8,0:0:0:0:
256,192,35368,1,0,0:0:0:0:
256,192,35541,1,0,0:0:0:0:
256,192,35715,1,8,0:0:0:0:
256,192,36062,1,0,0:0:0:0:
256,192,36408,1,8,0:0:0:0:
256,192,36582,1,0,0:0:0:0:
256,192,36755,1,8,0:0:0:0:
256,192,36929,1,0,0:0:0:0:
256,192,37102,1,8,0:0:0:0:
256,192,37449,1,0,0:0:0:0:
256,192,37796,1,8,0:0:0:0:
256,192,37969,1,0,0:0:0:0:
256,192,38316,1,0,0:0:0:0:
256,192,38489,1,8,0:0:0:0:
256,192,38836,1,0,0:0:0:0:
256,192,39183,1,8,0:0:0:0:
256,192,39356,1,8,0:0:0:0:
256,192,39530,1,0,0:0:0:0:
256,192,39616,1,0,0:0:0:0:
256,192,39703,1,0,0:0:0:0:
256,192,39877,1,8,0:0:0:0:
256,192,40223,1,0,0:0:0:0:
256,192,40570,1,8,0:0:0:0:
256,192,40744,1,0,0:0:0:0:
256,192,40917,1,0,0:0:0:0:
256,192,41090,1,8,0:0:0:0:
256,192,41264,1,8,0:0:0:0:
256,192,41611,1,0,0:0:0:0:
256,192,41958,1,8,0:0:0:0:
256,192,42131,1,8,0:0:0:0:
256,192,42304,1,0,0:0:0:0:
256,192,42478,1,8,0:0:0:0:
256,192,42651,1,8,0:0:0:0:
256,192,42998,5,0,0:0:0:0:
256,192,43345,1,8,0:0:0:0:
256,192,43692,1,0,0:0:0:0:
256,192,44038,1,8,0:0:0:0:
256,192,44212,1,0,0:0:0:0:
256,192,44299,1,0,0:0:0:0:
256,192,44385,1,0,0:0:0:0:
256,192,44559,1,0,0:0:0:0:
256,192,44732,1,8,0:0:0:0:
256,192,45079,1,8,0:0:0:0:
256,192,45166,1,8,0:0:0:0:
256,192,45252,1,8,0:0:0:0:
256,192,45426,1,8,0:0:0:0:
256,192,45773,1,4,0:0:0:0:
256,192,46120,1,8,0:0:0:0:
256,192,46294,1,8,0:0:0:0:
256,192,46466,1,0,0:0:0:0:
256,192,46640,1,0,0:0:0:0:
256,192,46814,1,8,0:0:0:0:
256,192,47161,1,0,0:0:0:0:
256,192,47507,1,8,0:0:0:0:
256,192,47681,1,0,0:0:0:0:
256,192,47853,1,8,0:0:0:0:
256,192,48028,1,0,0:0:0:0:
256,192,48201,1,8,0:0:0:0:
256,192,48548,1,0,0:0:0:0:
256,192,48721,1,0,0:0:0:0:
256,192,48895,1,8,0:0:0:0:
256,192,49068,1,0,0:0:0:0:
256,192,49415,1,0,0:0:0:0:
256,192,49588,1,8,0:0:0:0:
256,192,49935,1,0,0:0:0:0:
256,192,50109,1,0,0:0:0:0:
256,192,50282,1,8,0:0:0:0:
256,192,50455,1,8,0:0:0:0:
256,192,50629,1,0,0:0:0:0:
256,192,50715,1,0,0:0:0:0:
256,192,50802,1,0,0:0:0:0:
256,192,50976,1,8,0:0:0:0:
256,192,51322,1,0,0:0:0:0:
256,192,51669,1,8,0:0:0:0:
256,192,51842,1,0,0:0:0:0:
256,192,52016,1,0,0:0:0:0:
256,192,52189,1,8,0:0:0:0:
256,192,52363,1,8,0:0:0:0:
256,192,52710,1,0,0:0:0:0:
256,192,53057,5,8,0:0:0:0:
256,192,53229,1,8,0:0:0:0:
256,192,53403,1,0,0:0:0:0:
256,192,53577,1,8,0:0:0:0:
256,192,53750,1,8,0:0:0:0:
256,192,54097,5,0,0:0:0:0:
256,192,54444,1,8,0:0:0:0:
256,192,54791,1,0,0:0:0:0:
256,192,55137,1,8,0:0:0:0:
256,192,55311,1,0,0:0:0:0:
256,192,55398,1,0,0:0:0:0:
256,192,55484,1,0,0:0:0:0:
256,192,55658,1,0,0:0:0:0:
256,192,55831,1,8,0:0:0:0:
256,192,56005,1,0,0:0:0:0:
256,192,56177,1,8,0:0:0:0:
256,192,56264,1,8,0:0:0:0:
256,192,56351,1,8,0:0:0:0:
256,192,56524,1,8,0:0:0:0:
256,192,56871,5,4,0:0:0:0:
256,192,57391,1,0,0:0:0:0:
256,192,57738,1,0,0:0:0:0:
256,192,57911,1,8,0:0:0:0:
256,192,58085,1,0,0:0:0:0:
256,192,58258,1,0,0:0:0:0:
256,192,58605,1,8,0:0:0:0:
256,192,58778,1,0,0:0:0:0:
256,192,59125,1,0,0:0:0:0:
256,192,59298,1,8,0:0:0:0:
256,192,59472,1,0,0:0:0:0:
256,192,59645,1,8,0:0:0:0:
256,192,59992,1,8,0:0:0:0:
256,192,60165,1,0,0:0:0:0:
256,192,60512,1,0,0:0:0:0:
256,192,60686,1,8,0:0:0:0:
256,192,60859,1,8,0:0:0:0:
256,192,61033,1,0,0:0:0:0:
256,192,61379,1,8,0:0:0:0:
256,192,61553,1,0,0:0:0:0:
256,192,61640,1,0,0:0:0:0:
256,192,61726,1,0,0:0:0:0:
256,192,61900,1,0,0:0:0:0:
256,192,62073,1,8,0:0:0:0:
256,192,62247,1,8,0:0:0:0:
256,192,62420,1,0,0:0:0:0:
256,192,62767,1,8,0:0:0:0:
256,192,62940,1,0,0:0:0:0:
256,192,63287,1,0,0:0:0:0:
256,192,63460,1,8,0:0:0:0:
256,192,63634,1,8,0:0:0:0:
256,192,63807,1,0,0:0:0:0:
256,192,64154,1,8,0:0:0:0:
256,192,64327,1,0,0:0:0:0:
256,192,64674,1,0,0:0:0:0:
256,192,64847,1,8,0:0:0:0:
256,192,65021,1,8,0:0:0:0:
256,192,65195,1,0,0:0:0:0:
256,192,65368,1,0,0:0:0:0:
256,192,65541,1,8,0:0:0:0:
256,192,65714,1,0,0:0:0:0:
256,192,66061,1,0,0:0:0:0:
256,192,66235,1,8,0:0:0:0:
256,192,66408,1,0,0:0:0:0:
256,192,66495,1,0,0:0:0:0:
256,192,66581,1,0,0:0:0:0:
256,192,66929,1,8,0:0:0:0:
256,192,67275,1,0,0:0:0:0:
256,192,67622,1,8,0:0:0:0:
256,192,67969,1,0,0:0:0:0:
256,192,68143,1,8,0:0:0:0:
256,192,68316,1,8,0:0:0:0:
256,192,68663,1,0,0:0:0:0:
256,192,68836,1,0,0:0:0:0:
256,192,69010,1,8,0:0:0:0:
256,192,69183,1,0,0:0:0:0:
256,192,69270,1,0,0:0:0:0:
256,192,69356,1,0,0:0:0:0:
256,192,69877,1,0,0:0:0:0:
256,192,70223,1,0,0:0:0:0:
256,192,70397,1,8,0:0:0:0:
256,192,70571,1,0,0:0:0:0:
256,192,70744,1,8,0:0:0:0:
256,192,71091,1,8,0:0:0:0:
256,192,71264,1,0,0:0:0:0:
256,192,71611,1,0,0:0:0:0:
256,192,71785,1,8,0:0:0:0:
256,192,71958,1,8,0:0:0:0:
256,192,72132,1,0,0:0:0:0:
256,192,72478,1,8,0:0:0:0:
256,192,72652,1,0,0:0:0:0:
256,192,72739,1,0,0:0:0:0:
256,192,72825,1,0,0:0:0:0:
256,192,72998,1,0,0:0:0:0:
256,192,73172,1,8,0:0:0:0:
256,192,73346,1,8,0:0:0:0:
256,192,73519,1,0,0:0:0:0:
256,192,73865,1,8,0:0:0:0:
256,192,74038,1,0,0:0:0:0:
256,192,74385,1,0,0:0:0:0:
256,192,74558,1,8,0:0:0:0:
256,192,74732,1,8,0:0:0:0:
256,192,74906,1,0,0:0:0:0:
256,192,75252,1,8,0:0:0:0:
256,192,75425,1,0,0:0:0:0:
256,192,75772,1,0,0:0:0:0:
256,192,75945,1,8,0:0:0:0:
256,192,76119,1,8,0:0:0:0:
256,192,76293,5,0,0:0:0:0:
256,192,76466,1,0,0:0:0:0:
256,192,76640,1,8,0:0:0:0:
256,192,76813,1,0,0:0:0:0:
256,192,77160,1,0,0:0:0:0:
256,192,77333,1,8,0:0:0:0:
256,192,77507,1,0,0:0:0:0:
256,192,77680,5,8,0:0:0:0:
256,192,78027,1,8,0:0:0:0:
256,192,78374,1,0,0:0:0:0:
256,192,78720,1,0,0:0:0:0:
256,192,79067,5,12,0:0:0:0:
256,192,79587,1,8,0:0:0:0:
256,192,80107,1,8,0:0:0:0:
256,192,80280,1,8,0:0:0:0:
256,192,80454,1,8,0:0:0:0:
256,192,80974,1,8,0:0:0:0:
256,192,81494,1,8,0:0:0:0:
256,192,81668,1,0,0:0:0:0:
256,192,81841,1,8,0:0:0:0:
256,192,82361,1,8,0:0:0:0:
256,192,82882,1,0,0:0:0:0:
256,192,83055,1,0,0:0:0:0:
256,192,83228,1,8,0:0:0:0:
256,192,83749,1,8,0:0:0:0:
256,192,84096,1,8,0:0:0:0:
256,192,84269,1,8,0:0:0:0:
256,192,84443,1,0,0:0:0:0:
256,192,84616,1,8,0:0:0:0:
256,192,85136,1,8,0:0:0:0:
256,192,85656,1,8,0:0:0:0:
256,192,85829,1,8,0:0:0:0:
256,192,86003,1,8,0:0:0:0:
256,192,86523,1,8,0:0:0:0:
256,192,87043,1,8,0:0:0:0:
256,192,87217,1,0,0:0:0:0:
256,192,87390,1,8,0:0:0:0:
256,192,87910,5,8,0:0:0:0:
256,192,88431,1,0,0:0:0:0:
256,192,88604,1,0,0:0:0:0:
256,192,88778,1,8,0:0:0:0:
256,192,88952,12,0,90166,0:0:0:0:
