osu file format v14

[General]
AudioFilename: audio.mp3
AudioLeadIn: 0
PreviewTime: 34154
Countdown: 0
SampleSet: Normal
StackLeniency: 0.7
Mode: 1
LetterboxInBreaks: 0
WidescreenStoryboard: 0

[Editor]
Bookmarks: -7,12478,23576,34674,45773,56871,69356,79067,90166
DistanceSpacing: 0.8
BeatDivisor: 2
GridSize: 32
TimelineZoom: 0.8

[Metadata]
Title:Kizuato
TitleUnicode:キズアト
Artist:a*ru
ArtistUnicode:a☆ru
Creator:-Sh1n1-
Version:Volta's Futsuu
Source:東方妖々夢 ~ Perfect Cherry Blossom.
Tags:ALiCE'S EMOTiON th7 touhou youyomu ayumi nomiya redalice scar ブクレシュティの人形師 the doll maker of bucuresti overdrive Alice Margatroid アリス・マーガトロイド pcb c83 comiket83 shini Volta Flying_Pan
BeatmapID:1430212
BeatmapSetID:674738

[Difficulty]
HPDrainRate:7
CircleSize:2
OverallDifficulty:4
ApproachRate:0
SliderMultiplier:1.4
SliderTickRate:1

[Events]
//Background and Video events
0,0,"AliceBG.jpg",0,100
//Break Periods
//Storyboard Layer 0 (Background)
//Storyboard Layer 1 (Fail)
//Storyboard Layer 2 (Pass)
//Storyboard Layer 3 (Foreground)
//Storyboard Sound Samples

[TimingPoints]
1380,346.820809248555,4,1,0,70,1,0
12478,-100,4,1,0,80,0,0
34674,-100,4,1,0,90,0,1
45426,-100,4,1,0,90,0,0
45773,-100,4,1,0,90,0,1
56524,-100,4,1,0,90,0,0
56871,-100,4,1,0,80,0,1
67969,-100,4,1,0,80,0,0
69356,-100,4,1,0,80,0,1
79067,-100,4,1,0,70,0,0

[HitObjects]
288,192,1380,5,12,0:0:0:0:
224,64,2420,1,0,0:0:0:0:
128,128,2767,1,2,0:0:0:0:
288,64,3460,1,2,0:0:0:0:
177,148,3807,1,2,0:0:0:0:
288,192,4154,1,8,0:0:0:0:
256,128,5195,1,8,0:0:0:0:
288,192,5541,1,0,0:0:0:0:
320,96,6235,1,0,0:0:0:0:
161,122,6582,1,8,0:0:0:0:
160,96,6929,1,2,0:0:0:0:
288,128,7969,1,0,0:0:0:0:
64,64,8316,1,8,0:0:0:0:
224,96,9010,1,8,0:0:0:0:
180,115,9356,1,8,0:0:0:0:
160,96,9703,1,2,0:0:0:0:
160,128,10744,1,2,0:0:0:0:
96,64,11090,1,0,0:0:0:0:
192,128,11784,1,8,0:0:0:0:
96,64,12478,1,4,0:0:0:0:
96,64,13171,1,8,0:0:0:0:
192,128,13518,1,2,0:0:0:0:
195,102,13865,1,0,0:0:0:0:
96,128,14212,1,0,0:0:0:0:
96,64,14559,1,8,0:0:0:0:
160,128,15252,1,0,0:0:0:0:
32,128,15946,1,8,0:0:0:0:
224,128,16293,1,2,0:0:0:0:
256,96,16466,1,0,0:0:0:0:
256,96,16640,1,0,0:0:0:0:
192,160,16986,1,0,0:0:0:0:
192,128,17333,1,2,0:0:0:0:
192,96,17680,1,0,0:0:0:0:
128,160,18027,1,0,0:0:0:0:
128,160,18721,1,8,0:0:0:0:
224,96,19414,1,0,0:0:0:0:
160,96,19761,1,0,0:0:0:0:
128,192,20108,1,8,0:0:0:0:
224,160,20455,1,2,0:0:0:0:
128,192,20801,1,0,0:0:0:0:
128,192,21495,1,8,0:0:0:0:
320,160,21842,1,0,0:0:0:0:
192,128,22015,1,0,0:0:0:0:
320,160,22189,1,12,0:0:0:0:
320,96,22882,1,8,0:0:0:0:
224,96,23229,1,8,0:0:0:0:
224,96,23403,1,8,0:0:0:0:
320,128,23576,1,2,0:0:0:0:
320,96,24616,1,2,0:0:0:0:
128,128,24963,1,2,0:0:0:0:
192,128,25657,1,2,0:0:0:0:
320,96,26004,1,2,0:0:0:0:
320,128,26351,1,8,0:0:0:0:
320,96,27391,1,8,0:0:0:0:
288,128,27738,1,8,0:0:0:0:
96,128,28432,1,8,0:0:0:0:
320,96,28778,1,2,0:0:0:0:
224,256,29125,1,4,0:0:0:0:
224,160,29819,1,0,0:0:0:0:
192,128,30166,1,0,0:0:0:0:
160,128,30339,1,8,0:0:0:0:
256,160,30512,1,0,0:0:0:0:
128,128,30859,1,0,0:0:0:0:
128,128,31206,1,0,0:0:0:0:
320,96,31553,1,0,0:0:0:0:
128,128,31900,1,8,0:0:0:0:
128,160,32593,1,0,0:0:0:0:
64,128,32940,1,8,0:0:0:0:
64,128,33114,1,8,0:0:0:0:
160,160,33460,1,8,0:0:0:0:
64,128,33634,1,0,0:0:0:0:
96,160,33981,1,2,0:0:0:0:
256,160,34674,1,4,0:0:0:0:
256,160,35021,1,8,0:0:0:0:
224,160,35541,1,0,0:0:0:0:
160,160,35715,1,2,0:0:0:0:
160,160,36062,1,0,0:0:0:0:
192,160,36408,1,8,0:0:0:0:
224,128,36929,1,0,0:0:0:0:
96,128,37102,1,2,0:0:0:0:
192,160,37449,1,0,0:0:0:0:
224,128,37796,1,8,0:0:0:0:
192,160,38143,1,2,0:0:0:0:
192,128,38316,1,0,0:0:0:0:
192,128,38489,1,8,0:0:0:0:
160,160,38836,1,0,0:0:0:0:
160,160,39183,1,8,0:0:0:0:
160,160,39530,1,2,0:0:0:0:
128,96,40223,1,0,0:0:0:0:
256,160,40570,1,8,0:0:0:0:
128,96,40917,1,0,0:0:0:0:
192,128,41090,1,0,0:0:0:0:
192,128,41264,1,2,0:0:0:0:
128,96,41611,1,0,0:0:0:0:
128,96,41958,1,8,0:0:0:0:
192,128,42131,1,0,0:0:0:0:
128,96,42304,1,8,0:0:0:0:
192,128,42651,1,2,0:0:0:0:
128,96,42998,1,0,0:0:0:0:
256,128,43692,1,0,0:0:0:0:
192,128,44038,1,8,0:0:0:0:
192,128,44212,1,8,0:0:0:0:
96,160,44385,5,8,0:0:0:0:
160,64,44732,1,8,0:0:0:0:
128,128,45079,1,2,0:0:0:0:
96,160,45773,1,4,0:0:0:0:
288,160,46119,5,8,0:0:0:0:
160,160,46640,1,0,0:0:0:0:
96,160,46813,1,2,0:0:0:0:
96,160,47160,1,0,0:0:0:0:
96,160,47507,1,8,0:0:0:0:
160,128,48027,1,0,0:0:0:0:
96,160,48200,1,2,0:0:0:0:
96,160,48547,1,0,0:0:0:0:
224,96,48894,1,8,0:0:0:0:
224,96,49067,1,0,0:0:0:0:
160,128,49241,1,2,0:0:0:0:
224,96,49588,1,8,0:0:0:0:
160,128,49934,1,0,0:0:0:0:
160,128,50281,1,8,0:0:0:0:
160,128,50628,1,2,0:0:0:0:
160,128,51322,1,0,0:0:0:0:
96,160,51669,1,8,0:0:0:0:
160,128,52015,1,0,0:0:0:0:
160,128,52189,1,0,0:0:0:0:
192,128,52362,1,2,0:0:0:0:
160,128,52709,1,0,0:0:0:0:
160,128,53056,1,0,0:0:0:0:
192,128,53229,1,8,0:0:0:0:
160,128,53403,1,0,0:0:0:0:
128,128,53749,1,8,0:0:0:0:
160,128,54096,1,2,0:0:0:0:
160,160,54790,1,2,0:0:0:0:
160,160,55137,1,2,0:0:0:0:
96,160,55310,1,2,0:0:0:0:
128,160,55484,1,0,0:0:0:0:
192,128,55830,1,8,0:0:0:0:
192,128,56524,1,0,0:0:0:0:
192,128,56871,1,4,0:0:0:0:
128,160,57218,1,8,0:0:0:0:
224,96,57738,1,0,0:0:0:0:
128,128,57911,1,2,0:0:0:0:
128,128,58258,1,0,0:0:0:0:
224,96,58605,1,8,0:0:0:0:
160,128,59299,1,2,0:0:0:0:
128,128,59645,1,0,0:0:0:0:
160,128,59992,1,8,0:0:0:0:
128,128,60339,1,8,0:0:0:0:
160,128,60512,1,0,0:0:0:0:
128,128,60686,1,2,0:0:0:0:
128,128,61033,1,0,0:0:0:0:
32,160,61726,1,0,0:0:0:0:
160,128,62073,1,2,0:0:0:0:
192,160,62247,1,8,0:0:0:0:
128,160,62420,1,0,0:0:0:0:
96,128,62767,1,8,0:0:0:0:
160,128,63287,1,0,0:0:0:0:
192,128,63460,1,2,0:0:0:0:
192,128,63807,1,0,0:0:0:0:
96,128,64154,1,8,0:0:0:0:
256,256,64848,1,2,0:0:0:0:
192,128,65195,1,0,0:0:0:0:
160,96,65541,1,8,0:0:0:0:
192,128,65888,1,2,0:0:0:0:
288,128,66062,1,0,0:0:0:0:
192,128,66235,1,8,0:0:0:0:
192,128,66582,1,2,0:0:0:0:
160,96,66929,1,2,0:0:0:0:
160,128,67275,1,2,0:0:0:0:
160,128,67622,1,2,0:0:0:0:
128,256,67969,2,0,L|544:128,1,420
64,128,69356,1,6,0:0:0:0:
128,160,69703,1,8,0:0:0:0:
128,128,70396,1,2,0:0:0:0:
128,128,70743,1,0,0:0:0:0:
224,96,71090,1,8,0:0:0:0:
128,160,71437,1,8,0:0:0:0:
128,160,71611,1,0,0:0:0:0:
160,128,71784,1,2,0:0:0:0:
128,128,72130,1,0,0:0:0:0:
128,128,72824,1,0,0:0:0:0:
128,128,73171,1,2,0:0:0:0:
288,192,73345,1,8,0:0:0:0:
128,128,73518,1,0,0:0:0:0:
224,128,73865,1,8,0:0:0:0:
160,128,74385,1,0,0:0:0:0:
160,128,74559,1,2,0:0:0:0:
192,128,74906,1,0,0:0:0:0:
192,128,75252,1,8,0:0:0:0:
320,128,75946,1,2,0:0:0:0:
320,128,76293,1,0,0:0:0:0:
64,128,76640,1,0,0:0:0:0:
96,160,76813,1,8,0:0:0:0:
96,160,76986,1,0,0:0:0:0:
96,128,77333,1,8,0:0:0:0:
128,128,77680,1,2,0:0:0:0:
128,128,78027,1,2,0:0:0:0:
256,192,78374,1,0,0:0:0:0:
128,128,78547,1,2,0:0:0:0:
192,128,79067,1,4,0:0:0:0:
32,160,80108,1,0,0:0:0:0:
224,96,80455,1,0,0:0:0:0:
288,96,81148,1,0,0:0:0:0:
32,160,81495,1,0,0:0:0:0:
224,96,81842,1,0,0:0:0:0:
32,160,82882,1,0,0:0:0:0:
224,96,83229,1,0,0:0:0:0:
160,128,83923,1,0,0:0:0:0:
32,160,84270,1,0,0:0:0:0:
224,96,84616,1,2,0:0:0:0:
160,128,85657,1,8,0:0:0:0:
224,96,86004,1,8,0:0:0:0:
224,96,86697,1,8,0:0:0:0:
160,128,87044,1,8,0:0:0:0:
224,96,87391,1,2,0:0:0:0:
160,128,88432,1,2,0:0:0:0:
192,96,88778,1,8,0:0:0:0:
256,192,88952,12,0,90166,0:0:0:0:
