osu file format v14

[General]
AudioFilename: audio.mp3
AudioLeadIn: 0
PreviewTime: 77941
Countdown: 0
SampleSet: Soft
StackLeniency: 0.7
Mode: 0
LetterboxInBreaks: 0
WidescreenStoryboard: 0

[Editor]
Bookmarks: 25919,38685,51451,115280,128046,140812,153578,167941,182302,195067,206239,225388,242941,255707
DistanceSpacing: 1.4
BeatDivisor: 4
GridSize: 4
TimelineZoom: 2

[Metadata]
Title:Blending Point
TitleUnicode:交錯点
Artist:arcane
ArtistUnicode:arcane
Creator:Bellicose
Version:Hard
Source:
Tags:adinda blendingpoint まにょっ kousakuten aurora LIZ Saka Tomotaka manyo japanese pop jpop
BeatmapID:3117062
BeatmapSetID:1520696

[Difficulty]
HPDrainRate:5
CircleSize:3.8
OverallDifficulty:6
ApproachRate:8
SliderMultiplier:1.5
SliderTickRate:1

[Events]
//Background and Video events
0,0,"85215852_p0.png",0,0
//Break Periods
2,141013,152829
//Storyboard Layer 0 (Background)
//Storyboard Layer 1 (Fail)
//Storyboard Layer 2 (Pass)
//Storyboard Layer 3 (Foreground)
//Storyboard Layer 4 (Overlay)
//Storyboard Sound Samples

[TimingPoints]
388,319.148936170213,5,2,1,35,1,0
388,-125,5,2,1,35,0,0
26239,-125,5,2,1,40,0,0
38685,-111.111111111111,5,2,1,50,0,0
51451,-111.111111111111,5,2,1,50,0,0
51770,-111.111111111111,5,2,1,50,0,0
64217,-125,5,2,1,40,0,0
78579,-100,4,2,2,60,0,1
97090,-100,4,2,2,60,0,1
97329,-100,4,2,2,5,0,1
97409,-100,4,2,2,60,0,1
97728,-142.857142857143,4,2,1,50,0,0
98366,-142.857142857143,4,2,1,40,0,0
102515,-125,4,2,1,40,0,0
115280,-111.111111111111,4,2,1,50,0,0
128047,-111.111111111111,4,2,1,50,0,0
128366,-111.111111111111,4,2,1,50,0,0
153579,-125,4,2,2,45,0,0
159962,-125,4,2,2,50,0,0
167941,-142.857142857143,4,2,1,35,0,0
180707,-125,4,2,1,25,0,0
182302,-125,4,2,1,40,0,0
194749,-125,4,2,1,50,0,0
195068,-100,4,2,2,60,0,1
201132,-100,4,2,2,60,0,1
201372,-100,4,2,2,5,0,1
201451,-125,4,2,1,50,0,0
202090,-125,4,2,1,40,0,0
204643,-111.111111111111,4,2,2,50,0,0
205919,-100,4,2,2,60,0,0
206239,-100,4,2,2,60,0,1
211983,-100,4,2,2,60,0,1
212622,-100,4,2,2,60,0,1
218685,-100,4,2,2,60,0,1
218845,-100,4,2,2,60,0,1
219005,-100,4,2,2,60,0,1
225388,-142.857142857143,4,2,1,50,0,0
226026,-142.857142857143,4,2,1,40,0,0
230175,-125,4,2,1,35,0,0
236558,-125,4,2,1,40,0,0
242622,-125,4,2,1,50,0,0
242941,-111.111111111111,4,2,1,50,0,0
253153,-111.111111111111,4,2,1,40,0,0
254111,-111.111111111111,4,2,1,35,0,0
255388,-111.111111111111,4,2,1,30,0,0

[Colours]
Combo1 : 226,143,243
Combo2 : 139,222,254
Combo3 : 253,206,240
Combo4 : 150,166,254

[HitObjects]
51,132,388,6,0,P|90:162|164:155,1,120,2|0,0:0|0:0,0:0:0:0:
220,213,866,2,0,P|306:195|354:192,1,120,2|0,0:0|0:0,0:0:0:0:
410,149,1345,2,0,P|425:64|441:19,2,120,2|2|2,0:0|0:0|0:0,0:0:0:0:
506,292,2302,1,0,0:0:0:0:
506,292,2462,2,0,B|440:278|459:331|386:328,1,120,2|0,0:0|0:0,0:0:0:0:
324,371,2941,2,0,P|354:321|332:257,1,120,2|2,0:0|0:0,0:0:0:0:
249,122,3579,5,2,0:0:0:0:
95,190,3898,1,2,0:0:0:0:
95,190,4058,1,0,0:0:0:0:
190,328,4377,2,0,P|113:313|65:307,1,120,2|2,0:0|0:0,0:0:0:0:
20,241,4856,2,0,P|-1:184|37:119,1,120,0|2,0:0|0:0,0:0:0:0:
141,15,5494,6,0,P|120:88|110:144,1,120,2|0,0:0|0:0,0:0:0:0:
146,208,5973,1,2,0:0:0:0:
274,99,6292,1,2,0:0:0:0:
274,99,6451,2,0,B|305:135|305:135|302:170|258:222,1,120,2|2,0:0|0:0,0:0:0:0:
218,262,6930,6,0,P|234:318|236:345,1,60,2|0,0:0|0:0,0:0:0:0:
307,370,7249,1,2,0:0:0:0:
307,370,7409,2,0,B|349:340|349:340|395:352|432:375,1,120,2|2,0:0|0:0,0:0:0:0:
493,339,7888,1,0,0:0:0:0:
512,174,8207,2,0,P|471:211|405:199,1,120,2|0,0:0|0:0,0:0:0:0:
347,257,8685,1,0,0:0:0:0:
347,257,8845,2,0,P|279:242|213:236,1,120,2|0,0:0|0:0,0:0:0:0:
184,164,9324,2,0,B|176:101|230:118|222:48,1,120,2|2,0:0|0:0,0:0:0:0:
383,8,9962,6,0,P|414:17|452:17,1,60,2|2,0:0|0:0,0:0:0:0:
486,15,10201,1,2,0:0:0:0:
486,15,10281,2,0,P|501:76|465:116,1,120,2|2,0:0|0:0,0:0:0:0:
397,163,10760,2,0,P|414:248|416:307,2,120,2|0|2,0:0|0:0|0:0,0:0:0:0:
342,321,11717,2,0,P|257:304|198:302,1,120,2|0,0:0|0:0,0:0:0:0:
170,236,12196,2,0,P|123:228|62:289,1,120,2|2,0:0|0:0,0:0:0:0:
212,360,12834,2,0,P|218:317|230:285,1,60,2|0,0:0|0:0,0:0:0:0:
296,246,13153,6,0,B|324:218|324:218|336:175|291:142,1,120,2|0,0:0|0:0,0:0:0:0:
249,78,13632,2,0,P|206:72|174:60,1,60,2|2,0:0|0:0,0:0:0:0:
213,164,13951,2,0,P|142:175|90:191,1,120,2|0,0:0|0:0,0:0:0:0:
20,151,14430,1,2,0:0:0:0:
6,318,14749,6,0,P|73:309|115:364,1,120,2|0,0:0|0:0,0:0:0:0:
191,355,15228,2,0,P|258:364|300:309,1,120,2|0,0:0|0:0,0:0:0:0:
327,253,15707,2,0,P|337:201|344:183,1,60,2|2,0:0|0:0,0:0:0:0:
175,229,16185,2,0,P|194:144|201:97,1,120,2|0,0:0|0:0,0:0:0:0:
149,43,16664,1,2,0:0:0:0:
149,43,16824,2,0,P|100:79|39:67,2,120,2|0|2,0:0|0:0|0:0,0:0:0:0:
199,111,17622,1,0,0:0:0:0:
345,28,17941,5,2,0:0:0:0:
258,171,18260,2,0,P|270:232|274:308,1,120,2|0,0:0|0:0,0:0:0:0:
324,356,18739,2,0,B|387:328|384:395|452:361,1,120,2|2,0:0|0:0,0:0:0:0:
506,318,19217,1,2,0:0:0:0:
493,150,19536,6,0,P|455:176|457:254,1,120,2|0,0:0|0:0,0:0:0:0:
360,190,20015,2,0,P|283:203|237:217,1,120,2|0,0:0|0:0,0:0:0:0:
205,290,20494,2,0,P|139:304|90:254,1,120,2|2,0:0|0:0,0:0:0:0:
6,135,21132,6,0,B|22:99|-8:74|-8:74|3:44|38:19,1,120,2|0,0:0|0:0,0:0:0:0:
100,1,21611,2,0,P|177:14|223:28,1,120,2|0,0:0|0:0,0:0:0:0:
280,81,22090,1,2,0:0:0:0:
154,192,22409,1,2,0:0:0:0:
154,192,22568,2,0,P|170:261|174:324,2,120,2|0|2,0:0|0:0|0:0,0:0:0:0:
210,129,23366,2,0,P|279:92|338:115,1,120,2|0,0:0|0:0,0:0:0:0:
399,111,23845,2,0,P|436:42|413:-17,1,120,2|2,0:0|0:0,0:0:0:0:
487,161,24483,6,0,P|492:220|506:278,1,120,2|0,0:0|0:0,0:0:0:0:
469,354,24962,1,2,0:0:0:0:
341,244,25281,1,2,0:0:0:0:
244,381,25600,2,0,P|295:366|322:365,1,60,2|0,0:0|0:0,0:0:0:0:
170,327,25919,6,0,P|147:277|198:219,1,120,2|2,0:0|0:0,0:0:0:0:
258,192,26398,1,2,0:0:0:0:
258,192,26558,2,0,P|246:103|244:48,1,120,2|2,0:0|0:0,0:0:0:0:
181,17,27036,1,2,0:0:0:0:
181,17,27196,1,2,0:0:0:0:
18,60,27515,6,0,B|39:92|77:95|77:95|104:66|138:75,1,120,2|0,0:0|0:0,0:0:0:0:
145,158,27994,2,0,P|134:198|129:225,1,60,2|0,0:0|0:0,0:0:0:0:
63,265,28313,1,2,0:0:0:0:
63,265,28473,2,0,P|33:271|4:279,1,60,2|2,0:0|0:0,0:0:0:0:
107,340,28792,1,0,0:0:0:0:
107,340,28951,2,0,P|145:369|223:356,1,120,2|2,0:0|0:0,0:0:0:0:
288,322,29430,2,0,P|325:309|354:319,1,60,0|2,0:0|0:0,0:0:0:0:
221,263,29749,6,0,P|238:177|245:123,1,120,2|0,0:0|0:0,0:0:0:0:
177,91,30228,2,0,P|140:104|111:94,1,60,2|2,0:0|0:0,0:0:0:0:
235,27,30547,1,0,0:0:0:0:
235,27,30707,2,0,B|296:8|286:67|358:43,1,120,2|2,0:0|0:0,0:0:0:0:
510,1,31345,1,0,0:0:0:0:
510,1,31505,2,0,P|493:54|487:81,1,60,2|0,0:0|0:0,0:0:0:0:
431,115,31824,1,2,0:0:0:0:
431,115,31984,2,0,P|448:168|454:195,1,60,2|0,0:0|0:0,0:0:0:0:
488,246,32302,6,0,P|439:211|368:220,1,120,2|2,0:0|0:0,0:0:0:0:
328,279,32781,1,2,0:0:0:0:
328,279,32941,2,0,P|279:314|208:305,1,120,2|2,0:0|0:0,0:0:0:0:
159,254,33419,1,2,0:0:0:0:
159,254,33579,1,2,0:0:0:0:
285,143,33898,5,2,0:0:0:0:
285,143,34058,2,0,P|270:94|267:67,1,60,2|0,0:0|0:0,0:0:0:0:
221,15,34377,2,0,P|191:8|163:-1,1,60,2|0,0:0|0:0,0:0:0:0:
116,68,34696,2,0,B|52:65|75:109|-3:112,2,120,2|2|2,0:0|0:0|0:0,0:0:0:0:
174,128,35494,2,0,P|182:176|115:224,1,120,2|2,0:0|0:0,0:0:0:0:
54,220,35973,1,2,0:0:0:0:
54,220,36132,2,0,B|15:242|15:242|9:298|42:323,1,120
92,371,36611,2,0,P|166:355|221:349,2,120,2|2|2,0:0|0:0|0:0,0:0:0:0:
233,263,37568,5,0,0:0:0:0:
233,263,37728,2,0,P|244:211|253:183,1,60,2|2,0:0|0:0,0:0:0:0:
186,144,38047,2,0,P|254:151|290:109,1,120,2|0,0:3|0:0,0:0:0:0:
371,45,38526,1,2,0:0:0:0:
371,45,38606,1,2,0:0:0:0:
371,45,38685,6,0,P|382:123|403:206,1,134.999995880127,6|0,1:1|1:0,0:0:0:0:
478,222,39164,1,2,0:0:0:0:
465,315,39324,2,0,P|408:310|358:382,1,134.999995880127,0|2,1:0|1:2,0:0:0:0:
171,383,39962,2,0,B|147:342|140:301|140:301|164:286|185:260,1,134.999995880127,2|2,1:2|1:2,0:0:0:0:
273,307,40441,1,2,0:3:0:0:
273,307,40520,1,2,0:3:0:0:
273,307,40600,1,2,1:3:0:0:
335,236,40760,2,0,P|323:178|312:97,1,134.999995880127,2|0,0:0|0:0,0:0:0:0:
255,27,41239,2,0,B|211:54|211:54|171:26|171:26|116:32,1,134.999995880127,2|2,1:2|1:2,0:0:0:0:
10,170,41877,5,2,1:2:0:0:
10,170,42036,2,0,B|47:173|68:189|68:189|111:164|114:117,1,134.999995880127,2|0,0:0|0:0,0:0:0:0:
197,182,42515,2,0,P|276:160|335:155,1,134.999995880127,2|0,1:3|1:0,0:0:0:0:
411,106,42994,1,2,0:3:0:0:
411,106,43153,2,0,P|369:158|386:234,1,134.999995880127,0|2,1:0|1:3,0:0:0:0:
477,383,43792,2,0,P|519:331|502:255,1,134.999995880127,2|0,1:2|1:0,0:0:0:0:
464,184,44270,2,0,P|493:176|521:164,2,33.7499989700318,2|2|2,0:3|0:3|1:3,0:0:0:0:
377,221,44590,1,2,0:0:0:0:
296,172,44749,2,0,P|309:86|324:30,1,134.999995880127,2|2,1:2|1:2,0:0:0:0:
233,2,45228,6,0,P|189:9|148:19,1,67.4999979400635,2|0,0:0|1:0,0:0:0:0:
211,112,45547,2,0,P|152:156|74:131,1,134.999995880127,2|2,0:0|0:0,0:0:0:0:
19,199,46026,1,2,1:3:0:0:
103,375,46345,2,0,P|119:320|134:291,1,67.4999979400635,2|0,1:2|0:0,0:0:0:0:
39,263,46664,2,0,P|23:208|8:179,1,67.4999979400635,2|0,1:2|0:0,0:0:0:0:
78,124,46983,1,2,1:3:0:0:
21,48,47143,2,0,B|47:67|71:85|71:85|117:63|164:59,1,134.999995880127,2|2,0:0|0:3,0:0:0:0:
223,17,47622,2,0,B|235:55|262:72|262:72|249:121|193:126,1,134.999995880127,2|2,1:2|1:2,0:0:0:0:
163,195,48100,1,0,0:0:0:0:
163,195,48260,5,2,1:2:0:0:
220,374,48579,2,0,P|290:321|338:339,1,134.999995880127,2|2,1:2|1:2,0:0:0:0:
421,380,49058,1,2,0:3:0:0:
421,380,49138,1,2,0:3:0:0:
421,380,49217,1,2,1:3:0:0:
489,314,49377,2,0,P|468:231|463:179,1,134.999995880127,2|2,0:3|0:0,0:0:0:0:
381,134,49856,5,0,1:0:0:0:
314,200,50015,2,0,P|261:187|221:187,1,67.4999979400635,2|0,0:0|1:0,0:0:0:0:
165,140,50334,2,0,P|150:107|170:65,1,67.4999979400635,2|2,0:0|1:3,0:0:0:0:
221,8,50653,2,0,B|296:-10|278:55|361:36,1,134.999995880127,2|2,0:0|0:0,0:0:0:0:
438,12,51132,1,2,1:3:0:0:
503,94,51292,1,2,0:0:0:0:
503,94,51372,1,2,0:0:0:0:
503,94,51451,6,0,B|478:134|478:134|499:172|499:172|464:228,1,134.999995880127,2|2,1:0|1:2,0:0:0:0:
392,163,51930,1,2,0:0:0:0:
308,207,52090,2,0,P|239:222|160:247,1,134.999995880127,2|2,1:2|1:2,0:0:0:0:
122,316,52568,1,2,0:0:0:0:
191,380,52728,2,0,P|260:365|339:340,1,134.999995880127,2|2,1:2|1:2,0:0:0:0:
424,372,53207,6,0,P|440:315|454:286,1,67.4999979400635,2|0,0:0|1:0,0:0:0:0:
507,237,53526,2,0,P|492:217|502:166,1,67.4999979400635,2|0,0:0|1:0,0:0:0:0:
414,125,53845,1,2,0:0:0:0:
466,46,54005,2,0,B|441:69|400:86|400:86|370:63|331:46,1,134.999995880127,2|2,1:2|1:3,0:0:0:0:
273,108,54483,1,2,0:3:0:0:
184,73,54643,2,0,P|197:19|200:-9,1,67.4999979400635,2|2,1:2|0:3,0:0:0:0:
273,108,54962,6,0,P|260:162|257:190,1,67.4999979400635,2|2,1:3|0:0,0:0:0:0:
228,266,55281,1,2,1:2:0:0:
228,266,55441,2,0,B|159:251|177:315|80:291,1,134.999995880127,0|2,0:0|0:0,0:0:0:0:
19,247,55919,1,0,1:0:0:0:
44,155,56079,1,2,0:3:0:0:
44,155,56159,1,2,0:3:0:0:
44,155,56239,6,0,P|92:171|126:158,1,67.4999979400635,2|2,1:3|0:3,0:0:0:0:
189,120,56558,1,2,1:3:0:0:
338,234,56877,2,0,P|324:285|321:317,1,67.4999979400635,2|2,1:2|0:3,0:0:0:0:
312,348,57116,1,2,0:3:0:0:
312,348,57196,2,0,P|278:353|246:363,1,67.4999979400635,2|2,1:3|0:3,0:0:0:0:
153,378,57515,2,0,P|92:333|28:351,1,134.999995880127,2|2,1:3|1:2,0:0:0:0:
7,157,58153,6,0,P|62:170|88:171,1,67.4999979400635,2|2,1:2|0:0,0:0:0:0:
149,227,58473,2,0,B|136:201|115:182|115:182|121:138|162:104,1,134.999995880127,2|2,1:2|1:2,0:0:0:0:
209,40,58951,1,2,0:2:0:0:
303,32,59111,2,0,P|357:88|324:139,1,134.999995880127,2|2,1:2|1:2,0:0:0:0:
247,163,59590,2,0,P|264:228|268:253,1,67.4999979400635,2|0,0:0|1:0,0:0:0:0:
306,313,59909,2,0,P|289:378|285:403,1,67.4999979400635,2|2,0:0|1:3,0:0:0:0:
201,308,60228,2,0,B|123:290|156:354|51:330,2,134.999995880127,2|2|2,0:0|0:0|0:0,0:0:0:0:
271,235,61026,5,0,1:0:0:0:
271,235,61185,2,0,P|314:183|375:197,1,134.999995880127,2|0,0:0|0:0,0:0:0:0:
451,250,61664,1,2,1:2:0:0:
512,179,61824,1,2,0:3:0:0:
512,179,61903,1,2,0:3:0:0:
512,179,61983,2,0,P|494:120|492:90,1,67.4999979400635,2|2,1:3|0:3,0:0:0:0:
441,35,62302,1,2,1:3:0:0:
349,12,62462,2,0,P|270:26|205:47,1,134.999995880127,2|2,0:3|0:3,0:0:0:0:
163,128,62941,5,0,1:0:0:0:
243,177,63100,2,0,P|261:220|232:256,1,67.4999979400635,2|2,0:0|1:2,0:0:0:0:
190,307,63419,2,0,P|136:288|100:288,1,67.4999979400635,0|2,0:0|1:2,0:0:0:0:
62,215,63739,1,2,0:3:0:0:
0,286,63898,2,0,P|19:340|19:376,1,67.4999979400635,2|2,0:3|0:0,0:0:0:0:
129,384,64217,6,0,B|167:346|219:341|219:341|247:371|299:363,1,180,6|0,0:0|0:0,0:0:0:0:
369,328,64856,1,10,0:0:0:0:
369,328,65015,2,0,P|460:310|506:392,1,180,2|0,0:0|0:0,0:0:0:0:
451,213,65813,2,0,B|411:191|417:136|417:136|452:105|452:105|429:59,1,180,2|0,1:2|0:0,0:0:0:0:
365,15,66451,1,2,0:0:0:0:
365,15,66611,2,0,B|337:13|310:50|310:50|242:20|246:66|186:55,1,180,2|8,0:0|0:0,0:0:0:0:
296,197,67409,6,0,P|245:246|188:216,1,120,2|4,1:2|0:3,0:0:0:0:
124,382,68047,2,0,P|91:247|53:152,1,240,10|2,0:0|0:0,0:0:0:0:
4,84,68845,1,0,0:0:0:0:
4,84,69005,2,0,P|52:32|107:45,1,120,2|0,1:2|1:0,0:0:0:0:
172,4,69483,2,0,B|206:24|206:24|216:74|157:104,1,120,2|0,0:0|0:0,0:0:0:0:
157,175,69962,2,0,P|84:187|20:206,1,120,2|8,1:2|0:0,0:0:0:0:
69,364,70600,6,0,B|162:364|131:315|183:294|183:294|224:315|224:315|254:296|281:306,1,240,6|8,1:2|0:0,0:0:0:0:
342,381,71398,1,2,0:0:0:0:
342,381,71558,2,0,B|365:313|373:267|373:267|347:250|328:224,1,180,2|0,0:0|0:0,0:0:0:0:
268,165,72196,2,0,B|226:171|192:201|192:201|220:150|197:99,1,180,2|0,1:2|0:0,0:0:0:0:
239,34,72834,1,2,0:0:0:0:
239,34,72994,2,0,B|338:-5|316:94|426:39,1,180,2|8,0:0|0:0,0:0:0:0:
504,185,73792,6,0,B|499:217|480:240|480:240|503:256|508:286|508:286|476:310|470:366|470:366,1,180,2|0,1:2|0:0,0:0:0:0:
401,379,74430,2,0,P|363:321|251:321,1,180,8|0,0:0|0:0,0:0:0:0:
191,266,75068,2,0,P|139:252|113:241,1,60,2|0,0:0|0:0,0:0:0:0:
269,215,75388,2,0,P|252:140|246:85,1,120,2|8,1:2|0:3,0:0:0:0:
105,6,76026,2,0,P|64:51|1:46,1,120,4|0,0:3|0:0,0:0:0:0:
144,148,76664,1,10,0:0:0:0:
22,264,76983,1,2,0:0:0:0:
413,193,78579,6,0,B|429:140|437:99|437:99|400:77|388:40,1,150,6|0,1:1|1:0,0:0:0:0:
308,8,79058,2,0,P|261:16|221:34,1,75,10|0,0:1|1:0,0:0:0:0:
168,107,79377,1,8,0:3:0:0:
69,71,79536,2,0,P|81:35|86:-1,1,75,2|0,1:1|0:0,0:0:0:0:
168,107,79856,2,0,B|187:169|187:169|158:196|153:229,1,112.5,10|0,0:1|0:0,0:0:0:0:
128,249,80175,6,0,P|62:241|3:306,1,150,10|0,0:1|1:0,0:0:0:0:
93,352,80653,2,0,P|140:360|180:378,1,75,10|0,0:1|1:0,0:0:0:0:
241,296,80973,1,8,0:3:0:0:
314,369,81132,2,0,P|288:245|286:203,1,150,2|10,1:1|0:0,0:0:0:0:
369,156,81611,1,0,3:0:0:0:
312,67,81770,6,0,B|332:107|384:114|384:114|413:84|452:84,1,150,2|0,1:1|1:0,0:0:0:0:
507,162,82249,2,0,P|509:213|478:232,1,75,10|0,0:1|1:0,0:0:0:0:
511,330,82568,1,8,0:3:0:0:
414,288,82728,2,0,P|349:270|324:269,1,75,2|0,1:1|0:0,0:0:0:0:
245,312,83047,2,0,P|257:347|263:384,1,75,10|0,0:1|0:0,0:0:0:0:
176,226,83366,6,0,B|172:144|245:185|235:82,1,150,2|0,1:1|1:0,0:0:0:0:
189,2,83845,2,0,P|144:24|108:11,1,75,10|0,0:1|1:0,0:0:0:0:
27,66,84164,1,8,0:3:0:0:
13,170,84324,2,0,P|98:145|161:137,1,150,2|10,1:1|0:2,0:0:0:0:
258,193,84802,1,0,3:0:0:0:
258,193,84882,1,0,3:0:0:0:
258,193,84962,6,0,P|275:119|340:102,1,150,2|0,1:1|1:0,0:0:0:0:
431,49,85441,2,0,P|439:99|451:137,1,75,10|0,0:1|1:0,0:0:0:0:
507,207,85760,1,8,0:3:0:0:
451,295,85919,2,0,P|427:279|380:280,1,75,2|0,1:1|0:0,0:0:0:0:
317,363,86239,2,0,P|235:342|192:337,1,112.5,10|0,0:1|0:0,0:0:0:0:
161,364,86558,6,0,B|171:328|151:305|151:305|126:299|126:299|98:271|115:228,1,150,2|0,1:1|1:0,0:0:0:0:
176,160,87036,2,0,P|222:148|261:144,1,75,10|0,0:1|1:0,0:0:0:0:
335,205,87356,1,8,0:3:0:0:
422,148,87515,2,0,P|399:59|395:-9,1,150,10|10,0:1|0:0,0:0:0:0:
302,50,87994,1,0,3:0:0:0:
211,3,88153,6,0,P|191:37|84:39,1,150,2|0,1:1|1:0,0:0:0:0:
15,117,88632,2,0,P|-1:174|-3:204,1,75,10|0,0:1|1:0,0:0:0:0:
58,275,88951,1,8,0:3:0:0:
132,201,89111,2,0,P|175:178|214:191,1,75,2|0,1:1|0:0,0:0:0:0:
288,237,89430,2,0,P|308:267|306:304,1,75,10|0,0:1|0:0,0:0:0:0:
222,384,89749,6,0,B|205:344|156:342|156:342|133:382|82:383,1,150,2|0,1:1|1:0,0:0:0:0:
4,346,90228,1,10,0:1:0:0:
2,240,90388,2,0,P|17:183|18:149,1,75,0|0,1:0|0:0,0:0:0:0:
110,216,90707,1,8,0:0:0:0:
177,137,90866,1,8,0:0:0:0:
177,137,90946,1,8,0:0:0:0:
177,137,91026,2,0,P|165:101|160:64,1,75,2|2,1:2|0:0,0:0:0:0:
110,244,91345,6,0,P|179:247|283:276,1,150,6|0,1:1|1:0,0:0:0:0:
325,346,91824,2,0,P|363:368|411:351,1,75,10|0,0:1|1:0,0:0:0:0:
493,334,92143,1,8,0:3:0:0:
476,230,92302,2,0,P|480:192|492:157,1,75,2|0,1:1|0:0,0:0:0:0:
408,92,92622,2,0,P|381:128|305:117,1,112.5,10|0,0:1|0:0,0:0:0:0:
278,162,92941,6,0,B|276:132|268:107|268:107|297:81|297:81|293:45|275:11,1,150,2|0,1:1|1:0,0:0:0:0:
179,41,93419,2,0,P|141:36|105:25,1,75,10|0,0:1|1:0,0:0:0:0:
21,89,93739,1,8,0:3:0:0:
33,192,93898,2,0,B|125:158|89:232|191:205,1,150,2|10,1:1|0:2,0:0:0:0:
275,265,94377,1,0,3:0:0:0:
275,265,94457,1,0,3:0:0:0:
275,265,94536,6,0,P|301:328|249:389,1,150,2|0,1:1|1:0,0:0:0:0:
152,360,95015,2,0,P|90:371|52:387,1,75,10|0,0:1|1:0,0:0:0:0:
3,313,95334,1,8,0:3:0:0:
90,254,95494,2,0,P|101:192|117:154,1,75,2|0,1:1|0:0,0:0:0:0:
181,108,95813,2,0,P|216:97|254:93,1,75,10|0,0:1|0:0,0:0:0:0:
349,141,96132,6,0,B|338:171|307:188|307:188|309:252|384:261,1,150,2|0,1:1|1:0,0:0:0:0:
442,308,96611,2,0,P|499:296|512:272,1,75,10|0,0:1|1:0,0:0:0:0:
445,199,96930,1,8,0:0:0:0:
352,253,97090,2,0,P|249:232|187:226,1,150,2|2,1:2|1:2,0:0:0:0:
134,304,97568,1,8,0:0:0:0:
49,250,97728,6,0,B|64:165|-3:205|-4:128|-4:128|35:107|46:69,1,209.999993591309,2|2,1:2|0:0,0:0:0:0:
167,4,98685,2,0,P|228:65|201:130,1,157.499995193482,2|0,0:0|0:0,0:0:0:0:
155,187,99324,2,0,P|182:269|187:310,2,104.999996795654,2|2|2,0:0|0:0|0:0,0:0:0:0:
297,268,100281,2,0,P|270:350|264:389,1,104.999996795654,2|0,0:0|0:0,0:0:0:0:
161,265,100919,2,0,P|270:235|386:224,1,209.999993591309,2|0,0:0|0:0,0:0:0:0:
491,38,102515,6,0,P|430:83|380:59,1,120,2|0,0:0|0:0,0:0:0:0:
320,29,102994,2,0,P|262:21|222:62,1,120,2|0,0:0|0:0,0:0:0:0:
163,123,103473,2,0,P|84:104|36:100,2,120,2|2|2,0:0|0:0|0:0,0:0:0:0:
47,244,104430,1,0,0:0:0:0:
47,244,104590,2,0,B|79:233|98:217|98:217|131:225|148:260,1,120,2|0,0:0|0:0,0:0:0:0:
182,329,105068,2,0,P|238:312|255:310,1,60,2|2,0:0|0:0,0:0:0:0:
273,285,105308,1,2,0:0:0:0:
273,285,105388,2,0,B|293:268|303:246|303:246|263:223|272:179,1,120,2|2,0:0|0:0,0:0:0:0:
383,64,106026,5,2,0:0:0:0:
502,182,106345,2,0,P|484:250|479:309,1,120,2|0,0:0|0:0,0:0:0:0:
495,382,106824,2,0,P|450:343|379:360,1,120,2|0,0:0|0:0,0:0:0:0:
314,377,107302,2,0,P|307:317|291:259,1,120,2|2,0:0|0:0,0:0:0:0:
355,205,107781,1,2,0:0:0:0:
355,205,107941,2,0,B|371:185|393:182|393:182|407:144|372:103,1,120,2|2,0:0|0:0,0:0:0:0:
317,55,108419,1,0,0:0:0:0:
152,91,108739,6,0,P|145:61|133:34,2,60,2|2|2,0:0|0:0|0:0,0:0:0:0:
208,155,109217,2,0,P|237:161|264:173,1,60,2|0,0:0|0:0,0:0:0:0:
333,221,109536,1,2,0:0:0:0:
279,285,109696,1,2,0:0:0:0:
279,285,109856,2,0,P|213:288|188:339,1,120,2|0,0:0|0:0,0:0:0:0:
29,383,110494,6,0,B|14:365|-5:351|-5:351|-3:315|30:284,1,120,2|0,0:0|0:0,0:0:0:0:
100,246,110973,2,0,P|142:206|123:139,1,120,2|0,0:0|0:0,0:0:0:0:
62,103,111451,2,0,P|22:116|-7:117,1,60,2|0,0:0|0:0,0:0:0:0:
121,29,111770,2,0,P|117:8|115:-10,2,30,0|2|2,0:0|0:0|0:0,0:0:0:0:
199,80,112090,6,0,P|249:45|306:61,1,120,2|2,0:0|0:0,0:0:0:0:
376,107,112568,1,2,0:0:0:0:
376,107,112728,2,0,P|394:163|400:236,1,120,2|0,0:0|0:0,0:0:0:0:
335,277,113207,2,0,B|269:266|288:326|209:305,1,120,2|2,0:0|0:0,0:0:0:0:
155,260,113685,1,0,0:0:0:0:
155,260,113845,2,0,P|129:207|164:161,1,120,2|0,0:0|0:0,0:0:0:0:
234,87,114324,6,0,B|256:103|287:113|287:113|318:78|365:80,1,120,2|2,0:0|0:0,0:0:0:0:
408,36,114802,1,2,0:0:0:0:
499,80,114962,2,0,P|487:119|478:160,1,60,2|2,0:0|0:0,0:0:0:0:
510,243,115281,6,0,B|472:249|472:249|454:278|454:278|362:293,1,134.999995880127,6|0,1:1|1:0,0:0:0:0:
327,218,115760,1,2,0:0:0:0:
258,283,115919,2,0,P|273:329|209:385,1,134.999995880127,0|0,1:0|1:0,0:0:0:0:
150,318,116398,1,2,0:0:0:0:
150,318,116558,2,0,P|163:245|185:165,1,134.999995880127,0|2,1:2|1:3,0:0:0:0:
335,81,117196,5,2,1:3:0:0:
335,81,117356,2,0,P|292:24|222:38,1,134.999995880127,2|2,0:0|0:3,0:0:0:0:
159,85,117834,2,0,P|108:99|66:99,1,67.4999979400635,2|0,1:2|0:0,0:0:0:0:
51,90,118074,1,2,0:3:0:0:
51,90,118153,2,0,P|46:123|35:155,1,67.4999979400635,2|2,1:3|0:3,0:0:0:0:
5,245,118473,6,0,P|48:265|86:244,1,67.4999979400635,2|2,1:3|0:3,0:0:0:0:
145,209,118792,1,2,1:3:0:0:
258,366,119111,1,2,1:2:0:0:
258,366,119270,2,0,P|247:334|242:300,1,67.4999979400635,2|2,0:0|1:2,0:0:0:0:
300,224,119590,2,0,P|313:180|295:150,1,67.4999979400635,2|0,0:0|1:0,0:0:0:0:
224,111,119909,6,0,B|191:93|199:45|199:45|238:27|247:-9,1,134.999995880127,2|0,0:0|0:0,0:0:0:0:
315,64,120388,1,2,1:2:0:0:
404,25,120547,1,2,0:3:0:0:
404,25,120627,1,2,0:3:0:0:
404,25,120707,2,0,P|441:38|487:43,1,67.4999979400635,2|2,1:3|0:3,0:0:0:0:
512,154,121026,2,0,P|475:141|429:136,1,67.4999979400635,2|2,1:3|0:3,0:0:0:0:
386,226,121345,2,0,P|412:315|421:383,1,134.999995880127,2|2,1:2|1:2,0:0:0:0:
259,265,121983,5,0,1:0:0:0:
259,265,122143,1,8,0:3:0:0:
184,323,122302,2,0,P|178:366|202:391,1,67.4999979400635,0|0,1:0|0:0,0:0:0:0:
159,228,122622,2,0,P|87:247|6:260,1,134.999995880127,2|2,1:3|1:3,0:0:0:0:
0,165,123100,1,0,0:0:0:0:
69,101,123260,6,0,P|121:65|111:-9,1,134.999995880127,2|0,1:2|1:0,0:0:0:0:
224,50,123739,2,0,P|235:136|250:189,1,134.999995880127,2|0,0:0|0:0,0:0:0:0:
325,235,124217,2,0,P|341:300|348:367,2,134.999995880127,2|2|2,1:2|1:3|1:2,0:0:0:0:
345,142,125015,1,2,0:3:0:0:
430,102,125175,2,0,P|470:127|502:117,1,67.4999979400635,2|2,1:2|0:0,0:0:0:0:
512,217,125494,2,0,P|497:266|495:301,1,67.4999979400635,2|2,1:2|0:0,0:0:0:0:
434,354,125813,2,0,B|366:329|375:395|287:371,1,134.999995880127,2|2,1:2|1:2,0:0:0:0:
211,373,126292,6,0,P|201:336|185:294,1,67.4999979400635,2|2,0:0|1:3,0:0:0:0:
286,284,126611,2,0,P|296:247|312:205,1,67.4999979400635,2|2,0:0|1:3,0:0:0:0:
231,160,126930,2,0,P|201:177|163:169,1,67.4999979400635,2|2,0:0|1:3,0:0:0:0:
99,236,127249,1,2,0:0:0:0:
11,198,127409,1,2,1:3:0:0:
79,133,127568,2,0,P|89:96|105:54,1,67.4999979400635,2|2,0:0|1:3,0:0:0:0:
195,31,127888,1,2,0:0:0:0:
195,31,127967,1,2,0:0:0:0:
195,31,128047,6,0,B|223:3|265:13|265:13|279:54|329:49,1,134.999995880127,6|2,1:1|1:2,0:0:0:0:
397,19,128526,1,2,0:0:0:0:
464,84,128685,2,0,P|429:139|352:128,1,134.999995880127,2|2,1:2|1:2,0:0:0:0:
286,190,129164,1,2,0:0:0:0:
215,127,129324,2,0,P|235:198|242:262,1,134.999995880127,2|2,1:2|1:2,0:0:0:0:
177,327,129802,6,0,P|223:356|259:340,1,67.4999979400635,2|0,0:0|1:0,0:0:0:0:
324,381,130122,2,0,P|387:364|414:362,1,67.4999979400635,2|0,0:0|1:0,0:0:0:0:
482,331,130441,1,2,0:3:0:0:
482,331,130520,1,2,0:3:0:0:
482,331,130600,1,2,1:3:0:0:
432,250,130760,2,0,P|398:256|366:267,1,67.4999979400635,2|0,0:0|1:0,0:0:0:0:
279,230,131079,2,0,B|256:163|325:175|298:101,1,134.999995880127,2|2,0:3|0:3,0:0:0:0:
261,16,131558,2,0,P|229:5|195:-1,1,67.4999979400635,2|2,1:3|0:0,0:0:0:0:
92,42,131877,5,2,1:2:0:0:
92,42,132036,2,0,B|110:56|126:62|126:62|157:119|117:154,1,134.999995880127,0|2,0:0|0:3,0:0:0:0:
30,176,132515,1,2,1:2:0:0:
79,358,132834,2,0,P|45:364|13:375,1,67.4999979400635,2|2,1:2|0:0,0:0:0:0:
116,256,133153,2,0,P|161:299|237:282,1,134.999995880127,2|2,1:2|1:3,0:0:0:0:
318,318,133632,2,0,P|307:349|300:383,1,67.4999979400635,2|0,0:0|1:0,0:0:0:0:
398,267,133951,1,0,0:0:0:0:
368,176,134111,2,0,B|449:151|433:217|512:196,1,134.999995880127,2|2,1:3|1:2,0:0:0:0:
352,75,134749,6,0,P|318:81|286:92,1,67.4999979400635,2|2,1:2|0:0,0:0:0:0:
196,62,135068,2,0,P|250:128|217:184,1,134.999995880127,2|2,1:2|1:2,0:0:0:0:
271,255,135547,1,2,0:0:0:0:
177,272,135707,2,0,P|118:254|31:245,1,134.999995880127,2|2,1:2|1:2,0:0:0:0:
8,158,136185,2,0,P|-1:117|13:91,1,67.4999979400635,2|0,0:0|1:0,0:0:0:0:
75,26,136505,2,0,P|128:14|160:0,1,67.4999979400635,2|2,0:0|1:3,0:0:0:0:
258,30,136824,2,0,B|243:103|312:75|291:156,2,134.999995880127,2|2|2,0:0|0:0|0:0,0:0:0:0:
172,99,137622,6,0,P|161:130|155:164,1,67.4999979400635,2|0,1:2|0:0,0:0:0:0:
89,232,137941,1,2,1:3:0:0:
89,232,138100,1,2,0:0:0:0:
146,307,138260,2,0,P|212:267|275:286,1,134.999995880127,2|0,1:3|1:0,0:0:0:0:
332,345,138739,2,0,P|375:366|404:358,1,67.4999979400635,2|0,0:3|1:0,0:0:0:0:
483,336,139058,2,0,P|499:281|510:257,1,67.4999979400635,2|0,0:3|1:0,0:0:0:0:
496,164,139377,6,0,B|477:182|445:193|445:193|415:159|379:162,1,134.999995880127,2|2,0:0|0:3,0:0:0:0:
292,195,139856,1,2,1:2:0:0:
292,195,140015,1,0,0:0:0:0:
221,131,140175,2,0,P|242:36|259:0,2,134.999995880127,2|2|4,1:2|1:2|0:0,0:0:0:0:
140,72,153579,6,0,P|89:108|17:84,2,120,2|0|8,1:2|1:0|0:0,0:0:0:0:
294,6,154536,2,0,P|280:49|276:76,1,60,0|8,0:0|0:0,0:0:0:0:
248,143,154856,2,0,P|218:149|190:159,1,60,2|8,0:0|0:0,0:0:0:0:
128,216,155175,1,2,1:2:0:0:
255,325,155494,2,0,B|322:307|306:367|386:346,2,120,2|10|2,1:2|0:0|1:2,0:0:0:0:
99,382,156451,1,8,0:0:0:0:
99,382,156611,1,8,0:0:0:0:
17,340,156770,6,0,P|35:254|38:205,2,120,2|0|10,1:2|1:0|0:0,0:0:0:0:
130,215,157728,2,0,P|170:235|202:219,1,60,0|8,0:0|0:0,0:0:0:0:
238,169,158047,2,0,P|224:116|222:91,1,60,2|8,0:0|0:0,0:0:0:0:
274,44,158366,1,2,1:2:0:0:
441,53,158685,2,0,B|409:32|381:48|381:48|373:81|332:89,2,120,2|8|2,1:2|0:0|1:2,0:0:0:0:
511,206,159643,1,8,0:0:0:0:
511,206,159802,1,8,0:0:0:0:
467,278,159962,6,0,P|409:264|340:255,2,120,2|0|8,1:2|1:0|0:0,0:0:0:0:
354,152,160919,2,0,P|314:168|284:154,1,60,2|8,1:2|0:0,0:0:0:0:
231,214,161239,2,0,P|217:261|218:289,1,60,0|8,0:0|0:0,0:0:0:0:
247,361,161558,2,0,B|277:352|295:337|295:337|331:347|354:395,2,120,2|0|8,1:2|1:0|0:0,0:0:0:0:
124,245,162515,2,0,P|112:147|102:115,1,120,0|10,1:0|0:0,0:0:0:0:
49,64,162994,1,8,0:0:0:0:
117,0,163153,6,0,P|153:31|229:16,2,120,2|0|8,1:2|1:0|0:0,0:0:0:0:
49,64,163951,1,0,0:0:0:0:
106,126,164111,2,0,P|119:160|107:197,1,60,2|8,0:0|0:0,0:0:0:0:
58,244,164430,2,0,P|30:256|1:253,1,60,2|8,0:0|0:0,0:0:0:0:
93,331,164749,6,0,P|175:345|232:363,1,120,2|0,1:2|1:0,0:0:0:0:
291,376,165228,1,0,0:0:0:0:
341,308,165388,2,0,P|326:263|325:223,1,60,8|0,0:0|0:0,0:0:0:0:
251,209,165707,2,0,P|266:164|267:124,1,60,0|8,1:0|0:0,0:0:0:0:
337,104,166026,1,8,0:0:0:0:
406,150,166185,1,8,0:0:0:0:
431,90,167941,6,0,B|404:120|361:137|361:137|370:222|443:238,1,209.999993591309,2|0,0:0|0:0,0:0:0:0:
284,191,168898,2,0,P|218:172|106:162,1,157.499995193482,2|2,0:0|0:0,0:0:0:0:
51,137,169536,2,0,P|32:84|96:16,2,157.499995193482,2|0|2,0:0|0:0|0:0,0:0:0:0:
177,61,170813,1,2,0:0:0:0:
287,157,171132,2,0,P|258:264|241:382,1,209.999993591309,2|0,0:0|0:0,0:0:0:0:
377,302,172090,2,0,P|304:274|271:290,1,104.999996795654,2|0,0:0|0:0,0:0:0:0:
144,361,172728,2,0,B|127:320|93:311|93:311|103:255|149:249,2,157.499995193482,2|2|2,0:0|0:0|0:0,0:0:0:0:
282,281,174005,1,0,0:0:0:0:
220,142,174324,6,0,B|178:146|156:105|156:105|87:109|121:172|41:165,1,209.999993591309,2|0,0:0|0:0,0:0:0:0:
31,311,175281,2,0,P|95:292|203:278,1,157.499995193482,2|2,0:0|0:0,0:0:0:0:
250,336,175919,2,0,P|325:282|400:307,2,157.499995193482,2|0|2,0:0|0:0|0:0,0:0:0:0:
300,197,177196,1,0,0:0:0:0:
156,226,177515,2,0,B|91:198|121:119|121:119|163:123|163:123|200:95,1,209.999993591309,2|0,0:0|0:0,0:0:0:0:
322,24,178473,2,0,P|373:16|421:59,1,104.999996795654,2|0,0:0|0:0,0:0:0:0:
484,174,179111,1,2,0:0:0:0:
256,192,179191,12,2,180707,0:0:0:0:
340,94,182302,6,0,B|256:1|223:132|132:12|132:12|183:224|183:224|161:275|113:270|113:270|71:103|71:103|54:179|-6:191,1,840,2|0,0:0|0:0,0:0:0:0:
0,189,185175,1,0,0:0:0:0:
12,356,185494,2,0,P|81:302|193:319,1,180,2|2,0:0|0:0,0:0:0:0:
324,371,186292,1,2,0:0:0:0:
324,371,186451,2,0,P|299:284|296:240,1,120,2|2,0:0|0:0,0:0:0:0:
201,115,187090,2,0,B|174:152|132:172|132:172|89:154|41:143,1,180,2|2,0:0|0:0,0:0:0:0:
170,30,187888,1,2,0:0:0:0:
170,30,188366,1,0,0:0:0:0:
46,144,188685,6,0,P|21:231|18:275,1,120,2|0,0:0|0:0,0:0:0:0:
38,341,189164,2,0,B|128:416|236:347|208:241|208:241|307:249|363:343|363:343|361:317|361:317|414:273|380:222|380:222|410:211|419:175,1,660,2|0,0:0|0:0,0:0:0:0:
417,180,191558,1,2,0:0:0:0:
262,115,191877,2,0,P|244:57|350:8,1,180,2|2,0:0|0:0,0:0:0:0:
486,64,192675,2,0,B|529:152|426:130|470:235,1,180,2|2,0:0|0:0,0:0:0:0:
383,376,193473,2,0,P|323:331|212:341,1,180,2|2,0:0|0:0,0:0:0:0:
221,335,194430,2,0,P|238:267|244:209,1,120,2|2,0:0|0:0,0:0:0:0:
165,22,195068,6,0,P|116:70|26:49,1,150,6|0,1:1|1:0,0:0:0:0:
1,158,195547,2,0,P|19:224|20:264,1,75,10|0,0:1|1:0,0:0:0:0:
97,301,195866,1,8,0:3:0:0:
174,233,196026,2,0,P|226:213|259:227,1,75,2|0,1:1|0:0,0:0:0:0:
316,142,196345,2,0,P|391:153|450:172,1,112.5,10|0,0:1|0:0,0:0:0:0:
477,153,196664,6,0,B|516:175|518:222|518:222|475:241|475:278|475:278,1,150,2|0,1:1|1:0,0:0:0:0:
437,367,197143,2,0,P|392:351|352:347,1,75,10|0,0:1|1:0,0:0:0:0:
267,384,197462,1,8,0:3:0:0:
192,309,197622,2,0,B|240:312|256:262|256:262|224:236|235:192,1,150,2|10,1:1|0:2,0:0:0:0:
303,129,198100,1,0,3:0:0:0:
303,129,198180,1,0,3:0:0:0:
303,129,198260,6,0,P|329:59|277:10,1,150,2|0,1:1|1:0,0:0:0:0:
176,5,198739,2,0,P|109:19|93:27,1,75,10|0,0:1|1:0,0:0:0:0:
35,101,199058,1,8,0:3:0:0:
121,186,199217,2,0,P|125:148|137:113,1,75,2|0,1:1|0:0,0:0:0:0:
16,195,199536,2,0,P|3:230|0:267,1,75,10|0,0:1|0:0,0:0:0:0:
72,352,199856,6,0,B|156:320|140:393|230:365,1,150,2|0,1:1|1:0,0:0:0:0:
313,335,200334,1,10,0:1:0:0:
264,241,200494,2,0,P|233:260|196:257,1,75,0|8,1:0|0:0,0:0:0:0:
121,186,200813,2,0,P|125:148|137:113,1,75,2|8,1:2|0:0,0:0:0:0:
206,34,201132,1,10,1:2:0:0:
372,54,201451,6,0,B|340:99|280:114|280:114|355:123|401:187,1,240,2|2,1:2|0:0,0:0:0:0:
489,308,202409,2,0,P|503:211|519:165,1,120,2|0,0:0|0:0,0:0:0:0:
360,266,203047,2,0,P|374:324|380:383,2,120,2|2|2,0:0|0:0|0:0,0:0:0:0:
198,218,204005,2,0,P|255:224|299:186,1,120,2|0,0:0|0:0,0:0:0:0:
221,358,204643,6,0,P|155:339|87:332,1,134.999995880127,10|8,0:0|0:0,0:0:0:0:
25,262,205122,2,0,P|17:194|0:130,1,134.999995880127,8|8,0:0|0:0,0:0:0:0:
48,50,205600,1,8,0:0:0:0:
255,81,205919,2,0,P|269:43|238:3,1,75,10|0,0:0|0:0,0:0:0:0:
173,151,206239,6,0,B|199:191|235:198|235:198|275:169|314:181,1,150,6|0,1:1|1:0,0:0:0:0:
375,104,206717,2,0,P|421:90|462:84,1,75,10|0,0:1|1:0,0:0:0:0:
509,170,207036,1,8,0:3:0:0:
471,268,207196,2,0,P|434:274|398:286,1,75,2|0,1:1|0:0,0:0:0:0:
297,314,207515,2,0,P|244:363|194:337,1,112.5,10|0,0:1|0:0,0:0:0:0:
159,358,207834,6,0,B|180:297|187:262|187:262|162:238|158:203,1,150,10|0,0:1|1:0,0:0:0:0:
60,251,208313,2,0,P|46:221|63:178,1,75,10|0,0:1|1:0,0:0:0:0:
141,118,208632,1,8,0:3:0:0:
241,150,208792,2,0,P|277:156|313:168,1,75,10|2,0:1|0:1,0:0:0:0:
404,115,209111,1,0,1:0:0:0:
355,34,209270,1,0,3:0:0:0:
355,34,209350,1,0,3:0:0:0:
355,34,209430,6,0,B|335:5|296:2|296:2|270:43|218:31,1,150,2|0,1:1|1:0,0:0:0:0:
124,9,209909,2,0,P|94:32|44:13,1,75,10|0,0:1|1:0,0:0:0:0:
1,115,210228,1,8,0:3:0:0:
41,212,210388,2,0,P|25:260|17:306,1,75,2|0,1:1|0:0,0:0:0:0:
128,146,210707,2,0,P|164:137|199:125,1,75,10|0,0:1|0:0,0:0:0:0:
285,205,211026,6,0,B|278:242|307:259|307:259|358:234|420:227,1,150,2|0,1:1|1:0,0:0:0:0:
472,295,211505,2,0,P|490:334|464:379,1,75,10|0,0:1|1:0,0:0:0:0:
379,334,211824,1,8,0:3:0:0:
389,231,211983,2,0,P|411:126|425:84,1,150,10|2,0:1|1:2,0:0:0:0:
338,11,212462,1,0,3:0:0:0:
338,11,212542,1,0,3:0:0:0:
338,11,212622,6,0,B|318:43|292:52|292:52|251:33|251:33|186:56,1,150,2|0,1:1|1:0,0:0:0:0:
150,131,213100,2,0,P|132:194|129:227,1,75,10|0,0:1|1:0,0:0:0:0:
192,295,213419,1,8,0:3:0:0:
114,365,213579,2,0,P|77:372|41:384,1,75,2|0,1:1|0:0,0:0:0:0:
192,295,213898,2,0,P|228:287|318:257,1,112.5,10|0,0:1|0:0,0:0:0:0:
341,297,214217,6,0,B|307:223|391:235|361:156,1,150,2|0,1:1|1:0,0:0:0:0:
318,62,214696,2,0,P|285:42|243:47,1,75,10|0,0:1|1:0,0:0:0:0:
166,108,215015,1,8,0:3:0:0:
100,25,215175,2,0,P|120:135|124:193,1,150,2|10,1:1|0:2,0:0:0:0:
39,256,215653,1,0,3:0:0:0:
39,256,215733,1,0,3:0:0:0:
39,256,215813,6,0,B|4:282|15:327|15:327|54:342|70:398,1,150,2|0,1:1|1:0,0:0:0:0:
126,293,216292,2,0,P|160:279|197:272,1,75,10|0,0:1|1:0,0:0:0:0:
282,334,216611,1,8,0:3:0:0:
363,267,216770,2,0,P|380:223|354:182,1,75,2|0,1:1|0:0,0:0:0:0:
280,143,217090,2,0,P|243:150|208:163,1,75,10|0,0:1|0:0,0:0:0:0:
93,147,217409,6,0,B|92:121|107:95|107:95|143:83|143:83|146:40|179:15,1,150,2|0,1:1|1:0,0:0:0:0:
264,0,217888,1,10,0:1:0:0:
348,61,218047,2,0,P|389:81|422:69,1,75,0|2,1:0|0:1,0:0:0:0:
503,130,218366,1,8,0:0:0:0:
409,178,218526,1,10,0:1:0:0:
496,234,218685,2,0,P|477:293|475:329,1,75,2|10,1:1|0:1,0:0:0:0:
375,355,219005,6,0,B|297:326|325:402|232:372,1,150,6|0,1:1|1:0,0:0:0:0:
144,319,219483,2,0,P|163:260|165:224,1,75,10|0,0:1|1:0,0:0:0:0:
263,281,219802,1,8,0:3:0:0:
334,203,219962,2,0,P|353:163|332:126,1,75,2|0,1:1|0:0,0:0:0:0:
297,41,220281,2,0,P|212:57|166:75,1,112.5,10|0,0:1|0:0,0:0:0:0:
135,73,220600,6,0,B|115:62|117:35|117:35|141:-11,1,75,2|10,1:1|0:1,0:0:0:0:
30,122,220919,2,0,P|11:181|9:217,1,75,2|10,1:0|0:1,0:0:0:0:
97,252,221239,1,2,1:0:0:0:
170,178,221398,1,10,0:1:0:0:
270,209,221558,2,0,P|294:203|328:198,3,37.5,2|0|2|0,3:1|3:0|3:1|3:0,0:0:0:0:
354,221,221877,2,0,P|350:239|345:257,3,37.5,2|0|2|0,3:1|3:0|3:1|3:0,0:0:0:0:
368,304,222196,6,0,B|349:352|306:362|306:362|275:330|232:340,1,150,2|0,1:1|1:0,0:0:0:0:
150,367,222675,2,0,P|90:377|51:392,1,75,10|0,0:1|1:0,0:0:0:0:
2,306,222994,1,8,0:3:0:0:
56,217,223153,2,0,P|74:183|52:137,1,75,2|2,1:1|0:1,0:0:0:0:
154,262,223473,2,0,P|190:252|227:247,1,75,10|0,0:1|0:1,0:0:0:0:
330,274,223792,6,0,B|356:190|272:212|316:111,1,150,2|0,1:1|1:0,0:0:0:0:
345,35,224270,2,0,P|381:37|410:14,1,75,10|2,0:1|1:0,0:0:0:0:
500,70,224590,1,8,0:1:0:0:
488,173,224749,2,0,P|446:158|392:158,1,75,2|8,1:0|0:1,0:0:0:0:
307,132,225068,1,2,1:0:0:0:
237,210,225228,1,10,0:1:0:0:
275,308,225388,6,0,B|336:321|360:271|360:271|409:281|428:320|419:351,1,209.999993591309,2|2,1:2|0:0,0:0:0:0:
512,233,226345,2,0,P|488:130|487:61,1,157.499995193482,2|0,0:0|0:0,0:0:0:0:
423,20,226983,2,0,P|382:51|317:38,2,104.999996795654,2|2|2,0:0|0:0|0:0,0:0:0:0:
368,156,227941,2,0,P|289:171|252:185,2,104.999996795654,2|0|2,0:0|0:0|0:0,0:0:0:0:
50,40,230175,6,0,B|33:57|4:75|4:75|10:121|46:140,1,120,2|0,0:0|0:0,0:0:0:0:
110,155,230653,2,0,P|157:116|226:122,1,120,2|0,0:0|0:0,0:0:0:0:
275,173,231132,2,0,P|259:243|253:318,2,120,2|2|2,0:0|0:0|0:0,0:0:0:0:
173,329,232090,1,0,0:0:0:0:
173,329,232249,2,0,B|159:369|115:375|115:375|90:352|58:345,1,120,2|0,0:0|0:0,0:0:0:0:
3,318,232728,2,0,P|17:259|24:200,1,120,2|2,0:0|0:0,0:0:0:0:
12,32,233366,6,0,P|43:47|84:30,1,60,2|2,0:0|0:0,0:0:0:0:
138,87,233685,2,0,P|184:72|214:70,1,60,2|0,0:0|0:0,0:0:0:0:
265,23,234005,2,0,P|306:9|370:65,1,120,2|0,0:0|0:0,0:0:0:0:
400,130,234483,1,2,0:0:0:0:
400,130,234643,1,0,0:0:0:0:
258,219,234962,5,2,0:0:0:0:
328,371,235281,2,0,P|392:351|454:346,1,120,2|0,0:0|0:0,0:0:0:0:
505,287,235760,2,0,B|524:254|502:225|502:225|466:220|453:183,1,120,2|2,0:0|0:0,0:0:0:0:
400,130,236239,2,0,P|360:141|318:145,1,60,2|0,0:0|0:0,0:0:0:0:
262,115,236558,6,0,P|300:157|281:236,1,120,2|0,0:0|0:0,0:0:0:0:
244,283,237036,1,2,0:0:0:0:
244,283,237196,1,0,0:0:0:0:
112,179,237515,2,0,B|48:163|67:216|-8:202,2,120,2|2|2,0:0|0:0|0:0,0:0:0:0:
23,322,238473,1,0,0:0:0:0:
23,322,238632,2,0,P|65:363|130:346,1,120,2|0,0:0|0:0,0:0:0:0:
203,369,239111,2,0,P|215:325|230:293,1,60,2|0,0:0|0:0,0:0:0:0:
284,257,239430,2,0,P|328:245|360:230,1,60,2|0,0:0|0:0,0:0:0:0:
422,261,239749,6,0,B|435:221|435:221|415:195|415:195|429:144,1,120,2|2,0:0|0:0,0:0:0:0:
377,80,240228,1,0,0:0:0:0:
377,80,240388,2,0,P|327:117|253:96,1,120,2|0,0:3|0:0,0:0:0:0:
203,62,240866,2,0,P|211:21|224:-13,1,60,2|0,0:3|0:0,0:0:0:0:
122,101,241185,2,0,P|114:142|101:176,1,60,2|0,0:3|0:0,0:0:0:0:
162,224,241505,1,2,0:3:0:0:
48,347,241824,5,2,0:3:0:0:
48,347,241983,2,0,B|81:344|101:364|101:364|145:347|158:312,1,120,2|2,0:3|0:3,0:0:0:0:
227,359,242462,1,0,0:0:0:0:
295,309,242622,2,0,P|336:297|368:293,1,60,2|0,0:0|0:0,0:0:0:0:
441,374,242941,6,0,B|426:303|494:326|473:248,1,134.999995880127,6|0,1:0|1:0,0:0:0:0:
409,181,243419,1,2,0:0:0:0:
456,98,243579,2,0,P|390:138|330:129,1,134.999995880127,0|2,1:0|1:2,0:0:0:0:
187,14,244217,2,0,B|152:38|152:38|137:91|181:133,2,134.999995880127,2|2|0,1:2|1:2|1:0,0:0:0:0:
276,43,245015,2,0,P|323:36|355:22,1,67.4999979400635,2|0,0:0|1:0,0:0:0:0:
416,87,245334,1,0,0:0:0:0:
397,179,245494,2,0,P|365:168|331:164,1,67.4999979400635,2|0,1:2|0:0,0:0:0:0:
259,226,245813,2,0,P|245:260|265:303,1,67.4999979400635,2|0,1:2|0:0,0:0:0:0:
188,358,246132,6,0,P|121:365|40:389,1,134.999995880127,2|2,1:2|1:2,0:0:0:0:
2,304,246611,1,2,0:3:0:0:
2,304,246691,1,2,0:3:0:0:
2,304,246770,1,2,1:3:0:0:
56,226,246930,2,0,P|91:171|54:96,2,134.999995880127,2|2|2,0:0|0:0|0:0,0:0:0:0:
213,120,247888,5,0,0:0:0:0:
213,120,248047,2,0,P|259:106|291:102,1,67.4999979400635,2|2,1:2|0:3,0:0:0:0:
308,67,248286,1,2,0:3:0:0:
308,67,248366,2,0,P|341:88|377:79,1,67.4999979400635,2|2,1:3|0:3,0:0:0:0:
439,145,248685,1,2,1:3:0:0:
360,198,248845,6,0,P|346:244|342:276,1,67.4999979400635,2|2,0:0|1:3,0:0:0:0:
256,301,249164,2,0,P|222:307|190:317,1,67.4999979400635,2|0,0:3|1:0,0:0:0:0:
322,375,249483,2,0,P|353:364|387:358,1,67.4999979400635,2|0,0:0|1:0,0:0:0:0:
479,376,249802,1,2,0:0:0:0:
505,285,249962,2,0,B|499:250|472:240|472:240|462:191|515:169,1,134.999995880127,0|2,1:0|1:2,0:0:0:0:
450,79,250441,1,0,0:0:0:0:
450,79,250600,2,0,P|390:115|322:88,1,134.999995880127,2|2,1:2|1:2,0:0:0:0:
163,8,251239,5,0,1:0:0:0:
163,8,251398,2,0,P|147:54|142:84,1,67.4999979400635,2|0,0:0|1:0,0:0:0:0:
222,125,251717,1,0,0:0:0:0:
211,219,251877,2,0,B|131:220|177:164|81:170,1,134.999995880127,2|2,1:2|1:2,0:0:0:0:
22,232,252356,1,2,0:3:0:0:
22,232,252435,1,2,0:3:0:0:
22,232,252515,6,0,P|-6:294|35:358,1,134.999995880127,2|2,1:2|1:3,0:0:0:0:
120,384,252994,1,2,0:3:0:0:
120,384,253074,1,2,0:3:0:0:
120,384,253153,1,2,1:3:0:0:
182,312,253313,2,0,P|226:300|258:297,1,67.4999979400635,2|0,0:3|1:0,0:0:0:0:
285,384,253632,2,0,P|289:350|317:245,1,134.999995880127,2|2,0:0|0:3,0:0:0:0:
373,178,254111,6,0,P|384:140|361:109,1,67.4999979400635,2|2,1:2|0:3,0:0:0:0:
307,47,254430,1,0,1:0:0:0:
216,17,254590,2,0,P|164:28|125:47,1,67.4999979400635,2|2,0:0|1:2,0:0:0:0:
92,108,254909,1,2,0:0:0:0:
177,148,255068,2,0,P|229:137|268:118,1,67.4999979400635,2|2,1:2|0:0,0:0:0:0:
307,47,255388,2,0,P|365:16|441:54,1,134.999995880127,6|4,1:2|1:0,0:0:0:0:
