osu file format v14

[General]
AudioFilename: audio.mp3
AudioLeadIn: 0
PreviewTime: 77941
Countdown: 0
SampleSet: Soft
StackLeniency: 0.6
Mode: 0
LetterboxInBreaks: 0
WidescreenStoryboard: 0

[Editor]
Bookmarks: 12515
DistanceSpacing: 1.1
BeatDivisor: 4
GridSize: 32
TimelineZoom: 2

[Metadata]
Title:Blending Point
TitleUnicode:交錯点
Artist:arcane
ArtistUnicode:arcane
Creator:Bellicose
Version:Adinda's Insane
Source:
Tags:adinda blendingpoint まにょっ kousakuten aurora LIZ Saka Tomotaka manyo japanese pop jpop
BeatmapID:3117061
BeatmapSetID:1520696

[Difficulty]
HPDrainRate:5
CircleSize:4
OverallDifficulty:8
ApproachRate:9
SliderMultiplier:1.8
SliderTickRate:1

[Events]
//Background and Video events
0,0,"85215852_p0.png",0,0
//Break Periods
2,141013,152979
//Storyboard Layer 0 (Background)
//Storyboard Layer 1 (Fail)
//Storyboard Layer 2 (Pass)
//Storyboard Layer 3 (Foreground)
//Storyboard Layer 4 (Overlay)
//Storyboard Sound Samples

[TimingPoints]
388,319.148936170213,5,2,1,50,1,0
388,-181.818181818181,5,2,1,50,0,0
38685,-125,5,2,1,60,0,0
64217,-153.846153846153,5,2,1,50,0,0
78579,-83.3333333333333,5,2,2,65,0,1
79057,-100,5,2,2,65,0,1
82489,-100,5,2,2,5,0,1
82568,-100,5,2,2,65,0,1
84084,-100,5,2,2,5,0,1
84163,-100,5,2,2,65,0,1
92861,-100,5,2,2,5,0,1
92940,-100,5,2,2,65,0,1
95255,-100,5,2,2,5,0,1
95334,-100,5,2,2,65,0,1
97728,-100,5,2,1,50,0,0
102515,-153.846153846153,5,2,1,50,0,0
115281,-125,5,2,1,60,0,0
153579,-153.846153846153,5,2,2,55,0,0
167781,-153.846153846153,5,2,2,5,0,0
167941,-222.22222222222,5,2,1,40,0,0
182302,-181.818181818181,5,2,1,50,0,0
195068,-83.3333333333333,5,2,2,65,0,1
195388,-100,5,2,2,65,0,1
198978,-100,5,2,2,5,0,1
199057,-100,5,2,2,65,0,1
201451,-181.818181818181,5,2,1,50,0,0
204643,-181.818181818181,5,2,2,60,0,0
206159,-181.818181818181,5,2,2,5,0,0
206239,-83.3333333333333,5,2,2,65,0,1
206717,-100,5,2,2,65,0,1
210148,-100,5,2,2,5,0,1
210227,-100,5,2,2,65,0,1
211744,-100,5,2,2,5,0,1
211823,-100,5,2,2,65,0,1
220520,-100,5,2,2,5,0,1
220599,-100,5,2,2,65,0,1
222914,-100,5,2,2,5,0,1
222993,-100,5,2,2,65,0,1
225388,-153.846153846153,5,2,1,50,0,0
242941,-125,5,2,1,60,0,0

[Colours]
Combo1 : 226,143,243
Combo2 : 139,222,254
Combo3 : 253,206,240
Combo4 : 150,166,254

[HitObjects]
23,287,388,6,0,P|52:287|121:242,1,99.0000030212403,2|0,0:0|0:0,0:0:0:0:
60,183,866,2,0,P|65:152|88:83,1,99.0000030212403,2|0,0:0|0:0,0:0:0:0:
197,13,1345,2,0,L|211:64,1,49.5000015106202,2|0,0:0|0:0,0:0:0:0:
288,91,1664,2,0,L|274:142,1,49.5000015106202,2|0,0:0|0:0,0:0:0:0:
366,248,1983,6,0,P|393:239|467:229,1,99.0000030212403,2|0,0:0|0:0,0:0:0:0:
446,328,2462,2,0,P|419:337|345:347,1,99.0000030212403,2|0,0:0|0:0,0:0:0:0:
247,299,2941,2,0,P|241:275|227:254,1,49.5000015106202,2|0,0:0|0:0,0:0:0:0:
150,326,3260,2,0,P|136:346|130:370,1,49.5000015106202,2|0,0:0|0:0,0:0:0:0:
227,254,3579,6,0,L|191:156,1,99.0000030212403,2|2,0:0|0:0,0:0:0:0:
56,121,4058,2,0,P|37:134|2:137,1,49.5000015106202,2|0,0:0|0:0,0:0:0:0:
67,14,4377,2,0,P|91:17|111:31,1,49.5000015106202,2|0,0:0|0:0,0:0:0:0:
205,13,4696,2,0,P|237:22|304:11,1,99.0000030212403,2|0,0:0|0:0,0:0:0:0:
425,114,5175,6,0,L|475:87,1,49.5000015106202,2|0,0:0|0:0,0:0:0:0:
499,173,5494,2,0,P|488:211|483:283,1,99.0000030212403,2|0,0:0|0:0,0:0:0:0:
398,296,5973,2,0,P|395:261|386:227,1,49.5000015106202,2|0,0:0|0:0,0:0:0:0:
284,288,6292,1,2,0:0:0:0:
221,213,6451,2,0,P|223:178|232:144,1,49.5000015106202,2|0,0:0|0:0,0:0:0:0:
287,104,6770,2,0,P|284:69|275:35,1,49.5000015106202,2|2,0:0|0:0,0:0:0:0:
124,3,7090,5,0,0:0:0:0:
128,86,7249,1,2,0:0:0:0:
52,80,7409,2,0,L|10:54,1,49.5000015106202,2|0,0:0|0:0,0:0:0:0:
83,183,7728,1,2,0:0:0:0:
83,183,7888,2,0,L|41:209,1,49.5000015106202
8,320,8207,5,2,0:0:0:0:
8,320,8366,2,0,P|45:316|120:321,1,99.0000030212403
185,370,8845,2,0,P|222:366|297:371,1,99.0000030212403,2|0,0:0|0:0,0:0:0:0:
376,259,9324,2,0,P|383:278|400:304,1,49.5000015106202,2|0,0:0|0:0,0:0:0:0:
462,231,9643,2,0,P|480:239|510:245,1,49.5000015106202,2|0,0:0|0:0,0:0:0:0:
364,170,9962,5,2,0:0:0:0:
461,146,10122,1,2,0:0:0:0:
461,146,10201,1,2,0:0:0:0:
461,146,10281,2,0,P|469:113|465:46,1,99.0000030212403,2|2,0:0|0:0,0:0:0:0:
373,51,10760,2,0,P|336:36|268:18,1,99.0000030212403,0|2,0:0|0:0,0:0:0:0:
165,177,11398,6,0,P|117:189|71:207,2,99.0000030212403,2|2|0,0:0|0:0|0:0,0:0:0:0:
304,234,12196,2,0,L|282:181,1,49.5000015106202,2|0,0:0|0:0,0:0:0:0:
218,276,12515,2,0,L|199:321,1,49.5000015106202,2|0,0:0|0:0,0:0:0:0:
71,208,12834,5,2,0:0:0:0:
71,208,12994,1,2,0:0:0:0:
93,313,13153,6,0,P|71:354|17:364,1,99.0000030212403,2|0,0:0|0:0,0:0:0:0:
71,208,13632,2,0,P|69:183|51:157,1,49.5000015106202,2|2,0:0|0:0,0:0:0:0:
0,104,13951,2,0,P|2:79|20:53,1,49.5000015106202,0|2,0:0|0:0,0:0:0:0:
126,13,14270,1,0,0:0:0:0:
126,13,14430,2,0,L|137:69,1,49.5000015106202,2|0,0:0|0:0,0:0:0:0:
253,128,14749,6,0,L|272:30,1,99.0000030212403,2|0,0:0|0:0,0:0:0:0:
475,107,15228,1,2,0:0:0:0:
475,107,15308,1,2,0:0:0:0:
475,107,15388,1,0,0:0:0:0:
363,100,15547,2,0,L|460:119,1,99.0000030212403,0|2,0:0|0:0,0:0:0:0:
460,119,16026,1,0,0:0:0:0:
375,228,16185,5,2,0:0:0:0:
375,228,16345,2,0,P|399:216|432:211,1,49.5000015106202
421,211,16664,1,2,0:0:0:0:
316,294,16824,2,0,P|292:282|259:277,1,49.5000015106202,2|0,0:0|0:0,0:0:0:0:
367,366,17143,2,0,P|409:340|456:326,1,99.0000030212403,2|2,0:0|0:0,0:0:0:0:
154,132,17781,5,0,0:0:0:0:
154,132,17941,2,0,P|158:101|155:68,1,49.5000015106202,2|0,0:0|0:0,0:0:0:0:
61,120,18260,2,0,P|57:168|60:218,1,99.0000030212403,2|0,0:0|0:0,0:0:0:0:
12,330,18739,2,0,P|48:313|112:306,1,99.0000030212403,2|2,0:0|0:0,0:0:0:0:
194,305,19217,2,0,L|178:362,1,49.5000015106202,2|0,0:0|0:0,0:0:0:0:
314,270,19536,6,0,L|288:159,1,99.0000030212403,2|0,0:0|0:0,0:0:0:0:
372,41,20015,1,2,0:0:0:0:
372,41,20095,1,0,0:0:0:0:
372,41,20175,1,0,0:0:0:0:
454,86,20334,2,0,P|477:78|502:66,1,49.5000015106202,0|2,0:0|0:0,0:0:0:0:
493,161,20653,2,0,P|470:171|447:179,1,49.5000015106202,0|2,0:0|0:0,0:0:0:0:
463,63,20973,2,0,P|486:55|511:43,1,49.5000015106202,0|2,0:0|0:0,0:0:0:0:
372,41,21292,5,0,0:0:0:0:
372,41,21451,2,0,P|349:33|324:21,1,49.5000015106202,0|2,0:0|0:0,0:0:0:0:
159,24,21770,1,0,0:0:0:0:
224,74,21930,1,0,0:0:0:0:
137,40,22090,2,0,P|134:69|138:97,1,49.5000015106202,2|0,0:0|0:0,0:0:0:0:
0,189,22409,1,2,0:0:0:0:
87,155,22569,2,0,P|90:184|86:212,1,49.5000015106202,2|0,0:0|0:0,0:0:0:0:
194,258,22888,6,0,L|246:240,1,49.5000015106202,2|0,0:0|0:0,0:0:0:0:
255,329,23207,2,0,L|307:347,1,49.5000015106202,2|2,0:0|0:0,0:0:0:0:
404,204,23526,1,0,0:0:0:0:
490,204,23685,1,0,0:0:0:0:
456,138,23845,1,2,0:0:0:0:
434,279,24005,2,0,P|443:300|449:328,1,49.5000015106202,0|2,0:0|0:0,0:0:0:0:
301,345,24324,5,0,0:0:0:0:
301,345,24483,2,0,P|306:320|315:298,1,49.5000015106202,2|0,0:0|0:0,0:0:0:0:
123,367,24802,1,0,0:0:0:0:
52,308,24962,1,2,0:0:0:0:
106,238,25122,2,0,L|86:189,1,49.5000015106202,0|2,0:0|0:0,0:0:0:0:
8,75,25441,1,0,0:0:0:0:
113,42,25600,1,2,0:0:0:0:
52,0,25760,1,2,0:0:0:0:
125,61,25919,6,0,P|165:69|228:58,1,99.0000030212403,2|2,0:0|0:0,0:0:0:0:
222,60,26398,1,2,0:0:0:0:
295,142,26558,2,0,P|286:168|273:244,1,99.0000030212403,2|2,0:0|0:0,0:0:0:0:
369,227,27036,1,2,0:0:0:0:
369,227,27196,2,0,P|376:275|390:323,1,99.0000030212403,2|2,0:0|0:0,0:0:0:0:
464,256,27675,6,0,L|475:207,1,49.5000015106202
512,80,27994,2,0,L|501:31,1,49.5000015106202,2|0,0:0|0:0,0:0:0:0:
410,55,28313,1,2,0:0:0:0:
131,26,28473,5,2,0:0:0:0:
183,112,28632,1,0,0:0:0:0:
244,9,28792,1,2,0:0:0:0:
70,129,28951,2,0,L|35:28,1,99.0000030212403,2|2,0:0|0:0,0:0:0:0:
0,204,29430,5,0,0:0:0:0:
58,262,29590,2,0,L|23:363,1,99.0000030212403,2|0,0:0|0:0,0:0:0:0:
178,239,30228,1,2,0:0:0:0:
241,284,30388,1,2,0:0:0:0:
296,185,30547,6,0,P|284:158|284:132,1,49.5000015106202,0|2,0:0|0:0,0:0:0:0:
387,118,30866,2,0,P|397:90|415:72,1,49.5000015106202,0|2,0:0|0:0,0:0:0:0:
410,75,31185,1,0,0:0:0:0:
503,163,31345,1,0,0:0:0:0:
458,237,31505,2,0,P|452:268|463:341,1,99.0000030212403,2|2,0:0|0:0,0:0:0:0:
326,383,31983,2,0,L|386:365,1,49.5000015106202,2|0,0:0|0:0,0:0:0:0:
206,328,32302,6,0,L|109:298,1,99.0000030212403,2|2,0:0|0:0,0:0:0:0:
100,209,32781,1,2,0:0:0:0:
100,209,32941,2,0,L|3:238,1,99.0000030212403,2|2,0:0|0:0,0:0:0:0:
46,131,33419,1,2,0:0:0:0:
46,131,33579,2,0,L|142:101,1,99.0000030212403,2|2,0:0|0:0,0:0:0:0:
232,135,34058,6,0,P|237:109|248:83,1,49.5000015106202,2|0,0:0|0:0,0:0:0:0:
340,134,34377,2,0,P|349:157|353:181,1,49.5000015106202,2|0,0:0|0:0,0:0:0:0:
308,257,34696,2,0,P|289:305|279:355,1,99.0000030212403,2|2,0:0|0:0,0:0:0:0:
373,319,35175,2,0,L|386:371,1,49.5000015106202,0|2,0:0|0:0,0:0:0:0:
488,256,35494,6,0,L|514:150,1,99.0000030212403,2|2,0:0|0:0,0:0:0:0:
406,32,35973,2,0,L|430:128,1,99.0000030212403,2|0,0:0|0:0,0:0:0:0:
223,60,36611,2,0,P|181:46|114:30,2,99.0000030212403,2|2|2,0:0|0:0|0:0,0:0:0:0:
84,175,37728,6,0,P|111:165|154:155,1,49.5000015106202,2|2,0:0|0:0,0:0:0:0:
205,279,38047,2,0,P|177:269|134:259,1,49.5000015106202,2|0,0:3|0:0,0:0:0:0:
311,260,38366,2,0,P|298:234|275:196,1,49.5000015106202,0|2,0:0|0:0,0:0:0:0:
270,205,38606,1,2,0:0:0:0:
250,193,38685,6,0,B|331:186|292:152|384:152,1,144,6|0,1:1|1:0,0:0:0:0:
291,78,39164,2,0,P|285:41|290:2,1,72,2|0,0:0|1:0,0:0:0:0:
384,151,39483,2,0,P|378:114|383:75,1,72,0|2,0:0|1:2,0:0:0:0:
480,209,39802,2,0,P|474:172|479:133,1,72,0|2,0:0|1:2,0:0:0:0:
389,327,40122,5,0,0:0:0:0:
389,327,40281,2,0,L|465:303,1,72,2|2,1:2|0:3,0:0:0:0:
472,323,40520,1,2,0:3:0:0:
472,323,40600,1,2,1:3:0:0:
284,375,40760,1,2,0:0:0:0:
256,289,40919,2,0,L|180:265,1,72,0|0,1:0|0:0,0:0:0:0:
82,371,41239,2,0,L|150:349,1,72,2|0,1:2|0:0,0:0:0:0:
19,237,41558,6,0,P|11:175|22:84,1,144,2|2,1:2|1:2,0:0:0:0:
112,147,42036,2,0,P|152:136|174:114,1,72,2|0,0:0|1:2,0:0:0:0:
278,15,42356,1,0,0:0:0:0:
278,15,42515,2,0,P|318:26|340:48,1,72,2|0,1:3|0:0,0:0:0:0:
334,150,42834,1,0,1:0:0:0:
470,90,42994,2,0,B|413:94|413:94|391:123|391:123|318:132,1,144,2|0,0:3|0:0,0:0:0:0:
443,245,43473,6,0,P|448:208|463:174,1,72,2|0,1:3|0:0,0:0:0:0:
391,327,43792,2,0,P|420:349|442:379,1,72,2|0,1:2|0:0,0:0:0:0:
351,246,44111,2,0,P|316:260|279:264,1,72,0|2,1:0|0:3,0:0:0:0:
258,249,44350,1,2,0:3:0:0:
258,249,44430,1,2,1:3:0:0:
108,190,44590,1,2,0:0:0:0:
172,119,44749,2,0,L|152:50,1,72,2|0,1:2|0:0,0:0:0:0:
64,264,45068,5,2,1:2:0:0:
0,193,45228,2,0,L|20:124,1,72,2|0,0:0|1:0,0:0:0:0:
151,49,45547,2,0,P|181:72|222:81,1,72,2|0,0:0|1:0,0:0:0:0:
358,118,45866,1,2,0:0:0:0:
358,118,46026,2,0,P|323:127|295:149,1,72,2|0,1:3|0:0,0:0:0:0:
320,280,46345,1,2,1:2:0:0:
320,280,46505,2,0,P|285:270|257:248,1,72,0|2,0:0|1:2,0:0:0:0:
485,376,46983,5,2,1:3:0:0:
485,376,47143,2,0,L|505:303,1,72,2|0,0:0|1:0,0:0:0:0:
478,221,47462,1,2,0:3:0:0:
478,221,47622,2,0,L|458:148,1,72,2|0,1:2|0:0,0:0:0:0:
500,75,47941,1,2,1:2:0:0:
314,80,48100,6,0,L|294:149,1,72,0|2,0:0|1:2,0:0:0:0:
212,42,48419,1,0,0:0:0:0:
135,105,48579,2,0,L|115:35,1,72,2|2,1:2|0:3,0:0:0:0:
92,33,48818,1,2,0:3:0:0:
92,33,48898,1,2,1:3:0:0:
24,142,49058,1,2,0:3:0:0:
24,142,49138,1,2,0:3:0:0:
24,142,49217,2,0,P|10:175|6:214,1,72,2|2,1:3|0:3,0:0:0:0:
27,234,49457,1,2,0:3:0:0:
27,234,49536,2,0,P|41:267|45:306,1,72,2|2,1:3|0:0,0:0:0:0:
6,376,49856,1,0,1:0:0:0:
202,295,50015,6,0,L|137:259,1,72,2|0,0:0|1:0,0:0:0:0:
300,219,50334,2,0,L|235:183,1,72,2|2,0:0|1:3,0:0:0:0:
255,353,50653,2,0,L|190:317,1,72,2|2,0:0|1:3,0:0:0:0:
396,268,50973,1,2,0:0:0:0:
396,268,51132,2,0,L|461:232,1,72,2|0,1:3|0:0,0:0:0:0:
468,216,51372,1,2,0:0:0:0:
476,197,51451,6,0,B|427:174|427:174|411:138|411:138|364:120,1,144,2|2,1:0|1:2,0:0:0:0:
337,18,51930,1,2,0:0:0:0:
210,70,52090,2,0,P|270:64|366:21,1,144,2|2,1:2|1:2,0:0:0:0:
199,194,52568,1,2,0:0:0:0:
254,261,52728,2,0,L|236:334,1,72,2|0,1:2|0:0,0:0:0:0:
22,283,53047,5,2,1:2:0:0:
88,352,53207,2,0,L|53:212,2,144,2|2|2,0:0|0:0|0:0,0:0:0:0:
12,116,54005,2,0,B|45:129|45:129|108:106|92:28,1,144,2|2,1:2|1:3,0:0:0:0:
223,0,54483,6,0,P|229:47|243:78,1,72,2|2,0:3|1:2,0:0:0:0:
315,118,54802,2,0,P|321:71|335:40,1,72,2|2,0:3|1:3,0:0:0:0:
446,139,55122,2,0,P|433:41|404:-22,1,144,2|0,0:0|0:0,0:0:0:0:
307,219,55600,1,0,1:0:0:0:
307,219,55760,2,0,L|378:190,1,72,2|0,0:0|1:0,0:0:0:0:
301,315,56079,5,2,0:3:0:0:
301,315,56159,1,2,0:3:0:0:
301,315,56239,2,0,L|230:286,1,72,2|2,1:3|0:3,0:0:0:0:
0,233,56558,2,0,B|75:253|75:253|152:226,1,144,2|2,1:3|1:2,0:0:0:0:
91,139,57036,1,2,0:3:0:0:
91,139,57116,1,2,0:3:0:0:
91,139,57196,1,2,1:3:0:0:
178,125,57356,1,2,0:3:0:0:
137,40,57515,2,0,B|218:41|180:5|288:9,1,144,2|2,1:3|1:2,0:0:0:0:
358,233,58153,5,2,1:2:0:0:
282,280,58313,1,2,0:0:0:0:
385,333,58473,2,0,P|384:289|424:193,1,144,2|2,1:2|1:2,0:0:0:0:
482,130,58951,1,2,0:2:0:0:
420,197,59111,2,0,P|417:234|424:284,1,72,2|0,1:2|0:0,0:0:0:0:
386,75,59430,5,2,1:2:0:0:
318,142,59590,2,0,B|277:131|277:131|239:163|179:161,2,144,2|2|2,0:0|0:0|0:0,0:0:0:0:
282,11,60388,1,2,1:3:0:0:
196,29,60547,2,0,L|280:1,1,72,2|2,0:0|1:3,0:0:0:0:
108,69,60866,1,2,0:0:0:0:
108,69,61026,2,0,L|24:41,1,72,0|2,1:0|0:0,0:0:0:0:
1,227,61345,5,0,1:0:0:0:
43,157,61505,2,0,P|31:220|45:304,1,144,2|2,0:0|0:3,0:0:0:0:
29,322,61903,1,2,0:3:0:0:
29,322,61983,1,2,1:3:0:0:
157,251,62143,1,2,0:3:0:0:
135,339,62302,1,2,1:3:0:0:
263,268,62462,2,0,P|301:255|337:249,1,72,2|0,0:3|1:0,0:0:0:0:
428,208,62781,5,2,0:3:0:0:
428,208,62941,1,0,1:0:0:0:
332,249,63100,1,2,0:0:0:0:
379,50,63260,1,2,1:2:0:0:
279,87,63419,2,0,B|280:54|280:54|234:-1|234:-1|196:48,1,144,2|2,0:0|0:3,0:0:0:0:
137,108,63898,2,0,P|154:143|163:181,1,72,2|2,0:3|0:0,0:0:0:0:
38,54,64217,6,0,P|13:107|0:163,1,116.999994644165,6|0,0:0|0:0,0:0:0:0:
65,226,64696,2,0,P|40:279|26:335,1,116.999994644165,2|2,0:0|0:0,0:0:0:0:
25,335,65494,1,0,0:0:0:0:
215,373,65813,6,0,L|334:348,1,116.999994644165,2|0,1:2|1:0,0:0:0:0:
378,275,66292,2,0,L|497:300,1,116.999994644165,2|0,0:0|0:0,0:0:0:0:
393,187,66770,2,0,L|278:162,1,116.999994644165,2|8,0:0|0:0,0:0:0:0:
141,35,67409,6,0,P|186:34|252:-4,1,116.999994644165,2|4,1:2|0:3,0:0:0:0:
194,149,67888,2,0,P|144:118|86:114,1,116.999994644165,2|0,0:0|0:0,0:0:0:0:
443,90,68526,1,2,0:0:0:0:
508,161,68685,1,0,0:0:0:0:
501,4,68845,1,2,0:0:0:0:
490,188,69005,6,0,P|475:234|494:302,1,116.999994644165,2|0,1:2|1:0,0:0:0:0:
344,366,69483,2,0,P|359:320|340:252,1,116.999994644165,2|0,0:0|0:0,0:0:0:0:
203,297,69962,2,0,P|193:325|190:358,1,58.4999973220826,2|0,1:2|0:0,0:0:0:0:
105,297,70281,2,0,P|101:267|91:240,1,58.4999973220826,8|0,0:0|0:0,0:0:0:0:
41,28,70600,6,0,L|15:151,1,116.999994644165,6|0,1:2|0:0,0:0:0:0:
117,65,71079,2,0,P|145:58|183:41,1,58.4999973220826,2|8,0:0|0:0,0:0:0:0:
172,46,71398,1,2,0:0:0:0:
357,36,71558,2,0,P|303:13|246:-1,1,116.999994644165,2|0,0:0|0:0,0:0:0:0:
332,157,72196,6,0,P|324:189|334:276,1,116.999994644165,2|0,1:2|0:0,0:0:0:0:
426,256,72675,2,0,P|418:288|428:375,1,116.999994644165,2|0,0:0|0:0,0:0:0:0:
183,186,73313,1,2,0:0:0:0:
183,186,73473,2,0,L|164:127,1,58.4999973220826,8|0,0:0|0:0,0:0:0:0:
51,53,73792,6,0,L|10:177,1,116.999994644165,2|0,1:2|0:0,0:0:0:0:
91,233,74270,2,0,L|126:344,1,116.999994644165,2|0,0:0|0:0,0:0:0:0:
251,376,74749,2,0,P|285:369|315:356,1,58.4999973220826
355,263,75068,2,0,P|321:256|291:243,1,58.4999973220826,2|0,0:0|0:0,0:0:0:0:
408,130,75388,6,0,P|428:168|506:177,1,116.999994644165,2|8,1:2|0:3,0:0:0:0:
424,34,75866,2,0,L|487:21,1,58.4999973220826,2|4,0:0|0:3,0:0:0:0:
334,68,76185,1,0,0:0:0:0:
334,68,76345,2,0,L|271:55,1,58.4999973220826
135,162,76664,2,0,L|9:186,1,116.999994644165,10|2,0:0|0:0,0:0:0:0:
21,184,77941,5,2,0:0:0:0:
31,213,78260,1,2,0:0:0:0:
44,244,78579,2,0,B|73:175|26:106|26:106|49:36,1,215.999993408203,6|0,1:1|1:0,0:0:0:0:
280,7,79058,5,10,0:1:0:0:
215,75,79217,2,0,P|189:70|142:27,1,90,0|8,1:0|0:3,0:0:0:0:
301,177,79536,2,0,P|330:143|373:130,1,90,2|0,1:1|0:0,0:0:0:0:
399,226,79856,2,0,P|428:192|471:179,1,90,10|0,0:1|0:0,0:0:0:0:
376,352,80175,6,0,B|331:367|331:367|298:320|212:308,1,180,10|0,0:1|1:0,0:0:0:0:
23,226,80653,2,0,P|33:266|23:320,1,90,10|0,0:1|1:0,0:0:0:0:
104,179,80973,1,8,0:3:0:0:
81,95,81132,2,0,P|73:50|83:7,1,90,2|0,1:1|0:0,0:0:0:0:
0,143,81451,1,2,3:2:0:0:
0,143,81531,1,0,3:0:0:0:
0,143,81611,1,0,3:0:0:0:
83,7,81770,6,0,B|205:11|127:74|254:77,1,180,2|0,1:1|1:0,0:0:0:0:
354,197,82249,2,0,P|399:184|494:168,1,135,10|0,0:1|0:0,0:0:0:0:
486,142,82568,1,8,0:3:0:0:
413,266,82728,2,0,L|444:357,1,90,2|0,1:1|0:0,0:0:0:0:
288,384,83047,2,0,L|317:298,1,90,10|0,0:1|0:0,0:0:0:0:
215,133,83366,6,0,B|217:95|217:95|171:18|171:18|120:60,1,180,2|0,1:1|1:0,0:0:0:0:
10,136,83845,2,0,P|30:187|50:279,1,135,10|0,0:1|0:0,0:0:0:0:
36,289,84164,1,8,0:3:0:0:
218,271,84324,2,0,L|132:235,1,90,2|0,1:1|0:0,0:0:0:0:
298,98,84643,2,0,L|212:134,1,90,2|0,3:2|3:0,0:0:0:0:
208,152,84882,1,0,3:0:0:0:
202,172,84962,6,0,B|269:180|269:180|293:211|293:211|374:224,1,180,2|0,1:1|1:0,0:0:0:0:
494,122,85441,1,10,0:1:0:0:
429,81,85600,2,0,P|424:49|390:1,1,90,0|8,1:0|0:3,0:0:0:0:
365,222,85919,2,0,P|360:254|326:302,1,90,2|0,1:1|0:0,0:0:0:0:
432,304,86239,2,0,P|427:336|393:384,1,90,10|0,0:1|0:0,0:0:0:0:
143,361,86558,5,2,1:1:0:0:
148,342,86717,1,0,0:0:0:0:
155,322,86877,1,0,1:0:0:0:
6,178,87036,5,10,0:1:0:0:
107,225,87196,1,0,1:0:0:0:
33,290,87356,1,8,0:3:0:0:
95,111,87515,2,0,B|144:132|198:99|198:99|200:64|228:31,1,180,10|10,0:1|0:0,0:0:0:0:
437,74,87994,5,0,3:0:0:0:
437,74,88074,1,0,3:0:0:0:
437,74,88153,2,0,B|381:66|381:66|362:105|362:105|278:142,1,180,2|0,1:1|1:0,0:0:0:0:
455,235,88632,2,0,P|435:199|430:146,1,90,10|0,0:1|1:0,0:0:0:0:
220,218,88951,1,8,0:3:0:0:
321,223,89111,1,2,1:1:0:0:
288,137,89270,1,0,0:0:0:0:
254,301,89430,2,0,P|234:337|229:390,1,90,10|0,0:1|0:0,0:0:0:0:
87,292,89749,6,0,P|82:247|61:208,1,90,2|0,1:1|0:0,0:0:0:0:
0,51,90068,1,0,1:0:0:0:
81,87,90228,2,0,B|132:65|167:89|167:89|220:66|221:14,1,180,10|0,0:1|0:0,0:0:0:0:
477,123,90707,2,0,L|387:89,1,90,8|8,0:0|0:0,0:0:0:0:
220,22,91026,5,2,1:2:0:0:
330,0,91185,1,2,0:0:0:0:
283,115,91345,6,0,B|246:143|246:143|227:214|272:280,1,180,6|0,1:1|1:0,0:0:0:0:
406,371,91824,2,0,P|360:360|311:375,1,90,10|0,0:1|1:0,0:0:0:0:
471,242,92143,1,8,0:3:0:0:
367,262,92302,2,0,P|413:251|462:266,1,90,2|0,1:1|0:0,0:0:0:0:
493,56,92622,2,0,B|490:91|490:91|456:139|456:139|426:104,1,135,10|0,0:1|0:0,0:0:0:0:
415,71,92941,6,0,B|351:48|351:48|339:7|339:7|265:-13,1,180,2|0,1:1|1:0,0:0:0:0:
35,68,93419,1,10,0:1:0:0:
134,133,93579,1,0,1:0:0:0:
116,39,93739,1,8,0:3:0:0:
59,167,93898,2,0,P|30:222|43:353,1,180,2|10,1:1|0:2,0:0:0:0:
121,253,94377,5,0,3:0:0:0:
121,253,94457,1,0,3:0:0:0:
121,253,94536,2,0,B|166:239|166:239|206:289|300:292,1,180,2|0,1:1|1:0,0:0:0:0:
423,381,95015,2,0,L|395:246,1,135,10|0,0:1|0:0,0:0:0:0:
375,233,95334,1,8,0:3:0:0:
309,88,95494,2,0,L|328:-6,1,90,2|0,1:1|0:0,0:0:0:0:
429,45,95813,2,0,L|447:133,1,90,10|0,0:1|0:0,0:0:0:0:
284,291,96132,6,0,B|233:269|198:293|198:293|145:270|144:218,1,180,2|0,1:1|1:0,0:0:0:0:
7,343,96611,1,10,0:1:0:0:
45,250,96770,2,0,P|32:296|28:338,1,90,0|8,1:0|0:0,0:0:0:0:
144,226,97090,2,0,P|139:181|127:138,1,90,2|0,1:2|0:0,0:0:0:0:
90,0,97409,5,2,1:2:0:0:
180,33,97568,1,8,0:0:0:0:
39,95,97728,1,2,1:2:0:0:
353,72,98685,5,2,0:0:0:0:
494,186,99324,1,2,0:0:0:0:
452,51,100281,1,2,0:0:0:0:
405,211,100919,1,2,0:0:0:0:
16,377,102515,6,0,P|23:340|46:262,1,116.999994644165,2|0,0:0|0:0,0:0:0:0:
166,287,102994,2,0,L|227:272,1,58.4999973220826,2|0,0:0|0:0,0:0:0:0:
274,355,103313,2,0,L|391:383,1,116.999994644165,2|0,0:0|0:0,0:0:0:0:
432,250,103792,2,0,L|488:236,1,58.4999973220826,2|0,0:0|0:0,0:0:0:0:
477,103,104111,5,2,0:0:0:0:
399,139,104270,2,0,P|374:171|288:164,1,116.999994644165,2|2,0:0|0:0,0:0:0:0:
35,70,105068,2,0,L|65:17,1,58.4999973220826,2|2,0:0|0:0,0:0:0:0:
83,26,105308,1,2,0:0:0:0:
104,40,105388,2,0,P|103:78|146:151,1,116.999994644165,2|2,0:0|0:0,0:0:0:0:
235,60,105866,6,0,L|265:7,1,58.4999973220826,0|2,0:0|0:0,0:0:0:0:
334,50,106185,2,0,L|362:100,1,58.4999973220826,0|2,0:0|0:0,0:0:0:0:
455,206,106505,2,0,P|485:194|511:190,1,58.4999973220826
417,291,106824,2,0,P|387:279|361:275,1,58.4999973220826,2|0,0:0|0:0,0:0:0:0:
432,181,107143,6,0,P|462:169|488:165,1,58.4999973220826,0|2,0:0|0:0,0:0:0:0:
394,266,107462,2,0,P|364:254|338:250,1,58.4999973220826,0|2,0:0|0:0,0:0:0:0:
126,277,107781,1,2,0:0:0:0:
208,301,107941,1,2,0:0:0:0:
197,216,108100,1,0,0:0:0:0:
134,367,108260,2,0,P|68:340|11:332,1,116.999994644165,2|0,0:0|0:0,0:0:0:0:
0,217,108739,6,0,B|26:204|26:204|30:161|76:119,1,116.999994644165,2|2,0:0|0:0,0:0:0:0:
108,1,109217,1,2,0:0:0:0:
47,73,109377,2,0,P|53:102|73:136,1,58.4999973220826,0|2,0:0|0:0,0:0:0:0:
220,29,109696,1,0,0:0:0:0:
163,143,109856,2,0,L|196:20,2,116.999994644165,2|2|2,0:0|0:0|0:0,0:0:0:0:
272,271,110813,5,0,0:0:0:0:
272,271,110973,2,0,L|302:384,1,116.999994644165,2|0,0:0|0:0,0:0:0:0:
372,304,111451,2,0,P|399:298|423:274,1,58.4999973220826,2|0,0:0|0:0,0:0:0:0:
495,125,111770,1,2,0:0:0:0:
495,125,111850,1,2,0:0:0:0:
495,125,111930,1,2,0:0:0:0:
402,157,112090,6,0,P|347:144|299:96,1,116.999994644165,2|2,0:0|0:0,0:0:0:0:
90,22,112568,1,2,0:0:0:0:
183,54,112728,2,0,P|237:41|285:-6,1,116.999994644165,2|0,0:0|0:0,0:0:0:0:
221,184,113207,2,0,P|178:144|122:131,1,116.999994644165,2|2,0:0|0:0,0:0:0:0:
53,206,113685,5,0,0:0:0:0:
53,206,113845,2,0,P|62:239|68:277,1,58.4999973220826,2|0,0:0|0:0,0:0:0:0:
66,262,114164,1,0,0:0:0:0:
146,383,114324,2,0,P|158:316|176:251,1,116.999994644165,2|2,0:0|0:0,0:0:0:0:
171,268,114802,1,2,0:0:0:0:
364,299,114962,2,0,P|358:270|350:242,1,58.4999973220826,2|2,0:0|0:0,0:0:0:0:
260,95,115281,6,0,B|260:64|260:64|298:0|298:0|324:31,1,144,6|0,1:1|1:0,0:0:0:0:
512,92,115760,2,0,L|487:20,1,72,2|0,0:0|1:0,0:0:0:0:
422,86,116079,2,0,L|398:154,1,72,0|0,0:0|1:0,0:0:0:0:
508,292,116398,2,0,L|483:220,1,72,2|0,0:0|1:2,0:0:0:0:
433,367,116717,5,2,0:0:0:0:
364,299,116877,2,0,B|301:324|301:324|225:288,1,144,2|2,1:3|1:3,0:0:0:0:
154,371,117356,2,0,P|149:328|108:233,1,144,2|2,0:0|0:3,0:0:0:0:
23,265,117834,1,2,1:2:0:0:
23,265,117994,1,0,0:0:0:0:
0,157,118153,2,0,L|35:88,1,72,2|2,1:3|0:3,0:0:0:0:
184,86,118473,6,0,L|151:21,1,72,2|2,1:3|0:3,0:0:0:0:
244,135,118792,2,0,L|211:70,1,72,2|0,1:3|0:0,0:0:0:0:
321,196,119111,5,2,1:2:0:0:
399,171,119270,1,2,0:0:0:0:
356,281,119430,1,2,1:2:0:0:
405,148,119590,2,0,P|440:158|479:146,1,72,2|0,0:0|1:0,0:0:0:0:
343,49,119909,2,0,B|303:36|303:36|264:77|202:70,1,144,2|0,0:0|0:0,0:0:0:0:
17,118,120388,5,2,1:2:0:0:
101,168,120547,1,2,0:3:0:0:
101,168,120627,1,2,0:3:0:0:
101,168,120707,1,2,1:3:0:0:
91,77,120866,1,2,0:3:0:0:
33,213,121026,1,2,1:3:0:0:
90,293,121185,1,2,0:3:0:0:
90,293,121345,2,0,P|148:295|177:375,1,144,2|2,1:2|1:2,0:0:0:0:
239,214,121824,6,0,P|240:182|259:135,1,72,0|0,0:0|1:0,0:0:0:0:
339,187,122143,2,0,B|394:198|394:198|412:229|412:229|479:242,1,144,8|0,0:3|0:0,0:0:0:0:
272,350,122622,2,0,L|418:318,1,144,2|2,1:3|1:3,0:0:0:0:
179,366,123100,2,0,P|154:346|111:337,1,72,0|2,0:0|1:2,0:0:0:0:
0,253,123419,6,0,P|34:245|63:223,1,72,2|0,0:3|1:0,0:0:0:0:
50,203,123659,1,2,0:0:0:0:
50,203,123739,2,0,P|84:195|113:173,1,72,2|2,0:0|1:3,0:0:0:0:
100,35,124058,1,0,0:0:0:0:
132,104,124217,2,0,L|112:178,1,72,2|0,1:2|0:0,0:0:0:0:
249,129,124536,2,0,L|230:59,1,72,2|0,1:3|0:0,0:0:0:0:
230,59,124856,1,2,1:2:0:0:
377,0,125015,5,2,0:3:0:0:
453,33,125175,2,0,P|490:23|516:-6,1,72,2|2,1:2|0:0,0:0:0:0:
428,143,125494,2,0,P|402:118|367:109,1,72,2|2,1:2|0:0,0:0:0:0:
298,212,125813,2,0,B|337:201|337:201|397:221|394:295,1,144,2|2,1:2|1:2,0:0:0:0:
205,306,126292,6,0,P|192:348|185:382,1,72,2|2,0:0|1:3,0:0:0:0:
132,237,126611,2,0,P|174:227|207:216,1,72,2|2,0:0|1:3,0:0:0:0:
112,332,126930,2,0,P|82:299|56:276,1,72,2|2,0:0|1:3,0:0:0:0:
0,78,127249,2,0,L|20:155,1,72,2|2,0:0|1:3,0:0:0:0:
118,23,127568,2,0,L|99:92,1,72,2|2,0:0|1:3,0:0:0:0:
247,19,127888,5,2,0:0:0:0:
195,117,128047,2,0,B|187:88|187:88|206:17|206:17|245:35,1,144,6|2,1:1|1:2,0:0:0:0:
364,152,128526,1,2,0:0:0:0:
317,89,128685,2,0,B|373:99|373:99|393:129|393:129|457:140,1,144,2|2,1:2|1:2,0:0:0:0:
418,244,129164,1,2,0:0:0:0:
489,285,129324,2,0,L|499:364,1,72,2|0,1:2|0:0,0:0:0:0:
326,302,129643,5,2,1:2:0:0:
385,372,129802,2,0,B|297:358|344:338|250:329,2,144,2|2|2,0:0|0:0|0:3,0:0:0:0:
239,229,130600,1,2,1:3:0:0:
239,229,130760,2,0,P|204:247|169:258,1,72,2|0,0:0|1:0,0:0:0:0:
75,310,131079,6,0,P|83:268|76:165,1,144,2|2,0:3|0:3,0:0:0:0:
7,225,131558,1,2,1:3:0:0:
7,225,131717,2,0,P|-2:153|5:82,1,144,2|0,0:0|0:0,0:0:0:0:
128,8,132196,2,0,L|111:78,1,72,0|2,1:0|0:3,0:0:0:0:
124,91,132435,1,2,0:3:0:0:
140,106,132515,6,0,B|180:100|212:113|212:113|245:89|250:50,1,144,2|2,1:2|1:2,0:0:0:0:
238,213,132994,2,0,B|237:250|237:250|264:295|264:295|305:260,1,144,2|0,0:0|0:0,0:0:0:0:
467,304,133473,1,2,1:3:0:0:
414,178,133632,2,0,L|377:325,1,144,2|0,0:0|0:0,0:0:0:0:
507,137,134111,5,2,1:3:0:0:
507,137,134270,2,0,L|484:46,1,72,0|2,0:0|1:2,0:0:0:0:
489,67,134590,1,0,0:0:0:0:
317,35,134749,2,0,P|352:26|382:1,1,72,2|2,1:2|0:0,0:0:0:0:
250,104,135068,2,0,P|191:57|118:38,1,144,2|2,1:2|1:2,0:0:0:0:
125,148,135547,1,2,0:0:0:0:
125,148,135707,2,0,P|56:167|0:212,1,144,2|2,1:2|1:2,0:0:0:0:
69,354,136185,6,0,P|65:317|71:278,1,72,2|0,0:0|1:0,0:0:0:0:
168,321,136505,2,0,P|164:284|170:245,1,72,2|2,0:0|1:3,0:0:0:0:
321,124,136824,2,0,L|294:58,1,72,2|2,0:0|1:3,0:0:0:0:
495,25,137143,2,0,P|437:19|406:98,1,144,2|2,0:0|0:0,0:0:0:0:
486,190,137622,6,0,P|474:247|466:337,1,144,2|2,1:2|1:3,0:0:0:0:
375,384,138100,2,0,P|369:312|355:241,1,144,2|0,0:0|0:0,0:0:0:0:
274,193,138579,1,0,1:0:0:0:
254,329,138739,2,0,B|186:349|186:349|103:322,1,144,2|2,0:3|0:3,0:0:0:0:
1,234,139217,5,0,1:0:0:0:
59,181,139377,1,2,0:0:0:0:
17,110,139536,1,0,1:0:0:0:
75,57,139696,1,2,0:3:0:0:
201,6,139856,5,2,1:2:0:0:
228,101,140015,1,0,0:0:0:0:
338,42,140175,2,0,P|376:29|425:18,1,72,2|0,1:2|0:0,0:0:0:0:
467,250,140494,2,0,P|432:241|398:229,1,72,2|0,1:2|0:0,0:0:0:0:
442,136,140813,5,4,0:0:0:0:
123,100,153579,6,0,P|87:96|8:60,1,116.999994644165,2|0,1:2|1:0,0:0:0:0:
105,244,154217,2,0,P|157:217|214:208,1,116.999994644165,8|0,0:0|0:0,0:0:0:0:
307,114,154696,2,0,L|334:-9,1,116.999994644165,8|8,0:0|0:0,0:0:0:0:
408,56,155175,6,0,L|433:170,2,116.999994644165,2|2|10,1:2|1:2|0:0,0:0:0:0:
433,307,156132,2,0,P|422:341|418:370,1,58.4999973220826,2|0,1:2|0:0,0:0:0:0:
262,300,156451,5,8,0:0:0:0:
179,369,156611,1,8,0:0:0:0:
243,320,156770,6,0,P|232:261|213:205,1,116.999994644165,2|0,1:2|1:0,0:0:0:0:
0,184,157409,2,0,P|11:125|30:69,1,116.999994644165,10|0,0:0|0:0,0:0:0:0:
181,66,157888,2,0,L|296:38,1,116.999994644165,8|8,0:0|0:0,0:0:0:0:
348,109,158366,6,0,L|463:137,2,116.999994644165,2|2|8,1:2|1:2|0:0,0:0:0:0:
399,315,159324,2,0,P|429:302|466:295,1,58.4999973220826,2|0,1:2|0:0,0:0:0:0:
345,243,159643,5,8,0:0:0:0:
306,350,159802,1,8,0:0:0:0:
253,281,159962,6,0,P|223:268|186:261,1,58.4999973220826,2|0,1:2|0:0,0:0:0:0:
165,355,160281,2,0,P|135:368|98:375,1,58.4999973220826,0|0,1:0|0:0,0:0:0:0:
1,212,160600,2,0,P|-7:265|8:338,1,116.999994644165,8|2,0:0|1:2,0:0:0:0:
97,182,161079,2,0,L|72:128,1,58.4999973220826,8|0,0:0|0:0,0:0:0:0:
222,209,161398,5,8,0:0:0:0:
222,209,161558,2,0,L|197:262,1,58.4999973220826,2|0,1:2|0:0,0:0:0:0:
312,156,161877,2,0,L|336:102,1,58.4999973220826,0|0,1:0|0:0,0:0:0:0:
247,213,162196,2,0,L|222:266,1,58.4999973220826,8|0,0:0|0:0,0:0:0:0:
337,160,162515,2,0,L|361:106,1,58.4999973220826,0|0,1:0|0:0,0:0:0:0:
197,32,162834,5,10,0:0:0:0:
291,0,162994,1,8,0:0:0:0:
204,10,163153,6,0,P|166:1|133:-1,1,58.4999973220826,2|0,1:2|0:0,0:0:0:0:
64,44,163473,2,0,P|26:35|-7:33,1,58.4999973220826,0|0,1:0|0:0,0:0:0:0:
36,175,163792,2,0,P|108:157|172:153,1,116.999994644165,8|2,0:0|0:0,0:0:0:0:
261,270,164270,2,0,P|260:299|280:334,1,58.4999973220826,8|2,0:0|0:0,0:0:0:0:
368,309,164590,1,8,0:0:0:0:
368,309,164749,2,0,P|368:337|356:364,1,58.4999973220826,0|0,1:0|0:0,0:0:0:0:
414,214,165068,6,0,L|476:202,1,58.4999973220826,0|0,1:0|0:0,0:0:0:0:
454,119,165388,2,0,L|516:131,1,58.4999973220826,8|0,0:0|0:0,0:0:0:0:
267,92,165707,5,0,1:0:0:0:
364,62,165866,1,8,0:0:0:0:
288,4,166026,1,8,0:0:0:0:
338,153,166185,1,8,0:0:0:0:
256,192,166265,12,0,167781,0:0:0:0:
456,188,167941,6,0,P|452:226|458:277,1,80.9999975280763,2|0,0:0|0:0,0:0:0:0:
377,314,168419,2,0,P|353:302|288:282,1,80.9999975280763,2|0,0:0|0:0,0:0:0:0:
225,178,168898,2,0,P|263:166|300:148,1,80.9999975280763,2|0,0:0|0:0,0:0:0:0:
111,19,169536,6,0,L|89:103,1,80.9999975280763,2|0,0:0|0:0,0:0:0:0:
0,106,170015,2,0,L|22:190,1,80.9999975280763,2|0,0:0|0:0,0:0:0:0:
117,258,170494,2,0,L|95:342,1,80.9999975280763,2|0,0:0|0:0,0:0:0:0:
225,178,171132,6,0,B|379:180|276:97|461:108,1,242.999992584229,2|0,0:0|0:0,0:0:0:0:
484,373,172728,6,0,P|481:347|462:289,1,80.9999975280763,2|0,0:0|0:0,0:0:0:0:
353,257,173207,2,0,P|350:283|331:341,1,80.9999975280763,2|0,0:0|0:0,0:0:0:0:
248,372,173685,2,0,L|160:350,1,80.9999975280763,2|0,0:0|0:0,0:0:0:0:
11,121,174324,6,0,L|99:99,1,80.9999975280763,2|0,0:0|0:0,0:0:0:0:
145,22,174802,1,0,0:0:0:0:
145,22,174962,1,0,0:0:0:0:
290,77,175281,6,0,P|294:118|315:158,1,80.9999975280763,2|0,0:0|0:0,0:0:0:0:
461,214,175919,2,0,P|478:177|482:137,1,80.9999975280763,2|0,0:0|0:0,0:0:0:0:
433,68,176398,2,0,L|415:17,1,40.4999987640381,2|0,0:0|0:0,0:0:0:0:
351,276,176877,2,0,L|322:357,1,80.9999975280763,2|0,0:0|0:0,0:0:0:0:
6,260,177515,6,0,P|45:257|87:260,1,80.9999975280763,2|0,0:0|0:0,0:0:0:0:
89,168,177994,1,0,0:0:0:0:
88,168,178153,2,0,P|128:164|168:168,1,80.9999975280763,0|2,0:0|0:0,0:0:0:0:
391,68,178792,5,2,0:0:0:0:
451,132,178951,1,0,0:0:0:0:
485,4,179111,1,2,0:0:0:0:
369,202,180707,1,2,0:0:0:0:
15,78,182302,6,0,P|25:118|36:187,1,99.0000030212403,2|0,0:0|0:0,0:0:0:0:
120,128,182781,1,0,0:0:0:0:
120,128,182941,2,0,P|127:79|139:31,1,99.0000030212403
234,120,183419,5,0,0:0:0:0:
234,120,183579,2,0,P|244:160|255:229,1,99.0000030212403
339,170,184058,1,0,0:0:0:0:
339,170,184218,2,0,P|346:121|358:73,1,99.0000030212403
447,82,184696,2,0,L|499:66,1,49.5000015106202
256,308,185175,2,0,L|308:324,1,49.5000015106202
413,377,185494,6,0,P|439:365|513:354,1,99.0000030212403,2|0,0:0|0:0,0:0:0:0:
465,251,185973,2,0,P|415:245|369:227,1,99.0000030212403,2|2,0:0|0:0,0:0:0:0:
376,374,186451,2,0,P|402:362|476:351,1,99.0000030212403,2|2,0:0|0:0,0:0:0:0:
271,151,187090,6,0,P|276:122|265:38,1,99.0000030212403,2|0,0:0|0:0,0:0:0:0:
186,55,187568,2,0,L|135:34,1,49.5000015106202,2|0,0:0|0:0,0:0:0:0:
47,109,187888,2,0,L|1:127,1,49.5000015106202,2|0,0:0|0:0,0:0:0:0:
0,326,188366,2,0,P|6:357|8:392,1,49.5000015106202
92,316,188685,6,0,P|97:260|109:205,1,99.0000030212403,2|0,0:0|0:0,0:0:0:0:
194,252,189164,2,0,L|250:238,1,49.5000015106202,2|0,0:0|0:0,0:0:0:0:
292,138,189483,2,0,L|397:166,1,99.0000030212403,2|0,0:0|0:0,0:0:0:0:
441,93,189962,2,0,P|435:67|424:44,1,49.5000015106202
511,201,190281,6,0,P|500:223|495:247,2,49.5000015106202,2|0|0,0:0|0:0|0:0,0:0:0:0:
375,338,190919,2,0,P|385:360|390:384,2,49.5000015106202,2|0|0,0:0|0:0|0:0,0:0:0:0:
154,360,191558,2,0,L|216:337,1,49.5000015106202,2|0,0:0|0:0,0:0:0:0:
126,265,191877,6,0,P|86:260|18:231,1,99.0000030212403,2|0,0:0|0:0,0:0:0:0:
98,162,192356,2,0,L|160:139,1,49.5000015106202,2|0,0:0|0:0,0:0:0:0:
210,30,192675,2,0,P|256:48|305:56,1,99.0000030212403,2|0,0:0|0:0,0:0:0:0:
339,146,193153,2,0,L|401:123,1,49.5000015106202,2|0,0:0|0:0,0:0:0:0:
400,259,193473,6,0,L|504:297,1,99.0000030212403,2|0,0:0|0:0,0:0:0:0:
351,342,193951,2,0,L|258:307,1,99.0000030212403,2|0,0:0|0:0,0:0:0:0:
0,316,194430,2,0,L|92:281,1,99.0000030212403,2|2,0:0|0:0,0:0:0:0:
92,281,194909,1,0,0:0:0:0:
146,52,195068,6,0,P|39:75|1:175,1,215.999993408203,6|0,1:1|1:0,0:0:0:0:
92,281,195547,1,10,0:1:0:0:
141,209,195707,2,0,P|178:196|235:189,1,90,0|8,1:0|0:3,0:0:0:0:
425,56,196026,2,0,P|380:50|337:36,1,90,2|0,1:1|0:0,0:0:0:0:
465,166,196345,2,0,P|420:160|377:146,1,90,10|0,0:1|0:0,0:0:0:0:
462,347,196664,6,0,B|470:273|390:250|390:250|368:306,1,180,2|0,1:1|1:0,0:0:0:0:
126,364,197143,1,10,0:1:0:0:
221,290,197302,1,0,1:0:0:0:
272,362,197462,1,8,0:3:0:0:
198,280,197622,2,0,L|172:184,1,90,2|0,1:1|0:0,0:0:0:0:
34,5,197941,2,0,L|10:91,1,90,2|0,3:2|3:0,0:0:0:0:
28,106,198180,1,0,3:0:0:0:
50,116,198260,6,0,B|118:97|118:97|132:65|132:65|214:50,1,180,2|0,1:1|1:0,0:0:0:0:
65,217,198739,2,0,B|65:260|65:260|39:313|39:313|1:273,1,135,10|0,0:1|0:0,0:0:0:0:
3,273,199058,1,8,0:3:0:0:
192,338,199217,2,0,P|232:360|287:370,1,90,2|0,1:1|0:0,0:0:0:0:
274,253,199536,2,0,P|317:243|357:221,1,90,10|0,0:1|0:0,0:0:0:0:
508,94,199856,6,0,B|394:64|481:22|347:8,1,180,2|0,1:1|1:0,0:0:0:0:
481,275,200334,2,0,L|454:179,1,90,10|0,0:1|1:0,0:0:0:0:
269,131,200653,5,8,0:0:0:0:
274,253,200813,1,2,1:2:0:0:
357,221,200973,5,8,0:0:0:0:
275,369,201132,1,10,1:2:0:0:
22,305,201451,6,0,B|66:322|66:322|139:291|124:191,1,198.000006042481,2|2,1:2|0:0,0:0:0:0:
11,154,202409,2,0,L|48:46,1,99.0000030212403,2|0,0:0|0:0,0:0:0:0:
273,7,203047,6,0,P|272:77|388:83,1,198.000006042481,2|2,0:0|0:0,0:0:0:0:
463,13,204005,2,0,L|496:107,1,99.0000030212403,2|0,0:0|0:0,0:0:0:0:
202,365,204643,5,10,0:0:0:0:
299,310,204962,5,8,0:0:0:0:
200,261,205122,1,8,0:0:0:0:
200,261,205441,5,8,0:0:0:0:
299,212,205601,1,8,0:0:0:0:
128,51,205919,6,0,L|55:4,1,74.2500022659302,10|0,0:0|0:0,0:0:0:0:
35,82,206239,6,0,B|23:48|23:48|93:95|93:95|45:204,1,215.999993408203,6|0,1:1|1:0,0:0:0:0:
221,100,206717,1,10,0:1:0:0:
177,175,206877,2,0,P|192:217|203:282,1,90,0|8,1:0|0:3,0:0:0:0:
315,362,207196,2,0,P|323:317|339:275,1,90,2|0,1:1|0:0,0:0:0:0:
512,206,207515,2,0,P|474:181|433:161,1,90,10|0,0:1|0:0,0:0:0:0:
345,79,207834,6,0,B|461:74|382:11|515:15,1,180,10|0,0:1|1:0,0:0:0:0:
433,161,208313,2,0,L|460:253,1,90,10|0,0:1|1:0,0:0:0:0:
315,362,208632,1,8,0:3:0:0:
250,261,208792,1,10,0:1:0:0:
342,288,208951,1,2,0:1:0:0:
215,344,209111,2,0,P|175:326|117:318,1,90,0|0,3:0|3:0,0:0:0:0:
106,326,209350,1,0,3:0:0:0:
85,337,209430,6,0,B|46:355|46:355|-19:302|22:222,1,180,2|0,1:1|1:0,0:0:0:0:
34,47,209909,2,0,B|38:83|38:83|74:128|74:128|107:103,1,135,10|0,0:1|0:0,0:0:0:0:
118,82,210228,1,8,0:3:0:0:
307,16,210388,2,0,P|298:63|312:117,1,90,2|0,1:1|0:0,0:0:0:0:
232,192,210707,2,0,P|258:231|306:259,1,90,10|0,0:1|0:0,0:0:0:0:
456,373,211026,6,0,B|442:273|493:318|486:200,1,180,2|0,1:1|1:0,0:0:0:0:
434,19,211505,2,0,B|370:39|370:39|307:16,1,135,10|0,0:1|0:0,0:0:0:0:
284,39,211824,1,8,0:3:0:0:
118,82,211983,2,0,P|147:73|196:31,1,90,10|0,0:1|0:0,0:0:0:0:
137,226,212302,2,0,P|104:195|62:179,1,90,2|0,1:2|3:0,0:0:0:0:
0,240,212542,1,0,3:0:0:0:
11,253,212622,6,0,B|-9:331|64:377|64:377|109:362,1,180,2|0,1:1|1:0,0:0:0:0:
235,225,213100,1,10,0:1:0:0:
219,327,213260,2,0,L|246:239,1,90,0|8,1:0|0:3,0:0:0:0:
395,54,213579,2,0,P|430:46|473:5,1,90,2|0,1:1|0:0,0:0:0:0:
461,141,213898,2,0,P|426:149|383:190,1,90,10|0,0:1|0:0,0:0:0:0:
466,368,214217,5,2,1:1:0:0:
471,349,214377,1,0,0:0:0:0:
476,329,214536,1,0,1:0:0:0:
316,264,214696,5,10,0:1:0:0:
366,368,214856,1,0,1:0:0:0:
408,270,215015,1,8,0:3:0:0:
273,362,215175,2,0,B|209:347|166:369|166:369|104:321,1,180,2|10,1:1|0:2,0:0:0:0:
0,193,215653,5,0,3:0:0:0:
0,193,215733,1,0,3:0:0:0:
0,193,215813,2,0,P|15:276|24:373,1,180,2|0,1:1|1:0,0:0:0:0:
95,198,216292,2,0,L|175:157,1,90,10|0,0:1|1:0,0:0:0:0:
310,47,216611,1,8,0:3:0:0:
404,92,216770,1,2,1:1:0:0:
381,0,216930,1,0,0:0:0:0:
334,146,217090,2,0,P|330:186|354:239,1,90,10|0,0:1|0:0,0:0:0:0:
399,382,217409,6,0,P|395:342|419:289,1,90,2|0,1:1|0:0,0:0:0:0:
481,123,217728,1,0,1:0:0:0:
485,232,217888,2,0,B|372:197|458:165|316:142,1,180,10|2,0:1|0:1,0:0:0:0:
197,84,218366,2,0,P|233:72|287:38,1,90,8|10,0:0|0:1,0:0:0:0:
95,43,218685,5,2,1:1:0:0:
133,183,218845,1,10,0:1:0:0:
20,127,219005,6,0,B|58:173|41:240|41:240|73:300,1,180,6|0,1:1|1:0,0:0:0:0:
194,368,219483,2,0,P|193:328|225:279,1,90,10|0,0:1|1:0,0:0:0:0:
362,296,219802,1,8,0:3:0:0:
387,214,219962,2,0,P|359:185|302:172,1,90,2|0,1:1|0:0,0:0:0:0:
165,77,220281,2,0,B|154:41|154:41|186:-18|186:-18|213:10,1,135,10|0,0:1|0:0,0:0:0:0:
246,22,220600,6,0,B|317:13|317:13|346:35|346:35|424:21,1,180,2|2,1:1|1:0,0:0:0:0:
487,143,221079,1,10,0:1:0:0:
387,214,221239,1,2,1:0:0:0:
497,122,221398,1,10,0:1:0:0:
396,194,221558,2,0,B|302:175|302:175|273:212|224:215,1,180,2|10,1:1|0:1,0:0:0:0:
230,214,222036,1,2,3:1:0:0:
46,264,222196,6,0,B|92:243|92:243|170:272|157:354,1,180,2|0,1:1|1:0,0:0:0:0:
12,162,222675,2,0,L|51:23,1,135,10|0,0:1|0:0,0:0:0:0:
34,15,222994,1,8,0:3:0:0:
180,48,223153,2,0,P|220:35|254:-4,1,90,2|2,1:1|0:1,0:0:0:0:
309,83,223473,2,0,P|349:70|383:31,1,90,10|0,0:1|0:1,0:0:0:0:
505,256,223792,6,0,B|400:218|483:184|349:164,1,180,2|0,1:1|1:0,0:0:0:0:
274,252,224270,1,10,0:1:0:0:
334,313,224430,2,0,P|324:268|285:231,1,90,2|8,1:0|0:1,0:0:0:0:
92,227,224749,1,2,1:0:0:0:
1,222,224909,5,8,0:1:0:0:
119,126,225068,1,2,1:0:0:0:
63,326,225228,1,10,0:1:0:0:
157,383,225388,5,2,1:2:0:0:
470,76,226345,5,2,0:0:0:0:
281,158,226983,1,2,0:0:0:0:
339,31,227941,1,2,0:0:0:0:
412,203,228579,1,2,0:0:0:0:
23,53,230175,6,0,P|74:42|150:33,1,116.999994644165,2|0,0:0|0:0,0:0:0:0:
102,125,230653,2,0,L|84:186,1,58.4999973220826,2|0,0:0|0:0,0:0:0:0:
289,332,231132,2,0,P|281:300|268:273,1,58.4999973220826,2|0,0:0|0:0,0:0:0:0:
176,328,231451,2,0,P|164:354|157:383,1,58.4999973220826,2|0,0:0|0:0,0:0:0:0:
292,265,231770,6,0,P|276:202|250:149,1,116.999994644165,2|0,0:0|0:0,0:0:0:0:
302,87,232249,2,0,L|357:109,1,58.4999973220826,2|0,0:0|0:0,0:0:0:0:
94,25,232728,6,0,L|149:3,1,58.4999973220826,2|0,0:0|0:0,0:0:0:0:
96,135,233047,2,0,L|151:113,1,58.4999973220826,2|0,0:0|0:0,0:0:0:0:
28,21,233366,6,0,L|83:-1,1,58.4999973220826,2|2,0:0|0:0,0:0:0:0:
30,131,233685,2,0,L|85:109,1,58.4999973220826,2|0,0:0|0:0,0:0:0:0:
45,225,234005,2,0,P|21:265|12:340,1,116.999994644165,2|0,0:0|0:0,0:0:0:0:
81,380,234483,2,0,P|110:370|141:369,1,58.4999973220826,2|0,0:0|0:0,0:0:0:0:
365,290,234962,6,0,P|335:288|308:278,1,58.4999973220826,2|0,0:0|0:0,0:0:0:0:
363,195,235281,2,0,P|421:189|475:168,1,116.999994644165,2|0,0:0|0:0,0:0:0:0:
424,95,235760,2,0,L|437:31,1,58.4999973220826,2|0,0:0|0:0,0:0:0:0:
296,0,236079,1,2,0:0:0:0:
286,79,236239,2,0,L|273:15,1,58.4999973220826,2|0,0:0|0:0,0:0:0:0:
189,58,236558,6,0,L|164:178,1,116.999994644165,2|0,0:0|0:0,0:0:0:0:
248,221,237036,2,0,L|259:278,1,58.4999973220826,2|0,0:0|0:0,0:0:0:0:
83,371,237515,2,0,P|53:366|19:376,1,58.4999973220826,2|0,0:0|0:0,0:0:0:0:
56,289,237834,2,0,P|26:284|-8:294,1,58.4999973220826,2|0,0:0|0:0,0:0:0:0:
32,155,238153,6,0,P|9:129|5:47,1,116.999994644165,2|0,0:0|0:0,0:0:0:0:
81,14,238632,2,0,P|105:31|138:46,1,58.4999973220826,2|0,0:0|0:0,0:0:0:0:
279,183,239111,2,0,P|302:166|329:153,1,58.4999973220826,2|0,0:0|0:0,0:0:0:0:
396,88,239430,2,0,P|372:71|345:58,1,58.4999973220826,2|0,0:0|0:0,0:0:0:0:
305,209,239749,6,0,P|328:192|355:179,1,58.4999973220826,2|0,0:0|0:0,0:0:0:0:
422,114,240068,2,0,P|398:97|371:84,1,58.4999973220826,2|0,0:0|0:0,0:0:0:0:
445,211,240388,2,0,P|436:264|446:335,1,116.999994644165,2|0,0:3|0:0,0:0:0:0:
310,373,240866,2,0,L|284:307,1,58.4999973220826,2|0,0:3|0:0,0:0:0:0:
210,286,241185,2,0,L|188:340,1,58.4999973220826,2|0,0:3|0:0,0:0:0:0:
161,202,241505,6,0,P|153:169|124:77,1,116.999994644165,2|2,0:3|0:3,0:0:0:0:
31,194,241983,2,0,L|9:248,1,58.4999973220826,2|0,0:3|0:0,0:0:0:0:
73,303,242302,2,0,L|51:357,1,58.4999973220826,2|0,0:3|0:0,0:0:0:0:
0,234,242622,2,0,L|21:180,1,58.4999973220826,2|0,0:0|0:0,0:0:0:0:
128,89,242941,6,0,B|173:83|173:83|205:116|267:120,1,144,6|0,1:0|1:0,0:0:0:0:
334,224,243419,2,0,P|347:260|355:295,1,72,2|0,0:0|1:0,0:0:0:0:
407,179,243739,2,0,P|431:149|457:125,1,72,0|2,0:0|1:2,0:0:0:0:
332,136,244058,2,0,P|294:129|260:118,1,72,0|2,0:0|1:2,0:0:0:0:
168,206,244377,5,0,0:0:0:0:
168,206,244536,2,0,B|211:199|211:199|269:233|249:298,1,144,2|0,1:2|1:0,0:0:0:0:
159,306,245015,2,0,B|114:300|114:300|82:333|20:337,1,144,2|0,0:0|0:0,0:0:0:0:
2,175,245494,2,0,L|26:250,1,72,2|0,1:2|0:0,0:0:0:0:
77,127,245813,2,0,L|98:58,1,72,2|0,1:2|0:0,0:0:0:0:
244,5,246132,5,2,1:2:0:0:
244,5,246212,1,2,0:2:0:0:
244,5,246292,2,0,B|323:23|323:23|344:69|344:69|437:94,1,216,2|2,0:0|1:3,0:0:0:0:
303,184,246930,2,0,P|296:222|305:258,1,72,2|0,0:0|1:0,0:0:0:0:
208,304,247249,2,0,P|215:268|208:233,1,72,2|0,0:0|1:0,0:0:0:0:
299,356,247568,6,0,B|384:337|384:337|405:363|441:373,1,144,2|0,0:0|0:0,0:0:0:0:
436,200,248047,1,2,1:2:0:0:
504,268,248207,1,2,0:3:0:0:
416,189,248366,2,0,L|498:156,1,72,2|0,1:3|0:0,0:0:0:0:
482,162,248685,1,2,1:3:0:0:
417,52,248845,6,0,P|376:46|344:30,1,72,2|2,0:0|1:3,0:0:0:0:
274,72,249164,2,0,P|233:66|201:50,1,72,2|0,0:3|1:0,0:0:0:0:
211,186,249483,2,0,P|170:192|138:208,1,72,2|2,0:0|1:3,0:0:0:0:
68,166,249802,2,0,P|27:172|-5:188,1,72,2|0,0:0|1:0,0:0:0:0:
340,239,250281,6,0,L|330:311,1,72,2|0,1:2|0:0,0:0:0:0:
435,273,250600,2,0,L|425:201,1,72,2|0,1:2|0:0,0:0:0:0:
305,95,250919,6,0,B|303:61|303:61|335:2|335:2|371:35,1,144,2|0,1:2|1:0,0:0:0:0:
439,131,251398,2,0,P|429:168|424:216,1,72,2|0,0:0|1:0,0:0:0:0:
340,239,251717,2,0,P|350:276|355:324,1,72,0|2,0:0|1:2,0:0:0:0:
241,373,252036,1,2,0:3:0:0:
241,373,252196,2,0,L|166:347,1,72,2|0,1:3|0:0,0:0:0:0:
0,359,252515,6,0,L|68:335,1,72,2|0,1:2|0:0,0:0:0:0:
234,342,252834,2,0,L|159:316,1,72,2|0,1:3|0:0,0:0:0:0:
9,199,253153,1,2,1:3:0:0:
77,153,253313,2,0,P|72:129|88:82,1,72,2|0,0:3|1:0,0:0:0:0:
162,1,253632,2,0,B|161:63|215:92|215:92|232:56,1,144,2|2,0:0|0:3,0:0:0:0:
307,19,254111,5,2,1:2:0:0:
249,131,254270,2,0,L|228:62,1,72,2|0,0:3|1:0,0:0:0:0:
462,155,254590,1,2,0:0:0:0:
377,131,254749,1,2,1:2:0:0:
437,71,254909,1,2,0:0:0:0:
398,215,255068,2,0,L|377:284,1,72,2|2,1:2|0:0,0:0:0:0:
460,384,255388,5,6,1:2:0:0:
