osu file format v14

[General]
AudioFilename: audio.mp3
AudioLeadIn: 0
PreviewTime: 117512
Countdown: 0
SampleSet: Soft
StackLeniency: 0.7
Mode: 3
LetterboxInBreaks: 0
SpecialStyle: 0
WidescreenStoryboard: 1

[Editor]
DistanceSpacing: 1
BeatDivisor: 4
GridSize: 4
TimelineZoom: 3

[Metadata]
Title:THE ULTIMACY
TitleUnicode:THE ULTIMACY
Artist:aran vs. Massive New Krew
ArtistUnicode:aran vs. Massive New Krew
Creator:[Andre]
Version:Beyond
Source:Arcaea
Tags:video game instrumental electronic rhythm hardcore tano*c tanoc jcore j-core collaboration lowiro limited TCDR-0103 sound collection memories of wrath IROCD-005 memory archive
BeatmapID:3125243
BeatmapSetID:1527687

[Difficulty]
HPDrainRate:8.5
CircleSize:4
OverallDifficulty:8.5
ApproachRate:5
SliderMultiplier:1.4
SliderTickRate:1

[Events]
//Background and Video events
0,0,"bg.jpg",0,0
//Break Periods
//Storyboard Layer 0 (Background)
//Storyboard Layer 1 (Fail)
//Storyboard Layer 2 (Pass)
//Storyboard Layer 3 (Foreground)
//Storyboard Layer 4 (Overlay)
//Storyboard Sound Samples
Sample,19035,0,"LR_Snare Med Wet.wav",70
Sample,22222,0,"soft-hitwhistle.wav",0
Sample,22297,0,"soft-hitwhistle.wav",0
Sample,28822,0,"soft-hitwhistle.wav",0
Sample,28897,0,"soft-hitwhistle.wav",0
Sample,88410,0,"LR_Snare Med Wet.wav",70
Sample,100897,0,"soft-hitwhistle.wav",0
Sample,143685,0,"LR_Snare Med Wet.wav",70

[TimingPoints]
135,300,4,2,1,70,1,0
88935,-100,4,2,1,70,0,1
108135,-100,4,2,1,70,0,0
117735,-100,4,2,1,70,0,1
136935,-100,4,2,1,70,0,0

[HitObjects]
64,192,135,5,2,0:0:0:0:
192,192,135,1,4,0:0:0:0:
448,192,135,128,0,285:0:0:0:0:
320,192,285,128,0,435:0:0:0:0:
64,192,435,128,0,585:0:0:0:0:
320,192,585,128,0,735:0:0:0:0:
448,192,585,1,0,0:0:0:0:
64,192,735,1,0,0:0:0:0:
192,192,735,128,0,885:0:0:0:0:
448,192,885,128,0,1035:0:0:0:0:
64,192,1035,128,0,1185:0:0:0:0:
320,192,1185,128,0,1335:0:0:0:0:
192,192,1335,128,0,1485:0:0:0:0:
64,192,1485,1,0,0:0:0:0:
448,192,1485,128,0,1635:0:0:0:0:
320,192,1635,128,0,1785:0:0:0:0:
192,192,1785,128,0,1935:0:0:0:0:
64,192,1935,128,0,2085:0:0:0:0:
448,192,1935,1,0,0:0:0:0:
192,192,2085,128,0,2235:0:0:0:0:
320,192,2235,128,0,2385:0:0:0:0:
64,192,2385,128,0,2535:0:0:0:0:
320,192,2535,128,0,2685:0:0:0:0:
448,192,2535,128,0,2685:0:0:0:0:
192,192,2685,128,0,2835:0:0:0:0:
320,192,2835,128,0,2985:0:0:0:0:
64,192,2985,128,0,3135:0:0:0:0:
192,192,2985,128,0,3135:0:0:0:0:
448,192,3135,128,0,3285:0:0:0:0:
64,192,3285,128,0,3435:0:0:0:0:
320,192,3435,128,0,3585:0:0:0:0:
448,192,3435,128,0,3585:0:0:0:0:
64,192,3585,128,0,3735:0:0:0:0:
448,192,3735,128,0,3885:0:0:0:0:
64,192,3885,128,0,4035:0:0:0:0:
192,192,3885,128,0,4035:0:0:0:0:
320,192,4035,128,0,4185:0:0:0:0:
192,192,4185,128,0,4335:0:0:0:0:
320,192,4335,128,0,4485:0:0:0:0:
448,192,4335,128,0,4935:0:0:0:0:
64,192,4485,128,0,4635:0:0:0:0:
192,192,4635,128,0,4785:0:0:0:0:
320,192,4785,128,0,4935:0:0:0:0:
64,192,4935,128,0,5085:0:0:0:70:LR_Kick Crushing Bump.wav
192,192,4935,1,0,0:0:0:70:LR_Drum Hit P2.wav
320,192,5085,1,0,0:0:0:0:
192,192,5235,1,0,0:0:0:0:
448,192,5385,128,0,5685:0:0:0:0:
64,192,5535,128,0,5685:0:0:0:0:
320,192,5685,1,0,0:0:0:0:
192,192,5835,128,0,6135:0:0:0:0:
448,192,5985,128,0,6135:0:0:0:0:
64,192,6135,1,0,0:0:0:0:
320,192,6285,128,0,6435:0:0:0:0:
448,192,6435,1,0,0:0:0:0:
64,192,6585,128,0,6885:0:0:0:0:
192,192,6735,128,0,6885:0:0:0:0:
448,192,6885,1,0,0:0:0:0:
192,192,7035,128,0,7185:0:0:0:70:LR_Drum Hit P2.wav
320,192,7035,1,0,0:0:0:0:
448,192,7185,128,0,7335:0:0:0:70:LR_Drum Hit P2.wav
64,192,7335,128,0,7485:0:0:0:70:LR_Drum Hit P2.wav
192,192,7335,1,0,0:0:0:0:
448,192,7485,1,0,0:0:0:0:
320,192,7635,1,0,0:0:0:0:
448,192,7785,128,0,8085:0:0:0:0:
64,192,7935,128,0,8085:0:0:0:0:
192,192,8085,1,0,0:0:0:0:
64,192,8235,128,0,8535:0:0:0:0:
320,192,8385,128,0,8535:0:0:0:0:
448,192,8535,1,0,0:0:0:0:
192,192,8685,128,0,8835:0:0:0:0:
320,192,8835,1,0,0:0:0:0:
448,192,8985,128,0,9135:0:0:0:0:
320,192,9135,1,0,0:0:0:70:LR_Drum Hit P2.wav
64,192,9285,128,0,9435:0:0:0:0:
192,192,9435,1,0,0:0:0:70:LR_Drum Hit P2.wav
320,192,9585,1,0,0:0:0:70:LR_Drum Hit P2.wav
192,192,9635,1,0,0:0:0:0:
64,192,9685,1,0,0:0:0:0:
448,192,9735,128,0,9885:0:0:0:70:LR_Drum Hit P2.wav
320,192,9885,1,0,0:0:0:0:
64,192,10035,1,0,0:0:0:0:
448,192,10185,128,0,10485:0:0:0:0:
320,192,10335,128,0,10485:0:0:0:0:
192,192,10485,1,0,0:0:0:0:
64,192,10635,128,0,10935:0:0:0:0:
192,192,10785,128,0,10935:0:0:0:0:
320,192,10935,1,0,0:0:0:0:
448,192,11085,128,0,11235:0:0:0:70:LR_Drum Hit P2.wav
64,192,11235,1,0,0:0:0:70:LR_Drum Hit P2.wav
320,192,11385,128,0,11685:0:0:0:0:
192,192,11535,128,0,11685:0:0:0:0:
64,192,11685,1,0,0:0:0:0:
448,192,11835,1,0,0:0:0:0:
192,192,11985,128,0,12285:0:0:0:70:LR_Drum Hit P2.wav
320,192,12135,128,0,12285:0:0:0:70:LR_Drum Hit P2.wav
64,192,12285,1,0,0:0:0:0:
192,192,12435,1,0,0:0:0:0:
320,192,12585,128,0,12885:0:0:0:70:LR_Drum Hit P2.wav
64,192,12735,128,0,12885:0:0:0:0:
448,192,12885,1,0,0:0:0:0:
192,192,13035,128,0,13335:0:0:0:70:LR_Drum Hit P2.wav
320,192,13185,128,0,13335:0:0:0:0:
64,192,13335,1,2,0:0:0:0:
448,192,13335,1,4,0:0:0:0:
64,192,13635,1,0,0:0:0:70:LR_Tom Hit.wav
192,192,13635,1,0,0:0:0:0:
448,192,13635,1,0,0:0:0:0:
448,192,13785,1,0,0:0:0:0:
320,192,13835,1,0,0:0:0:0:
192,192,13885,1,0,0:0:0:0:
64,192,13935,128,0,14085:0:0:0:0:
448,192,14085,128,0,14235:0:0:0:0:
64,192,14235,1,0,0:0:0:0:
192,192,14272,1,0,0:0:0:0:
320,192,14310,1,0,0:0:0:0:
448,192,14347,1,0,0:0:0:0:
64,192,14385,128,0,14535:0:0:0:0:
192,192,14535,1,4,0:0:0:0:
320,192,14535,1,2,0:0:0:0:
448,192,14535,1,0,0:0:0:70:LR_Snare Med Wet.wav
192,192,14685,1,0,0:0:0:0:
64,192,14835,1,0,0:0:0:70:LR_Snare Med Wet.wav
320,192,14835,1,0,0:0:0:0:
64,192,14985,1,2,0:0:0:0:
192,192,14985,1,0,0:0:0:0:
192,192,15135,1,4,0:0:0:0:
320,192,15135,1,2,0:0:0:0:
448,192,15135,1,0,0:0:0:70:LR_Snare Med Wet.wav
448,192,15285,1,0,0:0:0:0:
64,192,15435,1,0,0:0:0:70:LR_Snare Med Wet.wav
320,192,15435,1,0,0:0:0:0:
192,192,15585,1,0,0:0:0:0:
320,192,15735,1,0,0:0:0:70:LR_Snare Med Wet.wav
448,192,15735,128,0,15810:0:0:0:0:
320,192,15885,1,0,0:0:0:0:
64,192,16035,128,0,16110:0:0:0:70:LR_Snare Med Wet.wav
192,192,16035,1,0,0:0:0:0:
192,192,16185,1,0,0:0:0:0:
320,192,16335,1,0,0:0:0:70:LR_Snare Med Wet.wav
448,192,16335,128,0,16410:0:0:0:0:
320,192,16485,1,0,0:0:0:0:
64,192,16635,128,0,16785:0:0:0:70:LR_Snare Med Wet.wav
192,192,16635,1,0,0:0:0:0:
320,192,16785,1,2,0:0:0:0:
448,192,16860,1,2,0:0:0:0:
64,192,16935,1,4,0:0:0:0:
192,192,16935,1,2,0:0:0:0:
320,192,16935,1,0,0:0:0:70:LR_Snare Med Wet.wav
320,192,17160,1,2,0:0:0:0:
448,192,17160,1,4,0:0:0:0:
64,192,17235,1,0,0:0:0:70:LR_Snare Med Wet.wav
192,192,17235,1,0,0:0:0:0:
320,192,17385,1,2,0:0:0:0:
448,192,17385,1,0,0:0:0:0:
64,192,17535,1,2,0:0:0:0:
192,192,17535,1,4,0:0:0:0:
320,192,17535,1,0,0:0:0:70:LR_Snare Med Wet.wav
64,192,17685,1,0,0:0:0:0:
192,192,17835,1,0,0:0:0:70:LR_Snare Med Wet.wav
448,192,17835,1,0,0:0:0:0:
320,192,17985,1,0,0:0:0:0:
64,192,18135,128,0,18285:0:0:0:70:LR_Snare Med Wet.wav
192,192,18135,1,0,0:0:0:0:
320,192,18285,1,0,0:0:0:0:
448,192,18360,128,0,18510:0:0:0:0:
192,192,18435,1,0,0:0:0:70:LR_Snare Med Wet.wav
320,192,18435,1,0,0:0:0:0:
64,192,18585,128,0,18660:0:0:0:0:
320,192,18735,1,0,0:0:0:70:LR_Snare Med Wet.wav
448,192,18735,128,0,19035:0:0:0:0:
64,192,19035,1,2,0:0:0:0:
192,192,19072,1,2,0:0:0:0:
320,192,19110,1,2,0:0:0:0:
448,192,19147,1,2,0:0:0:0:
64,192,19185,1,2,0:0:0:0:
192,192,19222,1,2,0:0:0:0:
320,192,19260,1,2,0:0:0:0:
448,192,19297,1,2,0:0:0:0:
64,192,19335,1,6,0:0:0:0:
192,192,19335,1,0,0:0:0:70:LR_Snare Med Wet.wav
320,192,19485,1,0,0:0:0:0:
64,192,19635,1,2,0:0:0:0:
448,192,19635,1,0,0:0:0:70:LR_Snare Med Wet.wav
192,192,19785,1,0,0:0:0:0:
320,192,19935,1,2,0:0:0:0:
448,192,19935,1,0,0:0:0:70:LR_Snare Med Wet.wav
192,192,20085,1,0,0:0:0:0:
64,192,20235,1,2,0:0:0:0:
320,192,20235,1,0,0:0:0:70:LR_Snare Med Wet.wav
192,192,20385,1,2,0:0:0:0:
448,192,20385,1,0,0:0:0:0:
64,192,20535,1,4,0:0:0:0:
320,192,20535,1,2,0:0:0:0:
448,192,20535,1,0,0:0:0:70:LR_Snare Med Wet.wav
192,192,20685,1,0,0:0:0:0:
64,192,20835,1,2,0:0:0:0:
448,192,20835,1,0,0:0:0:70:LR_Snare Med Wet.wav
320,192,20985,1,0,0:0:0:0:
64,192,21135,1,2,0:0:0:0:
192,192,21135,1,0,0:0:0:70:LR_Snare Med Wet.wav
320,192,21285,1,0,0:0:0:0:
192,192,21435,1,2,0:0:0:0:
448,192,21435,1,0,0:0:0:70:LR_Snare Med Wet.wav
320,192,21585,1,0,0:0:0:0:
64,192,21735,1,2,0:0:0:0:
192,192,21735,1,4,0:0:0:0:
320,192,21735,1,0,0:0:0:70:LR_Snare Med Wet.wav
448,192,21885,1,2,0:0:0:0:
320,192,21922,1,2,0:0:0:0:
192,192,21960,1,2,0:0:0:0:
64,192,21997,1,2,0:0:0:0:
320,192,22035,1,2,0:0:0:0:
448,192,22035,1,0,0:0:0:70:LR_Snare Med Wet.wav
192,192,22185,1,2,0:0:0:0:
320,192,22260,1,2,0:0:0:0:
64,192,22335,1,2,0:0:0:0:
192,192,22335,1,0,0:0:0:70:LR_Snare Med Wet.wav
448,192,22335,1,0,0:0:0:0:
320,192,22410,1,2,0:0:0:0:
64,192,22485,1,2,0:0:0:0:
448,192,22485,1,0,0:0:0:0:
192,192,22560,1,2,0:0:0:0:
320,192,22635,1,2,0:0:0:0:
448,192,22635,1,0,0:0:0:70:LR_Snare Med Wet.wav
64,192,22710,1,2,0:0:0:0:
192,192,22710,1,0,0:0:0:0:
320,192,22785,1,2,0:0:0:0:
448,192,22785,1,0,0:0:0:0:
192,192,22860,1,2,0:0:0:0:
64,192,22935,1,2,0:0:0:0:
320,192,22935,1,4,0:0:0:0:
448,192,22935,128,0,23835:0:0:0:0:
64,192,23235,1,0,0:0:0:0:
192,192,23535,1,0,0:0:0:0:
64,192,23835,1,8,0:0:0:0:
192,192,23835,1,0,0:0:0:0:
320,192,23835,1,0,0:0:0:0:
64,192,24135,1,2,0:0:0:0:
448,192,24135,1,0,0:0:0:0:
320,192,24210,128,0,24285:0:0:0:0:
192,192,24285,128,0,24360:0:0:0:0:
64,192,24360,1,0,0:0:0:0:
192,192,24435,1,2,0:0:0:0:
320,192,24435,1,4,0:0:0:0:
448,192,24435,128,0,24585:0:0:0:0:
64,192,24585,128,0,26235:0:0:0:0:
192,192,24735,1,2,0:0:0:0:
320,192,24735,1,0,0:0:0:0:
320,192,24885,1,0,0:0:0:0:
192,192,25035,1,2,0:0:0:0:
448,192,25035,1,0,0:0:0:0:
448,192,25185,1,0,0:0:0:0:
192,192,25335,1,2,0:0:0:0:
320,192,25335,1,0,0:0:0:0:
192,192,25485,1,0,0:0:0:0:
320,192,25635,1,2,0:0:0:0:
448,192,25635,1,0,0:0:0:0:
320,192,25785,1,0,0:0:0:0:
192,192,25935,1,2,0:0:0:0:
448,192,25935,1,0,0:0:0:0:
448,192,26085,1,0,0:0:0:0:
192,192,26235,1,2,0:0:0:0:
320,192,26235,1,0,0:0:0:0:
320,192,26385,1,2,0:0:0:0:
448,192,26385,1,0,0:0:0:0:
64,192,26535,1,2,0:0:0:0:
448,192,26535,1,0,0:0:0:0:
192,192,26685,128,0,26835:0:0:0:0:
320,192,26835,1,2,0:0:0:0:
448,192,26835,1,0,0:0:0:0:
64,192,26985,128,0,27135:0:0:0:0:
192,192,27135,1,2,0:0:0:0:
448,192,27135,1,0,0:0:0:0:
320,192,27285,128,0,27435:0:0:0:0:
64,192,27435,1,2,0:0:0:0:
192,192,27435,1,0,0:0:0:0:
448,192,27585,128,0,27735:0:0:0:0:
64,192,27735,1,2,0:0:0:0:
320,192,27735,1,0,0:0:0:0:
192,192,27885,128,0,28035:0:0:0:0:
320,192,28035,1,2,0:0:0:0:
448,192,28035,1,0,0:0:0:0:
64,192,28185,128,0,28335:0:0:0:0:
320,192,28335,1,2,0:0:0:0:
448,192,28335,1,0,0:0:0:0:
192,192,28410,1,0,0:0:0:0:
64,192,28485,1,0,0:0:0:0:
448,192,28560,1,0,0:0:0:0:
64,192,28635,1,2,0:0:0:0:
192,192,28635,1,0,0:0:0:0:
320,192,28710,1,2,0:0:0:0:
448,192,28710,1,0,0:0:0:0:
64,192,28785,1,2,0:0:0:0:
192,192,28785,1,0,0:0:0:0:
320,192,28860,1,2,0:0:0:0:
64,192,28935,1,2,0:0:0:0:
192,192,28935,1,4,0:0:0:0:
448,192,28935,128,0,29085:0:0:0:0:
320,192,29085,128,0,29160:0:0:0:0:
64,192,29235,1,8,0:0:0:0:
320,192,29235,1,2,0:0:0:0:
448,192,29235,128,0,29310:0:0:0:0:
448,192,29385,128,0,29460:0:0:0:0:
64,192,29535,1,2,0:0:0:0:
192,192,29535,128,0,29610:0:0:0:0:
192,192,29685,128,0,29760:0:0:0:0:
64,192,29835,1,8,0:0:0:0:
320,192,29835,128,2,29985:0:0:0:0:
448,192,29835,1,0,0:0:0:0:
192,192,29985,128,0,30060:0:0:0:0:
320,192,30135,1,2,0:0:0:0:
448,192,30135,1,0,0:0:0:0:
64,192,30285,128,0,30435:0:0:0:0:
192,192,30435,1,2,0:0:0:0:
320,192,30435,1,8,0:0:0:0:
448,192,30435,1,0,0:0:0:0:
192,192,30585,128,0,30660:0:0:0:0:
320,192,30735,128,2,30810:0:0:0:0:
448,192,30735,1,0,0:0:0:0:
320,192,30885,128,0,30960:0:0:0:0:
64,192,31035,128,8,31110:0:0:0:0:
192,192,31035,1,2,0:0:0:0:
448,192,31035,1,0,0:0:0:0:
64,192,31185,128,0,31260:0:0:0:0:
320,192,31335,1,2,0:0:0:0:
448,192,31335,1,0,0:0:0:0:
192,192,31485,128,0,31635:0:0:0:0:
64,192,31635,1,2,0:0:0:0:
320,192,31635,1,8,0:0:0:0:
448,192,31635,1,0,0:0:0:0:
64,192,31785,128,0,31935:0:0:0:0:
192,192,31935,1,4,0:0:0:0:
320,192,31935,1,2,0:0:0:0:
448,192,31935,1,0,0:0:0:0:
320,192,32085,1,4,0:0:0:0:
448,192,32085,1,2,0:0:0:0:
64,192,32235,1,2,0:0:0:0:
192,192,32235,1,4,0:0:0:0:
320,192,32235,1,8,0:0:0:0:
64,192,32385,1,4,0:0:0:0:
192,192,32385,1,2,0:0:0:0:
448,192,32535,128,0,32760:0:0:0:0:
64,192,32835,128,0,33135:0:0:0:0:
192,192,32835,128,0,32985:0:0:0:0:
320,192,33135,128,0,33285:0:0:0:0:
448,192,33210,128,0,33285:0:0:0:0:
64,192,33285,128,0,33435:0:0:0:0:
192,192,33360,128,0,33435:0:0:0:0:
448,192,33435,128,0,33585:0:0:0:0:
192,192,33585,1,2,0:0:0:0:
320,192,33660,1,2,0:0:0:0:
64,192,33735,1,2,0:0:0:0:
192,192,33735,1,4,0:0:0:0:
448,192,33735,1,0,0:0:0:0:
64,192,33885,128,0,34035:0:0:0:0:
192,192,34035,1,2,0:0:0:0:
320,192,34035,1,8,0:0:0:0:
448,192,34035,1,0,0:0:0:0:
64,192,34185,1,0,0:0:0:0:
192,192,34335,1,2,0:0:0:0:
320,192,34335,1,0,0:0:0:0:
448,192,34485,128,0,34635:0:0:0:0:
64,192,34635,1,2,0:0:0:0:
192,192,34635,1,8,0:0:0:0:
320,192,34635,1,0,0:0:0:0:
192,192,34785,1,2,0:0:0:0:
448,192,34785,1,0,0:0:0:0:
64,192,34935,1,2,0:0:0:0:
448,192,34935,1,0,0:0:0:0:
192,192,35085,128,0,35235:0:0:0:0:
64,192,35235,1,8,0:0:0:0:
320,192,35235,1,2,0:0:0:0:
448,192,35235,1,0,0:0:0:0:
192,192,35385,1,0,0:0:0:0:
64,192,35535,1,2,0:0:0:0:
448,192,35535,1,0,0:0:0:0:
320,192,35685,128,0,35835:0:0:0:0:
64,192,35835,1,2,0:0:0:0:
192,192,35835,1,8,0:0:0:0:
448,192,35835,128,0,36135:0:0:0:0:
64,192,36135,1,4,0:0:0:0:
192,192,36135,1,2,0:0:0:0:
320,192,36135,1,0,0:0:0:0:
320,192,36285,128,0,36435:0:0:0:0:
64,192,36435,1,8,0:0:0:0:
192,192,36435,1,2,0:0:0:0:
448,192,36435,1,0,0:0:0:0:
320,192,36585,1,0,0:0:0:0:
192,192,36735,1,2,0:0:0:0:
448,192,36735,1,0,0:0:0:0:
64,192,36885,128,0,37035:0:0:0:0:
192,192,37035,1,2,0:0:0:0:
320,192,37035,1,8,0:0:0:0:
448,192,37035,1,0,0:0:0:0:
64,192,37185,1,0,0:0:0:0:
192,192,37335,1,2,0:0:0:0:
320,192,37335,1,0,0:0:0:0:
448,192,37485,128,0,37635:0:0:0:0:
64,192,37635,1,8,0:0:0:0:
192,192,37635,1,2,0:0:0:0:
320,192,37635,1,0,0:0:0:0:
448,192,37785,1,0,0:0:0:0:
64,192,37935,128,0,38085:0:0:0:0:
192,192,37935,128,0,38085:0:0:0:0:
320,192,38235,128,0,38385:0:0:0:0:
448,192,38235,128,0,38385:0:0:0:0:
64,192,38535,1,2,0:0:0:0:
192,192,38535,1,4,0:0:0:0:
448,192,38535,1,0,0:0:0:0:
320,192,38685,1,0,0:0:0:0:
64,192,38835,1,2,0:0:0:0:
320,192,38835,1,8,0:0:0:0:
448,192,38835,1,0,0:0:0:0:
64,192,38985,1,2,0:0:0:0:
192,192,38985,1,0,0:0:0:0:
320,192,39135,1,2,0:0:0:0:
448,192,39135,1,0,0:0:0:0:
192,192,39285,1,0,0:0:0:0:
64,192,39435,1,2,0:0:0:0:
320,192,39435,1,8,0:0:0:0:
448,192,39435,1,0,0:0:0:0:
192,192,39585,1,0,0:0:0:0:
64,192,39735,1,2,0:0:0:0:
320,192,39735,1,4,0:0:0:0:
448,192,39735,1,0,0:0:0:0:
448,192,39885,1,0,0:0:0:0:
64,192,40035,1,8,0:0:0:0:
192,192,40035,1,2,0:0:0:0:
320,192,40035,1,0,0:0:0:0:
192,192,40185,1,2,0:0:0:0:
448,192,40185,1,0,0:0:0:0:
320,192,40335,1,2,0:0:0:0:
448,192,40335,1,0,0:0:0:0:
64,192,40410,1,2,0:0:0:0:
192,192,40485,1,2,0:0:0:0:
320,192,40485,1,0,0:0:0:0:
448,192,40560,1,2,0:0:0:0:
64,192,40635,1,8,0:0:0:0:
192,192,40635,1,2,0:0:0:0:
320,192,40635,1,0,0:0:0:0:
64,192,40785,1,0,0:0:0:0:
320,192,40935,1,4,0:0:0:0:
448,192,40935,1,2,0:0:0:0:
64,192,41085,1,4,0:0:0:0:
192,192,41085,1,2,0:0:0:0:
64,192,41235,128,0,41385:0:0:0:0:
448,192,41235,128,0,41535:0:0:0:0:
320,192,41385,128,0,41535:0:0:0:0:
64,192,41535,1,4,0:0:0:0:
192,192,41535,1,2,0:0:0:0:
320,192,41685,1,4,0:0:0:0:
448,192,41685,1,2,0:0:0:0:
64,192,41835,128,0,42135:0:0:0:0:
448,192,41835,128,0,41985:0:0:0:0:
320,192,42135,1,0,0:0:0:70:LR_Snare Med Wet.wav
448,192,42135,1,0,0:0:0:0:
192,192,42210,1,0,0:0:0:70:LR_Snare Med Wet.wav
64,192,42285,1,0,0:0:0:70:LR_Snare Med Wet.wav
320,192,42360,1,0,0:0:0:70:LR_Snare Med Wet.wav
64,192,42435,1,0,0:0:0:70:LR_Snare Med Wet.wav
192,192,42435,1,0,0:0:0:0:
320,192,42510,1,0,0:0:0:70:LR_Snare Med Wet.wav
448,192,42585,1,0,0:0:0:70:LR_Snare Med Wet.wav
192,192,42660,1,0,0:0:0:70:LR_Snare Med Wet.wav
320,192,42735,1,0,0:0:0:70:LR_Snare Med Wet.wav
448,192,42735,1,0,0:0:0:0:
192,192,42810,1,0,0:0:0:70:LR_Snare Med Wet.wav
64,192,42885,1,0,0:0:0:70:LR_Snare Med Wet.wav
448,192,42960,1,0,0:0:0:70:LR_Snare Med Wet.wav
64,192,43035,1,2,0:0:0:0:
320,192,43035,1,0,0:0:0:0:
192,192,43110,1,2,0:0:0:0:
320,192,43185,1,2,0:0:0:0:
448,192,43185,1,0,0:0:0:0:
192,192,43260,1,2,0:0:0:0:
64,192,43335,1,2,0:0:0:0:
320,192,43335,1,4,0:0:0:0:
448,192,43335,1,0,0:0:0:0:
64,192,43485,1,0,0:0:0:0:
192,192,43560,1,0,0:0:0:0:
320,192,43635,1,2,0:0:0:0:
448,192,43635,1,0,0:0:0:0:
192,192,43785,128,0,43935:0:0:0:0:
64,192,43935,1,2,0:0:0:0:
448,192,43935,1,0,0:0:0:0:
320,192,44085,128,0,44235:0:0:0:0:
64,192,44235,1,2,0:0:0:0:
448,192,44235,1,0,0:0:0:0:
320,192,44310,1,0,0:0:0:0:
64,192,44385,1,2,0:0:0:0:
192,192,44385,1,0,0:0:0:0:
320,192,44460,1,0,0:0:0:0:
192,192,44535,1,2,0:0:0:0:
448,192,44535,1,0,0:0:0:0:
64,192,44610,1,0,0:0:0:0:
320,192,44685,1,0,0:0:0:0:
192,192,44760,1,0,0:0:0:0:
64,192,44835,1,2,0:0:0:0:
448,192,44835,128,0,44985:0:0:0:0:
192,192,44985,128,0,45135:0:0:0:0:
64,192,45135,1,2,0:0:0:0:
320,192,45135,1,0,0:0:0:0:
192,192,45210,1,0,0:0:0:0:
448,192,45285,128,0,45435:0:0:0:0:
64,192,45435,128,0,45735:0:0:0:0:
320,192,45435,1,0,0:0:0:0:
320,192,45735,1,2,0:0:0:0:
448,192,45735,1,4,0:0:0:0:
64,192,45810,1,0,0:0:0:0:
192,192,45885,1,0,0:0:0:0:
320,192,45960,1,0,0:0:0:0:
192,192,46035,1,2,0:0:0:0:
448,192,46035,1,0,0:0:0:0:
64,192,46185,1,2,0:0:0:0:
192,192,46222,1,2,0:0:0:0:
320,192,46260,1,2,0:0:0:0:
448,192,46297,1,2,0:0:0:0:
64,192,46335,1,2,0:0:0:0:
192,192,46335,1,0,0:0:0:0:
320,192,46485,1,2,0:0:0:0:
448,192,46485,1,0,0:0:0:0:
64,192,46635,1,2,0:0:0:0:
448,192,46635,1,0,0:0:0:0:
320,192,46785,128,0,46935:0:0:0:0:
64,192,46935,1,2,0:0:0:0:
192,192,46935,1,4,0:0:0:0:
320,192,47085,1,0,0:0:0:0:
192,192,47160,1,2,0:0:0:0:
448,192,47160,1,4,0:0:0:0:
64,192,47310,1,0,0:0:0:0:
320,192,47385,1,2,0:0:0:0:
448,192,47385,1,4,0:0:0:0:
192,192,47535,1,0,0:0:0:0:
448,192,47610,1,2,0:0:0:0:
64,192,47610,1,4,0:0:0:0:
320,192,47685,1,0,0:0:0:0:
192,192,47760,1,0,0:0:0:0:
64,192,47835,128,0,47985:0:0:0:0:
448,192,47985,128,0,48135:0:0:0:0:
64,192,48135,1,4,0:0:0:0:
192,192,48135,1,2,0:0:0:0:
320,192,48135,1,8,0:0:0:0:
192,192,48285,1,2,0:0:0:0:
64,192,48435,1,2,0:0:0:0:
320,192,48435,1,8,0:0:0:0:
448,192,48435,1,0,0:0:0:0:
320,192,48585,1,2,0:0:0:0:
64,192,48735,1,2,0:0:0:0:
192,192,48735,1,8,0:0:0:0:
448,192,48735,1,0,0:0:0:0:
320,192,48885,1,0,0:0:0:0:
64,192,49035,1,8,0:0:0:0:
192,192,49035,1,2,0:0:0:0:
320,192,49035,1,0,0:0:0:0:
192,192,49185,1,2,0:0:0:0:
320,192,49260,1,2,0:0:0:0:
64,192,49335,1,2,0:0:0:0:
192,192,49335,1,8,0:0:0:0:
448,192,49335,1,0,0:0:0:0:
64,192,49485,1,2,0:0:0:0:
192,192,49635,1,2,0:0:0:0:
320,192,49635,1,8,0:0:0:0:
448,192,49635,1,0,0:0:0:0:
64,192,49785,1,0,0:0:0:0:
64,192,49935,1,2,0:0:0:0:
320,192,49935,1,8,0:0:0:0:
448,192,49935,1,0,0:0:0:0:
192,192,50085,1,0,0:0:0:0:
320,192,50160,1,2,0:0:0:0:
448,192,50160,1,0,0:0:0:0:
64,192,50235,1,8,0:0:0:0:
192,192,50235,1,2,0:0:0:0:
320,192,50385,1,2,0:0:0:0:
192,192,50435,1,2,0:0:0:0:
64,192,50485,1,2,0:0:0:0:
320,192,50535,1,2,0:0:0:0:
448,192,50535,1,8,0:0:0:0:
192,192,50610,1,2,0:0:0:0:
64,192,50685,1,2,0:0:0:0:
448,192,50685,1,0,0:0:0:0:
320,192,50760,1,2,0:0:0:0:
64,192,50835,1,8,0:0:0:0:
192,192,50835,1,2,0:0:0:0:
448,192,50835,1,0,0:0:0:0:
64,192,51135,1,2,0:0:0:0:
192,192,51135,1,8,0:0:0:0:
320,192,51210,1,2,0:0:0:0:
64,192,51285,1,2,0:0:0:0:
448,192,51285,1,0,0:0:0:0:
192,192,51360,1,2,0:0:0:0:
64,192,51435,1,8,0:0:0:0:
320,192,51435,1,2,0:0:0:0:
448,192,51435,1,0,0:0:0:0:
64,192,51735,1,2,0:0:0:0:
192,192,51735,1,8,0:0:0:0:
320,192,51810,1,2,0:0:0:0:
64,192,51885,1,2,0:0:0:0:
448,192,51885,1,0,0:0:0:0:
192,192,51960,1,2,0:0:0:0:
64,192,52035,1,2,0:0:0:0:
320,192,52035,1,0,0:0:0:0:
448,192,52110,1,2,0:0:0:0:
192,192,52185,1,2,0:0:0:0:
320,192,52185,1,0,0:0:0:0:
64,192,52260,1,2,0:0:0:0:
320,192,52335,1,2,0:0:0:0:
448,192,52335,1,0,0:0:0:0:
192,192,52410,1,2,0:0:0:0:
64,192,52485,1,2,0:0:0:0:
320,192,52560,1,2,0:0:0:0:
192,192,52635,1,2,0:0:0:0:
448,192,52635,1,0,0:0:0:0:
320,192,52710,1,2,0:0:0:0:
192,192,52785,1,2,0:0:0:0:
64,192,52860,1,2,0:0:0:0:
320,192,52935,1,2,0:0:0:0:
448,192,52935,128,4,54935:0:0:0:0:
64,192,53535,1,0,0:0:0:70:fingersnap_G#_major.wav
64,192,54735,1,0,0:0:0:70:fingersnap_G#_major.wav
320,192,54935,128,0,55035:0:0:0:0:
192,192,55035,128,0,55235:0:0:0:0:
448,192,55235,128,0,55335:0:0:0:0:
64,192,55335,128,0,57135:0:0:0:0:
448,192,55935,1,0,0:0:0:70:fingersnap_G#_major.wav
192,192,56535,128,0,57135:0:0:0:0:
448,192,57135,1,0,0:0:0:70:fingersnap_G#_major.wav
320,192,57435,128,0,57735:0:0:0:0:
64,192,57735,1,0,0:0:0:0:
192,192,57735,128,0,60135:0:0:0:0:
448,192,58335,1,0,0:0:0:70:fingersnap_G#_major.wav
448,192,59535,1,0,0:0:0:70:fingersnap_G#_major.wav
64,192,60135,128,0,60235:0:0:0:0:
448,192,60135,128,0,60435:0:0:0:0:
192,192,60235,128,0,60335:0:0:0:0:
320,192,60335,128,0,60435:0:0:0:0:
64,192,60435,128,0,60535:0:0:0:0:
320,192,60535,128,0,60635:0:0:0:0:
192,192,60635,128,0,60735:0:0:0:0:
64,192,60735,128,0,61035:0:0:0:70:fingersnap_G#_major.wav
448,192,60735,128,0,60835:0:0:0:0:
320,192,60835,128,0,60935:0:0:0:0:
192,192,60935,128,0,61035:0:0:0:0:
448,192,61035,128,0,61135:0:0:0:0:
192,192,61135,128,0,61235:0:0:0:0:
320,192,61235,128,0,61335:0:0:0:0:
64,192,61335,1,2,0:0:0:0:
448,192,61335,1,0,0:0:0:0:
192,192,61535,1,0,0:0:0:70:LR_Tom Hit.wav
320,192,61635,1,0,0:0:0:70:LR_Tom Hit.wav
448,192,61835,1,0,0:0:0:70:LR_Tom Hit.wav
64,192,61935,128,2,62535:0:0:0:0:
192,192,61935,128,0,62035:0:0:0:70:fingersnap_G#_major.wav
192,192,62235,1,0,0:0:0:70:LR_Drum Hit P2.wav
448,192,62235,1,0,0:0:0:0:
192,192,62535,1,4,0:0:0:0:
320,192,62535,1,2,0:0:0:0:
448,192,62535,128,0,63435:0:0:0:0:
192,192,62835,1,0,0:0:0:0:
64,192,63135,1,8,0:0:0:0:
320,192,63135,1,0,0:0:0:0:
192,192,63435,128,0,63635:0:0:0:0:
320,192,63635,128,0,63735:0:0:0:0:
64,192,63735,128,0,63935:0:0:0:0:
448,192,63935,128,0,64035:0:0:0:0:
64,192,64035,1,2,0:0:0:0:
192,192,64035,128,0,64635:0:0:0:0:
64,192,64335,1,8,0:0:0:0:
448,192,64335,1,0,0:0:0:0:
320,192,64635,128,0,64735:0:0:0:0:
448,192,64735,128,0,64835:0:0:0:0:
64,192,64835,128,0,64935:0:0:0:0:
320,192,64935,128,0,65535:0:0:0:0:
64,192,65235,1,2,0:0:0:0:
192,192,65235,1,0,0:0:0:0:
64,192,65535,1,8,0:0:0:0:
448,192,65535,128,0,66135:0:0:0:0:
192,192,65835,1,0,0:0:0:0:
192,192,66035,1,2,0:0:0:0:
320,192,66035,1,0,0:0:0:0:
64,192,66135,128,0,66735:0:0:0:0:
320,192,66435,1,2,0:0:0:0:
448,192,66435,1,0,0:0:0:0:
192,192,66735,1,4,0:0:0:0:
320,192,66735,128,2,67335:0:0:0:0:
448,192,66735,1,0,0:0:0:0:
64,192,66935,1,0,0:0:0:70:LR_Drum Hit P2.wav
448,192,66935,1,0,0:0:0:0:
192,192,67135,1,0,0:0:0:70:LR_Tom Hit.wav
64,192,67335,1,2,0:0:0:0:
192,192,67335,128,4,69735:0:0:0:0:
448,192,67335,1,0,0:0:0:0:
320,192,67635,1,0,0:0:0:0:
64,192,67935,1,8,0:0:0:0:
448,192,67935,1,0,0:0:0:0:
448,192,68235,1,0,0:0:0:0:
64,192,68535,1,0,0:0:0:0:
320,192,68835,1,2,0:0:0:0:
448,192,68835,1,0,0:0:0:0:
64,192,69135,1,8,0:0:0:0:
448,192,69135,1,0,0:0:0:0:
320,192,69435,1,0,0:0:0:0:
448,192,69735,128,0,71535:0:0:0:0:
192,192,69935,1,2,0:0:0:0:
320,192,69935,1,0,0:0:0:0:
64,192,70035,1,8,0:0:0:0:
320,192,70335,1,0,0:0:0:0:
64,192,70535,1,2,0:0:0:0:
192,192,70535,1,0,0:0:0:0:
320,192,70635,1,8,0:0:0:0:
192,192,70835,1,2,0:0:0:0:
320,192,70835,1,0,0:0:0:0:
64,192,71235,1,8,0:0:0:0:
320,192,71235,1,2,0:0:0:0:
192,192,71535,1,0,0:0:0:0:
64,192,71635,1,8,0:0:0:0:
448,192,71635,1,0,0:0:0:0:
320,192,71735,1,0,0:0:0:70:LR_Tom Hit.wav
192,192,71835,1,0,0:0:0:70:LR_Tom Hit.wav
448,192,71935,1,2,0:0:0:0:
320,192,72035,1,2,0:0:0:0:
64,192,72135,1,4,0:0:0:0:
192,192,72135,1,2,0:0:0:0:
448,192,72135,128,0,72285:0:0:0:0:
320,192,72285,128,0,72435:0:0:0:0:
64,192,72435,128,0,72585:0:0:0:0:
192,192,72585,128,0,72735:0:0:0:0:
448,192,72735,128,0,72885:0:0:0:0:
64,192,72885,128,0,73035:0:0:0:0:
320,192,73035,128,0,73185:0:0:0:0:
192,192,73185,128,0,73335:0:0:0:0:
64,192,73335,128,0,73485:0:0:0:0:
448,192,73485,128,0,73635:0:0:0:0:
192,192,73635,128,0,73785:0:0:0:0:
320,192,73785,128,0,73935:0:0:0:0:
64,192,73935,128,0,74085:0:0:0:0:
192,192,74085,128,0,74235:0:0:0:0:
320,192,74235,128,0,74385:0:0:0:0:
64,192,74385,128,0,74535:0:0:0:0:
320,192,74535,128,0,74685:0:0:0:70:LR_Drum Hit P2.wav
448,192,74535,1,0,0:0:0:0:
192,192,74685,128,0,74835:0:0:0:0:
448,192,74835,128,0,74985:0:0:0:0:
64,192,74985,128,0,75135:0:0:0:70:LR_Drum Hit P2.wav
192,192,74985,1,0,0:0:0:0:
448,192,75135,128,0,75285:0:0:0:0:
64,192,75285,128,0,75435:0:0:0:0:
320,192,75435,1,0,0:0:0:70:LR_Drum Hit P2.wav
448,192,75435,128,0,75585:0:0:0:0:
192,192,75585,128,0,75735:0:0:0:0:
448,192,75735,128,0,75885:0:0:0:0:
64,192,75885,128,0,76035:0:0:0:70:LR_Drum Hit P2.wav
192,192,75885,1,0,0:0:0:0:
320,192,76035,128,0,76185:0:0:0:0:
192,192,76185,128,0,76335:0:0:0:0:
64,192,76335,1,0,0:0:0:50:LR_Tom Normal.wav
448,192,76335,1,0,0:0:0:0:
320,192,76410,1,0,0:0:0:50:LR_Tom Normal.wav
192,192,76485,1,0,0:0:0:50:LR_Tom Normal.wav
64,192,76560,1,0,0:0:0:50:LR_Tom Normal.wav
320,192,76635,1,0,0:0:0:50:LR_Tom Normal.wav
448,192,76635,1,0,0:0:0:0:
192,192,76710,1,0,0:0:0:50:LR_Tom Normal.wav
64,192,76785,1,0,0:0:0:50:LR_Tom Normal.wav
320,192,76860,1,0,0:0:0:50:LR_Tom Normal.wav
64,192,76935,1,14,0:0:0:0:
192,192,76935,1,0,0:0:0:70:LR_Snare Med Wet.wav
320,192,77085,1,0,0:0:0:0:
192,192,77160,1,0,0:0:0:0:
64,192,77235,1,0,0:0:0:70:LR_Snare Med Wet.wav
320,192,77235,1,0,0:0:0:0:
192,192,77385,1,0,0:0:0:0:
320,192,77460,1,0,0:0:0:0:
192,192,77535,1,0,0:0:0:70:LR_Snare Med Wet.wav
448,192,77535,1,0,0:0:0:0:
320,192,77685,1,0,0:0:0:0:
192,192,77760,1,0,0:0:0:0:
64,192,77835,1,0,0:0:0:70:LR_Snare Med Wet.wav
320,192,77835,1,0,0:0:0:0:
64,192,77985,1,0,0:0:0:0:
192,192,78060,1,0,0:0:0:0:
320,192,78135,1,0,0:0:0:70:LR_Snare Med Wet.wav
448,192,78135,1,0,0:0:0:0:
448,192,78285,1,0,0:0:0:0:
320,192,78360,1,0,0:0:0:0:
64,192,78435,1,0,0:0:0:70:LR_Snare Med Wet.wav
192,192,78435,1,0,0:0:0:0:
64,192,78585,1,0,0:0:0:0:
192,192,78660,1,0,0:0:0:0:
320,192,78735,1,0,0:0:0:70:LR_Snare Med Wet.wav
448,192,78735,1,0,0:0:0:0:
448,192,78885,1,0,0:0:0:0:
192,192,78960,1,0,0:0:0:0:
64,192,79035,1,0,0:0:0:70:LR_Snare Med Wet.wav
320,192,79035,128,0,79335:0:0:0:0:
64,192,79335,1,8,0:0:0:0:
192,192,79335,1,2,0:0:0:0:
448,192,79335,1,0,0:0:0:70:LR_Snare Med Wet.wav
320,192,79485,1,0,0:0:0:0:
192,192,79560,1,0,0:0:0:0:
64,192,79635,1,8,0:0:0:0:
320,192,79635,1,2,0:0:0:0:
448,192,79635,1,0,0:0:0:70:LR_Snare Med Wet.wav
192,192,79785,1,0,0:0:0:0:
320,192,79860,1,0,0:0:0:0:
64,192,79935,1,0,0:0:0:70:LR_Snare Med Wet.wav
192,192,79935,1,0,0:0:0:0:
320,192,80085,1,0,0:0:0:0:
192,192,80160,1,0,0:0:0:0:
320,192,80235,1,0,0:0:0:70:LR_Snare Med Wet.wav
448,192,80235,1,0,0:0:0:0:
64,192,80385,1,0,0:0:0:0:
192,192,80460,1,0,0:0:0:0:
64,192,80535,1,0,0:0:0:70:LR_Snare Med Wet.wav
320,192,80535,1,0,0:0:0:0:
448,192,80685,1,0,0:0:0:0:
320,192,80760,1,0,0:0:0:0:
192,192,80835,1,0,0:0:0:70:LR_Snare Med Wet.wav
448,192,80835,1,0,0:0:0:0:
64,192,80985,1,0,0:0:0:0:
192,192,81060,1,0,0:0:0:0:
64,192,81135,1,0,0:0:0:70:LR_Snare Med Wet.wav
320,192,81135,1,0,0:0:0:0:
192,192,81285,1,0,0:0:0:0:
64,192,81360,1,0,0:0:0:0:
320,192,81435,1,2,0:0:0:0:
448,192,81435,1,0,0:0:0:70:LR_Snare Med Wet.wav
192,192,81510,1,2,0:0:0:0:
64,192,81585,1,2,0:0:0:0:
448,192,81585,1,0,0:0:0:0:
320,192,81660,1,2,0:0:0:0:
64,192,81735,1,8,0:0:0:0:
192,192,81735,1,2,0:0:0:0:
448,192,81735,1,0,0:0:0:70:LR_Snare Med Wet.wav
64,192,81885,1,2,0:0:0:0:
320,192,81885,1,0,0:0:0:0:
192,192,82035,1,2,0:0:0:0:
448,192,82035,1,0,0:0:0:70:LR_Snare Med Wet.wav
64,192,82185,1,2,0:0:0:0:
192,192,82185,1,0,0:0:0:0:
64,192,82335,1,2,0:0:0:0:
320,192,82335,1,8,0:0:0:0:
448,192,82335,1,0,0:0:0:70:LR_Snare Med Wet.wav
192,192,82485,1,2,0:0:0:0:
448,192,82485,1,0,0:0:0:0:
64,192,82635,1,2,0:0:0:0:
320,192,82635,1,0,0:0:0:70:LR_Snare Med Wet.wav
64,192,82785,1,2,0:0:0:0:
192,192,82785,1,0,0:0:0:0:
192,192,82935,1,8,0:0:0:0:
320,192,82935,1,2,0:0:0:0:
448,192,82935,1,0,0:0:0:70:LR_Snare Med Wet.wav
64,192,83085,1,2,0:0:0:0:
448,192,83085,1,0,0:0:0:0:
64,192,83235,1,2,0:0:0:0:
192,192,83235,1,0,0:0:0:70:LR_Snare Med Wet.wav
192,192,83385,1,2,0:0:0:0:
448,192,83385,1,0,0:0:0:0:
64,192,83535,1,2,0:0:0:0:
192,192,83535,1,8,0:0:0:0:
320,192,83535,1,0,0:0:0:70:LR_Snare Med Wet.wav
64,192,83685,1,2,0:0:0:0:
448,192,83685,1,0,0:0:0:0:
320,192,83835,1,2,0:0:0:0:
448,192,83835,1,0,0:0:0:70:LR_Snare Med Wet.wav
64,192,83985,1,2,0:0:0:0:
320,192,83985,1,0,0:0:0:0:
192,192,84135,1,8,0:0:0:0:
320,192,84135,1,2,0:0:0:0:
448,192,84135,1,0,0:0:0:70:LR_Snare Med Wet.wav
448,192,84235,1,0,0:0:0:0:
64,192,84335,1,2,0:0:0:0:
192,192,84335,1,8,0:0:0:0:
320,192,84335,1,0,0:0:0:0:
64,192,84435,1,0,0:0:0:70:LR_Snare Med Wet.wav
192,192,84535,1,8,0:0:0:0:
320,192,84535,1,2,0:0:0:0:
448,192,84535,1,0,0:0:0:0:
320,192,84635,1,0,0:0:0:0:
64,192,84735,1,2,0:0:0:0:
192,192,84735,1,8,0:0:0:0:
448,192,84735,1,0,0:0:0:70:LR_Snare Med Wet.wav
192,192,84835,1,0,0:0:0:0:
64,192,84935,1,8,0:0:0:0:
320,192,84935,1,2,0:0:0:0:
448,192,84935,1,0,0:0:0:0:
320,192,85035,1,0,0:0:0:70:LR_Snare Med Wet.wav
64,192,85135,1,2,0:0:0:0:
192,192,85135,1,8,0:0:0:0:
448,192,85135,1,0,0:0:0:0:
192,192,85235,1,0,0:0:0:0:
64,192,85335,1,8,0:0:0:0:
320,192,85335,1,2,0:0:0:0:
448,192,85335,1,0,0:0:0:70:LR_Snare Med Wet.wav
448,192,85435,1,10,0:0:0:0:
192,192,85535,1,10,0:0:0:0:
64,192,85635,1,2,0:0:0:0:
320,192,85635,1,8,0:0:0:0:
448,192,85635,1,0,0:0:0:70:LR_Snare Med Wet.wav
64,192,85735,1,10,0:0:0:0:
448,192,85835,1,10,0:0:0:0:
64,192,85935,1,8,0:0:0:0:
192,192,85935,1,2,0:0:0:0:
320,192,85935,1,0,0:0:0:70:LR_Snare Med Wet.wav
192,192,86035,1,10,0:0:0:0:
320,192,86135,1,2,0:0:0:0:
64,192,86235,1,2,0:0:0:0:
448,192,86235,1,0,0:0:0:70:LR_Snare Med Wet.wav
192,192,86285,1,2,0:0:0:0:
320,192,86335,1,2,0:0:0:0:
64,192,86385,1,2,0:0:0:0:
192,192,86435,1,2,0:0:0:0:
320,192,86485,1,2,0:0:0:0:
64,192,86535,1,4,0:0:0:0:
192,192,86535,1,2,0:0:0:0:
448,192,86535,128,0,86835:0:0:0:0:
64,192,86835,1,4,0:0:0:0:
192,192,86835,1,2,0:0:0:0:
320,192,86985,1,2,0:0:0:0:
448,192,86985,1,4,0:0:0:0:
64,192,87135,128,4,87435:0:0:0:0:
192,192,87135,1,2,0:0:0:0:
448,192,87135,1,0,0:0:0:0:
192,192,87435,1,2,0:0:0:0:
320,192,87435,1,4,0:0:0:0:
448,192,87435,128,0,87735:0:0:0:0:
64,192,87735,1,0,0:0:0:70:LR_Snare Med Wet.wav
192,192,87735,1,0,0:0:0:0:
320,192,87810,1,0,0:0:0:70:LR_Snare Med Wet.wav
192,192,87885,1,0,0:0:0:70:LR_Snare Med Wet.wav
64,192,87960,1,0,0:0:0:70:LR_Snare Med Wet.wav
320,192,88035,1,0,0:0:0:70:LR_Snare Med Wet.wav
448,192,88035,1,0,0:0:0:0:
192,192,88110,1,0,0:0:0:70:LR_Snare Med Wet.wav
320,192,88185,1,0,0:0:0:70:LR_Snare Med Wet.wav
448,192,88260,1,0,0:0:0:70:LR_Snare Med Wet.wav
64,192,88335,1,0,0:0:0:70:LR_Snare Med Wet.wav
192,192,88335,1,0,0:0:0:0:
320,192,88485,1,0,0:0:0:70:LR_Snare Med Wet.wav
448,192,88485,1,0,0:0:0:0:
192,192,88560,1,0,0:0:0:70:LR_Snare Med Wet.wav
64,192,88635,128,8,88785:0:0:0:0:
448,192,88635,128,4,88785:0:0:0:0:
64,192,88935,1,2,0:0:0:0:
320,192,88935,1,4,0:0:0:0:
448,192,88935,1,0,0:0:0:0:
320,192,89085,1,0,0:0:0:0:
64,192,89235,1,2,0:0:0:0:
192,192,89235,1,0,0:0:0:0:
192,192,89385,1,0,0:0:0:0:
64,192,89535,1,2,0:0:0:0:
448,192,89535,1,0,0:0:0:0:
448,192,89685,1,0,0:0:0:0:
64,192,89835,1,2,0:0:0:0:
320,192,89835,1,0,0:0:0:0:
64,192,89985,1,2,0:0:0:0:
192,192,89985,1,0,0:0:0:0:
320,192,90060,1,2,0:0:0:0:
448,192,90060,1,0,0:0:0:0:
64,192,90135,1,2,0:0:0:0:
192,192,90135,1,0,0:0:0:0:
192,192,90285,1,0,0:0:0:0:
64,192,90435,1,2,0:0:0:0:
448,192,90435,1,0,0:0:0:0:
448,192,90585,1,0,0:0:0:0:
64,192,90735,1,2,0:0:0:0:
192,192,90735,1,0,0:0:0:0:
64,192,90885,1,2,0:0:0:0:
320,192,90885,1,0,0:0:0:0:
320,192,91035,1,2,0:0:0:0:
448,192,91035,1,0,0:0:0:0:
192,192,91185,1,2,0:0:0:0:
448,192,91185,1,0,0:0:0:0:
192,192,91335,1,2,0:0:0:0:
320,192,91335,1,0,0:0:0:0:
320,192,91485,1,0,0:0:0:0:
64,192,91635,1,2,0:0:0:0:
448,192,91635,1,0,0:0:0:0:
64,192,91785,1,0,0:0:0:0:
192,192,91935,1,2,0:0:0:0:
448,192,91935,1,0,0:0:0:0:
320,192,92085,1,2,0:0:0:0:
448,192,92085,1,0,0:0:0:0:
64,192,92235,1,2,0:0:0:0:
320,192,92235,1,0,0:0:0:0:
448,192,92385,1,2,0:0:0:0:
320,192,92422,1,2,0:0:0:0:
192,192,92460,1,2,0:0:0:0:
64,192,92497,1,2,0:0:0:0:
320,192,92535,1,2,0:0:0:0:
448,192,92535,1,0,0:0:0:0:
64,192,92685,1,2,0:0:0:0:
448,192,92685,1,0,0:0:0:0:
64,192,92835,1,2,0:0:0:0:
192,192,92835,1,0,0:0:0:0:
320,192,92985,1,0,0:0:0:0:
64,192,93135,1,8,0:0:0:0:
448,192,93135,1,0,0:0:0:0:
64,192,93285,1,2,0:0:0:0:
192,192,93285,1,0,0:0:0:0:
320,192,93435,1,8,0:0:0:0:
192,192,93510,1,8,0:0:0:0:
320,192,93585,1,2,0:0:0:0:
448,192,93585,1,0,0:0:0:0:
64,192,93660,1,2,0:0:0:0:
192,192,93660,1,0,0:0:0:0:
320,192,93735,1,2,0:0:0:0:
448,192,93735,1,0,0:0:0:0:
64,192,93885,1,2,0:0:0:0:
448,192,93885,1,0,0:0:0:0:
64,192,94035,1,2,0:0:0:0:
192,192,94035,1,0,0:0:0:0:
192,192,94185,1,2,0:0:0:0:
448,192,94185,1,0,0:0:0:0:
64,192,94335,1,2,0:0:0:0:
448,192,94335,1,0,0:0:0:0:
64,192,94485,1,0,0:0:0:0:
320,192,94635,1,2,0:0:0:0:
448,192,94635,1,0,0:0:0:0:
64,192,94785,1,2,0:0:0:0:
448,192,94785,1,0,0:0:0:0:
64,192,94935,1,4,0:0:0:0:
192,192,94935,1,2,0:0:0:0:
192,192,95160,1,4,0:0:0:0:
448,192,95160,1,2,0:0:0:0:
64,192,95385,1,2,0:0:0:0:
192,192,95385,1,4,0:0:0:0:
64,192,95610,1,4,0:0:0:0:
320,192,95610,1,2,0:0:0:0:
64,192,95835,1,2,0:0:0:0:
448,192,95835,1,4,0:0:0:0:
192,192,95910,1,2,0:0:0:0:
64,192,95985,1,2,0:0:0:0:
320,192,95985,1,0,0:0:0:0:
448,192,96060,1,2,0:0:0:0:
192,192,96135,1,2,0:0:0:0:
320,192,96135,1,0,0:0:0:0:
192,192,96285,1,0,0:0:0:0:
64,192,96435,1,2,0:0:0:0:
320,192,96435,1,0,0:0:0:0:
320,192,96585,1,0,0:0:0:0:
192,192,96735,1,2,0:0:0:0:
448,192,96735,1,0,0:0:0:0:
64,192,96885,1,2,0:0:0:0:
448,192,96885,1,0,0:0:0:0:
320,192,96960,1,2,0:0:0:0:
64,192,97035,1,2,0:0:0:0:
192,192,97035,1,0,0:0:0:0:
448,192,97110,1,2,0:0:0:0:
64,192,97185,1,2,0:0:0:0:
192,192,97222,1,2,0:0:0:0:
320,192,97260,1,2,0:0:0:0:
448,192,97297,1,2,0:0:0:0:
64,192,97335,1,8,0:0:0:0:
192,192,97335,1,2,0:0:0:0:
320,192,97410,1,0,0:0:0:0:
64,192,97485,1,2,0:0:0:0:
448,192,97485,1,0,0:0:0:0:
192,192,97560,1,2,0:0:0:0:
320,192,97635,1,2,0:0:0:0:
448,192,97635,1,8,0:0:0:0:
64,192,97710,1,0,0:0:0:0:
192,192,97785,1,2,0:0:0:0:
320,192,97785,1,0,0:0:0:0:
448,192,97860,1,2,0:0:0:0:
64,192,97935,1,8,0:0:0:0:
320,192,97935,1,2,0:0:0:0:
192,192,98010,1,0,0:0:0:0:
64,192,98085,1,2,0:0:0:0:
448,192,98085,1,0,0:0:0:0:
320,192,98160,1,2,0:0:0:0:
64,192,98235,1,8,0:0:0:0:
192,192,98235,1,0,0:0:0:0:
320,192,98310,1,8,0:0:0:0:
448,192,98310,1,0,0:0:0:0:
192,192,98385,1,2,0:0:0:0:
320,192,98460,1,2,0:0:0:0:
64,192,98535,1,2,0:0:0:0:
192,192,98535,1,4,0:0:0:0:
448,192,98535,1,0,0:0:0:0:
64,192,98685,1,0,0:0:0:0:
320,192,98835,1,2,0:0:0:0:
448,192,98835,1,0,0:0:0:0:
64,192,98985,1,2,0:0:0:0:
192,192,99022,1,2,0:0:0:0:
320,192,99060,1,2,0:0:0:0:
448,192,99097,1,2,0:0:0:0:
64,192,99135,1,2,0:0:0:0:
192,192,99135,1,0,0:0:0:0:
64,192,99285,1,0,0:0:0:0:
192,192,99435,1,2,0:0:0:0:
448,192,99435,1,0,0:0:0:0:
320,192,99585,1,2,0:0:0:0:
448,192,99585,1,0,0:0:0:0:
64,192,99660,1,2,0:0:0:0:
192,192,99660,1,0,0:0:0:0:
320,192,99735,1,2,0:0:0:0:
448,192,99735,1,0,0:0:0:0:
64,192,99885,1,2,0:0:0:0:
320,192,99885,1,0,0:0:0:0:
64,192,100035,1,2,0:0:0:0:
192,192,100035,1,0,0:0:0:0:
192,192,100185,1,0,0:0:0:0:
320,192,100335,1,8,0:0:0:0:
448,192,100335,1,0,0:0:0:0:
64,192,100410,1,8,0:0:0:0:
192,192,100410,1,0,0:0:0:0:
320,192,100485,1,8,0:0:0:0:
448,192,100485,1,0,0:0:0:0:
64,192,100560,1,8,0:0:0:0:
192,192,100560,1,0,0:0:0:0:
320,192,100635,1,0,0:0:0:70:LR_Snare Med Wet.wav
192,192,100710,1,0,0:0:0:70:LR_Snare Med Wet.wav
320,192,100785,1,2,0:0:0:0:
192,192,100860,1,2,0:0:0:0:
64,192,100935,1,4,0:0:0:0:
320,192,100935,1,2,0:0:0:0:
448,192,100935,1,0,0:0:0:0:
320,192,101160,1,2,0:0:0:0:
448,192,101160,1,4,0:0:0:0:
64,192,101385,1,4,0:0:0:0:
320,192,101385,1,2,0:0:0:0:
64,192,101535,1,2,0:0:0:0:
192,192,101535,1,4,0:0:0:0:
448,192,101535,1,0,0:0:0:0:
64,192,101760,1,4,0:0:0:0:
192,192,101760,1,2,0:0:0:0:
192,192,101985,1,2,0:0:0:0:
448,192,101985,1,4,0:0:0:0:
64,192,102135,1,4,0:0:0:0:
320,192,102135,1,2,0:0:0:0:
448,192,102135,1,0,0:0:0:0:
192,192,102235,1,0,0:0:0:0:
320,192,102335,1,0,0:0:0:0:
64,192,102435,1,0,0:0:0:0:
448,192,102435,1,0,0:0:0:0:
320,192,102535,1,0,0:0:0:0:
192,192,102635,1,0,0:0:0:0:
64,192,102735,1,2,0:0:0:0:
448,192,102735,1,0,0:0:0:0:
64,192,102885,1,2,0:0:0:0:
192,192,102885,1,0,0:0:0:0:
320,192,103035,1,8,0:0:0:0:
448,192,103035,1,0,0:0:0:0:
192,192,103110,1,8,0:0:0:0:
64,192,103185,1,8,0:0:0:0:
448,192,103185,1,0,0:0:0:0:
320,192,103260,1,8,0:0:0:0:
64,192,103335,1,2,0:0:0:0:
192,192,103335,1,4,0:0:0:0:
192,192,103485,1,0,0:0:0:0:
64,192,103635,128,8,103935:0:0:0:0:
448,192,103635,1,2,0:0:0:0:
448,192,103785,1,0,0:0:0:0:
320,192,103935,1,2,0:0:0:0:
448,192,103935,1,0,0:0:0:0:
320,192,104085,1,0,0:0:0:0:
64,192,104235,1,2,0:0:0:0:
448,192,104235,128,8,104385:0:0:0:0:
64,192,104385,1,2,0:0:0:0:
192,192,104385,1,0,0:0:0:0:
320,192,104460,1,2,0:0:0:0:
448,192,104460,1,0,0:0:0:0:
64,192,104535,1,2,0:0:0:0:
192,192,104535,1,0,0:0:0:0:
192,192,104685,1,0,0:0:0:0:
64,192,104835,128,8,105135:0:0:0:0:
448,192,104835,1,2,0:0:0:0:
448,192,104985,1,0,0:0:0:0:
320,192,105135,1,2,0:0:0:0:
448,192,105135,1,0,0:0:0:0:
64,192,105235,1,2,0:0:0:0:
192,192,105235,1,0,0:0:0:0:
320,192,105335,1,2,0:0:0:0:
448,192,105335,1,0,0:0:0:0:
64,192,105435,1,8,0:0:0:0:
192,192,105435,1,0,0:0:0:0:
448,192,105535,1,8,0:0:0:0:
64,192,105635,1,8,0:0:0:0:
320,192,105735,1,4,0:0:0:0:
448,192,105735,128,2,106185:0:0:0:0:
64,192,106185,1,2,0:0:0:0:
192,192,106185,1,0,0:0:0:0:
320,192,106260,1,2,0:0:0:0:
64,192,106335,128,2,106785:0:0:0:0:
192,192,106335,1,4,0:0:0:0:
448,192,106785,1,2,0:0:0:0:
320,192,106822,1,2,0:0:0:0:
192,192,106860,1,2,0:0:0:0:
64,192,106897,1,2,0:0:0:0:
320,192,106935,1,4,0:0:0:0:
448,192,106935,1,2,0:0:0:0:
192,192,107010,1,2,0:0:0:0:
64,192,107085,1,2,0:0:0:0:
448,192,107085,1,0,0:0:0:0:
320,192,107160,1,2,0:0:0:0:
192,192,107235,1,2,0:0:0:0:
448,192,107235,1,0,0:0:0:0:
64,192,107385,1,2,0:0:0:0:
192,192,107422,1,2,0:0:0:0:
320,192,107460,1,2,0:0:0:0:
448,192,107497,1,2,0:0:0:0:
64,192,107535,1,2,0:0:0:0:
192,192,107535,1,0,0:0:0:70:LR_Tom Hit.wav
320,192,107685,1,0,0:0:0:70:LR_Tom Hit.wav
448,192,107835,1,0,0:0:0:50:LR_Tom Normal.wav
64,192,107985,1,0,0:0:0:50:LR_Tom Normal.wav
192,192,108135,1,4,0:0:0:0:
320,192,108135,1,2,0:0:0:0:
448,192,108135,1,0,0:0:0:70:LR_Snare Med Wet.wav
64,192,108435,1,0,0:0:0:70:LR_Snare Med Wet.wav
320,192,108435,1,0,0:0:0:0:
64,192,108735,1,0,0:0:0:70:LR_Snare Med Wet.wav
192,192,108735,1,0,0:0:0:0:
192,192,109035,1,0,0:0:0:70:LR_Snare Med Wet.wav
448,192,109035,1,0,0:0:0:0:
320,192,109335,1,0,0:0:0:70:LR_Snare Med Wet.wav
448,192,109335,1,0,0:0:0:0:
64,192,109635,1,0,0:0:0:70:LR_Snare Med Wet.wav
320,192,109635,1,0,0:0:0:0:
64,192,109935,1,0,0:0:0:70:LR_Snare Med Wet.wav
448,192,109935,1,0,0:0:0:0:
64,192,110235,1,4,0:0:0:0:
320,192,110235,1,2,0:0:0:0:
448,192,110235,1,0,0:0:0:70:LR_Snare Med Wet.wav
64,192,110385,1,2,0:0:0:0:
192,192,110422,1,2,0:0:0:0:
320,192,110460,1,2,0:0:0:0:
448,192,110497,1,2,0:0:0:0:
64,192,110535,1,6,0:0:0:0:
192,192,110535,1,0,0:0:0:70:LR_Snare Med Wet.wav
192,192,110835,1,4,0:0:0:0:
320,192,110835,1,2,0:0:0:0:
448,192,110835,1,0,0:0:0:70:LR_Snare Med Wet.wav
64,192,111135,1,0,0:0:0:70:LR_Snare Med Wet.wav
448,192,111135,1,0,0:0:0:0:
64,192,111435,1,0,0:0:0:70:LR_Snare Med Wet.wav
192,192,111435,1,0,0:0:0:0:
192,192,111735,1,0,0:0:0:70:LR_Snare Med Wet.wav
448,192,111735,1,0,0:0:0:0:
64,192,111885,1,2,0:0:0:0:
320,192,111885,1,4,0:0:0:0:
448,192,111885,1,0,0:0:0:0:
192,192,112035,1,0,0:0:0:70:LR_Tom Hit.wav
320,192,112035,1,0,0:0:0:70:LR_Snare Med Wet.wav
64,192,112335,1,4,0:0:0:0:
192,192,112335,1,2,0:0:0:0:
320,192,112335,1,0,0:0:0:70:LR_Snare Med Wet.wav
64,192,112635,1,0,0:0:0:70:LR_Snare Med Wet.wav
448,192,112635,1,0,0:0:0:0:
448,192,112785,1,2,0:0:0:0:
320,192,112822,1,2,0:0:0:0:
192,192,112860,1,2,0:0:0:0:
64,192,112897,1,2,0:0:0:0:
320,192,112935,1,6,0:0:0:0:
448,192,112935,1,0,0:0:0:70:LR_Snare Med Wet.wav
192,192,113085,1,2,0:0:0:0:
64,192,113235,1,2,0:0:0:0:
448,192,113235,1,0,0:0:0:70:LR_Snare Med Wet.wav
320,192,113385,1,2,0:0:0:0:
192,192,113535,1,2,0:0:0:0:
448,192,113535,1,0,0:0:0:70:LR_Snare Med Wet.wav
64,192,113685,1,2,0:0:0:0:
192,192,113835,1,2,0:0:0:0:
320,192,113835,1,0,0:0:0:70:LR_Snare Med Wet.wav
448,192,113985,1,2,0:0:0:0:
64,192,114135,1,2,0:0:0:0:
192,192,114135,1,0,0:0:0:70:LR_Snare Med Wet.wav
320,192,114285,1,2,0:0:0:0:
64,192,114435,1,2,0:0:0:0:
448,192,114435,1,0,0:0:0:70:LR_Snare Med Wet.wav
192,192,114585,1,2,0:0:0:0:
320,192,114735,1,2,0:0:0:0:
448,192,114735,1,0,0:0:0:70:LR_Snare Med Wet.wav
64,192,114885,1,2,0:0:0:0:
192,192,115035,1,2,0:0:0:0:
320,192,115035,1,0,0:0:0:70:LR_Snare Med Wet.wav
448,192,115185,1,2,0:0:0:0:
64,192,115335,1,2,0:0:0:0:
192,192,115335,1,0,0:0:0:70:LR_Snare Med Wet.wav
320,192,115410,1,2,0:0:0:0:
64,192,115485,1,2,0:0:0:0:
448,192,115485,1,0,0:0:0:0:
192,192,115560,1,2,0:0:0:0:
320,192,115635,1,2,0:0:0:0:
448,192,115635,1,0,0:0:0:70:LR_Snare Med Wet.wav
192,192,115710,1,2,0:0:0:0:
64,192,115785,1,2,0:0:0:0:
320,192,115785,1,0,0:0:0:0:
448,192,115860,1,2,0:0:0:0:
64,192,115935,1,2,0:0:0:0:
192,192,115935,1,0,0:0:0:70:LR_Snare Med Wet.wav
320,192,116010,1,2,0:0:0:0:
64,192,116085,1,2,0:0:0:0:
448,192,116085,1,0,0:0:0:0:
192,192,116160,1,2,0:0:0:0:
320,192,116235,1,2,0:0:0:0:
448,192,116235,1,0,0:0:0:70:LR_Snare Med Wet.wav
64,192,116310,1,2,0:0:0:0:
192,192,116310,1,0,0:0:0:0:
320,192,116385,1,2,0:0:0:0:
448,192,116385,1,0,0:0:0:0:
192,192,116460,1,2,0:0:0:0:
64,192,116535,1,2,0:0:0:0:
320,192,116535,1,0,0:0:0:70:LR_Snare Med Wet.wav
64,192,116685,1,2,0:0:0:0:
320,192,116685,1,0,0:0:0:0:
192,192,116835,1,2,0:0:0:0:
448,192,116835,1,0,0:0:0:70:LR_Snare Med Wet.wav
192,192,116985,1,2,0:0:0:0:
448,192,116985,1,0,0:0:0:0:
64,192,117135,128,2,117435:0:0:0:0:
320,192,117135,1,0,0:0:0:70:LR_Snare Med Wet.wav
448,192,117135,1,0,0:0:0:0:
192,192,117435,1,8,0:0:0:0:
448,192,117435,1,4,0:0:0:0:
320,192,117510,1,0,0:0:0:0:
64,192,117585,1,0,0:0:0:0:
192,192,117660,1,0,0:0:0:0:
64,192,117735,1,4,0:0:0:0:
320,192,117735,128,2,118635:0:0:0:0:
448,192,117735,1,0,0:0:0:0:
448,192,117885,1,0,0:0:0:0:
64,192,118035,1,2,0:0:0:0:
192,192,118035,1,0,0:0:0:0:
64,192,118185,1,0,0:0:0:0:
192,192,118335,1,2,0:0:0:0:
448,192,118335,1,0,0:0:0:0:
448,192,118485,1,0,0:0:0:0:
64,192,118635,1,2,0:0:0:0:
192,192,118635,128,0,118785:0:0:0:0:
64,192,118785,128,2,118860:0:0:0:0:
320,192,118785,1,0,0:0:0:0:
64,192,118935,128,2,119835:0:0:0:0:
448,192,118935,1,0,0:0:0:0:
448,192,119085,1,0,0:0:0:0:
192,192,119235,1,2,0:0:0:0:
320,192,119235,1,0,0:0:0:0:
320,192,119385,1,0,0:0:0:0:
192,192,119535,1,2,0:0:0:0:
448,192,119535,1,0,0:0:0:0:
192,192,119685,1,0,0:0:0:0:
320,192,119835,128,2,119985:0:0:0:0:
448,192,119835,1,0,0:0:0:0:
448,192,119985,128,0,120135:0:0:0:0:
64,192,120135,1,2,0:0:0:0:
192,192,120135,128,0,121035:0:0:0:0:
64,192,120285,1,0,0:0:0:0:
320,192,120435,1,2,0:0:0:0:
448,192,120435,1,0,0:0:0:0:
320,192,120585,1,0,0:0:0:0:
64,192,120735,1,2,0:0:0:0:
448,192,120735,1,0,0:0:0:0:
448,192,120885,1,0,0:0:0:0:
64,192,121035,1,2,0:0:0:0:
320,192,121035,1,0,0:0:0:0:
448,192,121185,1,2,0:0:0:0:
320,192,121222,1,2,0:0:0:0:
192,192,121260,1,2,0:0:0:0:
64,192,121297,1,2,0:0:0:0:
320,192,121335,1,2,0:0:0:0:
448,192,121335,128,0,122160:0:0:0:0:
320,192,121485,1,0,0:0:0:0:
64,192,121635,1,2,0:0:0:0:
192,192,121635,1,0,0:0:0:0:
192,192,121785,1,0,0:0:0:0:
64,192,121935,1,2,0:0:0:0:
320,192,121935,1,0,0:0:0:0:
320,192,122085,1,0,0:0:0:0:
64,192,122160,1,2,0:0:0:0:
192,192,122160,1,0,0:0:0:0:
320,192,122235,1,2,0:0:0:0:
448,192,122235,1,0,0:0:0:0:
64,192,122385,128,2,122535:0:0:0:0:
192,192,122535,128,2,123735:0:0:0:0:
320,192,122535,1,4,0:0:0:0:
448,192,122535,1,0,0:0:0:0:
320,192,122685,1,0,0:0:0:0:
64,192,122835,1,2,0:0:0:0:
448,192,122835,1,0,0:0:0:0:
448,192,122985,1,0,0:0:0:0:
64,192,123135,1,2,0:0:0:0:
320,192,123135,1,0,0:0:0:0:
64,192,123285,1,0,0:0:0:0:
320,192,123435,1,2,0:0:0:0:
448,192,123435,1,0,0:0:0:0:
64,192,123585,1,2,0:0:0:0:
448,192,123585,1,0,0:0:0:0:
64,192,123735,128,2,123810:0:0:0:0:
320,192,123735,1,0,0:0:0:0:
64,192,123885,1,0,0:0:0:0:
192,192,124035,1,2,0:0:0:0:
448,192,124035,128,0,124110:0:0:0:0:
448,192,124185,1,0,0:0:0:0:
64,192,124335,128,2,124410:0:0:0:0:
320,192,124335,1,0,0:0:0:0:
64,192,124485,1,0,0:0:0:0:
192,192,124635,1,2,0:0:0:0:
448,192,124635,128,0,124710:0:0:0:0:
320,192,124785,1,2,0:0:0:0:
448,192,124785,1,0,0:0:0:0:
64,192,124860,1,2,0:0:0:0:
192,192,124860,1,0,0:0:0:0:
320,192,124935,1,2,0:0:0:0:
448,192,124935,1,0,0:0:0:0:
320,192,125085,1,0,0:0:0:0:
192,192,125235,1,2,0:0:0:0:
448,192,125235,1,0,0:0:0:0:
320,192,125310,1,0,0:0:0:0:
192,192,125385,1,0,0:0:0:0:
64,192,125460,1,0,0:0:0:0:
320,192,125535,1,2,0:0:0:0:
448,192,125535,128,0,125835:0:0:0:0:
192,192,125685,128,0,125835:0:0:0:0:
64,192,125835,1,2,0:0:0:0:
320,192,125835,1,0,0:0:0:0:
192,192,125910,1,0,0:0:0:0:
320,192,125985,1,0,0:0:0:0:
448,192,126060,1,0,0:0:0:0:
64,192,126135,128,2,126435:0:0:0:0:
192,192,126135,1,0,0:0:0:0:
320,192,126285,128,0,126435:0:0:0:0:
192,192,126435,1,0,0:0:0:0:
448,192,126435,128,0,126735:0:0:0:0:
64,192,126735,128,0,127035:0:0:0:0:
320,192,126735,1,0,0:0:0:0:
448,192,127035,128,0,127185:0:0:0:0:
64,192,127185,1,2,0:0:0:0:
192,192,127185,1,0,0:0:0:0:
320,192,127260,1,2,0:0:0:0:
64,192,127335,1,2,0:0:0:0:
192,192,127335,128,4,128235:0:0:0:0:
448,192,127335,1,0,0:0:0:0:
64,192,127485,1,2,0:0:0:0:
320,192,127485,1,0,0:0:0:0:
320,192,127635,1,2,0:0:0:0:
448,192,127635,1,0,0:0:0:0:
448,192,127785,1,0,0:0:0:0:
64,192,127935,1,2,0:0:0:0:
320,192,127935,1,0,0:0:0:0:
64,192,128085,1,0,0:0:0:0:
320,192,128235,128,2,128385:0:0:0:0:
448,192,128235,1,0,0:0:0:0:
192,192,128385,1,0,0:0:0:0:
448,192,128385,128,0,128460:0:0:0:0:
64,192,128535,1,2,0:0:0:0:
448,192,128535,128,0,129435:0:0:0:0:
64,192,128685,1,0,0:0:0:0:
192,192,128835,1,2,0:0:0:0:
320,192,128835,1,0,0:0:0:0:
192,192,128985,1,0,0:0:0:0:
64,192,129135,1,2,0:0:0:0:
320,192,129135,1,0,0:0:0:0:
320,192,129285,1,0,0:0:0:0:
64,192,129435,1,2,0:0:0:0:
192,192,129435,128,0,129585:0:0:0:0:
320,192,129585,1,2,0:0:0:0:
448,192,129585,1,0,0:0:0:0:
64,192,129660,1,2,0:0:0:0:
192,192,129660,1,0,0:0:0:0:
320,192,129735,128,2,130485:0:0:0:0:
448,192,129735,1,0,0:0:0:0:
448,192,129885,1,0,0:0:0:0:
64,192,130035,1,2,0:0:0:0:
192,192,130035,1,0,0:0:0:0:
192,192,130185,1,0,0:0:0:0:
64,192,130335,1,2,0:0:0:0:
448,192,130335,1,0,0:0:0:0:
192,192,130485,1,0,0:0:0:0:
64,192,130560,1,2,0:0:0:0:
448,192,130560,1,0,0:0:0:0:
192,192,130635,1,2,0:0:0:0:
320,192,130635,1,0,0:0:0:0:
64,192,130785,1,2,0:0:0:0:
448,192,130785,1,0,0:0:0:0:
192,192,130860,1,2,0:0:0:0:
320,192,130860,1,0,0:0:0:0:
64,192,130935,128,2,131535:0:0:0:0:
448,192,130935,1,0,0:0:0:0:
448,192,131085,1,0,0:0:0:0:
192,192,131235,1,2,0:0:0:0:
320,192,131235,1,0,0:0:0:0:
320,192,131385,1,0,0:0:0:0:
192,192,131535,1,2,0:0:0:0:
448,192,131535,1,0,0:0:0:0:
64,192,131610,1,2,0:0:0:0:
320,192,131610,1,0,0:0:0:0:
64,192,131760,1,2,0:0:0:0:
320,192,131760,1,0,0:0:0:0:
192,192,131835,1,2,0:0:0:0:
448,192,131835,1,0,0:0:0:0:
448,192,131985,128,2,132135:0:0:0:0:
64,192,132135,1,4,0:0:0:0:
192,192,132135,1,8,0:0:0:0:
320,192,132135,1,2,0:0:0:0:
320,192,132360,1,2,0:0:0:0:
448,192,132360,1,0,0:0:0:0:
64,192,132585,1,2,0:0:0:0:
192,192,132585,1,0,0:0:0:0:
192,192,132735,1,2,0:0:0:0:
320,192,132735,1,8,0:0:0:0:
448,192,132735,1,4,0:0:0:0:
64,192,132960,1,2,0:0:0:0:
192,192,132960,1,0,0:0:0:0:
320,192,133185,1,2,0:0:0:0:
448,192,133185,1,0,0:0:0:0:
64,192,133335,1,4,0:0:0:0:
192,192,133335,1,8,0:0:0:0:
448,192,133335,1,2,0:0:0:0:
320,192,133485,1,0,0:0:0:0:
192,192,133560,1,2,0:0:0:0:
448,192,133560,1,0,0:0:0:0:
64,192,133635,1,2,0:0:0:0:
320,192,133635,1,0,0:0:0:0:
192,192,133785,1,2,0:0:0:0:
448,192,133785,1,0,0:0:0:0:
64,192,133935,1,2,0:0:0:0:
320,192,133935,1,8,0:0:0:0:
448,192,133935,1,4,0:0:0:0:
192,192,134160,1,2,0:0:0:0:
448,192,134160,1,0,0:0:0:0:
64,192,134385,1,2,0:0:0:0:
320,192,134385,1,0,0:0:0:0:
64,192,134535,1,4,0:0:0:0:
192,192,134535,1,8,0:0:0:0:
448,192,134535,1,2,0:0:0:0:
192,192,134685,1,0,0:0:0:0:
64,192,134835,1,2,0:0:0:0:
320,192,134835,1,8,0:0:0:0:
448,192,134835,1,4,0:0:0:0:
320,192,134985,1,0,0:0:0:0:
64,192,135135,1,8,0:0:0:0:
192,192,135135,1,2,0:0:0:0:
448,192,135135,1,4,0:0:0:0:
64,192,135285,1,2,0:0:0:0:
320,192,135285,1,0,0:0:0:0:
192,192,135435,1,2,0:0:0:0:
320,192,135435,1,8,0:0:0:0:
448,192,135435,1,0,0:0:0:0:
64,192,135585,1,2,0:0:0:0:
448,192,135585,1,0,0:0:0:0:
64,192,135735,1,8,0:0:0:0:
192,192,135735,1,2,0:0:0:0:
320,192,135810,1,2,0:0:0:0:
192,192,135885,1,2,0:0:0:0:
448,192,135885,1,0,0:0:0:0:
64,192,135960,1,2,0:0:0:0:
320,192,136035,1,2,0:0:0:0:
448,192,136035,1,0,0:0:0:0:
192,192,136110,1,2,0:0:0:0:
64,192,136185,1,2,0:0:0:0:
448,192,136185,1,0,0:0:0:0:
320,192,136260,1,2,0:0:0:0:
64,192,136335,1,2,0:0:0:0:
192,192,136335,1,0,0:0:0:0:
320,192,136410,1,2,0:0:0:0:
448,192,136410,1,0,0:0:0:0:
64,192,136485,1,2,0:0:0:0:
192,192,136485,1,0,0:0:0:0:
320,192,136560,1,2,0:0:0:0:
448,192,136560,1,0,0:0:0:0:
64,192,136635,1,2,0:0:0:0:
192,192,136672,1,2,0:0:0:0:
320,192,136710,1,2,0:0:0:0:
448,192,136747,1,2,0:0:0:0:
64,192,136785,1,2,0:0:0:0:
192,192,136822,1,2,0:0:0:0:
320,192,136860,1,2,0:0:0:0:
448,192,136897,1,2,0:0:0:0:
64,192,136935,1,4,0:0:0:0:
192,192,136935,1,2,0:0:0:0:
448,192,137085,128,0,138885:0:0:0:0:
320,192,137235,1,0,0:0:0:0:
64,192,137385,1,2,0:0:0:0:
192,192,137385,1,0,0:0:0:0:
64,192,137535,1,8,0:0:0:0:
320,192,137535,1,0,0:0:0:0:
192,192,137685,1,0,0:0:0:0:
64,192,137835,1,0,0:0:0:0:
192,192,137985,1,0,0:0:0:0:
320,192,138135,1,0,0:0:0:0:
64,192,138285,1,2,0:0:0:0:
192,192,138285,1,0,0:0:0:0:
64,192,138435,1,2,0:0:0:0:
192,192,138435,1,0,0:0:0:0:
320,192,138585,1,0,0:0:0:0:
64,192,138735,1,8,0:0:0:0:
320,192,138735,1,0,0:0:0:0:
192,192,138885,128,0,139035:0:0:0:0:
64,192,139035,128,0,139185:0:0:0:0:
448,192,139185,128,0,139335:0:0:0:0:
192,192,139335,128,2,141435:0:0:0:0:
320,192,139335,1,0,0:0:0:0:
448,192,139485,1,0,0:0:0:0:
64,192,139635,1,0,0:0:0:0:
320,192,139785,1,2,0:0:0:0:
448,192,139785,1,0,0:0:0:0:
64,192,139935,1,8,0:0:0:0:
448,192,139935,1,0,0:0:0:0:
320,192,140085,1,0,0:0:0:0:
64,192,140235,1,0,0:0:0:0:
448,192,140385,1,0,0:0:0:0:
64,192,140535,1,0,0:0:0:0:
320,192,140685,1,2,0:0:0:0:
448,192,140685,1,0,0:0:0:0:
320,192,140835,1,2,0:0:0:0:
448,192,140835,1,0,0:0:0:0:
64,192,140985,1,0,0:0:0:0:
64,192,141135,1,8,0:0:0:0:
448,192,141135,1,0,0:0:0:0:
320,192,141285,1,0,0:0:0:0:
64,192,141435,1,0,0:0:0:0:
192,192,141585,1,0,0:0:0:0:
320,192,141635,1,0,0:0:0:0:
448,192,141685,1,0,0:0:0:0:
64,192,141735,1,6,0:0:0:0:
192,192,141735,1,0,0:0:0:70:LR_Snare Med Wet.wav
320,192,141885,1,0,0:0:0:70:LR_Snare Med Wet.wav
192,192,142035,1,0,0:0:0:70:LR_Snare Med Wet.wav
320,192,142185,1,2,0:0:0:0:
448,192,142185,1,0,0:0:0:70:LR_Snare Med Wet.wav
64,192,142335,1,8,0:0:0:0:
448,192,142335,1,0,0:0:0:70:LR_Snare Med Wet.wav
192,192,142485,1,0,0:0:0:70:LR_Snare Med Wet.wav
320,192,142635,1,2,0:0:0:0:
448,192,142635,1,0,0:0:0:70:LR_Snare Med Wet.wav
64,192,142785,128,0,142935:0:0:0:70:LR_Snare Med Wet.wav
448,192,142935,128,0,143235:0:0:0:70:LR_Snare Med Wet.wav
64,192,143085,1,2,0:0:0:0:
192,192,143085,1,0,0:0:0:70:LR_Snare Med Wet.wav
320,192,143235,1,0,0:0:0:70:LR_Snare Med Wet.wav
448,192,143385,128,0,143535:0:0:0:70:LR_Snare Med Wet.wav
64,192,143535,128,10,143835:0:0:0:0:
320,192,143535,1,0,0:0:0:70:LR_Snare Med Wet.wav
448,192,143835,1,0,0:0:0:70:LR_Snare Med Wet.wav
64,192,143985,128,2,144135:0:0:0:0:
192,192,143985,1,0,0:0:0:70:LR_Snare Med Wet.wav
448,192,144135,1,0,0:0:0:70:LR_Snare Med Wet.wav
320,192,144210,1,0,0:0:0:70:LR_Snare Med Wet.wav
64,192,144285,1,2,0:0:0:0:
192,192,144285,1,0,0:0:0:70:LR_Snare Med Wet.wav
448,192,144360,1,0,0:0:0:70:LR_Snare Med Wet.wav
192,192,144435,1,2,0:0:0:0:
320,192,144435,1,0,0:0:0:70:LR_Snare Med Wet.wav
64,192,144510,1,0,0:0:0:70:LR_Snare Med Wet.wav
320,192,144585,1,0,0:0:0:70:LR_Snare Med Wet.wav
192,192,144660,1,0,0:0:0:70:LR_Snare Med Wet.wav
64,192,144735,1,8,0:0:0:0:
448,192,144735,1,0,0:0:0:70:LR_Snare Med Wet.wav
192,192,144810,1,0,0:0:0:70:LR_Snare Med Wet.wav
320,192,144885,1,2,0:0:0:0:
448,192,144885,1,0,0:0:0:70:LR_Snare Med Wet.wav
64,192,144960,1,0,0:0:0:70:LR_Snare Med Wet.wav
192,192,145035,1,0,0:0:0:70:LR_Snare Med Wet.wav
320,192,145110,1,0,0:0:0:70:LR_Snare Med Wet.wav
64,192,145185,1,2,0:0:0:0:
192,192,145185,1,0,0:0:0:70:LR_Snare Med Wet.wav
320,192,145260,1,2,0:0:0:0:
448,192,145260,1,0,0:0:0:70:LR_Snare Med Wet.wav
64,192,145335,128,2,145860:0:0:0:0:
192,192,145335,1,0,0:0:0:70:LR_Snare Med Wet.wav
192,192,145635,128,0,145860:0:0:0:0:
448,192,145635,128,0,145860:0:0:0:0:
64,192,145935,1,4,0:0:0:0:
320,192,145935,1,2,0:0:0:0:
448,192,145935,1,0,0:0:0:0:
