osu file format v14

[General]
AudioFilename: audio.mp3
AudioLeadIn: 0
PreviewTime: 116028
Countdown: 0
SampleSet: Soft
StackLeniency: 0.7
Mode: 0
LetterboxInBreaks: 0
WidescreenStoryboard: 1

[Editor]
Bookmarks: 20103,39303,58503,77703,96903,116103,135303,154503,173703,192903,195303,212103,231303,250503
DistanceSpacing: 0.6
BeatDivisor: 8
GridSize: 4
TimelineZoom: 1.4

[Metadata]
Title:Yoake Mae feat. shully
TitleUnicode:夜明け前 feat. shully
Artist:aran
ArtistUnicode:aran
Creator:Hinsvar
Version:Twilight
Source:
Tags:ARCHVS HARDCORE TANO*C Japanese Electronic Pop electropop EDM Dance Music Featured Artist FA Mappers' Guild MG MPG
BeatmapID:3901675
BeatmapSetID:1893408

[Difficulty]
HPDrainRate:6
CircleSize:5
OverallDifficulty:8
ApproachRate:9
SliderMultiplier:2.88
SliderTickRate:1

[Events]
//Background and Video events
0,0,"BG.jpg",0,0
//Break Periods
2,77903,81303
2,97103,105303
2,154703,172503
//Storyboard Layer 0 (Background)
//Storyboard Layer 1 (Fail)
//Storyboard Layer 2 (Pass)
//Storyboard Layer 3 (Foreground)
//Storyboard Layer 4 (Overlay)
//Storyboard Sound Samples

[TimingPoints]
903,600,4,2,1,60,1,0
20103,-200,4,2,1,60,0,0
29703,-200,4,2,1,65,0,0
34503,-133.333333333333,4,2,1,70,0,0
36903,-200,4,2,1,60,0,0
38853,-133.333333333333,4,2,1,70,0,0
39303,-100,4,2,1,80,0,1
39378,-100,4,2,1,80,0,0
58503,-100,4,2,1,80,0,1
58578,-100,4,2,1,80,0,0
81903,-200,4,2,1,60,0,0
82503,-133.333333333333,4,2,1,70,0,0
105903,-200,4,2,1,60,0,0
106503,-133.333333333333,4,2,1,65,0,0
113553,-133.333333333333,4,2,1,70,0,0
116103,-100,4,2,1,80,0,1
116178,-100,4,2,1,80,0,0
135303,-100,4,2,1,80,0,1
135378,-100,4,2,1,80,0,0
153003,-133.333333333333,4,2,1,70,0,0
173103,-133.333333333333,4,2,1,65,0,0
183303,-133.333333333333,4,2,1,70,0,0
192903,600,4,2,1,70,1,8
192903,-133.333333333333,4,2,1,70,0,8
195303,600,4,2,1,80,1,1
195378,-100,4,2,1,80,0,0
202503,600,4,2,1,80,1,0
212103,-100,4,2,1,80,0,1
212178,-100,4,2,1,80,0,0
229503,-80,4,2,1,80,0,0
230703,-100,4,2,1,80,0,0
231303,-133.333333333333,4,2,1,65,0,0
250053,-50,4,2,1,75,0,0

[Colours]
Combo1 : 113,192,206
Combo2 : 74,154,242
Combo3 : 238,219,111
Combo4 : 172,118,205
Combo5 : 231,124,191

[HitObjects]
242,233,19503,5,10,0:0:0:0:
228,237,19603,1,2,0:0:0:0:
232,251,19703,1,2,0:0:0:0:
273,262,19803,5,2,0:0:0:0:
285,304,19903,1,2,0:0:0:0:
243,316,20003,1,2,0:0:0:0:
217,350,20103,6,0,P|147:322|131:256,1,144,6|0,3:2|1:0,0:0:0:0:
42,30,21303,2,0,P|146:43|165:146,1,216,0|2,3:0|0:0,0:0:0:0:
117,189,22353,1,2,0:0:0:0:
72,245,22503,2,0,B|97:290|157:281|185:332,2,144,0|0|0,3:0|1:0|3:0,0:0:0:0:
72,245,24453,1,2,0:0:0:0:
108,182,24603,1,2,0:0:0:0:
46,144,24753,1,2,0:0:0:0:
89,86,24903,6,0,P|147:80|205:8,1,144,0|0,3:0|1:0,0:0:0:0:
392,50,25803,2,0,P|377:51|363:69,1,36,2|0,0:0|0:0,0:0:0:0:
343,136,26103,2,0,B|334:195|389:277|379:348,1,216,0|2,3:0|0:0,0:0:0:0:
312,376,27153,1,2,0:0:0:0:
255,328,27303,2,0,P|248:241|242:105,1,216,0|2,3:0|0:0,0:0:0:0:
269,47,28353,1,2,0:0:0:0:
269,47,28503,1,0,3:0:0:0:
130,85,28803,1,2,0:0:0:0:
111,15,28953,1,2,0:0:0:0:
5,110,29253,1,2,0:0:0:0:
25,180,29403,5,2,0:0:0:0:
16,192,29503,1,2,0:0:0:0:
29,199,29603,1,2,0:0:0:0:
36,187,29703,6,0,B|76:175|126:242|177:239,1,144,6|0,3:2|1:0,0:0:0:0:
345,335,30903,2,0,B|386:338|436:271|476:283,1,144,0|0,3:0|1:0,0:0:0:0:
487,164,31803,2,0,P|475:145|475:114,1,36,2|0,0:0|0:0,0:0:0:0:
451,62,32103,6,0,P|416:56|373:27,1,72,0|0,3:0|0:0,0:0:0:0:
285,82,32703,2,0,P|320:88|363:117,1,72,0|0,1:0|0:0,0:0:0:0:
386,190,33303,6,0,P|368:187|347:172,1,36,0|2,3:0|0:3,0:0:0:0:
251,176,33603,2,0,P|269:179|290:194,1,36,0|0,1:0|0:0,0:0:0:0:
330,250,33903,1,0,1:0:0:0:
330,250,34053,2,0,P|347:253|369:267,2,36,2|2|2,0:0|0:0|0:0,0:0:0:0:
261,263,34503,6,0,B|238:282|249:333|214:371,1,108.000004119873,2|0,3:2|0:0,0:0:0:0:
155,380,34953,1,2,0:0:0:0:
155,380,35103,2,0,B|126:350|137:299|114:279,1,108.000004119873,0|2,1:0|0:0,0:0:0:0:
116,280,35553,1,2,0:0:0:0:
122,213,35703,1,0,3:0:0:0:
190,191,35853,1,2,0:3:0:0:
190,191,36303,1,0,1:0:0:0:
258,206,36453,2,0,P|267:174|262:137,2,54.0000020599366,2|2|2,0:0|0:0|0:0,0:0:0:0:
318,244,36903,6,0,B|343:245|360:257|388:259,1,72,2|0,3:2|0:0,0:0:0:0:
399,330,37353,2,0,B|407:348|407:348|428:343,1,36,2|0,0:0|1:0,0:0:0:0:
440,208,37803,1,2,0:0:0:0:
440,208,37953,1,2,0:0:0:0:
440,208,38103,2,0,P|432:190|416:193,2,36,2|2|8,0:0|0:3|0:0,0:0:0:0:
388,259,38553,1,0,3:0:0:0:
388,259,38853,5,2,0:0:0:0:
324,290,39003,2,0,P|302:298|263:297,1,54.0000020599366,2|0,0:0|0:0,0:0:0:0:
145,372,39303,6,0,B|167:339|128:270|156:210,1,144,6|0,3:2|0:0,0:0:0:0:
67,107,39753,2,0,B|70:126|100:142|97:175,1,72,2|0,0:0|1:0,0:0:0:0:
58,362,40203,1,2,0:0:0:0:
9,308,40353,2,0,P|23:281|29:223,1,72,2|0,0:0|3:0,0:0:0:0:
121,154,40653,6,0,B|194:144|248:58|338:56,1,216,2|0,0:3|1:0,0:0:0:0:
242,73,41253,1,2,0:0:0:0:
115,83,41403,1,2,0:0:0:0:
7,13,41553,1,2,0:0:0:0:
15,33,41703,6,0,B|14:72|42:130|38:190,1,144,2|0,3:2|0:0,0:0:0:0:
155,228,42153,2,0,P|186:244|201:277,1,72,2|0,0:0|1:0,0:0:0:0:
487,365,42603,1,2,0:0:0:0:
436,313,42753,2,0,P|403:326|362:324,1,72,2|0,0:0|3:0,0:0:0:0:
320,239,43053,5,2,0:3:0:0:
301,227,43203,1,8,0:0:0:0:
313,211,43353,1,2,0:3:0:0:
329,221,43503,1,0,1:0:0:0:
279,311,43653,5,2,0:0:0:0:
413,217,43803,1,2,0:0:0:0:
265,148,43953,1,2,0:0:0:0:
358,140,44103,6,0,B|387:123|384:87|329:44|339:11,1,144,2|0,3:2|0:0,0:0:0:0:
467,34,44553,2,0,P|457:67|452:106,1,72,2|0,0:0|1:0,0:0:0:0:
223,35,45003,1,2,0:0:0:0:
159,68,45153,2,0,P|117:70|82:45,1,72,2|0,0:0|3:0,0:0:0:0:
18,214,45453,5,2,0:3:0:0:
106,150,45603,5,0,0:0:0:0:
127,148,45753,1,0,0:0:0:0:
129,169,45903,1,0,1:0:0:0:
183,357,46053,5,2,0:0:0:0:
99,365,46203,1,2,0:0:0:0:
91,281,46353,1,2,0:0:0:0:
205,173,46503,6,0,B|234:208|301:205|331:246,1,144,2|0,3:2|0:0,0:0:0:0:
269,288,46953,2,0,P|270:324|268:360,1,72,2|0,0:0|1:0,0:0:0:0:
242,95,47403,2,0,P|241:59|244:24,2,72,2|0|0,0:0|0:0|3:0,0:0:0:0:
329,58,47853,5,2,0:3:0:0:
329,58,47928,1,0,0:0:0:0:
329,58,48003,1,10,0:0:0:0:
396,200,48153,1,2,0:3:0:0:
493,169,48303,1,0,1:0:0:0:
480,162,48453,5,2,0:0:0:0:
310,172,48603,1,2,0:0:0:0:
320,342,48753,1,2,0:0:0:0:
388,363,48903,6,0,P|453:319|440:253,1,144,2|0,3:2|0:0,0:0:0:0:
289,238,49353,2,0,P|311:270|344:264,1,72,2|0,0:0|1:0,0:0:0:0:
128,247,49803,1,2,0:0:0:0:
88,187,49953,2,0,B|62:189|51:208|10:208,1,72,2|0,0:0|3:0,0:0:0:0:
175,358,50253,6,0,B|226:320|198:198|231:128,1,216,2|0,0:3|1:0,0:0:0:0:
148,69,50853,1,2,0:0:0:0:
208,133,51003,1,2,0:0:0:0:
370,86,51153,1,2,0:0:0:0:
310,22,51303,6,0,P|295:66|304:162,1,144,2|0,3:2|0:0,0:0:0:0:
481,83,51753,2,0,P|488:61|484:13,1,72,2|0,0:0|1:0,0:0:0:0:
362,214,52203,1,2,0:0:0:0:
290,181,52353,2,0,P|274:163|230:143,1,72,2|0,0:0|3:0,0:0:0:0:
123,43,52653,5,2,0:3:0:0:
112,22,52803,1,8,0:0:0:0:
133,13,52953,1,2,0:3:0:0:
141,32,53103,1,0,1:0:0:0:
244,71,53253,5,2,0:0:0:0:
147,185,53403,1,2,0:0:0:0:
5,137,53553,1,2,0:0:0:0:
14,63,53703,6,0,B|-3:125|56:148|28:201,1,144,2|0,3:2|0:0,0:0:0:0:
51,356,54153,2,0,P|25:335|21:286,1,72,2|0,0:0|1:0,0:0:0:0:
230,215,54603,1,2,0:0:0:0:
257,148,54753,2,0,P|256:104|258:66,1,72,2|0,0:0|3:0,0:0:0:0:
399,18,55053,5,2,0:3:0:0:
500,58,55203,5,0,0:0:0:0:
486,74,55353,1,0,0:0:0:0:
464,75,55503,1,0,1:0:0:0:
352,163,55653,5,2,0:0:0:0:
264,167,55803,1,2,0:0:0:0:
208,231,55953,1,2,0:0:0:0:
39,190,56103,6,0,P|58:251|-7:308,1,144,2|0,3:2|0:0,0:0:0:0:
49,365,56553,2,0,P|84:363|134:369,1,72,2|0,0:0|1:0,0:0:0:0:
179,158,57003,2,0,P|143:159|94:154,2,72,2|0|0,0:0|0:0|3:0,0:0:0:0:
271,186,57453,1,2,0:3:0:0:
187,70,57603,5,10,0:0:0:0:
187,70,57678,1,2,0:0:0:0:
187,70,57753,1,2,0:0:0:0:
35,37,57903,1,8,1:2:0:0:
114,17,58053,1,2,0:3:0:0:
263,82,58203,5,2,0:0:0:0:
303,67,58303,1,2,0:0:0:0:
261,53,58403,1,2,0:0:0:0:
276,48,58503,6,0,B|345:117|306:175|260:175|205:234|274:303,1,288,6|0,3:2|1:0,0:0:0:0:
492,362,59403,2,0,P|457:355|429:323,1,72,2|0,0:0|0:0,0:0:0:0:
336,235,59703,1,0,3:0:0:0:
402,262,59853,1,2,0:3:0:0:
467,232,60003,2,0,B|478:211|467:179|475:161,1,72,2|0,0:0|0:0,0:0:0:0:
488,34,60303,1,0,1:0:0:0:
244,152,60603,1,2,0:0:0:0:
113,92,60753,1,2,0:0:0:0:
205,35,60903,6,0,B|225:9|205:-11|146:8|142:43|202:96|254:58|305:69|346:92|369:131,1,288,2|0,3:2|1:0,0:0:0:0:
291,366,61803,2,0,P|289:330|296:294,1,72,2|0,0:0|0:0,0:0:0:0:
379,243,62103,5,0,3:0:0:0:
365,237,62253,1,2,0:3:0:0:
200,301,62403,1,8,0:0:0:0:
126,286,62553,1,2,0:3:0:0:
211,376,62703,1,0,1:0:0:0:
172,202,62853,5,2,0:0:0:0:
295,128,63003,1,2,0:0:0:0:
221,5,63153,1,2,0:0:0:0:
183,64,63303,6,0,B|158:48|132:67|127:122|60:142|-5:110|-30:66|-15:15|20:4|40:23|45:43,1,288,2|0,3:2|1:0,0:0:0:0:
150,233,64203,1,2,0:0:0:0:
42,268,64353,1,2,0:0:0:0:
52,196,64503,2,0,P|43:158|18:110,1,72,2|2,3:2|0:3,0:0:0:0:
140,305,64803,2,0,P|149:343|174:391,2,72,2|0|0,0:0|0:0|1:0,0:0:0:0:
341,133,65403,1,2,0:0:0:0:
273,235,65553,1,2,0:0:0:0:
373,305,65703,6,0,B|392:344|469:350|505:270|427:225|411:180|423:150|469:128,1,288,2|0,3:2|1:0,0:0:0:0:
208,62,66603,1,2,0:0:0:0:
102,19,66753,1,2,0:0:0:0:
75,85,66903,2,0,P|43:103|8:149,1,72,2|2,3:2|0:3,0:0:0:0:
44,294,67203,1,10,0:0:0:0:
44,294,67278,1,0,0:0:0:0:
44,294,67353,1,2,0:3:0:0:
100,250,67503,2,0,P|109:215|106:166,1,72,0|0,1:0|0:0,0:0:0:0:
241,22,67803,5,2,0:0:0:0:
282,33,67903,1,2,0:0:0:0:
270,75,68003,1,2,0:0:0:0:
259,84,68103,6,0,B|236:152|357:255|310:371,1,288,2|0,3:2|1:0,0:0:0:0:
87,203,69003,2,0,P|51:201|17:186,1,72,2|0,0:0|0:0,0:0:0:0:
160,260,69303,1,0,3:0:0:0:
228,276,69453,1,2,0:3:0:0:
38,355,69603,2,0,B|47:336|35:308|45:278,1,72,2|0,0:0|0:0,0:0:0:0:
180,326,69903,1,0,1:0:0:0:
111,105,70203,1,2,0:0:0:0:
31,23,70353,1,2,0:0:0:0:
92,116,70503,6,0,B|80:35|144:10|216:88|293:78|299:-2,1,288,2|0,3:2|1:0,0:0:0:0:
479,118,71403,2,0,P|483:154|492:200,1,72,2|0,0:0|0:0,0:0:0:0:
480,262,71703,5,0,3:0:0:0:
476,275,71853,1,2,0:3:0:0:
381,368,72003,1,8,0:0:0:0:
492,350,72153,1,2,0:3:0:0:
365,293,72303,1,0,1:0:0:0:
391,218,72453,5,2,0:0:0:0:
236,168,72603,1,2,0:0:0:0:
286,13,72753,1,2,0:0:0:0:
338,66,72903,6,0,B|326:125|252:126|160:15|91:59|92:119|147:119,1,288,2|0,3:2|1:0,0:0:0:0:
314,245,73803,1,2,0:0:0:0:
421,270,73953,1,2,0:0:0:0:
276,321,74103,2,0,P|241:333|240:370,1,72,2|2,3:2|0:3,0:0:0:0:
239,179,74403,2,0,P|274:167|275:130,2,72,2|0|0,0:0|0:0|1:0,0:0:0:0:
480,47,75003,1,2,0:0:0:0:
405,188,75153,1,2,0:0:0:0:
461,271,75303,6,0,B|507:252|511:187|469:115|417:114|380:62|393:23,1,288,2|0,3:2|1:0,0:0:0:0:
119,26,76203,1,2,0:0:0:0:
32,119,76353,1,2,0:0:0:0:
63,185,76503,2,0,P|95:168|136:174,1,72,2|2,3:2|0:3,0:0:0:0:
173,365,76803,1,10,0:0:0:0:
173,365,76878,1,0,0:0:0:0:
173,365,76953,1,2,0:3:0:0:
279,369,77103,5,0,1:0:0:0:
148,239,77253,1,8,0:0:0:0:
63,383,77403,1,0,0:0:0:0:
56,380,77478,1,0,0:0:0:0:
56,373,77553,1,0,0:0:0:0:
63,371,77628,1,0,0:0:0:0:
67,377,77703,1,2,3:2:0:0:
48,98,81903,6,0,B|88:107|122:143|167:147,1,126,8|0,0:0|0:0,0:0:0:0:
172,155,82503,6,0,P|192:119|185:50,1,108.000004119873,6|0,3:2|0:0,0:0:0:0:
118,30,82953,1,2,0:0:0:0:
23,117,83103,2,0,P|2:152|9:221,1,108.000004119873,0|0,1:0|0:0,0:0:0:0:
77,242,83553,1,2,0:0:0:0:
122,364,83703,1,0,3:0:0:0:
51,359,83853,2,0,B|76:335|134:359|161:328,1,108.000004119873,2|0,0:3|0:0,0:0:0:0:
295,352,84303,2,0,B|250:349|223:338|221:290,1,108.000004119873,0|0,1:0|0:0,0:0:0:0:
176,163,84753,1,2,0:0:0:0:
263,214,84903,6,0,B|303:180|290:117|255:115|232:28|277:10,1,216.000008239746,2|0,3:2|1:0,0:0:0:0:
471,73,85803,2,0,P|492:55|501:17,1,54.0000020599366,2|0,0:0|0:0,0:0:0:0:
398,27,86103,1,0,3:0:0:0:
402,42,86253,1,2,0:3:0:0:
355,121,86403,5,8,0:0:0:0:
470,156,86553,1,2,0:3:0:0:
383,237,86703,1,0,1:0:0:0:
498,272,86853,2,0,B|463:279|462:333|414:343,1,108.000004119873,2|0,0:0|0:0,0:0:0:0:
312,374,87303,6,0,P|283:278|250:336,2,216.000008239746,2|0|0,3:2|1:0|3:0,0:0:0:0:
250,340,88653,1,2,0:3:0:0:
180,329,88803,2,0,P|150:337|130:368,2,54.0000020599366
99,156,89403,2,0,P|69:164|49:195,1,54.0000020599366,2|0,0:0|0:0,0:0:0:0:
41,250,89703,1,0,3:0:0:0:
41,250,89853,5,2,0:0:0:0:
226,311,90153,1,2,0:0:0:0:
101,373,90453,1,2,0:0:0:0:
164,187,90753,1,2,0:0:0:0:
164,187,91203,2,0,P|169:160|167:120,1,54.0000020599366,8|2,0:0|0:3,0:0:0:0:
34,18,91503,1,0,1:0:0:0:
103,38,91653,2,0,P|93:92|97:172,1,108.000004119873,2|0,0:0|0:0,0:0:0:0:
244,174,92103,6,0,B|270:138|311:155|337:120,1,108.000004119873,2|0,3:2|0:0,0:0:0:0:
418,20,92553,2,0,P|424:46|420:73,1,54.0000020599366,2|0,0:0|1:0,0:0:0:0:
457,135,92853,2,0,P|483:138|509:132,1,54.0000020599366,2|0,0:0|0:0,0:0:0:0:
407,218,93153,2,0,P|353:210|301:222,1,108.000004119873,2|2,0:0|0:3,0:0:0:0:
301,222,93528,1,0,0:0:0:0:
301,222,93603,1,2,0:0:0:0:
311,314,93753,2,0,P|300:332|286:361,1,54.0000020599366,2|0,0:0|1:0,0:0:0:0:
291,130,94053,2,0,P|302:112|316:83,1,54.0000020599366,2|0,0:0|0:0,0:0:0:0:
142,15,94353,1,2,0:0:0:0:
87,80,94503,6,0,B|117:16|183:34|177:60|234:80|270:13,1,216.000008239746,2|0,3:2|1:0,0:0:0:0:
127,210,95403,1,2,0:0:0:0:
37,251,95553,2,0,P|49:197|45:134,1,108.000004119873,2|0,0:0|0:0,0:0:0:0:
48,10,96003,5,2,0:0:0:0:
43,31,96153,1,2,0:3:0:0:
126,136,96303,5,8,1:2:0:0:
304,121,96453,1,2,0:3:0:0:
426,146,96603,5,2,0:0:0:0:
372,98,96753,1,2,0:0:0:0:
224,190,96903,5,2,3:2:0:0:
266,22,105903,6,0,B|239:51|270:118|238:145,1,126,2|0,0:0|0:0,0:0:0:0:
235,153,106503,6,0,P|177:106|169:179,1,162.00000617981,6|0,0:0|0:0,0:0:0:0:
156,165,107103,1,0,1:0:0:0:
425,265,107553,1,2,0:0:0:0:
409,335,107703,2,0,P|447:366|452:317,1,108.000004119873,2|0,0:0|0:0,0:0:0:0:
425,265,108153,1,2,0:0:0:0:
460,326,108303,1,0,1:0:0:0:
225,279,108753,1,2,0:0:0:0:
169,321,108903,2,0,B|124:322|65:371|6:364,1,162.00000617981,2|0,0:0|0:0,0:0:0:0:
14,364,109503,1,0,1:0:0:0:
58,64,109953,1,2,0:0:0:0:
32,129,110103,2,0,P|55:179|110:196,1,108.000004119873,2|2,0:0|0:3,0:0:0:0:
165,165,110553,2,0,L|169:105,1,54.0000020599366,2|0,0:0|1:0,0:0:0:0:
230,79,110853,2,0,P|278:98|300:146,1,108.000004119873,2|0,0:0|0:0,0:0:0:0:
352,193,111303,6,0,B|403:169|471:215|507:146,1,162.00000617981,2|0,0:0|0:0,0:0:0:0:
502,154,111903,1,0,1:0:0:0:
319,37,112353,1,2,0:0:0:0:
252,62,112503,2,0,B|239:98|252:138|240:183,1,108.000004119873,2|0,0:0|0:0,0:0:0:0:
276,233,112953,2,0,P|261:255|221:272,1,54.0000020599366,2|0,0:0|1:0,0:0:0:0:
237,268,113253,1,2,0:0:0:0:
71,289,113553,1,2,0:0:0:0:
71,289,113703,2,0,L|16:276,2,54.0000020599366,2|0|0,0:0|0:0|0:0,0:0:0:0:
85,218,114153,2,0,L|32:205,1,54.0000020599366,2|0,0:0|1:0,0:0:0:0:
32,205,114453,1,2,0:0:0:0:
24,17,114753,5,2,0:0:0:0:
89,109,114903,1,2,0:0:0:0:
201,96,115053,1,2,0:0:0:0:
141,56,115203,5,8,0:0:0:0:
141,56,115353,2,0,P|153:43|135:53,1,54.0000020599366,2|0,0:0|0:0,0:0:0:0:
262,25,115653,5,2,0:0:0:0:
260,162,115803,2,0,P|265:195|277:219,1,54.0000020599366,2|0,0:0|0:0,0:0:0:0:
486,359,116103,6,0,B|466:325|493:235|490:217,1,144,6|0,3:2|0:0,0:0:0:0:
342,287,116553,2,0,P|378:290|408:310,1,72,2|0,0:0|1:0,0:0:0:0:
489,73,117003,1,2,0:0:0:0:
408,150,117153,2,0,P|416:115|400:84,1,72,2|0,0:0|3:0,0:0:0:0:
298,5,117453,6,0,P|270:35|71:63,1,216,2|0,0:3|1:0,0:0:0:0:
20,19,118053,1,0,0:0:0:0:
176,47,118203,1,0,0:0:0:0:
148,203,118353,1,0,0:0:0:0:
27,176,118503,6,0,P|72:223|70:300,1,144,2|0,0:0|0:0,0:0:0:0:
232,314,118953,2,0,P|209:290|210:252,1,72,2|0,0:0|1:0,0:0:0:0:
278,13,119403,1,2,0:0:0:0:
309,78,119553,2,0,P|301:113|279:160,1,72,2|0,0:0|3:0,0:0:0:0:
482,214,119853,5,2,0:0:0:0:
420,247,120003,1,8,0:0:0:0:
387,185,120153,1,2,0:3:0:0:
449,152,120303,1,0,1:0:0:0:
482,214,120453,5,2,0:0:0:0:
318,242,120603,1,2,0:0:0:0:
490,235,120753,1,2,0:0:0:0:
465,303,120903,6,0,B|401:293|416:221|368:183,1,144,2|0,0:0|0:0,0:0:0:0:
387,43,121353,2,0,B|369:56|376:92|344:97,1,72,2|0,0:0|1:0,0:0:0:0:
119,13,121803,1,2,0:0:0:0:
102,102,121953,2,0,P|136:87|183:86,1,72,2|0,0:0|3:0,0:0:0:0:
274,280,122253,5,2,0:3:0:0:
261,189,122403,5,0,0:0:0:0:
241,179,122553,1,0,0:0:0:0:
237,157,122703,1,0,1:0:0:0:
243,151,122853,5,2,0:0:0:0:
121,140,123003,1,2,0:0:0:0:
3,131,123153,1,2,0:0:0:0:
69,206,123303,6,0,B|105:179|92:103|109:63,1,144,2|0,3:2|0:0,0:0:0:0:
113,253,123753,2,0,P|87:230|52:224,1,72,2|0,0:0|1:0,0:0:0:0:
113,253,124203,1,0,0:0:0:0:
278,81,124353,5,2,0:0:0:0:
198,17,124503,1,2,3:2:0:0:
207,18,124578,1,0,0:0:0:0:
209,28,124653,1,2,0:3:0:0:
199,33,124728,1,0,0:0:0:0:
190,25,124803,1,10,0:0:0:0:
245,167,124953,1,2,0:3:0:0:
378,207,125103,1,0,1:0:0:0:
381,189,125253,5,2,0:0:0:0:
248,149,125403,1,2,0:0:0:0:
419,338,125553,1,2,0:0:0:0:
323,257,125703,6,0,B|294:279|232:264|181:311,1,144,2|0,3:2|0:0,0:0:0:0:
254,371,126153,2,0,B|276:352|276:337|264:288,1,72,2|0,0:0|1:0,0:0:0:0:
61,253,126603,1,2,0:0:0:0:
90,187,126753,2,0,B|71:165|56:165|7:177,1,72,2|0,0:0|3:0,0:0:0:0:
191,202,127053,6,0,P|165:99|214:6,1,216,2|0,0:3|1:0,0:0:0:0:
375,74,127653,1,2,0:0:0:0:
259,89,127803,1,2,0:0:0:0:
346,150,127953,1,2,0:0:0:0:
329,135,128103,6,0,P|346:204|412:220,1,144,2|0,3:2|0:0,0:0:0:0:
435,153,128553,2,0,P|458:139|448:93,1,72,2|0,0:0|1:0,0:0:0:0:
240,218,129003,1,2,0:0:0:0:
300,261,129153,2,0,B|296:281|298:303|276:342,1,72,2|0,0:0|3:0,0:0:0:0:
83,363,129453,5,2,0:3:0:0:
96,292,129603,1,8,0:0:0:0:
90,271,129753,1,2,0:3:0:0:
103,200,129903,1,0,1:0:0:0:
174,349,130053,5,2,0:0:0:0:
31,224,130203,1,2,0:0:0:0:
161,246,130353,1,2,0:0:0:0:
15,297,130503,6,0,P|19:226|4:155,1,144,2|0,3:2|0:0,0:0:0:0:
55,16,130953,2,0,P|47:51|49:87,1,72,2|0,0:0|1:0,0:0:0:0:
239,74,131403,1,2,0:0:0:0:
300,25,131553,2,0,P|335:25|374:7,1,72,2|0,0:0|3:0,0:0:0:0:
186,132,131853,5,2,0:3:0:0:
137,77,132003,5,0,0:0:0:0:
132,55,132153,1,0,0:0:0:0:
122,74,132303,1,0,1:0:0:0:
263,162,132453,5,2,0:0:0:0:
364,244,132603,1,2,0:0:0:0:
350,115,132753,1,2,0:0:0:0:
163,180,132903,6,0,B|121:200|69:139|11:165,1,144,2|0,3:2|0:0,0:0:0:0:
10,286,133353,2,0,P|36:268|37:229,1,72,2|0,0:0|1:0,0:0:0:0:
10,286,133803,1,0,0:0:0:0:
10,90,133953,5,2,0:0:0:0:
80,98,134103,1,0,3:0:0:0:
182,83,134253,1,2,0:3:0:0:
299,18,134403,1,10,0:0:0:0:
299,18,134478,1,0,0:0:0:0:
299,18,134553,1,2,0:3:0:0:
185,98,134703,5,2,1:2:0:0:
9,62,134853,1,2,0:0:0:0:
77,80,135003,1,2,0:0:0:0:
138,11,135153,1,2,0:0:0:0:
173,222,135303,6,0,B|209:246|219:325|267:337,1,144,6|0,3:2|0:0,0:0:0:0:
131,287,135753,2,0,P|104:268|62:261,1,72,2|0,0:0|1:0,0:0:0:0:
296,194,136203,1,2,0:0:0:0:
290,265,136353,2,0,P|317:284|359:291,1,72,2|0,0:0|3:0,0:0:0:0:
487,259,136653,6,0,P|404:253|370:366,1,216,2|0,0:3|1:0,0:0:0:0:
443,345,137253,1,2,0:0:0:0:
362,258,137403,1,2,0:0:0:0:
449,177,137553,1,2,0:0:0:0:
397,126,137703,6,0,B|410:76|336:34|349:-4,1,144,2|0,3:2|0:0,0:0:0:0:
326,141,138153,2,0,P|305:170|272:181,1,72,2|0,0:0|1:0,0:0:0:0:
120,25,138603,1,2,0:0:0:0:
208,12,138753,2,0,B|220:24|177:52|184:77,1,72,2|0,0:0|3:0,0:0:0:0:
95,214,139053,5,2,0:3:0:0:
14,187,139203,1,8,0:0:0:0:
87,148,139353,1,2,0:3:0:0:
168,174,139503,1,0,1:0:0:0:
104,231,139653,5,2,0:0:0:0:
14,99,139803,1,2,0:0:0:0:
146,9,139953,1,2,0:0:0:0:
236,141,140103,6,0,P|311:67|355:63,1,144,2|0,3:2|0:0,0:0:0:0:
480,68,140553,2,0,P|451:55|422:12,1,72,2|0,0:0|1:0,0:0:0:0:
170,97,141003,1,2,0:0:0:0:
253,121,141153,2,0,P|269:156|259:207,1,72,2|0,0:0|3:0,0:0:0:0:
361,363,141453,5,2,0:3:0:0:
371,251,141603,1,0,0:0:0:0:
352,263,141753,1,0,0:0:0:0:
380,375,141903,1,0,1:0:0:0:
435,309,142053,5,2,0:0:0:0:
296,315,142203,1,2,0:0:0:0:
180,193,142353,1,2,0:0:0:0:
67,238,142503,6,0,B|100:200|107:155|87:119|41:115,1,144,2|0,3:2|0:0,0:0:0:0:
69,312,142953,2,0,B|52:331|49:353|59:371|82:373,1,72,2|0,0:0|1:0,0:0:0:0:
69,312,143403,1,0,0:0:0:0:
18,180,143553,5,2,0:0:0:0:
70,132,143703,2,0,P|76:99|80:46,1,72,2|2,3:2|0:3,0:0:0:0:
235,21,144003,1,10,0:0:0:0:
235,21,144078,1,0,0:0:0:0:
235,21,144153,2,0,P|238:56|244:92,1,72,2|0,0:3|1:0,0:0:0:0:
392,169,144453,1,2,0:0:0:0:
398,83,144603,1,2,0:0:0:0:
400,89,144678,1,0,0:0:0:0:
407,89,144753,1,0,0:0:0:0:
409,83,144828,1,0,0:0:0:0:
403,78,144903,6,0,B|461:77|496:117|469:179,1,144,2|0,3:2|0:0,0:0:0:0:
453,297,145353,2,0,B|450:320|476:342|469:379,1,72,2|0,0:0|1:0,0:0:0:0:
336,138,145803,1,2,0:0:0:0:
273,189,145953,2,0,B|250:200|224:183|225:154,1,72,2|0,0:0|3:0,0:0:0:0:
303,50,146253,6,0,B|245:101|152:17|88:31,1,216,2|0,0:3|1:0,0:0:0:0:
21,197,146853,1,2,0:0:0:0:
159,118,147003,1,2,0:0:0:0:
32,105,147153,1,2,0:0:0:0:
37,216,147303,6,0,P|48:258|57:365,1,144,2|0,3:2|0:0,0:0:0:0:
169,203,147753,2,0,B|147:214|137:221|131:268,1,72,2|0,0:0|1:0,0:0:0:0:
377,342,148203,1,2,0:0:0:0:
297,357,148353,2,0,B|273:326|275:314|283:291,1,72,2|0,0:0|3:0,0:0:0:0:
182,116,148653,5,2,0:3:0:0:
88,138,148803,5,8,0:0:0:0:
268,99,148953,1,2,0:3:0:0:
84,121,149103,1,0,1:0:0:0:
165,130,149253,5,2,0:0:0:0:
36,204,149403,1,2,0:0:0:0:
36,55,149553,1,2,0:0:0:0:
185,55,149703,6,0,P|199:40|338:31,1,144,2|0,3:2|0:0,0:0:0:0:
417,95,150153,2,0,P|409:88|405:18,1,72,2|0,0:0|1:0,0:0:0:0:
246,195,150603,1,2,0:0:0:0:
259,268,150753,2,0,B|249:280|250:319|227:350,1,72,2|0,0:0|3:0,0:0:0:0:
142,277,151053,5,2,0:3:0:0:
326,375,151203,5,0,0:0:0:0:
395,354,151353,1,0,0:0:0:0:
312,359,151503,1,0,1:0:0:0:
239,263,151653,5,2,0:0:0:0:
343,174,151803,1,2,0:0:0:0:
476,202,151953,1,2,0:0:0:0:
493,271,152103,6,0,B|509:236|462:159|476:122,1,144,2|0,3:2|0:0,0:0:0:0:
455,59,152553,2,0,P|455:33|471:56,1,72,2|0,0:0|1:0,0:0:0:0:
470,56,153003,6,0,P|469:79|473:115,2,54.0000020599366,2|0|0,0:0|0:0|0:0,0:0:0:0:
363,127,153453,1,2,0:3:0:0:
355,50,153603,2,0,P|368:56|388:49,2,27.0000010299683,8|0|0,0:0|0:0|0:0,0:0:0:0:
240,16,153903,5,8,1:2:0:0:
93,65,154053,1,8,0:0:0:0:
226,168,154203,1,0,0:0:0:0:
231,176,154278,1,0,0:0:0:0:
227,182,154353,1,0,0:0:0:0:
219,179,154428,1,0,0:0:0:0:
219,171,154503,1,2,3:2:0:0:
262,134,173103,5,10,0:0:0:0:
259,147,173203,1,2,0:0:0:0:
248,136,173303,1,2,0:0:0:0:
247,92,173403,5,2,0:0:0:0:
255,52,173503,1,2,0:0:0:0:
287,84,173603,1,2,0:0:0:0:
244,75,173703,6,0,B|176:98|143:15|78:53,1,162.00000617981,6|0,3:2|0:0,0:0:0:0:
90,47,174303,1,0,1:0:0:0:
55,256,174753,1,2,0:0:0:0:
126,321,174903,2,0,B|151:276|108:196|133:159,1,162.00000617981,2|0,3:2|0:0,0:0:0:0:
131,161,175503,1,0,1:0:0:0:
372,319,175803,1,2,0:0:0:0:
301,189,175953,5,2,0:0:0:0:
296,270,176103,2,0,P|346:304|363:226,1,162.00000617981,2|0,3:2|0:0,0:0:0:0:
367,230,176703,1,0,1:0:0:0:
491,25,177153,1,2,0:0:0:0:
425,55,177303,2,0,B|381:58|319:111|261:97,1,162.00000617981,2|0,3:2|0:0,0:0:0:0:
270,98,177903,1,0,1:0:0:0:
117,7,178053,5,2,0:0:0:0:
209,51,178203,1,2,0:0:0:0:
303,19,178353,1,2,0:0:0:0:
191,70,178503,6,0,B|204:106|162:198|205:242,1,162.00000617981,2|0,3:2|0:0,0:0:0:0:
195,229,179103,1,0,1:0:0:0:
389,344,179403,1,2,0:0:0:0:
261,322,179553,5,2,0:0:0:0:
201,361,179703,2,0,P|151:364|33:305,1,162.00000617981,2|0,3:2|0:0,0:0:0:0:
49,321,180303,1,0,1:0:0:0:
91,133,180603,1,2,0:0:0:0:
50,28,180753,5,2,0:0:0:0:
78,110,180903,2,0,B|48:135|31:188|43:244|76:249,1,162.00000617981,2|0,3:2|0:0,0:0:0:0:
75,248,181503,1,0,1:0:0:0:
307,216,181803,1,2,0:0:0:0:
272,278,181953,5,2,0:0:0:0:
272,152,182103,1,2,3:2:0:0:
379,215,182253,1,2,0:0:0:0:
379,215,182403,2,0,B|393:202|402:175|396:147|379:145,1,54.0000020599366,2|0,0:0|0:0,0:0:0:0:
394,165,182853,1,2,0:0:0:0:
348,79,183003,5,2,0:0:0:0:
331,50,183103,1,2,0:0:0:0:
339,18,183203,1,2,0:0:0:0:
356,47,183303,6,0,B|290:74|259:2|175:23,1,162.00000617981,2|0,3:2|0:0,0:0:0:0:
156,168,183903,1,0,1:0:0:0:
156,168,184353,1,2,0:0:0:0:
110,26,184503,6,0,B|128:28|156:100|185:99,1,108.000004119873,2|0,3:2|0:0,0:0:0:0:
252,206,184953,2,0,P|257:229|257:274,1,54.0000020599366,2|0,0:0|1:0,0:0:0:0:
258,259,185403,1,2,0:0:0:0:
323,152,185553,5,2,0:0:0:0:
224,193,185703,2,0,P|183:174|109:165,1,108.000004119873,2|0,3:2|0:0,0:0:0:0:
0,193,186153,2,0,P|20:202|57:207,1,54.0000020599366,2|0,0:0|1:0,0:0:0:0:
51,207,186603,1,2,0:0:0:0:
86,96,186753,5,2,0:0:0:0:
150,62,186903,2,0,B|158:48|151:28|157:9,2,54.0000020599366,2|2|0,3:2|0:3|0:0,0:0:0:0:
137,181,187353,2,0,P|153:160|186:150,1,54.0000020599366,2|0,0:3|1:0,0:0:0:0:
280,231,187653,1,2,0:0:0:0:
218,267,187803,1,2,0:0:0:0:
107,265,187953,1,2,0:0:0:0:
0,177,188103,6,0,B|7:217|-7:246|9:306,1,108.000004119873,2|0,3:2|0:0,0:0:0:0:
58,379,188553,2,0,P|64:345|62:318,2,54.0000020599366,2|0|0,0:0|1:0|0:0,0:0:0:0:
202,379,189003,1,2,0:0:0:0:
181,312,189153,5,2,0:0:0:0:
287,270,189303,2,0,P|319:271|341:280,1,54.0000020599366,2|2,3:2|0:3,0:0:0:0:
281,252,189603,1,2,0:0:0:0:
312,346,189753,1,2,0:3:0:0:
406,315,189903,1,0,1:0:0:0:
477,311,190053,5,2,0:0:0:0:
475,332,190203,1,2,0:0:0:0:
375,221,190353,1,2,0:0:0:0:
329,92,190503,6,0,B|381:96|405:29|468:7,1,162.00000617981,2|0,3:2|0:0,0:0:0:0:
501,67,191103,1,0,0:0:0:0:
256,70,191403,5,2,0:0:0:0:
256,70,191553,1,2,0:0:0:0:
256,70,191703,1,2,0:0:0:0:
256,314,192903,5,8,0:3:0:0:
256,192,193203,12,0,194703,0:0:0:0:
224,244,194853,5,2,0:0:0:0:
285,205,195003,2,0,B|294:186|288:167|294:141,1,54.0000020599366,2|0,0:0|0:0,0:0:0:0:
62,20,195303,6,0,P|131:32|175:87,1,144,6|0,3:2|0:0,0:0:0:0:
41,95,195753,2,0,P|35:129|7:151,1,72,2|0,0:0|1:0,0:0:0:0:
57,375,196203,1,2,0:0:0:0:
12,316,196353,2,0,P|15:282|23:243,1,72,2|0,0:0|3:0,0:0:0:0:
180,155,196653,5,2,0:3:0:0:
270,216,196803,5,8,0:0:0:0:
339,196,196953,1,2,0:3:0:0:
359,265,197103,1,0,1:0:0:0:
336,267,197253,5,2,0:0:0:0:
430,128,197403,1,2,0:0:0:0:
460,293,197553,1,2,0:0:0:0:
462,368,197703,6,0,B|449:316|494:249|480:210,1,144,2|0,3:2|0:0,0:0:0:0:
497,61,198153,2,0,P|458:53|435:19,1,72,2|0,0:0|1:0,0:0:0:0:
203,90,198603,1,2,0:0:0:0:
277,130,198753,2,0,B|274:94|278:72|271:43,1,72,2|0,0:0|3:0,0:0:0:0:
382,178,199053,5,2,0:3:0:0:
346,240,199203,1,0,0:0:0:0:
274,251,199353,1,0,0:0:0:0:
238,313,199503,1,0,1:0:0:0:
270,234,199653,5,2,0:0:0:0:
146,145,199803,1,2,0:0:0:0:
37,252,199953,1,2,0:0:0:0:
76,351,200103,6,0,B|116:350|141:302|143:281|134:246|109:247,1,144,2|0,3:2|0:0,0:0:0:0:
100,99,200553,2,0,B|99:88|116:83|127:84|151:97|151:117,1,72,2|0,0:0|1:0,0:0:0:0:
100,99,201003,1,0,0:0:0:0:
73,177,201153,5,2,0:0:0:0:
56,26,201303,1,2,3:2:0:0:
63,23,201378,1,0,0:0:0:0:
63,16,201453,1,2,0:3:0:0:
56,14,201528,1,0,0:0:0:0:
52,20,201603,1,10,0:0:0:0:
214,50,201753,1,2,0:3:0:0:
377,22,201903,1,0,1:0:0:0:
306,86,202053,5,2,0:0:0:0:
140,0,202203,1,2,0:0:0:0:
56,167,202353,1,2,0:0:0:0:
53,95,202503,6,0,B|101:87|143:161|188:139,1,144,2|0,3:2|0:0,0:0:0:0:
320,85,202953,2,0,P|323:48|334:7,1,72,2|0,0:0|1:0,0:0:0:0:
223,287,203403,1,2,0:0:0:0:
287,251,203553,2,0,P|275:221|295:190,1,72,2|0,0:0|3:0,0:0:0:0:
150,265,203853,6,0,B|144:237|99:228|20:268|0:292|2:318|23:349,1,216,2|0,0:3|1:0,0:0:0:0:
169,356,204453,1,2,0:0:0:0:
206,190,204603,1,2,0:0:0:0:
252,327,204753,1,2,0:0:0:0:
299,271,204903,6,0,B|335:250|400:295|450:263,1,144,2|0,3:2|0:0,0:0:0:0:
488,322,205353,2,0,B|514:324|516:348|499:380,1,72,2|0,0:0|1:0,0:0:0:0:
340,181,205803,1,2,0:0:0:0:
277,135,205953,2,0,B|275:161|251:163|219:146,1,72,2|0,0:0|3:0,0:0:0:0:
25,115,206253,5,2,0:3:0:0:
46,185,206403,5,8,0:0:0:0:
148,165,206553,1,2,0:3:0:0:
266,26,206703,1,0,1:0:0:0:
246,26,206853,5,2,0:0:0:0:
364,165,207003,1,2,0:0:0:0:
466,185,207153,1,2,0:0:0:0:
368,142,207303,6,0,B|301:161|309:226|261:249,1,144,2|0,3:2|0:0,0:0:0:0:
170,145,207753,2,0,P|181:92|169:62,1,72,2|0,0:0|1:0,0:0:0:0:
26,289,208203,1,2,0:0:0:0:
14,201,208353,2,0,B|55:199|36:222|79:226,1,72,2|0,0:0|3:0,0:0:0:0:
186,372,208653,5,2,0:3:0:0:
155,283,208803,5,0,0:0:0:0:
173,272,208953,1,0,0:0:0:0:
184,253,209103,1,0,1:0:0:0:
251,200,209253,5,2,0:0:0:0:
98,159,209403,1,2,0:0:0:0:
139,6,209553,1,2,0:0:0:0:
292,47,209703,6,0,B|299:82|329:91|349:74|361:45|360:14|333:-9,1,144,2|0,3:2|0:0,0:0:0:0:
196,63,210153,2,0,B|211:85|198:110|213:144,1,72,2|0,0:0|1:0,0:0:0:0:
196,63,210603,1,0,0:0:0:0:
178,292,210753,5,2,0:0:0:0:
209,215,210903,1,2,3:2:0:0:
59,183,211053,1,2,0:3:0:0:
27,333,211203,1,10,0:0:0:0:
27,333,211278,1,0,0:0:0:0:
27,333,211353,1,2,0:3:0:0:
94,266,211503,5,0,1:0:0:0:
288,248,211653,1,2,0:0:0:0:
246,151,211803,1,2,0:0:0:0:
269,255,211953,1,2,0:0:0:0:
303,319,212103,6,0,B|319:334|366:338|378:291|395:273|439:284,1,144,6|0,3:2|0:0,0:0:0:0:
509,380,212553,2,0,P|468:374|454:334,1,72,2|0,0:0|1:0,0:0:0:0:
411,114,213003,1,2,0:0:0:0:
323,148,213153,2,0,P|334:95|328:66,1,72,2|0,0:0|3:0,0:0:0:0:
464,247,213453,6,0,P|400:253|265:340,1,216,2|0,0:3|1:0,0:0:0:0:
260,242,214053,1,2,0:0:0:0:
146,366,214203,1,2,0:0:0:0:
47,357,214353,1,2,0:0:0:0:
35,337,214503,6,0,B|54:294|136:296|155:260,1,144,2|0,3:2|0:0,0:0:0:0:
47,233,214953,2,0,P|23:184|29:156,1,72,2|0,0:0|1:0,0:0:0:0:
204,19,215403,1,2,0:0:0:0:
295,64,215553,2,0,P|332:61|358:97,1,72,2|0,0:0|3:0,0:0:0:0:
135,109,215853,5,2,0:3:0:0:
21,17,216003,5,8,0:0:0:0:
93,28,216153,1,2,0:3:0:0:
8,37,216303,1,0,1:0:0:0:
108,183,216453,5,2,0:0:0:0:
228,236,216603,1,2,0:0:0:0:
244,152,216753,1,2,0:0:0:0:
92,267,216903,6,0,B|122:321|120:347|82:365|17:358,1,144,2|0,3:2|0:0,0:0:0:0:
196,360,217353,2,0,B|181:333|182:320|201:311|233:314,1,72,2|0,0:0|1:0,0:0:0:0:
360,132,217803,1,2,0:0:0:0:
341,203,217953,2,0,B|356:209|370:253|392:263,1,72,2|0,0:0|3:0,0:0:0:0:
472,63,218253,5,2,0:3:0:0:
292,146,218403,1,0,0:0:0:0:
289,125,218553,1,0,0:0:0:0:
488,176,218703,1,0,1:0:0:0:
386,128,218853,5,2,0:0:0:0:
306,8,219003,1,2,0:0:0:0:
187,101,219153,1,2,0:0:0:0:
123,67,219303,6,0,B|79:38|17:76|14:123|48:118|57:98,1,144,2|0,3:2|0:0,0:0:0:0:
232,158,219753,2,0,B|250:177|255:215|280:221,1,72,2|0,0:0|1:0,0:0:0:0:
232,158,220203,1,0,0:0:0:0:
200,330,220353,5,2,0:0:0:0:
113,367,220503,2,0,B|91:369|44:357|64:325,1,72,2|2,3:2|0:3,0:0:0:0:
287,293,220803,1,2,0:0:0:0:
287,293,220878,1,0,0:0:0:0:
287,293,220953,2,0,B|309:291|356:303|336:335,1,72,2|0,0:3|1:0,0:0:0:0:
454,229,221253,1,2,0:0:0:0:
472,156,221403,1,2,0:0:0:0:
472,148,221478,1,0,0:0:0:0:
478,145,221553,1,0,0:0:0:0:
483,151,221628,1,0,0:0:0:0:
479,157,221703,6,0,B|500:107|429:48|454:-6,1,144,2|0,3:2|0:0,0:0:0:0:
364,130,222153,2,0,P|352:163|322:181,1,72,2|0,0:0|1:0,0:0:0:0:
126,42,222603,1,2,0:0:0:0:
83,100,222753,2,0,B|65:123|29:95|-4:115,1,72,2|0,0:0|1:0,0:0:0:0:
150,108,223053,6,0,P|210:129|268:262,1,216,2|0,0:3|1:0,0:0:0:0:
298,107,223653,1,2,0:0:0:0:
248,28,223803,1,2,0:0:0:0:
403,20,223953,1,2,0:0:0:0:
424,20,224103,6,0,P|410:77|391:35,1,144,2|0,3:2|0:0,0:0:0:0:
352,195,224553,2,0,P|354:160|385:145,1,72,2|0,0:0|1:0,0:0:0:0:
499,326,225003,1,2,0:0:0:0:
439,367,225153,2,0,B|412:372|384:367|367:343,1,72,2|0,0:0|3:0,0:0:0:0:
203,223,225453,5,2,0:3:0:0:
288,324,225603,5,8,0:0:0:0:
162,367,225753,1,2,0:3:0:0:
234,372,225903,1,0,1:0:0:0:
162,339,226053,5,2,0:0:0:0:
139,134,226203,1,2,0:0:0:0:
18,147,226353,1,2,0:0:0:0:
28,241,226503,6,0,B|85:206|110:269|170:234,1,144,2|0,3:2|0:0,0:0:0:0:
65,307,226953,2,0,B|53:339|58:369|72:381|88:367,1,72,2|0,0:0|1:0,0:0:0:0:
208,172,227403,1,2,0:0:0:0:
264,129,227553,2,0,B|276:97|271:67|257:55|241:69,1,72,2|0,0:0|3:0,0:0:0:0:
48,19,227853,5,2,0:3:0:0:
185,79,228003,5,0,0:0:0:0:
115,97,228153,1,0,0:0:0:0:
172,6,228303,1,0,1:0:0:0:
337,21,228453,5,2,0:0:0:0:
483,57,228603,1,2,0:0:0:0:
447,203,228753,1,2,0:0:0:0:
301,167,228903,6,0,B|365:158|365:89|411:62,1,144,2|0,3:2|0:0,0:0:0:0:
258,111,229353,1,2,0:0:0:0:
146,17,229503,6,0,B|71:-12|-7:6|-47:99|-35:167|6:185|58:181|75:132|64:100|42:93|19:107,1,360,0|0,1:0|0:0,0:0:0:0:
24,104,230703,5,2,0:0:0:0:
34,113,230803,1,2,0:0:0:0:
48,111,230903,1,2,0:0:0:0:
84,134,231003,5,2,0:0:0:0:
90,176,231103,1,2,0:0:0:0:
63,206,231203,1,2,0:0:0:0:
50,247,231303,6,0,B|25:166|97:77|74:31,1,216.000008239746,6|0,3:2|1:0,0:0:0:0:
76,36,232203,2,0,P|44:25|27:5,1,54.0000020599366,2|0,0:0|0:0,0:0:0:0:
165,14,232503,1,2,0:0:0:0:
150,30,232653,1,2,0:3:0:0:
192,90,232803,2,0,P|181:122|161:139,2,54.0000020599366,2|0|0,3:2|0:0|1:0,0:0:0:0:
379,15,233403,1,2,0:0:0:0:
423,157,233553,1,2,0:0:0:0:
476,56,233703,6,0,P|402:83|293:175,1,216.000008239746,2|0,3:2|1:0,0:0:0:0:
297,169,234603,2,0,P|274:163|236:160,2,54.0000020599366,2|0|0,0:0|0:0|0:0,0:0:0:0:
314,99,235053,1,2,0:3:0:0:
400,180,235203,2,0,B|413:175|428:141|449:137,2,54.0000020599366,2|2|0,3:2|0:3|1:0,0:0:0:0:
306,270,235653,5,2,0:0:0:0:
263,357,235803,1,2,0:0:0:0:
178,310,235953,1,2,0:0:0:0:
166,328,236103,6,0,B|147:258|30:254|22:175,1,216.000008239746,2|0,3:2|1:0,0:0:0:0:
22,176,237003,1,2,0:0:0:0:
85,141,237153,1,2,0:0:0:0:
115,76,237303,2,0,P|111:29|117:9,1,54.0000020599366,2|2,0:0|0:3,0:0:0:0:
213,133,237603,2,0,P|239:135|266:130,2,54.0000020599366,2|0|0,3:2|0:0|1:0,0:0:0:0:
442,56,238203,1,2,0:0:0:0:
478,172,238353,1,2,0:0:0:0:
408,130,238503,6,0,B|379:193|294:214|247:283,1,216.000008239746,2|0,3:2|0:0,0:0:0:0:
251,276,239403,1,2,0:0:0:0:
406,318,239553,1,2,0:0:0:0:
332,374,239703,6,0,P|327:360|329:349,3,27.0000010299683
331,334,240003,2,0,P|332:302|326:272,1,54.0000020599366,2|2,3:2|0:3,0:0:0:0:
184,258,240303,1,8,1:2:0:0:
63,306,240453,1,0,3:0:0:0:
142,323,240603,5,2,0:0:0:0:
183,330,240703,1,2,0:0:0:0:
157,365,240803,1,2,0:0:0:0:
114,356,240903,6,0,B|18:328|89:213|4:177,1,216.000008239746,6|0,3:2|1:0,0:0:0:0:
12,181,241803,2,0,P|9:155|27:120,1,54.0000020599366,2|0,0:0|0:0,0:0:0:0:
132,51,242103,1,2,0:0:0:0:
152,45,242253,1,2,0:3:0:0:
61,69,242403,2,0,P|49:45|27:29,2,54.0000020599366,2|0|0,3:2|0:0|1:0,0:0:0:0:
255,204,243003,1,2,0:0:0:0:
394,188,243153,1,2,0:0:0:0:
313,256,243303,6,0,P|328:167|300:31,1,216.000008239746,2|0,3:2|1:0,0:0:0:0:
305,44,244203,2,0,P|289:86|275:96,2,54.0000020599366,2|0|0,0:0|0:0|0:0,0:0:0:0:
370,14,244653,1,2,0:3:0:0:
233,35,244803,2,0,B|218:41|196:24|179:29,2,54.0000020599366
88,14,245253,5,2,0:0:0:0:
106,134,245403,1,2,0:0:0:0:
1,195,245553,1,2,0:0:0:0:
4,265,245703,6,0,B|79:259|106:347|227:369,1,216.000008239746,2|0,3:2|1:0,0:0:0:0:
193,360,246603,1,2,0:0:0:0:
124,355,246753,1,2,0:0:0:0:
256,315,246903,5,2,3:2:0:0:
388,355,247053,1,2,0:3:0:0:
396,374,247203,2,0,B|422:331|399:287|417:257,1,108.000004119873,0|0,0:0|1:0,0:0:0:0:
389,51,247803,1,2,0:0:0:0:
479,14,247953,1,2,0:0:0:0:
349,117,248103,6,0,B|291:138|201:36|133:67,1,216.000008239746,6|0,3:2|1:0,0:0:0:0:
144,62,249003,1,2,0:0:0:0:
56,70,249153,2,0,P|48:41|30:17,1,54.0000020599366,2|0,0:0|0:0,0:0:0:0:
178,140,249453,1,2,0:3:0:0:
37,153,249603,1,10,0:0:0:0:
37,153,249678,1,0,0:0:0:0:
37,153,249753,1,2,0:3:0:0:
208,298,250053,6,0,B|215:368|215:368|110:379|110:379|103:308|103:308|144:303,1,288,2|0,3:2|0:0,0:0:0:0:
256,192,250503,5,8,0:3:0:0:
