osu file format v14

[General]
AudioFilename: audio.mp3
AudioLeadIn: 0
PreviewTime: 25528
Countdown: 1
SampleSet: Normal
StackLeniency: 0.4
Mode: 0
LetterboxInBreaks: 0
WidescreenStoryboard: 0

[Editor]
Bookmarks: 11166,11466,16266,21066,25866,45066,46266,54666,59466,64266,68466,69066,73866,83466,90366,93066,97866,102966,104766,106116,108966,112266,121866
DistanceSpacing: 1.2
BeatDivisor: 4
GridSize: 32
TimelineZoom: 3.899999

[Metadata]
Title:Xperanza
TitleUnicode:Xperanza
Artist:aran
ArtistUnicode:aran
Creator:Thexo
Version:Graces of Heaven
Source:beatmania IIDX 25 CANNON BALLERS
Tags:
BeatmapID:1915793
BeatmapSetID:917344

[Difficulty]
HPDrainRate:6
CircleSize:4
OverallDifficulty:8.2
ApproachRate:9
SliderMultiplier:1.45
SliderTickRate:1

[Events]
//Background and Video events
0,0,"u8qcs4t.png",0,0
//Break Periods
2,54666,63666
2,93266,97116
//Storyboard Layer 0 (Background)
//Storyboard Layer 1 (Fail)
//Storyboard Layer 2 (Pass)
//Storyboard Layer 3 (Foreground)
//Storyboard Sound Samples

[TimingPoints]
666,300,4,1,0,74,1,0
1866,-133.333333333333,4,1,0,74,0,0
11166,-399.999999999997,4,1,0,74,0,0
11466,-166.666666666667,4,1,0,74,0,0
13866,-133.333333333333,4,1,0,74,0,0
16266,-100,4,1,0,74,0,0
19266,-66.6666666666667,4,1,0,74,0,0
21066,-80,4,1,0,74,0,0
24666,-50,4,1,0,74,0,0
25566,-250,4,1,0,74,0,0
25866,-100,4,1,0,74,0,1
26466,-66.6666666666667,4,1,0,74,0,1
28866,-80,4,1,0,74,0,1
33066,-66.6666666666667,4,1,0,74,0,1
34266,-66.6666666666667,4,1,0,74,0,0
35766,-100,4,1,0,74,0,0
36066,-66.6666666666667,4,1,0,74,0,1
37866,-83.3333333333333,4,1,0,74,0,1
40566,-66.6666666666667,4,1,0,74,0,1
42666,-83.3333333333333,4,1,0,74,0,0
45066,-89.2857142857143,4,1,0,74,0,0
45966,-133.333333333333,4,1,0,74,0,0
46266,-66.6666666666667,4,1,0,74,0,1
54366,-66.6666666666667,4,1,0,74,0,0
64266,-83.3333333333333,4,1,0,74,0,0
67866,-71.4285714285714,4,1,0,74,0,0
73866,-200,4,1,0,74,0,0
83316,-66.6666666666667,4,1,0,74,0,0
83766,-80,4,1,0,74,0,0
101466,-44.4444444444445,4,1,0,74,0,0
102366,-50,4,1,0,74,0,0
102966,-66.6666666666667,4,1,0,74,0,0
105966,-133.333333333333,4,1,0,74,0,0
106116,-66.6666666666667,4,1,0,74,0,0
106716,-57.1428571428571,4,1,0,74,0,0
107016,-133.333333333333,4,1,0,74,0,0
107166,-57.1428571428571,4,1,0,74,0,0
107466,-66.6666666666667,4,1,0,74,0,0
112266,-66.6666666666667,4,1,0,74,0,1
113766,-58.8235294117647,4,1,0,74,0,1
114066,-52.6315789473684,4,1,0,74,0,1
116166,-66.6666666666667,4,1,0,74,0,1
116766,-57.1428571428571,4,1,0,74,0,1
117066,-50,4,1,0,74,0,1
117366,-66.6666666666667,4,1,0,74,0,1
121116,-666.666666666667,4,1,0,74,0,0

[HitObjects]
256,192,666,12,0,1791,0:0:0:0:
157,49,1866,5,0,0:0:0:0:
159,111,2166,2,0,P|153:82|152:54,1,54.3750020742417
240,169,2616,5,0,0:0:0:0:
235,250,2766,1,0,0:0:0:0:
231,331,2916,1,0,0:0:0:0:
239,343,3066,5,0,0:0:0:0:
368,281,3216,1,0,0:0:0:0:
125,207,3516,5,0,0:0:0:0:
308,29,3816,5,0,0:0:0:0:
338,209,4116,5,0,0:0:0:0:
338,208,4266,2,0,P|378:203|419:202,1,81.5625031113626
486,250,4566,1,0,0:0:0:0:
459,348,4716,1,0,0:0:0:0:
488,129,4866,5,0,0:0:0:0:
495,241,5016,1,0,0:0:0:0:
397,108,5166,2,0,P|398:86|405:65,1,27.1875010371209
452,15,5316,1,0,0:0:0:0:
462,24,5466,6,0,P|395:39|328:32,1,135.937505185604
259,3,5916,1,0,0:0:0:0:
251,157,6216,5,0,0:0:0:0:
251,157,6666,6,0,P|202:153|177:154,1,54.3750020742417
76,192,6966,1,0,0:0:0:0:
199,332,7416,5,0,0:0:0:0:
280,337,7566,1,0,0:0:0:0:
361,341,7716,1,0,0:0:0:0:
373,333,7866,5,0,0:0:0:0:
312,245,8016,1,0,0:0:0:0:
187,340,8316,5,0,0:0:0:0:
61,245,8616,5,0,0:0:0:0:
61,245,9066,6,0,P|106:245|134:241,1,54.3750020742417
178,198,9366,1,0,0:0:0:0:
110,46,9666,5,0,0:0:0:0:
14,182,9966,5,0,0:0:0:0:
49,327,10116,1,0,0:0:0:0:
40,336,10266,5,0,0:0:0:0:
187,272,10416,1,0,0:0:0:0:
191,191,10566,1,0,0:0:0:0:
196,110,10716,1,0,0:0:0:0:
186,101,10866,5,0,0:0:0:0:
301,13,11016,1,0,0:0:0:0:
306,23,11166,6,0,L|302:56,1,27.1875
335,129,11466,6,0,P|371:123|391:124,1,43.4999986724854
441,170,11766,2,0,P|442:203|439:221,2,43.4999986724854
424,61,12216,2,0,P|422:39|423:17,2,43.4999986724854
485,107,12666,5,0,0:0:0:0:
361,206,12816,2,0,P|322:211|310:210,1,43.4999986724854
198,145,13116,2,0,P|237:140|249:141,1,43.4999986724854
237,273,13416,2,0,P|232:251|232:229,1,43.4999986724854
331,129,13716,1,0,0:0:0:0:
351,289,13866,6,0,L|354:353,1,54.3750020742417
306,222,14166,1,0,0:0:0:0:
419,245,14316,1,0,0:0:0:0:
187,250,14466,5,0,0:0:0:0:
300,227,14616,1,0,0:0:0:0:
263,336,14766,1,0,0:0:0:0:
168,238,14916,5,0,0:0:0:0:
411,146,15216,5,0,0:0:0:0:
248,150,15516,5,0,0:0:0:0:
301,1,15816,5,0,0:0:0:0:
261,138,15966,1,0,0:0:0:0:
141,84,16266,6,0,P|134:129|136:170,1,72.5
165,231,16566,1,0,0:0:0:0:
165,231,16716,1,0,0:0:0:0:
29,189,16866,2,0,P|42:233|61:269,1,72.5
112,312,17166,1,0,0:0:0:0:
112,312,17316,1,0,0:0:0:0:
371,84,17466,6,0,P|377:129|375:170,1,72.5
347,231,17766,1,0,0:0:0:0:
347,231,17916,1,0,0:0:0:0:
483,189,18066,2,0,P|469:233|450:269,1,72.5
400,312,18366,1,0,0:0:0:0:
400,312,18516,1,0,0:0:0:0:
223,327,18666,6,0,L|177:338,3,36.25
291,292,18966,2,0,L|337:303,3,36.25
199,234,19266,6,0,L|119:252,3,54.3750020742417
283,167,19566,6,0,L|335:179,1,54.3750020742417
347,175,19716,2,0,L|359:123,2,54.3750020742417
285,274,20016,5,0,0:0:0:0:
285,274,20166,1,0,0:0:0:0:
285,274,20316,1,0,0:0:0:0:
76,198,20616,5,0,0:0:0:0:
75,208,20766,1,0,0:0:0:0:
73,217,20916,1,0,0:0:0:0:
162,146,21066,6,0,L|167:88,1,45.3125
254,0,21216,2,0,L|257:45,1,45.3125
276,202,21366,2,0,L|280:248,3,45.3125
205,263,21666,2,0,L|197:307,3,45.3125
119,307,21966,2,0,L|99:348,3,45.3125
197,307,22266,6,0,P|236:305|250:306,1,45.3125
336,321,22416,2,0,P|372:335|384:342,1,45.3125
313,227,22566,2,0,L|309:181,3,45.3125
384,166,22866,2,0,L|391:121,3,45.3125
470,122,23166,2,0,L|489:80,3,45.3125
468,216,23466,6,0,L|470:250,14,22.65625
457,270,24066,5,0,0:0:0:0:
439,284,24141,1,0,0:0:0:0:
420,296,24216,1,0,0:0:0:0:
399,304,24291,1,0,0:0:0:0:
376,308,24366,1,0,0:0:0:0:
354,307,24441,1,0,0:0:0:0:
332,303,24516,1,0,0:0:0:0:
310,295,24591,1,0,0:0:0:0:
291,283,24666,6,0,L|286:249,22,36.25
221,211,25566,6,0,P|218:190|226:161,1,43.5
263,140,25866,6,0,B|147:136|191:230|76:227,1,217.5
89,139,26466,6,0,P|180:179|75:315,1,326.25001244545
67,220,26991,1,0,0:0:0:0:
67,220,27066,6,0,P|60:159|60:103,1,108.750004148483
220,24,27366,2,0,P|218:78|211:132,1,108.750004148483
141,259,27666,2,0,P|134:312|133:367,1,108.750004148483
215,342,27966,2,0,P|244:336|283:334,1,54.3750020742417
367,334,28116,2,0,P|396:336|435:345,1,54.3750020742417
319,249,28266,5,0,0:0:0:0:
402,137,28416,1,0,0:0:0:0:
329,244,28566,5,0,0:0:0:0:
464,263,28716,1,0,0:0:0:0:
267,178,28866,6,0,B|157:189|157:189|116:232|116:232|1:247,1,271.875
93,192,29391,1,0,0:0:0:0:
93,192,29466,6,0,P|85:136|70:93,1,90.625
202,262,29766,2,0,P|218:207|222:162,1,90.625
173,43,30066,1,0,0:0:0:0:
131,314,30216,1,0,0:0:0:0:
212,256,30366,1,0,0:0:0:0:
15,190,30516,2,0,P|9:217|8:239,1,45.3125
78,315,30666,6,0,P|116:311|134:312,1,45.3125
218,327,30816,2,0,P|254:341|269:349,1,45.3125
87,228,30966,6,0,P|125:224|143:225,1,45.3125
268,256,31116,2,0,P|248:247|227:240,1,45.3125
146,116,31266,6,0,B|256:105|256:105|297:62|297:62|412:47,1,271.875
338,103,31791,1,0,0:0:0:0:
338,103,31866,5,0,0:0:0:0:
305,197,32016,1,0,0:0:0:0:
362,278,32166,1,0,0:0:0:0:
329,372,32316,1,0,0:0:0:0:
411,179,32466,5,0,0:0:0:0:
378,273,32616,1,0,0:0:0:0:
341,365,32766,1,0,0:0:0:0:
245,252,32916,1,0,0:0:0:0:
270,231,32991,1,0,0:0:0:0:
282,211,33066,6,0,B|198:220|221:268|138:278,1,163.125006222725
46,136,33366,2,0,P|101:153|142:192,1,108.750004148483
5,322,33666,2,0,P|22:267|61:226,1,108.750004148483
212,136,33966,2,0,B|295:126|272:78|355:68,1,163.125006222725
108,15,34266,6,0,P|104:69|106:123,1,108.750004148483
146,196,34566,1,0,0:0:0:0:
354,163,34716,2,0,P|357:217|355:271,1,108.750004148483
316,344,35016,1,0,0:0:0:0:
478,184,35166,5,0,0:0:0:0:
478,184,35241,1,0,0:0:0:0:
478,184,35316,2,0,P|495:187|519:196,3,36.2500013828278
154,364,35766,6,0,P|164:314|150:274,1,72.5
261,291,36066,6,0,P|152:193|57:304,1,326.25001244545
153,282,36666,6,0,P|131:204|144:156,1,108.750004148483
245,85,36966,2,0,P|267:163|254:211,1,108.750004148483
1,157,37266,5,0,0:0:0:0:
23,108,37366,5,0,0:0:0:0:
60,71,37466,5,0,0:0:0:0:
107,49,37566,5,0,0:0:0:0:
160,44,37666,5,0,0:0:0:0:
212,60,37766,5,0,0:0:0:0:
253,91,37866,6,0,P|298:104|357:103,1,86.9999973449708
445,49,38166,1,0,0:0:0:0:
244,97,38316,1,0,0:0:0:0:
376,249,38466,2,0,B|385:313|385:313|365:375,1,130.499996017456
291,307,38766,2,0,B|271:244|271:244|280:180,1,130.499996017456
421,158,39066,5,0,0:0:0:0:
220,384,39216,1,0,0:0:0:0:
220,384,39291,1,0,0:0:0:0:
220,384,39366,1,0,0:0:0:0:
174,252,39516,1,0,0:0:0:0:
105,362,39666,2,0,L|101:383,2,21.7499993362427
184,245,39816,5,0,0:0:0:0:
99,352,39966,2,0,L|95:373,2,21.7499993362427
70,147,40116,5,0,0:0:0:0:
70,147,40191,1,0,0:0:0:0:
70,147,40266,2,0,L|66:126,2,21.7499993362427
178,257,40416,1,0,0:0:0:0:
263,140,40566,6,0,P|311:140|389:157,1,108.750004148483
470,226,40866,6,0,L|476:206,4,13.5937505185604
432,326,41016,1,0,0:0:0:0:
468,216,41166,6,0,L|474:196,4,13.5937505185604
363,362,41316,1,0,0:0:0:0:
363,362,41391,1,0,0:0:0:0:
363,362,41466,6,0,P|309:351|255:351,1,108.750004148483
143,361,41766,6,0,L|137:381,4,13.5937505185604
181,261,41916,1,0,0:0:0:0:
145,371,42066,6,0,L|139:391,4,13.5937505185604
175,249,42216,1,0,0:0:0:0:
333,209,42366,5,0,0:0:0:0:
312,159,42441,1,0,0:0:0:0:
272,123,42516,1,0,0:0:0:0:
220,108,42591,1,0,0:0:0:0:
167,117,42666,6,0,L|158:175,3,43.4999986724854
67,217,42966,2,0,L|76:275,3,43.4999986724854
156,326,43266,2,0,L|147:384,3,43.4999986724854
238,231,43566,2,0,L|247:289,3,43.4999986724854
315,325,43866,5,0,0:0:0:0:
333,285,43941,1,0,0:0:0:0:
339,242,44016,1,0,0:0:0:0:
325,201,44091,1,0,0:0:0:0:
303,164,44166,1,0,0:0:0:0:
290,123,44241,1,0,0:0:0:0:
296,80,44316,1,0,0:0:0:0:
315,41,44391,1,0,0:0:0:0:
353,21,44466,5,0,0:0:0:0:
371,60,44541,1,0,0:0:0:0:
377,103,44616,1,0,0:0:0:0:
363,144,44691,1,0,0:0:0:0:
341,181,44766,1,0,0:0:0:0:
328,222,44841,1,0,0:0:0:0:
334,265,44916,1,0,0:0:0:0:
353,304,44991,1,0,0:0:0:0:
384,334,45066,6,0,B|414:256|360:253|392:175,1,162.400001982422
470,85,45516,1,0,0:0:0:0:
486,164,45666,1,0,0:0:0:0:
299,290,45816,1,0,0:0:0:0:
303,33,45966,6,0,P|305:64|285:103,1,54.3750020742417
235,136,46191,1,0,0:0:0:0:
235,136,46266,6,0,P|267:137|354:147,1,108.750004148483
206,227,46566,2,0,P|174:228|87:238,1,108.750004148483
296,346,46866,2,0,P|303:292|306:237,1,108.750004148483
208,23,47166,2,0,P|210:77|217:131,1,108.750004148483
502,159,47466,6,0,B|386:155|430:249|315:246,1,217.500008296967
332,158,47916,1,0,0:0:0:0:
483,247,48066,2,0,P|485:300|479:356,1,108.750004148483
227,294,48366,2,0,P|225:241|231:185,1,108.750004148483
345,33,48666,5,0,0:0:0:0:
300,337,48816,1,0,0:0:0:0:
228,176,48966,2,0,P|172:161|119:156,1,108.750004148483
20,322,49266,1,0,0:0:0:0:
124,278,49416,1,0,0:0:0:0:
0,109,49566,1,0,0:0:0:0:
133,285,49716,1,0,0:0:0:0:
215,80,49866,6,0,P|279:73|349:77,1,108.750004148483
429,107,50166,1,0,0:0:0:0:
208,89,50316,1,0,0:0:0:0:
441,115,50466,2,0,P|448:187|445:237,1,108.750004148483
396,288,50766,1,0,0:0:0:0:
390,22,50916,1,0,0:0:0:0:
342,192,51066,6,0,P|261:205|226:216,1,108.750004148483
13,309,51366,2,0,P|94:322|129:333,1,108.750004148483
265,377,51666,1,0,0:0:0:0:
272,384,51816,1,0,0:0:0:0:
126,339,51966,1,0,0:0:0:0:
337,201,52116,1,0,0:0:0:0:
99,192,52266,6,0,P|90:118|94:66,1,108.750004148483
239,2,52566,1,0,0:0:0:0:
191,261,52866,5,0,0:0:0:0:
236,11,53016,1,0,0:0:0:0:
313,322,53316,5,0,0:0:0:0:
405,90,53616,5,0,0:0:0:0:
416,291,53916,5,0,0:0:0:0:
407,299,54216,5,0,0:0:0:0:
459,27,54366,1,0,0:0:0:0:
11,37,64266,6,0,P|63:32|130:30,1,86.9999973449708
398,22,64566,6,0,P|348:39|287:65,1,86.9999973449708
339,127,64866,2,0,P|301:163|257:213,1,86.9999973449708
325,251,65166,2,0,P|305:299|287:363,1,86.9999973449708
117,372,65466,6,0,L|94:274,1,86.9999973449708
182,265,65766,2,0,L|205:167,1,86.9999973449708
114,156,66066,2,0,L|91:58,1,86.9999973449708
417,71,66366,2,0,L|398:156,1,86.9999973449708
299,300,66666,5,0,0:0:0:0:
299,300,66816,1,0,0:0:0:0:
280,188,66966,1,0,0:0:0:0:
280,188,67116,1,0,0:0:0:0:
392,172,67266,1,0,0:0:0:0:
392,172,67416,1,0,0:0:0:0:
406,285,67566,1,0,0:0:0:0:
406,285,67716,1,0,0:0:0:0:
212,257,67866,6,0,P|141:240|100:236,1,101.499996902466
0,150,68166,2,0,P|48:135|98:126,1,101.499996902466
246,163,68466,5,0,0:0:0:0:
293,165,68566,5,0,0:0:0:0:
333,166,68666,5,0,0:0:0:0:
366,168,68766,5,0,0:0:0:0:
393,168,68866,5,0,0:0:0:0:
413,169,68966,5,0,0:0:0:0:
426,169,69066,6,0,L|477:147,7,50.749998451233
413,256,69666,2,0,L|467:247,7,50.749998451233
377,341,70266,2,0,L|432:347,7,50.749998451233
331,268,70866,2,0,L|283:249,7,50.749998451233
205,289,71466,6,0,P|198:315|195:348,3,50.749998451233
141,211,71766,2,0,P|123:231|107:260,3,50.749998451233
103,114,72066,2,0,P|78:125|51:144,3,50.749998451233
109,10,72366,2,0,P|82:9|49:15,3,50.749998451233
198,62,72666,6,0,P|274:65|349:71,1,152.249995353699
456,163,72966,6,0,P|412:163|397:164,1,50.749998451233
298,184,73116,2,0,P|258:202|244:209,1,50.749998451233
317,342,73266,2,0,P|313:265|307:190,1,152.249995353699
303,205,73566,1,0,0:0:0:0:
301,230,73641,1,0,0:0:0:0:
297,254,73716,1,0,0:0:0:0:
293,280,73791,1,0,0:0:0:0:
290,305,73866,6,0,P|291:332|295:361,1,54.375
396,249,74166,2,0,P|395:258|394:267,1,18.125
193,310,74316,2,0,P|193:319|194:328,1,18.125
230,214,74466,2,0,P|228:186|225:158,1,54.375
134,104,74766,2,0,P|134:94|135:85,1,18.125
229,31,74916,2,0,P|229:21|230:12,1,18.125
302,101,75066,6,0,P|336:104|345:104,1,36.25
422,56,75291,2,0,P|456:53|465:53,1,36.25
512,134,75516,2,0,P|513:148|512:159,1,18.125
480,247,75666,2,0,P|481:274|485:303,1,54.375
414,367,75966,2,0,P|400:368|389:367,1,18.125
299,347,76116,2,0,P|285:341|276:336,1,18.125
233,256,76266,6,0,P|234:228|232:198,1,54.375
179,119,76566,2,0,P|170:115|162:112,1,18.125
65,91,76716,2,0,P|55:90|46:91,1,18.125
107,291,76866,2,0,P|121:292|132:291,1,18.125
222,271,77016,2,0,P|235:265|244:260,1,18.125
308,189,77166,2,0,P|348:192|376:196,1,54.375
440,282,77466,6,0,P|444:265|446:247,1,36.25
364,368,77691,2,0,P|360:351|359:333,1,36.25
286,265,77916,2,0,P|277:263|268:262,1,18.125
164,295,78066,6,0,P|162:269|163:241,1,54.375
210,160,78366,5,0,0:0:0:0:
179,150,78441,1,0,0:0:0:0:
148,150,78516,1,0,0:0:0:0:
118,160,78591,1,0,0:0:0:0:
93,179,78666,6,0,P|87:206|84:233,1,54.375
95,335,78966,2,0,P|94:344|93:353,1,18.125
0,384,79116,2,0,P|0:374|1:365,1,18.125
9,264,79266,2,0,P|4:236|0:210,1,54.375
27,115,79566,2,0,P|24:93|23:83,1,18.125
92,24,79716,2,0,P|95:2|96:-8,1,18.125
169,83,79866,6,0,L|216:78,1,36.25
320,172,80091,2,0,L|273:167,1,36.25
215,73,80316,2,0,P|231:71|237:71,1,18.125
328,179,80466,2,0,P|330:206|331:233,1,54.375
272,327,80766,2,0,P|270:319|270:310,1,18.125
411,290,80916,2,0,P|412:298|413:307,1,18.125
331,233,81066,6,0,P|331:205|334:178,1,54.375
390,88,81366,2,0,P|392:72|392:58,1,18.125
327,166,81516,2,0,P|326:158|325:149,1,18.125
396,97,81666,2,0,P|393:81|393:67,1,18.125
458,175,81816,2,0,P|459:166|460:157,1,18.125
405,258,81966,2,0,P|404:283|406:313,1,54.375
335,380,82266,6,0,L|283:373,1,36.25
171,329,82491,2,0,L|223:322,1,36.25
299,289,82716,2,0,P|301:273|301:264,1,18.125
243,173,82866,2,0,P|241:181|241:191,1,18.125
313,123,83016,5,0,0:0:0:0:
103,280,83166,1,0,0:0:0:0:
103,280,83241,1,0,0:0:0:0:
103,280,83316,2,0,P|86:277|62:268,3,36.2500013828278
307,132,83616,5,0,0:0:0:0:
388,206,83766,2,0,P|390:252|386:300,1,90.625
265,384,84066,2,0,P|262:337|266:289,1,90.625
317,142,84366,1,0,0:0:0:0:
317,142,84516,1,0,0:0:0:0:
198,187,84666,6,0,P|153:191|108:192,1,90.625
0,90,84966,2,0,P|45:85|90:84,1,90.625
211,193,85266,5,0,0:0:0:0:
229,224,85366,5,0,0:0:0:0:
237,259,85466,5,0,0:0:0:0:
236,295,85566,5,0,0:0:0:0:
225,329,85666,5,0,0:0:0:0:
205,359,85766,5,0,0:0:0:0:
174,379,85866,6,0,P|169:333|171:288,1,90.625
218,185,86166,2,0,P|222:139|220:94,1,90.625
143,11,86466,1,0,0:0:0:0:
143,11,86616,1,0,0:0:0:0:
228,192,86766,2,0,P|273:196|318:196,1,90.625
438,97,87066,6,0,P|436:156|441:191,1,90.625
460,226,87291,1,0,0:0:0:0:
496,252,87366,1,0,0:0:0:0:
512,40,87516,1,0,0:0:0:0:
321,103,87666,2,0,P|262:105|227:100,1,90.625
103,68,87966,1,0,0:0:0:0:
100,96,88041,1,0,0:0:0:0:
98,124,88116,1,0,0:0:0:0:
95,152,88191,1,0,0:0:0:0:
93,180,88266,6,0,P|141:181|208:189,1,90.625
260,246,88566,1,0,0:0:0:0:
212,332,88716,1,0,0:0:0:0:
224,111,88866,2,0,P|228:65|228:20,1,90.625
87,189,89166,2,0,P|82:234|82:279,1,90.625
294,316,89466,6,0,P|344:309|394:313,1,90.625
468,353,89691,1,0,0:0:0:0:
468,353,89766,1,0,0:0:0:0:
268,236,89916,1,0,0:0:0:0:
344,182,90066,2,0,P|394:188|441:204,1,90.625
493,278,90366,1,0,0:0:0:0:
462,252,90441,1,0,0:0:0:0:
447,216,90516,1,0,0:0:0:0:
450,177,90591,1,0,0:0:0:0:
470,143,90666,6,0,L|463:93,3,45.3125
418,31,90966,1,0,0:0:0:0:
380,17,91041,1,0,0:0:0:0:
342,22,91116,1,0,0:0:0:0:
310,44,91191,1,0,0:0:0:0:
290,78,91266,6,0,L|243:97,3,45.3125
173,108,91566,1,0,0:0:0:0:
141,133,91641,1,0,0:0:0:0:
127,169,91716,1,0,0:0:0:0:
130,208,91791,1,0,0:0:0:0:
149,242,91866,6,0,L|142:291,1,45.3125
246,384,92016,2,0,L|252:339,1,45.3125
157,237,92166,6,0,L|150:286,1,45.3125
241,377,92316,2,0,L|247:332,1,45.3125
298,272,92466,5,0,0:0:0:0:
313,238,92541,1,0,0:0:0:0:
318,201,92616,1,0,0:0:0:0:
306,166,92691,1,0,0:0:0:0:
287,135,92766,1,0,0:0:0:0:
276,100,92841,1,0,0:0:0:0:
281,63,92916,1,0,0:0:0:0:
298,30,92991,1,0,0:0:0:0:
326,5,93066,1,0,0:0:0:0:
53,25,97866,6,0,P|41:68|40:114,1,90.625
96,197,98166,1,0,0:0:0:0:
96,197,98316,1,0,0:0:0:0:
0,253,98466,6,0,P|23:291|53:325,1,90.625
152,344,98766,1,0,0:0:0:0:
152,344,98916,1,0,0:0:0:0:
152,344,98991,1,0,0:0:0:0:
152,344,99066,6,0,P|153:298|164:254,1,90.625
249,167,99366,1,0,0:0:0:0:
249,167,99516,1,0,0:0:0:0:
125,115,99666,6,0,P|158:84|197:61,1,90.625
318,58,99966,1,0,0:0:0:0:
318,58,100116,1,0,0:0:0:0:
318,58,100191,1,0,0:0:0:0:
318,58,100266,6,0,P|319:103|330:147,1,90.625
360,169,100491,1,0,0:0:0:0:
395,180,100566,1,0,0:0:0:0:
291,287,100716,1,0,0:0:0:0:
291,287,100791,1,0,0:0:0:0:
291,287,100866,6,0,P|324:317|363:340,1,90.625
400,340,101091,1,0,0:0:0:0:
436,331,101166,1,0,0:0:0:0:
460,302,101241,1,0,0:0:0:0:
477,260,101316,1,0,0:0:0:0:
483,215,101391,1,0,0:0:0:0:
478,170,101466,6,0,P|404:137|324:142,1,163.125006222725
169,114,101691,6,0,P|242:147|323:141,1,163.125006222725
389,222,101916,6,0,L|400:390,1,163.125006222725
225,355,102141,6,0,L|235:192,1,163.125006222725
262,51,102366,6,0,B|190:58|190:58|140:90|140:90|46:99,1,217.5
5,184,102666,6,0,L|12:202,6,18.125
92,200,102816,2,0,L|82:234,3,36.25
166,209,102966,6,0,P|168:266|163:318,1,108.750004148483
67,373,103266,1,0,0:0:0:0:
67,373,103416,1,0,0:0:0:0:
214,111,103566,1,0,0:0:0:0:
214,111,103716,1,0,0:0:0:0:
320,330,103866,5,0,0:0:0:0:
386,127,104016,1,0,0:0:0:0:
254,263,104166,1,0,0:0:0:0:
297,129,104316,1,0,0:0:0:0:
411,318,104466,2,0,P|416:263|413:207,1,108.750004148483
290,17,104766,2,0,P|285:72|288:128,1,108.750004148483
329,340,105066,5,0,0:0:0:0:
406,201,105216,1,0,0:0:0:0:
261,269,105366,2,0,P|207:271|153:263,1,108.750004148483
316,199,105666,1,0,0:0:0:0:
205,357,105816,1,0,0:0:0:0:
152,182,105966,2,0,P|148:168|147:153,1,27.1875010371209
188,107,106116,6,0,P|115:112|54:193,1,163.125006222725
103,267,106416,2,0,P|176:262|237:181,1,163.125006222725
286,112,106716,6,0,B|383:103|383:103|475:122,1,190.312501814961
352,179,107016,6,0,P|348:165|347:150,1,27.1875010371209
466,114,107166,6,0,B|475:210|475:210|455:302,1,190.312501814961
306,384,107466,6,0,P|301:329|302:275,1,108.750004148483
460,201,107766,2,0,P|464:255|463:309,1,108.750004148483
354,134,108066,5,0,0:0:0:0:
219,285,108216,1,0,0:0:0:0:
282,81,108366,1,0,0:0:0:0:
312,268,108516,1,0,0:0:0:0:
190,93,108666,6,0,P|137:89|79:88,1,108.750004148483
100,186,108966,2,0,P|48:204|-4:227,1,108.750004148483
76,296,109266,2,0,P|37:334|0:377,1,108.750004148483
190,263,109566,1,0,0:0:0:0:
190,263,109716,1,0,0:0:0:0:
266,178,109866,6,0,P|344:176|438:182,1,163.125006222725,12|0,0:0|0:0,0:0:0:0:
503,244,110166,1,8,0:0:0:0:
412,281,110316,1,8,0:0:0:0:
183,143,110466,2,0,P|260:134|354:131,1,163.125006222725,12|0,0:0|0:0,0:0:0:0:
424,188,110766,1,8,0:0:0:0:
337,232,110916,1,8,0:0:0:0:
273,30,111066,5,8,0:0:0:0:
241,272,111216,1,8,0:0:0:0:
154,68,111366,1,8,0:0:0:0:
143,299,111516,1,8,0:0:0:0:
282,47,111666,5,0,0:0:0:0:
319,74,111741,1,0,0:0:0:0:
348,110,111816,1,0,0:0:0:0:
368,152,111891,1,0,0:0:0:0:
377,198,111966,1,0,0:0:0:0:
374,244,112041,1,0,0:0:0:0:
360,288,112116,1,0,0:0:0:0:
335,328,112191,1,0,0:0:0:0:
299,356,112266,6,0,P|244:369|181:364,1,108.750004148483
164,173,112566,1,0,0:0:0:0:
181,357,112716,1,0,0:0:0:0:
69,226,112866,2,0,P|62:156|72:102,1,108.750004148483
155,33,113166,1,0,0:0:0:0:
249,112,113316,1,0,0:0:0:0:
370,123,113466,6,0,P|308:116|252:119,1,108.750004148483
79,218,113766,6,0,P|142:210|200:213,1,123.250002350807
401,325,114066,6,0,P|329:316|264:320,1,137.749996321678
171,378,114366,1,0,0:0:0:0:
295,211,114516,1,0,0:0:0:0:
137,75,114666,6,0,P|204:62|272:67,1,137.749996321678
295,211,114966,1,0,0:0:0:0:
171,378,115116,1,0,0:0:0:0:
137,75,115266,6,0,P|204:62|272:67,1,137.749996321678
295,211,115566,1,0,0:0:0:0:
171,378,115716,1,0,0:0:0:0:
83,182,115866,5,0,0:0:0:0:
165,372,116016,1,0,0:0:0:0:
288,205,116166,2,0,P|342:197|397:196,1,108.750004148483
512,331,116466,2,0,P|460:350|403:339,1,108.750004148483
445,241,116766,6,0,P|389:215|354:162,1,126.875001209974
450,133,117066,6,0,P|426:67|453:-2,1,145
512,190,117366,5,0,0:0:0:0:
337,68,117516,1,0,0:0:0:0:
147,166,117666,2,0,P|136:237|155:292,1,108.750004148483
332,376,117966,1,0,0:0:0:0:
333,59,118116,1,0,0:0:0:0:
329,49,118416,5,0,0:0:0:0:
327,366,118566,1,0,0:0:0:0:
384,269,118716,1,0,0:0:0:0:
247,267,118866,2,0,P|189:271|128:284,1,108.750004148483
329,49,119166,5,0,0:0:0:0:
258,120,119316,1,0,0:0:0:0:
401,151,119466,2,0,P|472:149|523:140,1,108.750004148483
313,210,119766,2,0,P|378:238|428:251,1,108.750004148483
263,130,120066,1,0,0:0:0:0:
354,356,120216,1,0,0:0:0:0:
18,148,120516,5,0,0:0:0:0:
145,371,120816,5,0,0:0:0:0:
231,272,120966,1,0,0:0:0:0:
102,249,121116,6,0,P|78:269|65:289,1,54.3749983406067
256,192,121903,12,0,122916,0:0:0:0:
