osu file format v14

[General]
AudioFilename: audio.mp3
AudioLeadIn: 0
PreviewTime: 71993
Countdown: 0
SampleSet: Soft
StackLeniency: 0.7
Mode: 2
LetterboxInBreaks: 0
WidescreenStoryboard: 1

[Editor]
Bookmarks: 3068,4868,5018,5168,5468,11468,18968,25868,45068,54668,59468,69068,72368,73868
DistanceSpacing: 1.5
BeatDivisor: 4
GridSize: 4
TimelineZoom: 2.2

[Metadata]
Title:Xperanza
TitleUnicode:Xperanza
Artist:aran
ArtistUnicode:aran
Creator:050
Version:Juansy's Rain
Source:beatmania IIDX 25 CANNON BALLERS
Tags:instrumental english female vocal vocals electronic video game vg vgm hardcore CTBI VII 7 Catch The Beat International Cup Round of 16 RO16 NM1 NoMod1 KONAMI BEMANI HYBRID esperanza disc 1 disc_1 track 8 track_8 bigh bighzonda spectator [ azu- ] [_azu-_] -joakh joakh juansy- juansy -rustyy rustyy sorcerer sorceress sorceress94 overranked -aku bad_mapper bad mapper -MomoX Nosuri Roxy Migurdia Roxy_Migurdia [_-Kukkai-_] kukkai
BeatmapID:3781830
BeatmapSetID:1577228

[Difficulty]
HPDrainRate:5
CircleSize:3.7
OverallDifficulty:9
ApproachRate:9
SliderMultiplier:1.8
SliderTickRate:2

[Events]
//Background and Video events
0,0,"aran.jpg",0,0
//Break Periods
2,57268,58868
2,93268,97268
//Storyboard Layer 0 (Background)
//Storyboard Layer 1 (Fail)
//Storyboard Layer 2 (Pass)
//Storyboard Layer 3 (Foreground)
//Storyboard Layer 4 (Overlay)
//Storyboard Sound Samples

[TimingPoints]
1868,300,4,2,1,50,1,0
11168,-100,4,2,1,50,0,0
11468,-100,4,2,1,60,0,0
15968,-100,4,2,5,60,0,0
16268,-100,4,2,1,70,0,0
17468,-100,4,2,1,70,0,0
18668,-100,4,2,1,70,0,0
18743,-100,4,3,1,70,0,0
19268,-100,4,3,1,70,0,0
19868,-100,4,2,1,70,0,0
20768,-100,4,2,1,50,0,0
21068,-100,4,2,1,80,0,0
22268,-100,4,2,1,80,0,0
23468,-100,4,2,1,80,0,0
24668,-100,4,2,1,60,0,0
24968,-100,4,2,1,70,0,0
25268,-100,4,2,1,75,0,0
25568,-100,4,2,1,60,0,0
25868,-100,4,2,2,80,0,0
26468,-100,4,2,2,80,0,0
26918,-100,4,2,2,80,0,0
28868,-100,4,2,2,80,0,0
29318,-100,4,2,2,80,0,0
31268,-100,4,2,2,80,0,0
31568,-100,4,2,2,80,0,0
32618,-100,4,2,2,80,0,0
34268,-100,4,2,2,70,0,0
35318,-100,4,2,2,65,0,0
35468,-100,4,2,2,80,0,0
35768,-100,4,2,2,80,0,0
36068,-100,4,2,2,80,0,0
36368,-100,4,2,2,80,0,0
36443,-100,4,2,2,80,0,0
36668,-100,4,2,2,80,0,0
36818,-100,4,2,2,80,0,0
37268,-100,4,2,3,80,0,0
37368,-100,4,2,3,55,0,0
37868,-100,4,2,2,80,0,0
38468,-100,4,2,2,80,0,0
38918,-100,4,2,2,80,0,0
40868,-100,4,2,2,80,0,0
41318,-100,4,2,2,80,0,0
42818,-100,4,2,6,80,0,0
42893,-100,4,2,2,80,0,0
42968,-100,4,2,6,80,0,0
43043,-100,4,2,2,80,0,0
43118,-100,4,2,6,80,0,0
43193,-100,4,2,2,80,0,0
43268,-100,4,2,6,85,0,0
43343,-100,4,2,2,80,0,0
43418,-100,4,2,6,85,0,0
43493,-100,4,2,2,80,0,0
43568,-100,4,2,6,85,0,0
43643,-100,4,2,2,80,0,0
43718,-100,4,2,6,85,0,0
43793,-100,4,2,2,80,0,0
43868,-100,4,2,6,90,0,0
44768,-100,4,2,6,90,0,0
45068,-100,4,2,2,70,0,0
45818,-100,4,2,2,75,0,0
46268,-100,4,2,2,80,0,0
48518,-100,4,2,2,80,0,0
48668,-100,4,2,20,80,0,0
48743,-100,4,2,2,80,0,0
48968,-100,4,2,20,80,0,0
49043,-100,4,2,2,80,0,0
49118,-100,4,2,2,80,0,0
53318,-100,4,2,2,80,0,0
53618,-100,4,2,2,80,0,0
53918,-100,4,2,2,80,0,0
54218,-100,4,2,2,80,0,0
54668,-100,4,2,2,80,0,0
59468,-100,4,2,1,60,0,0
64268,-100,4,2,1,65,0,0
64418,-100,4,2,1,65,0,0
64868,-100,4,2,1,65,0,0
65018,-100,4,2,1,65,0,0
65468,-100,4,2,1,70,0,0
65618,-100,4,2,1,70,0,0
66668,-100,4,2,1,75,0,0
67268,-100,4,2,1,75,0,0
67718,-100,4,2,1,75,0,0
67868,-100,4,2,1,80,0,0
68468,-100,4,2,1,60,0,0
69068,-100,4,2,1,65,0,0
69668,-100,4,2,1,70,0,0
70268,-100,4,2,1,75,0,0
70868,-100,4,2,1,80,0,0
71468,-100,4,2,1,80,0,0
73568,-100,4,2,1,70,0,0
73868,-100,4,2,1,90,0,1
83468,-100,4,2,1,90,0,1
83618,-100,4,2,1,90,0,1
85368,-100,4,2,3,55,0,1
85568,-100,4,2,1,90,0,1
85668,-100,4,2,3,55,0,1
85868,-100,4,2,1,90,0,1
93068,-100,4,2,1,90,0,0
97868,-100,4,2,1,70,0,0
98468,-100,4,2,1,75,0,0
99068,-100,4,2,1,80,0,0
99668,-100,4,2,1,85,0,0
100268,-100,4,2,1,90,0,0
101468,-100,4,2,1,90,0,0
101618,-100,4,2,1,10,0,0
101693,-100,4,2,1,90,0,0
101843,-100,4,2,1,10,0,0
101918,-100,4,2,1,90,0,0
102068,-100,4,2,1,10,0,0
102143,-100,4,2,1,90,0,0
102293,-100,4,2,1,10,0,0
102368,-100,4,2,1,90,0,0
102968,-100,4,2,1,90,0,1
112193,-100,4,2,1,90,0,0
112268,-100,4,2,1,90,0,1
119168,-100,4,2,1,90,0,0
120518,-100,4,2,1,90,0,0
120818,-100,4,2,1,90,0,0
121118,-76.9230769230769,4,2,1,90,0,0
121868,-100,4,2,1,90,0,0

[Colours]
Combo1 : 141,141,135
Combo2 : 247,191,117

[HitObjects]
170,116,1868,6,0,L|370:113,1,180,4|2,0:0|0:0,0:0:0:0:
197,157,2468,1,0,0:0:0:0:
273,121,2618,2,0,L|228:24,2,90,2|2|2,0:0|0:0|0:0,0:0:0:0:
425,120,3068,5,0,0:0:0:0:
335,124,3218,2,0,B|239:125|239:125|217:206,2,180,2|2|2,0:0|0:0|0:0,0:0:0:0:
174,95,4118,1,2,0:0:0:0:
327,95,4268,6,0,L|245:188,1,90,0|0,0:0|0:0,0:0:0:0:
115,248,4568,2,0,L|217:242,1,90,2|2,0:0|0:0,0:0:0:0:
357,240,4868,2,0,L|284:156,1,90,2|2,0:0|0:0,0:0:0:0:
200,212,5168,2,0,L|282:151,1,90,0|2,0:0|0:0,0:0:0:0:
120,189,5468,6,0,L|121:9,1,180,0|0,0:0|0:0,0:0:0:0:
273,17,5918,1,2,0:0:0:0:
273,17,6218,1,2,0:0:0:0:
129,17,6368,2,0,L|199:100,1,90,0|0,0:0|0:0,0:0:0:0:
347,54,6668,6,0,L|156:52,1,180,2|2,0:0|0:0,0:0:0:0:
347,52,7268,1,0,0:0:0:0:
278,82,7418,2,0,L|245:178,2,90,2|2|2,0:0|0:0|0:0,0:0:0:0:
430,77,7868,5,0,0:0:0:0:
355,107,8018,2,0,L|348:215,1,90,2|0,0:0|0:0,0:0:0:0:
447,188,8318,2,0,L|440:286,1,90,2|0,0:0|0:0,0:0:0:0:
341,283,8618,2,0,P|330:213|423:197,1,180,2|0,0:0|0:0,0:0:0:0:
204,168,9068,5,2,0:0:0:0:
204,168,9105,2,0,L|368:168,1,157.5,0|2,0:0|0:0,0:0:0:0:
180,172,9668,1,2,0:0:0:0:
180,172,9968,2,0,L|247:97,1,90,2|2,0:0|0:0,0:0:0:0:
396,128,10268,6,0,L|394:237,1,90,0|2,0:0|0:0,0:0:0:0:
294,219,10568,2,0,L|297:112,1,90,2|2,0:0|0:0,0:0:0:0:
143,138,10868,2,0,L|144:38,1,90,0|2,0:0|0:0,0:0:0:0:
297,33,11168,2,0,P|346:67|283:91,1,135
152,265,11468,5,4,1:2:0:0:
152,265,11768,1,2,0:0:0:0:
361,92,12218,2,0,L|392:191,2,90,2|2|2,0:0|0:0|0:0,0:0:0:0:
181,105,12818,6,0,B|288:102|288:102|299:187,2,180,2|2|2,0:0|0:0|0:0,0:0:0:0:
360,119,13718,1,2,0:0:0:0:
135,121,13868,5,4,1:2:0:0:
135,121,14168,2,0,L|235:121,1,90,2|2,0:0|0:0,0:0:0:0:
368,120,14468,2,0,L|271:119,2,90,2|2|0,0:0|0:0|0:0,0:0:0:0:
213,122,14918,6,0,B|119:124|119:124|167:123,1,135,2|0,0:0|0:0,0:0:0:0:
209,121,15218,2,0,B|301:117|301:117|240:119,1,135,2|0,0:0|0:0,0:0:0:0:
213,122,15518,2,0,L|213:225,1,90,2|0,0:0|0:0,0:0:0:0:
365,218,15818,1,2,0:0:0:0:
121,205,15968,2,0,P|94:198|128:129,1,135,4|0,0:0|0:0,0:0:0:0:
275,120,16268,6,0,L|282:21,1,90,4|0,1:2|0:0,0:0:0:0:
172,25,16568,2,0,L|159:125,1,90,2|0,0:0|0:0,0:0:0:0:
313,130,16868,2,0,L|419:133,3,90,4|2|2|2,1:2|0:0|0:0|0:0,0:0:0:0:
186,132,17468,6,0,L|78:132,3,90,4|2|0|2,1:2|0:0|0:0|0:0,0:0:0:0:
248,135,18068,2,0,L|247:26,1,90,4|2,1:2|0:0,0:0:0:0:
94,45,18368,2,0,L|186:43,1,90,0|0,0:0|0:0,0:0:0:0:
402,260,18668,6,0,L|423:210,2,45,4|0|0,1:2|0:0|0:0,0:0:0:0:
356,278,18893,1,0,0:0:0:0:
438,152,18968,2,0,L|459:102,2,45,0|0|0,1:0|0:0|0:0,0:0:0:0:
392,170,19193,1,0,0:0:0:0:
238,86,19268,2,0,L|213:146,3,45,0|0|0|0,1:0|0:0|0:0|0:0,0:0:0:0:
375,319,19568,2,0,L|406:254,3,45,0|0|0|0,1:0|0:0|0:0|0:0,0:0:0:0:
192,110,19868,6,0,L|142:205,2,90,4|2|2,1:2|0:0|0:0,0:0:0:0:
344,104,20318,2,0,L|395:186,2,90,2|0|2,0:0|0:0|0:0,0:0:0:0:
189,105,20768,2,0,L|289:107,1,90,0|0,0:0|0:0,0:0:0:0:
61,229,21068,6,0,L|54:175,2,45,4|0|0,3:2|0:0|3:2,3:3:0:0:
213,230,21368,2,0,L|215:172,2,45,0|0|0,3:2|0:0|3:2,0:0:0:0:
367,229,21668,2,0,L|356:173,1,45,0|0,3:0|0:0,0:0:0:0:
297,166,21818,1,0,3:2:0:0:
449,152,21968,2,0,L|434:101,1,45,0|0,3:2|0:0,0:0:0:0:
362,87,22118,1,0,3:2:0:0:
146,86,22268,6,0,L|122:144,2,45,4|0|0,3:2|0:0|3:2,3:3:0:0:
200,77,22493,1,0,3:0:0:0:
285,246,22568,2,0,L|286:144,1,90,0|0,3:2|3:2,0:0:0:0:
131,157,22868,2,0,L|109:102,2,45,0|0|0,3:0|3:0|3:2,3:3:0:0:
180,180,23093,1,0,0:0:0:0:
265,178,23168,2,0,L|165:182,1,90,0|0,3:2|3:2,3:3:0:0:
392,294,23468,6,0,L|418:244,2,45,4|0|0,3:2|0:0|0:0,0:0:0:0:
338,295,23693,1,0,0:0:0:0:
252,295,23768,2,0,L|355:294,1,90,0|0,0:0|0:0,0:0:0:0:
123,83,24068,2,0,L|110:143,3,45,0|0|0|0,3:0|3:0|3:0|3:0,0:0:0:0:
254,139,24368,2,0,L|263:204,3,45,0|0|0|0,3:0|3:0|3:0|3:0,0:0:0:0:
396,206,24668,6,0,L|453:206,2,45,0|0|0,1:0|3:0|1:0,0:0:0:0:
252,197,24968,1,0,1:0:0:0:
395,201,25118,1,0,1:0:0:0:
170,205,25268,2,0,L|107:205,1,45,0|0,3:0|3:0,0:0:0:0:
196,203,25418,2,0,L|196:146,1,45,0|0,3:0|3:0,0:0:0:0:
124,160,25568,1,2,2:2:0:0:
483,271,25868,6,0,L|478:171,1,90,4|0,1:2|0:0,0:0:0:0:
333,181,26168,2,0,L|320:82,1,90,0|0,0:0|3:0,0:0:0:0:
474,95,26468,2,0,P|466:58|367:29,1,135,8|0,1:2|0:0,0:0:0:0:
329,24,26768,1,0,0:0:0:0:
436,26,26918,1,0,0:0:0:0:
218,220,27068,6,0,L|125:219,1,90,4|0,2:3|0:0,0:0:0:0:
271,221,27368,2,0,L|276:111,1,90,4|0,2:3|0:0,0:0:0:0:
419,132,27668,2,0,L|425:30,1,90,8|0,1:2|0:0,0:0:0:0:
280,35,27968,2,0,L|386:37,1,90,0|0,0:0|0:0,0:0:0:0:
150,218,28268,6,0,L|55:222,1,90,4|0,2:3|0:0,0:0:0:0:
212,213,28568,2,0,L|305:207,1,90,0|4,0:0|0:3,0:0:0:0:
148,210,28868,2,0,B|52:203|52:203|99:206,1,135,8|0,1:2|0:0,0:0:0:0:
140,206,29168,1,0,0:0:0:0:
278,212,29318,1,0,0:0:0:0:
57,57,29468,6,0,L|57:156,1,90,4|0,0:3|0:0,0:0:0:0:
200,143,29768,2,0,L|199:244,1,90,4|0,0:3|0:0,0:0:0:0:
55,229,30068,2,0,L|152:227,1,90,8|0,1:2|0:0,0:0:0:0:
289,221,30368,2,0,L|186:222,1,90,4|8,0:3|1:2,0:0:0:0:
412,127,30668,6,0,L|516:125,3,90,4|2|2|2,1:2|0:0|0:0|0:0,0:0:0:0:
349,119,31268,2,0,P|279:148|267:215,1,135,8|0,1:2|0:0,0:0:0:0:
312,211,31568,1,0,0:0:0:0:
422,233,31718,1,4,0:3:0:0:
203,101,31868,6,0,L|99:100,1,90,4|0,0:3|0:0,0:0:0:0:
256,101,32168,2,0,L|260:205,1,90,4|0,0:3|0:0,0:0:0:0:
412,195,32468,2,0,L|413:304,1,90,8|0,1:2|0:0,0:0:0:0:
268,286,32768,2,0,L|378:285,1,90,2|2,0:0|0:0,0:0:0:0:
135,84,33068,6,0,P|105:93|139:166,1,135,4|0,1:2|0:0,0:0:0:0:
181,172,33368,2,0,P|231:194|172:233,1,135
101,246,33668,2,0,P|56:268|115:314,1,135
185,313,33968,2,0,L|72:323,1,90
311,142,34268,6,0,L|204:141,1,90
121,143,34568,1,0,0:0:0:0:
273,257,34718,2,0,B|377:240|377:240|384:148,1,180
237,121,35168,2,0,L|298:120,1,45,8|0,0:0|0:0,0:0:0:0:
344,120,35318,1,2,0:0:0:0:
128,126,35468,6,0,P|86:157|134:215,1,135,2|0,0:0|0:0,0:0:0:0:
209,250,35768,2,0,L|105:254,1,90,4|0,2:3|0:0,0:0:0:0:
262,209,36068,2,0,B|353:206|353:206|303:206,1,135,8|0,1:2|0:0,0:0:0:0:
259,207,36368,1,0,0:0:0:0:
120,209,36518,1,4,0:3:0:0:
339,96,36668,6,0,L|432:92,1,90,4|0,0:3|0:0,0:0:0:0:
284,93,36968,2,0,L|389:89,1,90,4|0,0:3|0:0,0:0:0:0:
220,96,37268,2,0,L|142:93,2,60,8|0|0,1:2|0:0|0:0,0:0:0:0:
339,104,37568,2,0,L|417:106,2,60,0|0|0,0:0|0:0|0:0,0:0:0:0:
155,240,37868,6,0,L|248:243,1,90,4|0,0:3|0:0,0:0:0:0:
388,246,38168,2,0,L|377:138,1,90,0|4,0:0|0:3,0:0:0:0:
224,150,38468,2,0,P|232:91|308:76,1,135,8|0,1:2|0:0,0:0:0:0:
347,74,38768,1,0,0:0:0:0:
243,67,38918,1,0,0:0:0:0:
26,249,39068,5,4,0:3:0:0:
151,248,39218,2,0,L|157:189,2,45,2|2|4,0:0|0:0|0:3,0:0:0:0:
32,204,39518,1,0,0:0:0:0:
183,182,39668,2,0,L|189:145,1,22.5,8|0,1:2|0:0,0:0:0:0:
118,158,39818,1,2,0:0:0:0:
264,153,39968,2,0,L|266:118,1,22.5,4|0,0:3|0:0,0:0:0:0:
198,121,40118,1,10,1:2:0:0:
413,117,40268,6,0,L|449:117,1,22.5,4|0,1:2|0:0,0:0:0:0:
367,121,40418,1,2,0:0:0:0:
214,131,40568,2,0,P|172:160|237:248,1,180,8|4,1:2|0:3,0:0:0:0:
229,287,40905,1,0,0:0:0:0:
161,292,41018,1,0,0:0:0:0:
17,301,41168,2,0,L|25:267,1,22.5,0|0,0:0|0:0,0:0:0:0:
89,279,41318,1,8,1:2:0:0:
303,252,41468,6,0,P|298:191|181:164,1,180,0|8,0:0|1:2,0:0:0:0:
194,209,41805,1,0,0:0:0:0:
267,223,41918,1,0,0:0:0:0:
419,224,42068,2,0,L|419:187,1,22.5,4|0,0:3|0:0,0:0:0:0:
351,191,42218,1,0,0:0:0:0:
207,179,42368,2,0,L|226:130,1,45,8|0,1:2|0:0,0:0:0:0:
295,127,42518,1,0,0:0:0:0:
78,126,42668,6,0,L|42:175,2,45,4|0|0,1:2|0:0|0:0,0:0:0:0:
127,121,42893,1,0,0:0:0:0:
207,118,42968,2,0,L|103:120,1,90,0|0,0:0|0:0,0:0:0:0:
261,119,43268,2,0,L|294:169,2,45,0|0|0,0:0|0:0|0:0,0:0:0:0:
211,114,43493,1,0,0:0:0:0:
130,117,43568,2,0,L|245:113,1,90,0|0,0:0|0:0,0:0:0:0:
435,111,43868,6,0,L|460:150,2,45,0|0|0,0:0|0:0|0:0,0:0:0:0:
380,104,44093,1,0,0:0:0:0:
290,105,44168,2,0,L|272:177,2,45,0|0|0,0:0|0:0|0:0,0:0:0:0:
344,98,44393,1,0,0:0:0:0:
200,222,44468,2,0,L|145:230,2,45,0|0|0,0:0|0:0|0:0,0:0:0:0:
353,229,44768,2,0,L|413:213,2,45,0|0|0,0:0|0:0|0:0,0:0:0:0:
83,110,45068,1,4,0:3:0:0:
262,98,45368,6,0,P|303:104|259:190,1,180,0|0,0:0|0:0,0:0:0:0:
119,188,45818,1,4,0:3:0:0:
262,188,45968,2,0,L|364:187,1,90,8|0,1:2|0:0,0:0:0:0:
130,62,46268,6,0,L|23:62,3,90,4|0|4|0,1:2|0:0|0:3|0:0,0:0:0:0:
192,61,46868,2,0,L|195:164,1,90,8|0,1:2|0:0,0:0:0:0:
342,190,47168,2,0,L|349:279,1,90,0|0,0:0|0:0,0:0:0:0:
131,286,47468,6,0,L|236:283,1,90,4|0,0:3|0:0,0:0:0:0:
355,286,47768,1,0,0:0:0:0:
220,287,47918,1,4,0:3:0:0:
372,287,48068,2,0,L|466:285,3,90,8|0|0|0,1:2|0:0|0:0|0:0,0:0:0:0:
246,292,48668,6,0,L|150:295,1,90,0|0,3:0|0:0,0:0:0:0:
306,264,48968,2,0,L|402:262,1,90,0|0,3:0|0:0,0:0:0:0:
157,263,49268,2,0,P|132:246|187:189,1,135,8|0,1:2|0:0,0:0:0:0:
271,188,49568,2,0,L|178:186,1,90,4|8,0:3|1:2,0:0:0:0:
404,183,49868,6,0,L|405:78,1,90,4|0,1:2|0:0,0:0:0:0:
260,89,50168,2,0,L|152:87,1,90,0|4,0:0|0:3,0:0:0:0:
322,91,50468,2,0,L|320:192,1,90,8|0,1:2|0:0,0:0:0:0:
176,181,50768,2,0,L|267:188,1,90,0|8,0:0|1:2,0:0:0:0:
482,316,51068,5,4,1:2:0:0:
369,296,51218,2,0,L|359:195,1,90,0|4,0:0|0:3,0:0:0:0:
206,206,51518,2,0,L|203:103,1,90,0|8,0:0|1:2,0:0:0:0:
346,104,51818,2,0,L|347:201,1,90,0|4,0:0|0:3,0:0:0:0:
192,197,52118,1,8,1:2:0:0:
407,200,52268,6,0,L|430:150,2,45,4|0|0,1:2|0:0|0:0,0:0:0:0:
353,204,52493,1,0,0:0:0:0:
267,207,52568,2,0,L|378:208,1,90,8|0,1:2|0:0,0:0:0:0:
139,214,52868,2,0,L|108:259,2,45,4|0|8,1:2|0:0|1:2,0:0:0:0:
356,210,53168,1,0,0:0:0:0:
221,213,53318,6,0,L|219:107,1,90,4|0,0:3|0:0,0:0:0:0:
363,110,53618,1,8,1:2:0:0:
219,112,53768,1,0,0:0:0:0:
435,258,53918,2,0,L|435:154,1,90,4|0,0:3|0:0,0:0:0:0:
219,147,54218,2,0,L|321:146,1,90,4|8,2:3|1:2,0:0:0:0:
444,144,54518,1,0,0:0:0:0:
212,149,54668,5,0,0:0:0:0:
256,192,54818,12,0,57068,0:0:0:0:
461,242,59468,6,0,L|468:148,1,90,2|0,0:0|0:0,0:0:0:0:
314,161,59768,2,0,L|320:67,1,90,2|0,0:0|0:0,0:0:0:0:
167,81,60068,2,0,L|171:179,1,90,2|2,0:0|0:0,0:0:0:0:
323,176,60368,1,2,0:0:0:0:
99,159,60518,6,0,P|52:165|105:240,1,180,2|2,0:0|0:0,0:0:0:0:
146,243,60893,1,0,0:0:0:0:
96,241,60968,2,0,L|-7:245,1,90,2|0,0:0|0:0,0:0:0:0:
155,240,61268,2,0,L|152:174,2,45,2|0|2,0:0|0:0|0:0,0:0:0:0:
307,249,61568,2,0,L|354:248,2,45,2|0|0,0:0|0:0|0:0,0:0:0:0:
442,252,61868,6,0,L|494:249,2,45,2|0|0,0:0|0:0|0:0,0:0:0:0:
288,256,62168,2,0,L|381:257,1,90,2|2,0:0|0:0,0:0:0:0:
234,259,62468,2,0,L|235:164,1,90,2|2,0:0|0:0,0:0:0:0:
108,167,62768,1,2,0:0:0:0:
334,156,62918,6,0,L|425:155,1,90,2|0,0:0|0:0,0:0:0:0:
271,160,63218,2,0,P|265:249|343:275,1,180,2|2,0:0|0:0,0:0:0:0:
388,277,63593,1,0,0:0:0:0:
338,276,63668,2,0,L|234:276,1,90,2|0,0:0|0:0,0:0:0:0:
95,280,63968,2,0,L|119:229,1,45
163,233,64118,1,0,0:0:0:0:
380,132,64268,6,0,L|259:131,2,90,4|0|0,0:2|3:3|3:0,0:0:0:0:
224,67,64718,2,0,L|406:78,1,180,0|0,3:0|3:0,0:0:0:0:
344,71,65093,1,0,0:0:0:0:
285,68,65168,2,0,L|190:68,1,90,0|0,3:0|3:0,0:0:0:0:
365,294,65468,5,0,3:0:0:0:
239,303,65618,2,0,L|235:208,1,90,0|0,3:0|3:0,0:0:0:0:
289,188,65843,1,0,0:0:0:0:
347,193,65918,1,0,3:0:0:0:
194,189,66068,2,0,L|184:133,1,45,0|0,3:0|0:0,0:0:0:0:
266,135,66218,2,0,L|272:78,1,45,0|0,3:0|0:0,0:0:0:0:
190,81,66368,2,0,L|71:80,1,90,0|2,3:0|3:2,0:0:0:0:
326,291,66668,6,0,L|421:289,1,90,2|0,3:2|3:0,0:0:0:0:
352,287,66893,1,0,0:0:0:0:
289,282,66968,1,0,3:0:0:0:
431,259,67118,2,0,L|427:157,1,90,2|0,3:2|3:0,0:0:0:0:
364,168,67343,1,0,0:0:0:0:
301,161,67418,1,0,3:0:0:0:
444,150,67568,2,0,L|452:46,1,90,2|0,3:2|3:0,0:0:0:0:
225,60,67868,6,0,L|231:168,1,90,2|0,3:2|3:0,0:0:0:0:
298,151,68093,1,0,0:0:0:0:
365,149,68168,2,0,L|375:245,1,90,2|0,3:2|0:0,0:0:0:0:
150,253,68468,2,0,L|228:249,1,60,2|0,0:0|0:0,0:0:0:0:
287,245,68668,1,0,0:0:0:0:
173,232,68768,2,0,L|101:231,2,60,0|0|0,0:0|0:0|0:0,0:0:0:0:
392,44,69068,6,0,L|439:102,2,45,4|0|0,1:2|0:0|3:0,0:0:0:0:
338,41,69293,1,0,0:0:0:0:
252,40,69368,2,0,L|251:151,1,90,0|0,3:0|3:0,0:0:0:0:
305,132,69593,1,0,0:0:0:0:
454,307,69668,2,0,L|477:248,2,45,4|0|0,1:2|0:0|3:0,0:0:0:0:
400,317,69893,1,0,0:0:0:0:
319,314,69968,2,0,L|423:315,1,90,0|0,3:0|3:0,0:0:0:0:
175,324,70268,6,0,L|129:291,2,45,4|0|0,1:2|0:0|3:0,0:0:0:0:
228,333,70493,1,0,0:0:0:0:
313,335,70568,2,0,L|314:228,1,90,0|0,3:0|3:0,0:0:0:0:
259,236,70793,1,0,0:0:0:0:
107,157,70868,2,0,L|87:92,2,45,4|0|0,1:2|0:0|3:0,0:0:0:0:
159,169,71093,1,0,0:0:0:0:
239,166,71168,2,0,L|114:165,1,90,0|0,3:0|3:0,0:0:0:0:
375,165,71468,6,0,L|440:166,1,45,0|0,1:3|3:0,0:0:0:0:
419,165,71618,2,0,L|370:163,1,45,0|0,3:0|3:0,0:0:0:0:
228,138,71768,2,0,L|179:82,2,45,0|0|0,1:3|3:0|3:0,0:0:0:0:
279,155,71993,1,0,3:0:0:0:
433,295,72068,6,0,L|482:239,2,45,0|0|0,1:3|3:0|3:0,0:0:0:0:
382,312,72293,1,0,3:0:0:0:
234,229,72368,2,0,L|150:229,1,45,0|0,1:3|3:0,3:3:0:0:
340,206,72518,2,0,L|422:205,1,45,0|0,3:0|3:0,3:3:0:0:
178,97,72668,5,0,1:2:0:0:
178,97,72818,2,0,L|177:119,1,22.5,8|0,3:0|0:0,0:0:0:0:
257,132,72968,1,8,3:0:0:0:
150,115,73118,1,8,3:0:0:0:
373,226,73268,2,0,P|421:231|370:315,1,180,4|2,3:0|3:2,0:0:0:0:
328,320,73643,1,2,3:2:0:0:
386,324,73718,1,2,3:2:0:0:
161,315,73868,6,0,B|64:317|64:317|109:315,1,135,4|0,3:2|0:0,0:0:0:0:
160,308,74168,1,8,0:0:0:0:
294,302,74318,1,0,0:0:0:0:
66,72,74468,2,0,L|66:173,1,90,4|0,1:3|0:0,0:0:0:0:
209,163,74768,1,8,0:0:0:0:
65,163,74918,1,0,0:0:0:0:
299,74,75068,6,0,L|300:179,1,90,4|0,1:3|0:0,0:0:0:0:
218,170,75293,2,0,L|211:268,1,90,0|0,0:0|0:0,0:0:0:0:
264,267,75518,1,0,0:0:0:0:
490,79,75668,2,0,L|340:75,1,135,4|0,1:3|0:0,0:0:0:0:
296,76,75968,1,8,0:0:0:0:
430,74,76118,1,0,0:0:0:0:
205,189,76268,6,0,P|171:195|216:254,1,135,4|0,1:3|0:0,0:0:0:0:
259,264,76568,1,8,0:0:0:0:
394,264,76718,1,0,0:0:0:0:
165,87,76868,2,0,L|67:87,1,90,4|0,1:3|0:0,0:0:0:0:
218,101,77168,2,0,L|225:192,1,90,8|0,0:0|0:0,0:0:0:0:
454,177,77468,6,0,L|316:178,2,135,4|4|4,1:3|0:3|0:3,0:0:0:0:
225,80,78068,2,0,P|193:90|251:179,1,180,4|8,1:3|0:0,0:0:0:0:
294,183,78443,1,0,3:0:0:0:
352,180,78518,1,0,3:0:0:0:
128,277,78668,6,0,P|131:239|218:213,1,135,4|0,1:3|0:0,0:0:0:0:
270,209,78968,1,8,2:0:0:0:
135,205,79118,1,0,0:0:0:0:
359,200,79268,2,0,P|410:177|363:135,1,135,4|0,1:3|0:0,0:0:0:0:
310,132,79568,1,8,0:0:0:0:
175,131,79718,1,0,0:0:0:0:
403,286,79868,6,0,L|402:181,1,90,4|0,1:3|0:0,0:0:0:0:
320,187,80093,2,0,L|318:89,1,90,0|0,0:0|0:0,0:0:0:0:
367,97,80318,1,0,0:0:0:0:
141,265,80468,2,0,P|95:263|136:184,1,180,4|8,1:3|2:2,0:0:0:0:
281,178,80918,1,0,0:0:0:0:
53,81,81068,6,0,P|35:118|114:159,1,135,4|0,1:3|0:0,0:0:0:0:
156,165,81368,1,8,0:0:0:0:
30,163,81518,1,0,0:0:0:0:
258,84,81668,2,0,L|350:82,1,90,4|0,1:3|2:0,0:0:0:0:
121,89,81968,2,0,L|113:186,1,90,8|0,0:0|0:0,0:0:0:0:
344,218,82268,6,0,L|204:222,2,135,4|0|4,0:0|0:0|2:3,0:0:0:0:
119,222,82868,1,0,0:0:0:0:
299,222,83168,2,0,L|314:185,3,30
214,165,83468,5,0,0:0:0:0:
357,161,83618,1,4,1:3:0:0:
113,141,83768,2,0,L|82:243,1,90
226,246,84068,2,0,L|326:252,1,90,4|0,1:3|0:0,0:0:0:0:
173,242,84368,2,0,L|168:149,1,90,8|0,0:0|0:0,0:0:0:0:
391,119,84668,6,0,B|301:116|301:116|297:163,2,135,4|0|0,1:3|0:0|0:0,0:0:0:0:
167,114,85268,2,0,L|91:113,2,60,4|0|0,1:3|0:0|0:0,0:0:0:0:
275,114,85568,2,0,L|196:113,1,60,8|0,0:0|0:0,0:0:0:0:
149,111,85768,1,0,0:0:0:0:
312,53,85868,6,0,P|376:98|298:122,1,180,4|8,1:3|0:0,0:0:0:0:
177,133,86318,1,0,0:0:0:0:
403,243,86468,2,0,L|514:245,1,90,4|0,1:3|0:0,0:0:0:0:
341,237,86768,2,0,L|338:140,1,90,8|0,0:0|0:0,0:0:0:0:
111,121,87068,5,4,1:3:0:0:
237,121,87218,2,0,L|238:49,2,45,0|0|8,0:0|0:0|0:0,0:0:0:0:
367,82,87518,1,0,0:0:0:0:
141,48,87668,2,0,L|140:71,1,22.5,4|0,1:3|0:0,0:0:0:0:
222,74,87818,1,0,0:0:0:0:
367,82,87968,2,0,L|367:116,1,22.5,8|0,0:0|0:0,0:0:0:0:
294,108,88118,1,0,3:0:0:0:
68,292,88268,6,0,L|68:249,1,22.5,4|0,1:2|0:0,0:0:0:0:
150,268,88418,1,0,0:0:0:0:
378,158,88568,2,0,P|372:190|240:246,1,180,8|4,0:0|1:3,0:0:0:0:
253,250,88905,1,0,0:0:0:0:
334,248,89018,1,0,0:0:0:0:
182,244,89168,2,0,L|140:243,1,22.5,8|0,0:0|0:0,3:3:0:0:
235,245,89318,1,0,3:0:0:0:
460,118,89468,6,0,L|271:110,1,180,4|8,1:2|0:0,0:0:0:0:
258,110,89805,1,0,0:0:0:0:
333,111,89918,1,0,0:0:0:0:
108,104,90068,2,0,L|111:147,1,22.5,4|0,1:3|0:0,0:0:0:0:
191,131,90218,1,0,0:0:0:0:
335,139,90368,2,0,L|278:136,1,45,8|0,0:0|0:0,0:0:0:0:
228,135,90518,1,0,0:0:0:0:
455,297,90668,6,0,L|477:252,2,45,4|0|0,1:2|0:0|3:0,0:0:0:0:
403,308,90893,1,0,2:0:0:0:
261,209,90968,2,0,L|207:208,1,45,8|0,0:0|0:0,0:0:0:0:
354,149,91118,2,0,L|407:151,1,45,0|0,0:0|0:0,0:0:0:0:
244,71,91268,2,0,L|190:70,1,45,4|0,1:2|0:0,0:0:0:0:
200,70,91418,2,0,L|244:71,1,45,0|0,2:0|0:0,0:0:0:0:
331,72,91568,2,0,L|427:75,1,90,8|0,0:0|0:0,0:0:0:0:
193,203,91868,6,0,L|191:258,1,45,4|0,1:2|0:0,0:0:0:0:
250,252,92018,2,0,L|253:303,1,45,0|0,3:2|0:0,0:0:0:0:
191,306,92168,2,0,L|189:367,1,45,8|0,3:2|0:0,0:0:0:0:
254,349,92318,2,0,L|256:294,1,45,0|0,3:2|0:0,0:0:0:0:
110,196,92468,6,0,L|51:197,1,45,8|0,0:3|0:3,0:0:0:0:
66,196,92618,2,0,L|111:199,1,45,8|0,0:3|0:3,0:0:0:0:
263,79,92768,2,0,L|281:140,1,45,8|0,0:3|0:3,0:0:0:0:
208,128,92918,2,0,L|196:185,1,45,8|0,0:3|0:3,0:0:0:0:
360,198,93068,1,4,0:0:0:0:
75,232,97868,6,0,L|74:133,1,90,4|0,1:2|3:0,0:0:0:0:
219,145,98168,2,0,L|219:50,1,90,0|0,3:0|3:0,0:0:0:0:
444,62,98468,2,0,L|443:160,1,90,4|0,1:2|3:0,0:0:0:0:
290,159,98768,2,0,L|291:268,1,90,0|0,3:0|3:0,3:3:0:0:
345,251,98993,1,0,3:0:0:0:
201,254,99068,6,0,L|104:258,1,90,4|0,1:2|3:0,0:0:0:0:
256,256,99368,2,0,L|142:256,1,90,0|0,3:0|3:0,0:0:0:0:
391,89,99668,2,0,L|485:82,1,90,4|0,1:2|3:0,0:0:0:0:
338,91,99968,2,0,L|437:90,1,90,0|0,3:0|3:0,3:3:0:0:
201,201,100268,6,0,L|186:274,2,45,8|0|4,1:2|3:0|3:3,0:0:0:0:
249,192,100493,1,0,3:0:0:0:
334,192,100568,2,0,L|356:129,2,45,8|0|4,1:2|3:0|3:3,0:0:0:0:
286,204,100793,1,0,3:0:0:0:
145,76,100868,6,0,L|81:80,1,45,8|0,1:2|3:0,0:0:0:0:
100,78,101018,2,0,L|156:76,1,45,4|0,3:0|3:0,0:0:0:0:
292,131,101168,2,0,L|297:183,1,45,8|0,1:2|3:0,3:3:0:0:
228,175,101318,2,0,L|212:243,1,45,4|0,3:0|3:0,3:3:0:0:
363,282,101468,5,8,1:2:0:0:
389,81,101693,1,8,1:2:0:0:
198,71,101918,1,8,1:2:0:0:
374,67,102143,1,8,1:2:0:0:
180,74,102368,1,8,1:2:0:0:
406,135,102518,2,0,L|413:213,1,45
336,194,102668,6,0,L|229:191,1,90,0|2,0:0|0:0,0:0:0:0:
389,244,102968,2,0,L|503:246,1,90,12|4,1:2|1:3,0:0:0:0:
252,55,103268,2,0,L|132:58,1,90,4|0,0:3|0:0,0:0:0:0:
337,57,103568,2,0,L|339:164,1,90,8|0,0:0|0:0,0:0:0:0:
188,169,103868,5,4,1:3:0:0:
416,183,104018,2,0,L|417:72,1,90,0|8,0:0|0:0,0:0:0:0:
265,84,104318,2,0,L|377:80,1,90,0|4,0:0|1:3,0:0:0:0:
129,270,104618,2,0,L|17:265,1,90,0|8,0:0|0:0,0:0:0:0:
264,274,104918,6,0,P|312:263|256:180,1,180,0|0,0:0|0:0,0:0:0:0:
118,173,105368,2,0,L|228:162,1,90,8|0,0:0|0:0,0:0:0:0:
435,249,105668,2,0,L|306:249,2,90,4|0|8,1:3|0:0|0:0,0:0:0:0:
283,247,106118,6,0,L|169:246,1,90,2|0,0:0|1:3,0:0:0:0:
347,232,106418,2,0,L|446:238,1,90,0|8,0:0|0:0,0:0:0:0:
209,88,106718,2,0,L|209:184,1,90,2|4,0:0|1:3,0:0:0:0:
362,187,107018,1,0,0:0:0:0:
136,182,107168,2,0,P|93:145|151:106,1,135,8|0,0:0|0:0,0:0:0:0:
283,88,107468,6,0,L|381:88,1,90,4|0,1:2|0:0,0:0:0:0:
220,88,107768,2,0,L|102:86,2,90,8|0|4,0:0|0:0|1:3,0:0:0:0:
447,310,108218,1,0,0:0:0:0:
322,302,108368,1,8,0:0:0:0:
448,305,108518,1,4,0:3:0:0:
227,228,108668,6,0,L|108:224,2,90,4|0|8,1:2|0:0|0:0,0:0:0:0:
382,226,109118,2,0,L|280:223,1,90,0|4,0:0|1:3,0:0:0:0:
66,216,109418,2,0,L|171:215,1,90,0|8,0:0|0:0,0:0:0:0:
292,209,109718,1,4,0:3:0:0:
66,57,109868,6,0,L|17:55,1,45,4|0,1:2|0:0,0:0:0:0:
22,55,110018,2,0,L|67:58,1,45,0|0,0:0|0:0,0:0:0:0:
215,133,110168,2,0,L|248:195,2,45,8|0|4,0:0|0:0|0:3,0:0:0:0:
161,133,110393,1,0,0:0:0:0:
305,107,110468,6,0,L|382:107,1,45,4|0,1:2|0:0,0:0:0:0:
350,107,110618,2,0,L|306:111,1,45,0|0,0:0|0:0,0:0:0:0:
160,296,110768,2,0,L|91:294,1,45,8|0,0:0|0:0,0:0:0:0:
259,235,110918,2,0,L|326:236,1,45,4|0,0:3|0:0,0:0:0:0:
137,71,111068,6,0,L|95:172,2,90,0|0|8,0:0|0:0|0:0,0:0:0:0:
290,67,111518,2,0,L|290:176,1,90,0|8,0:0|0:3,0:0:0:0:
228,159,111743,1,0,0:0:0:0:
166,159,111818,1,8,0:3:0:0:
319,149,111968,2,0,L|421:149,1,90,4|4,2:3|1:3,0:0:0:0:
177,318,112268,6,0,L|57:317,1,90,4|0,0:0|0:0,0:0:0:0:
240,320,112568,2,0,L|120:315,1,90,8|0,0:0|0:0,0:0:0:0:
373,90,112868,2,0,L|495:86,1,90,4|0,1:3|0:0,0:0:0:0:
310,97,113168,2,0,L|313:214,1,90,8|0,0:0|0:0,0:0:0:0:
89,237,113468,6,0,L|201:237,1,90,4|0,1:3|0:0,0:0:0:0:
323,222,113768,2,0,L|198:226,1,90,8|0,0:0|0:0,0:0:0:0:
459,69,114068,2,0,P|503:96|452:154,1,135,4|0,1:3|0:0,0:0:0:0:
382,155,114368,2,0,L|489:151,1,90,8|0,0:0|0:0,0:0:0:0:
248,143,114668,6,0,L|143:144,1,90,4|0,1:3|0:0,0:0:0:0:
312,136,114968,2,0,L|417:136,1,90,8|0,0:0|0:0,0:0:0:0:
166,289,115268,2,0,P|160:228|236:202,1,135,4|0,1:3|0:0,0:0:0:0:
305,154,115568,2,0,L|191:157,1,90,8|0,0:0|0:0,0:0:0:0:
438,88,115868,6,0,L|441:206,1,90,4|0,1:3|0:0,0:0:0:0:
289,205,116168,2,0,L|294:324,1,90,8|0,0:0|0:0,0:0:0:0:
66,309,116468,2,0,L|181:313,1,90,4|0,1:3|0:0,0:0:0:0:
300,308,116768,2,0,L|209:307,1,90,8|0,0:0|0:0,0:0:0:0:
433,88,117068,6,0,P|473:150|411:176,1,135,4|0,1:2|0:0,0:0:0:0:
350,184,117368,2,0,L|357:81,1,90,8|0,0:0|0:0,0:0:0:0:
127,86,117668,2,0,L|235:85,2,90,4|0|4,1:3|0:0|2:3,0:0:0:0:
356,93,118118,6,0,P|409:112|331:175,1,180,8|4,0:0|0:3,0:0:0:0:
215,194,118568,1,8,0:0:0:0:
359,207,118718,2,0,P|360:137|252:119,1,180,0|0,0:0|0:0,0:0:0:0:
421,94,119168,2,0,L|475:97,2,45,8|0|0,0:0|3:3|3:0,0:0:0:0:
193,90,119468,6,0,L|151:165,2,45,4|0|0,0:0|0:0|0:0,0:0:0:0:
241,77,119693,1,0,0:0:0:0:
327,68,119768,2,0,L|332:169,1,90,8|0,0:0|0:0,0:0:0:0:
99,241,120068,2,0,L|207:241,1,90,0|8,0:0|0:0,0:0:0:0:
324,246,120368,1,0,0:0:0:0:
94,57,120518,6,0,P|70:116|169:161,1,180,8|4,0:0|0:3,0:0:0:0:
299,174,120968,1,0,0:0:0:0:
71,95,121118,2,0,P|44:219|224:75,1,584.999973220826,8|0,0:0|0:0,0:0:0:0:
