osu file format v14

[General]
AudioFilename: audio.mp3
AudioLeadIn: 0
PreviewTime: 71993
Countdown: 0
SampleSet: Soft
StackLeniency: 0.7
Mode: 2
LetterboxInBreaks: 0
WidescreenStoryboard: 1

[Editor]
DistanceSpacing: 1.1
BeatDivisor: 4
GridSize: 8
TimelineZoom: 1.9

[Metadata]
Title:Xperanza
TitleUnicode:Xperanza
Artist:aran
ArtistUnicode:aran
Creator:050
Version:Cup
Source:beatmania IIDX 25 CANNON BALLERS
Tags:instrumental english female vocal vocals electronic video game vg vgm hardcore CTBI VII 7 Catch The Beat International Cup Round of 16 RO16 NM1 NoMod1 KONAMI BEMANI HYBRID esperanza disc 1 disc_1 track 8 track_8 bigh bighzonda spectator [ azu- ] [_azu-_] -joakh joakh juansy- juansy -rustyy rustyy sorcerer sorceress sorceress94 overranked -aku bad_mapper bad mapper -MomoX Nosuri Roxy Migurdia Roxy_Migurdia [_-Kukkai-_] kukkai
BeatmapID:3774943
BeatmapSetID:1577228

[Difficulty]
HPDrainRate:2
CircleSize:2
OverallDifficulty:6
ApproachRate:6
SliderMultiplier:1.2
SliderTickRate:0.5

[Events]
//Background and Video events
0,0,"aran.jpg",0,0
//Break Periods
2,57268,58418
2,93268,96818
//Storyboard Layer 0 (Background)
//Storyboard Layer 1 (Fail)
//Storyboard Layer 2 (Pass)
//Storyboard Layer 3 (Foreground)
//Storyboard Layer 4 (Overlay)
//Storyboard Sound Samples

[TimingPoints]
1868,300,4,2,1,50,1,0
11468,-100,4,2,1,60,0,0
15968,-100,4,2,1,60,0,0
16268,-100,4,2,1,70,0,0
17468,-100,4,2,1,70,0,0
18668,-100,4,2,1,70,0,0
18743,-100,4,2,1,70,0,0
19268,-100,4,2,1,70,0,0
19868,-100,4,2,1,70,0,0
20768,-100,4,2,1,50,0,0
21068,-100,4,2,1,80,0,0
22268,-100,4,2,1,80,0,0
23468,-100,4,2,1,80,0,0
24668,-100,4,2,1,60,0,0
24968,-100,4,2,1,70,0,0
25268,-100,4,2,1,75,0,0
25568,-100,4,2,1,60,0,0
25868,-100,4,2,1,80,0,0
26168,-100,4,2,1,80,0,0
26468,-100,4,2,1,80,0,0
26918,-100,4,2,1,80,0,0
28868,-100,4,2,1,80,0,0
29318,-100,4,2,1,80,0,0
31268,-100,4,2,1,80,0,0
32618,-100,4,2,1,80,0,0
34268,-100,4,2,1,70,0,0
35318,-100,4,2,1,65,0,0
35468,-100,4,2,1,80,0,0
35768,-100,4,2,1,80,0,0
36068,-100,4,2,1,80,0,0
36368,-100,4,2,1,80,0,0
36443,-100,4,2,1,80,0,0
36668,-100,4,2,1,80,0,0
36818,-100,4,2,1,80,0,0
37268,-100,4,2,1,80,0,0
37368,-100,4,2,1,55,0,0
37868,-100,4,2,1,80,0,0
38468,-100,4,2,1,80,0,0
38918,-100,4,2,1,80,0,0
40868,-100,4,2,1,80,0,0
41318,-100,4,2,1,80,0,0
42818,-100,4,2,1,80,0,0
42893,-100,4,2,1,80,0,0
42968,-100,4,2,1,80,0,0
43043,-100,4,2,1,80,0,0
43118,-100,4,2,1,80,0,0
43193,-100,4,2,1,80,0,0
43268,-100,4,2,1,85,0,0
43343,-100,4,2,1,80,0,0
43418,-100,4,2,1,85,0,0
43493,-100,4,2,1,80,0,0
43568,-100,4,2,1,85,0,0
43643,-100,4,2,1,80,0,0
43718,-100,4,2,1,85,0,0
43793,-100,4,2,1,80,0,0
43868,-100,4,2,1,90,0,0
44768,-100,4,2,1,90,0,0
45068,-100,4,2,1,70,0,0
45818,-100,4,2,1,75,0,0
46268,-100,4,2,1,80,0,0
48518,-100,4,2,1,80,0,0
48668,-100,4,2,1,80,0,0
48743,-100,4,2,1,80,0,0
48968,-100,4,2,1,80,0,0
49043,-100,4,2,1,80,0,0
49118,-100,4,2,1,80,0,0
53318,-100,4,2,1,80,0,0
53618,-100,4,2,1,80,0,0
53918,-100,4,2,1,80,0,0
54218,-100,4,2,1,80,0,0
54668,-100,4,2,1,80,0,0
57068,-100,4,2,0,5,0,0
59468,-100,4,2,1,60,0,0
64268,-100,4,2,1,65,0,0
64418,-100,4,2,1,65,0,0
64868,-100,4,2,1,65,0,0
65018,-100,4,2,1,65,0,0
65468,-100,4,2,1,70,0,0
65618,-100,4,2,1,70,0,0
66668,-100,4,2,1,75,0,0
67268,-100,4,2,1,75,0,0
67718,-100,4,2,1,75,0,0
67868,-100,4,2,1,80,0,0
68468,-100,4,2,1,60,0,0
69068,-100,4,2,1,65,0,0
69668,-100,4,2,1,70,0,0
70268,-100,4,2,1,75,0,0
70868,-100,4,2,1,80,0,0
71468,-100,4,2,1,80,0,0
73568,-100,4,2,1,70,0,0
73868,-100,4,2,1,90,0,1
83468,-100,4,2,1,90,0,1
83618,-100,4,2,1,90,0,1
85368,-100,4,2,1,55,0,1
85568,-100,4,2,1,90,0,1
85668,-100,4,2,1,55,0,1
85868,-100,4,2,1,90,0,1
93068,-100,4,2,1,90,0,0
97868,-100,4,2,1,70,0,0
98468,-100,4,2,1,75,0,0
99068,-100,4,2,1,80,0,0
99668,-100,4,2,1,85,0,0
100268,-100,4,2,1,90,0,0
101468,-100,4,2,1,90,0,0
101618,-100,4,2,1,10,0,0
101693,-100,4,2,1,90,0,0
101843,-100,4,2,1,10,0,0
101918,-100,4,2,1,90,0,0
102068,-100,4,2,1,10,0,0
102143,-100,4,2,1,90,0,0
102293,-100,4,2,1,10,0,0
102368,-100,4,2,1,90,0,0
102968,-100,4,2,1,90,0,1
112193,-100,4,2,1,90,0,1
112268,-100,4,2,1,90,0,0
119168,-100,4,2,1,90,0,0
121118,-100,4,2,1,90,0,0

[Colours]
Combo1 : 141,141,135
Combo2 : 247,191,117

[HitObjects]
256,192,1868,5,4,0:0:0:0:
136,192,2168,1,2,0:0:0:0:
136,64,2618,1,2,0:0:0:0:
196,64,2768,1,2,0:0:0:0:
256,64,2918,1,2,0:0:0:0:
256,64,3218,6,0,L|128:64,2,120,2|2|2,0:0|0:0|0:0,0:0:0:0:
376,184,4118,6,0,P|365:116|261:64,1,180,2|2,0:0|0:0,0:0:0:0:
152,144,4868,1,2,0:0:0:0:
336,144,5318,1,2,0:0:0:0:
336,56,5918,5,2,0:0:0:0:
216,56,6218,1,2,0:0:0:0:
384,48,6668,5,2,0:0:0:0:
504,48,6968,1,2,0:0:0:0:
504,48,7418,1,2,0:0:0:0:
444,48,7568,1,2,0:0:0:0:
384,48,7718,1,2,0:0:0:0:
384,48,8018,6,0,L|512:48,2,120,2|2|2,0:0|0:0|0:0,0:0:0:0:
200,32,9068,6,0,P|120:80|200:176,1,240,2|2,0:0|0:0,0:0:0:0:
312,112,9968,1,2,0:0:0:0:
432,40,10268,6,0,P|443:136|312:192,1,240,0|0,0:0|0:0,0:0:0:0:
56,192,11468,6,0,P|48:128|88:72,1,120,4|2,1:2|0:0,0:0:0:0:
256,56,12218,1,2,0:0:0:0:
316,56,12368,1,2,0:0:0:0:
376,56,12518,1,2,0:0:0:0:
256,56,12818,5,2,0:0:0:0:
136,64,13118,1,2,0:0:0:0:
72,136,13418,1,2,0:0:0:0:
136,200,13718,1,2,0:0:0:0:
200,200,13868,6,0,L|336:200,1,120,4|2,1:2|0:0,0:0:0:0:
440,192,14468,1,2,0:0:0:0:
408,192,14618,1,2,0:0:0:0:
288,104,14918,6,0,L|152:112,1,120,2|2,0:0|0:0,0:0:0:0:
288,24,15518,2,0,L|424:32,1,120,2|2,0:0|0:0,0:0:0:0:
344,24,15968,1,4,0:0:0:0:
224,72,16268,6,0,B|72:72|72:72|32:96|32:168,1,240,4|4,1:2|1:2,0:0:0:0:
272,208,17468,2,0,B|424:208|424:208|464:184|464:112,1,240,4|4,1:2|1:2,0:0:0:0:
216,192,18668,5,4,1:2:0:0:
96,160,18968,1,0,1:0:0:0:
40,56,19268,1,0,1:0:0:0:
96,160,19568,1,0,1:0:0:0:
216,192,19868,6,0,L|464:168,1,240,4|0,1:2|0:0,0:0:0:0:
454,168,20768,1,0,0:0:0:0:
320,160,21068,6,0,L|56:160,4,240,4|0|4|0|4,3:2|3:0|3:2|3:0|3:2,3:3:0:0:
440,144,23768,5,0,0:0:0:0:
496,56,24068,1,0,3:0:0:0:
440,144,24368,1,0,3:0:0:0:
323,142,24668,6,0,L|203:110,1,120,0|0,1:0|1:0,0:0:0:0:
184,48,25118,1,0,1:0:0:0:
207,111,25268,2,0,L|323:142,1,120,0|2,3:0|2:2,0:0:0:0:
184,248,25868,6,0,P|128:224|144:176,1,120,4|0,1:2|0:0,0:0:0:0:
264,136,26468,2,0,L|0:136,1,240,8|4,1:2|2:3,0:0:0:0:
56,80,27368,5,4,2:3:0:0:
184,152,27668,1,8,1:2:0:0:
216,80,27968,1,0,0:0:0:0:
336,160,28268,5,4,2:3:0:0:
368,88,28568,1,0,0:0:0:0:
248,80,28868,2,0,L|488:80,1,240,8|4,1:2|0:3,0:0:0:0:
456,152,29768,5,4,0:3:0:0:
328,80,30068,1,8,1:2:0:0:
296,152,30368,1,4,0:3:0:0:
357,160,30518,1,8,1:2:0:0:
417,166,30668,6,0,P|420:113|352:70,1,120,4|2,1:2|0:0,0:0:0:0:
248,64,31268,2,0,L|488:64,1,240,8|4,1:2|0:3,0:0:0:0:
488,64,32018,5,0,0:0:0:0:
368,64,32318,1,0,0:0:0:0:
247,65,32618,1,0,0:0:0:0:
128,64,32918,1,2,0:0:0:0:
128,64,33068,6,0,L|368:64,1,240,4|2,1:2|0:0,0:0:0:0:
248,64,33968,1,4,0:3:0:0:
128,64,34268,6,0,P|62:135|120:192,1,180,4|8,0:3|0:0,0:0:0:0:
224,184,35018,1,0,0:0:0:0:
284,185,35168,1,8,0:0:0:0:
168,184,35468,6,0,P|127:147|215:72,1,180,2|0,0:0|0:0,0:0:0:0:
248,72,36068,2,0,L|8:71,1,240,8|4,1:2|0:3,0:0:0:0:
43,156,36968,5,4,0:3:0:0:
171,84,37268,1,8,1:2:0:0:
291,84,37568,1,0,0:0:0:0:
171,84,37868,5,4,0:3:0:0:
139,156,38168,1,0,0:0:0:0:
259,156,38468,6,0,L|507:156,1,240,8|4,1:2|0:3,0:0:0:0:
480,104,39218,5,2,0:0:0:0:
424,88,39368,1,4,0:3:0:0:
304,184,39668,2,0,L|280:48,1,120,8|4,1:2|0:3,0:0:0:0:
344,56,40118,1,10,1:2:0:0:
408,48,40268,6,0,P|448:56|424:128,1,120,4|8,1:2|1:2,0:0:0:0:
320,160,40868,2,0,L|136:160,1,180,4|8,0:3|1:2,0:0:0:0:
80,160,41468,5,0,0:0:0:0:
200,160,41768,2,0,L|224:32,1,120,8|4,1:2|0:3,0:0:0:0:
336,48,42368,1,8,1:2:0:0:
456,48,42668,5,4,1:2:0:0:
336,48,42968,1,0,0:0:0:0:
216,48,43268,1,0,0:0:0:0:
96,48,43568,1,0,0:0:0:0:
216,48,43868,5,0,0:0:0:0:
276,48,44018,1,0,0:0:0:0:
306,101,44168,1,0,0:0:0:0:
184,144,44468,1,0,0:0:0:0:
124,144,44618,1,0,0:0:0:0:
94,197,44768,1,0,0:0:0:0:
240,232,45068,6,0,P|312:232|360:0,1,360,4|8,0:3|1:2,0:0:0:0:
238,120,46268,1,4,1:2:0:0:
238,120,46418,1,0,0:0:0:0:
360,128,46718,1,0,0:0:0:0:
480,136,47018,1,0,0:0:0:0:
360,128,47318,1,0,0:0:0:0:
360,128,47468,6,0,L|488:128,2,120,4|0|8,0:3|0:0|1:2,0:0:0:0:
240,128,48368,1,0,0:0:0:0:
240,128,48518,6,0,B|360:128|360:128|360:8,1,240,0|0,0:0|0:0,0:0:0:0:
240,16,49418,1,0,0:0:0:0:
300,16,49568,1,4,0:3:0:0:
356,16,49718,1,8,1:2:0:0:
300,16,49868,6,0,L|160:16,1,120,4|0,1:2|0:0,0:0:0:0:
300,16,50468,1,8,1:2:0:0:
120,88,50918,1,8,1:2:0:0:
120,88,51068,6,0,L|240:88,1,120,4|4,1:2|0:3,0:0:0:0:
360,88,51668,2,0,L|240:88,1,120,8|4,1:2|0:3,0:0:0:0:
180,89,52118,1,8,1:2:0:0:
120,176,52268,6,0,P|104:128|152:64,1,120,4|8,1:2|1:2,0:0:0:0:
256,184,52868,2,0,P|304:136|224:72,1,180,4|4,1:2|0:3,0:0:0:0:
120,56,53618,5,8,1:2:0:0:
240,56,53918,2,0,L|384:56,1,120,4|4,0:3|2:3,0:0:0:0:
360,56,54368,1,8,1:2:0:0:
216,56,54668,5,0,0:0:0:0:
256,192,54968,12,0,57068,0:0:0:0:
256,248,59468,6,0,P|216:184|344:104,1,240,2|2,0:0|0:0,0:0:0:0:
440,96,60368,1,2,0:0:0:0:
376,96,60518,6,0,L|232:88,1,120,2|2,0:0|0:0,0:0:0:0:
136,80,61118,1,0,0:0:0:0:
72,80,61568,6,0,B|64:0|64:0|48:64|48:64,2,120,2|2|2,0:0|0:0|0:0,0:0:0:0:
144,152,62468,1,2,0:0:0:0:
268,159,62768,1,2,0:0:0:0:
327,159,62918,1,2,0:0:0:0:
448,93,63218,5,2,0:0:0:0:
389,93,63368,1,0,0:0:0:0:
329,92,63518,2,0,B|264:92|264:92|208:200,1,180,2|2,0:0|0:0,0:0:0:0:
328,184,64268,6,0,P|344:136|216:32,1,240,4|0,0:2|3:0,0:0:0:0:
96,56,65168,1,0,3:0:0:0:
96,56,65318,6,0,L|280:56,1,180,0|0,3:0|3:0,0:0:0:0:
396,56,66068,1,0,3:0:0:0:
276,56,66368,1,0,3:0:0:0:
276,56,66518,1,2,3:2:0:0:
276,56,66668,6,0,L|424:56,1,120,2|0,3:2|3:0,0:0:0:0:
396,56,67118,1,2,3:2:0:0:
396,56,67268,2,0,L|248:56,1,120,0|2,3:0|3:2,0:0:0:0:
152,128,67868,5,2,3:2:0:0:
272,96,68168,1,2,3:2:0:0:
144,232,68468,1,2,0:0:0:0:
384,240,69068,5,4,1:2:0:0:
160,216,69668,1,4,1:2:0:0:
384,136,70268,1,4,1:2:0:0:
160,112,70868,1,4,1:2:0:0:
400,192,71468,6,0,P|376:120|224:48,1,240,0|0,1:3|1:3,3:3:0:0:
117,48,72368,1,0,1:3:0:0:
237,224,72668,6,0,P|279:217|319:49,1,240,0|4,1:2|3:0,3:3:0:0:
204,47,73568,1,2,3:2:0:0:
348,43,73868,6,0,L|482:41,1,120,4|8,3:2|0:0,0:0:0:0:
348,142,74468,2,0,L|214:140,1,120,4|8,1:3|0:0,0:0:0:0:
104,136,75068,5,4,1:3:0:0:
56,56,75293,1,0,0:0:0:0:
104,136,75518,1,0,0:0:0:0:
164,137,75668,2,0,L|303:138,1,120,4|8,1:3|0:0,0:0:0:0:
408,240,76268,6,0,L|376:104,1,120,4|8,1:3|0:0,0:0:0:0:
256,192,76868,2,0,L|224:56,1,120,4|8,1:3|0:0,0:0:0:0:
351,183,77468,5,4,1:3:0:0:
399,103,77693,1,4,0:3:0:0:
351,183,77918,1,4,0:3:0:0:
291,184,78068,2,0,L|152:185,1,120,4|8,1:3|0:0,0:0:0:0:
111,189,78518,1,0,3:0:0:0:
172,185,78668,6,0,L|204:49,1,120,4|8,1:3|2:0,0:0:0:0:
324,137,79268,2,0,L|356:1,1,120,4|8,1:3|0:0,0:0:0:0:
232,160,79868,5,4,1:3:0:0:
144,160,80093,1,0,0:0:0:0:
56,160,80318,1,0,0:0:0:0:
80,160,80468,2,0,L|219:161,1,120,4|8,1:3|2:2,0:0:0:0:
319,63,81068,6,0,L|453:61,1,120,4|8,1:3|0:0,0:0:0:0:
319,162,81668,2,0,L|185:160,1,120,4|8,1:3|0:0,0:0:0:0:
319,162,82268,5,4,0:0:0:0:
407,162,82493,1,0,0:0:0:0:
495,162,82718,1,4,2:3:0:0:
471,162,82868,2,0,L|332:163,1,120,0|8,0:0|0:0,0:0:0:0:
328,160,83318,1,4,0:3:0:0:
387,160,83468,6,0,P|384:90|324:66,1,120,0|8,0:0|2:2,0:0:0:0:
200,136,84068,2,0,L|72:136,1,120,4|8,1:3|0:0,0:0:0:0:
200,136,84668,5,4,1:3:0:0:
288,136,84893,1,0,0:0:0:0:
376,136,85118,1,0,0:0:0:0:
440,136,85268,1,4,1:3:0:0:
320,136,85568,1,8,0:0:0:0:
200,136,85868,6,0,L|344:128,1,120,4|8,1:3|0:0,0:0:0:0:
200,64,86468,2,0,L|56:56,1,120,4|8,1:3|0:0,0:0:0:0:
200,224,87068,6,0,L|216:88,1,120,4|8,1:3|0:0,0:0:0:0:
96,88,87668,1,4,1:3:0:0:
216,88,87968,1,8,0:0:0:0:
336,88,88268,6,0,P|336:136|256:160,1,120,4|8,1:2|0:0,0:0:0:0:
160,192,88868,2,0,P|144:144|200:96,1,120,4|8,1:3|0:0,0:0:0:0:
312,96,89468,5,4,1:2:0:0:
187,97,89768,2,0,P|145:136|159:191,1,120,8|4,0:0|1:3,0:0:0:0:
280,208,90368,1,8,0:0:0:0:
341,205,90518,1,0,0:0:0:0:
401,200,90668,6,0,P|382:129|237:58,2,240,4|4|4,1:2|1:2|1:2,0:0:0:0:
353,94,92168,1,8,3:2:0:0:
242,57,92468,1,8,0:3:0:0:
182,57,92618,1,8,0:3:0:0:
122,57,92768,1,8,0:3:0:0:
272,56,93068,5,4,0:0:0:0:
192,160,97868,6,0,L|456:160,4,240,4|4|4|4|8,1:2|1:2|1:2|1:2|1:2,0:0:0:0:
72,160,100568,5,8,1:2:0:0:
136,96,100868,1,8,1:2:0:0:
72,160,101168,1,8,1:2:0:0:
192,160,101468,5,8,1:2:0:0:
280,160,101693,1,8,1:2:0:0:
368,160,101918,1,8,1:2:0:0:
456,160,102143,1,8,1:2:0:0:
368,160,102368,1,8,1:2:0:0:
308,158,102518,1,2,3:2:0:0:
248,153,102668,5,0,3:0:0:0:
392,232,102968,2,0,P|416:200|360:128,1,120,12|4,1:2|0:3,0:0:0:0:
264,120,103568,1,8,0:0:0:0:
144,216,103868,6,0,P|120:160|136:96,1,120,4|8,1:3|0:0,0:0:0:0:
253,72,104468,2,0,P|264:130|240:184,1,120,4|8,1:3|0:0,0:0:0:0:
180,191,104918,1,0,0:0:0:0:
120,197,105068,6,0,B|117:173|117:173|220:165,1,120,4|8,1:3|0:0,0:0:0:0:
336,168,105668,1,4,1:3:0:0:
456,159,105968,1,8,0:0:0:0:
392,160,106118,6,0,L|344:40,1,120,2|0,0:0|0:0,0:0:0:0:
472,128,106718,2,0,L|424:8,1,120,2|0,0:0|0:0,0:0:0:0:
368,16,107168,1,8,0:0:0:0:
248,104,107468,6,0,L|376:104,2,120,4|8|4,1:2|0:0|1:3,0:0:0:0:
128,104,108368,1,8,0:0:0:0:
248,104,108668,6,0,L|280:232,1,120,4|8,1:2|0:0,0:0:0:0:
152,48,109268,2,0,L|120:176,1,120,4|8,1:3|0:0,0:0:0:0:
248,48,109868,5,4,1:2:0:0:
368,48,110168,1,8,0:0:0:0:
488,56,110468,2,0,L|344:56,1,120,4|8,1:2|0:0,0:0:0:0:
308,54,110918,6,0,L|117:54,1,180,4|8,0:3|0:0,0:0:0:0:
68,56,111518,2,0,L|212:56,1,120,0|8,0:0|0:3,0:0:0:0:
248,56,111968,1,4,2:3:0:0:
400,216,112268,6,0,P|424:176|360:120,1,120,4|8,0:0|0:0,0:0:0:0:
264,176,112868,2,0,L|240:40,1,120,4|8,1:3|0:0,0:0:0:0:
360,40,113468,5,4,1:3:0:0:
240,72,113768,1,8,0:0:0:0:
358,200,114068,2,0,L|382:64,1,120,4|8,1:3|0:0,0:0:0:0:
256,40,114668,6,0,L|400:40,1,120,4|8,1:3|0:0,0:0:0:0:
256,128,115268,2,0,L|400:128,1,120,4|8,1:3|0:0,0:0:0:0:
256,224,115868,6,0,L|112:224,1,120,4|8,1:3|0:0,0:0:0:0:
16,216,116468,2,0,P|16:152|71:110,1,120,4|8,1:3|0:0,0:0:0:0:
114,106,116918,1,0,0:0:0:0:
176,101,117068,6,0,P|218:91|246:13,1,120,4|8,1:2|0:0,0:0:0:0:
128,144,117668,1,4,1:3:0:0:
128,144,117968,1,4,2:3:0:0:
192,144,118118,6,0,L|320:144,1,120,8|4,0:0|0:3,0:0:0:0:
372,144,118568,1,8,0:0:0:0:
312,144,118718,2,0,L|104:144,1,180,0|8,0:0|0:0,0:0:0:0:
256,208,119468,6,0,L|272:80,1,120,4|8,0:0|0:0,0:0:0:0:
152,80,120068,1,0,0:0:0:0:
272,88,120368,1,0,0:0:0:0:
332,172,120518,6,0,P|380:172|372:108,1,120,8|4,0:0|0:3,0:0:0:0:
228,92,121118,2,0,B|428:92|428:92|436:130|436:130|369:92,1,300,8|0,0:0|0:0,0:0:0:0:
