osu file format v14

[General]
AudioFilename: audio.mp3
AudioLeadIn: 0
PreviewTime: 71993
Countdown: 0
SampleSet: Soft
StackLeniency: 0.7
Mode: 2
LetterboxInBreaks: 0
WidescreenStoryboard: 1

[Editor]
Bookmarks: 11468,16268,21068,25868,40268,46268,54668,59468,64268,69068,73868,93068,97868,102968,112268,121868
DistanceSpacing: 1.1
BeatDivisor: 4
GridSize: 32
TimelineZoom: 1.9

[Metadata]
Title:Xperanza
TitleUnicode:Xperanza
Artist:aran
ArtistUnicode:aran
Creator:050
Version:Aku's Salad
Source:beatmania IIDX 25 CANNON BALLERS
Tags:instrumental english female vocal vocals electronic video game vg vgm hardcore CTBI VII 7 Catch The Beat International Cup Round of 16 RO16 NM1 NoMod1 KONAMI BEMANI HYBRID esperanza disc 1 disc_1 track 8 track_8 bigh bighzonda spectator [ azu- ] [_azu-_] -joakh joakh juansy- juansy -rustyy rustyy sorcerer sorceress sorceress94 overranked -aku bad_mapper bad mapper -MomoX Nosuri Roxy Migurdia Roxy_Migurdia [_-Kukkai-_] kukkai
BeatmapID:3774942
BeatmapSetID:1577228

[Difficulty]
HPDrainRate:3
CircleSize:2.7
OverallDifficulty:7
ApproachRate:7
SliderMultiplier:1.39
SliderTickRate:0.5

[Events]
//Background and Video events
0,0,"aran.jpg",0,0
//Break Periods
2,57268,58568
2,93268,96968
//Storyboard Layer 0 (Background)
//Storyboard Layer 1 (Fail)
//Storyboard Layer 2 (Pass)
//Storyboard Layer 3 (Foreground)
//Storyboard Layer 4 (Overlay)
//Storyboard Sound Samples

[TimingPoints]
1868,300,4,2,1,50,1,0
11468,-100,4,2,1,60,0,0
15968,-100,4,2,1,60,0,0
16268,-100,4,2,1,70,0,0
17468,-100,4,2,1,70,0,0
18668,-100,4,2,1,70,0,0
18743,-100,4,2,1,70,0,0
19268,-100,4,2,1,70,0,0
19868,-100,4,2,1,70,0,0
20768,-100,4,2,1,50,0,0
21068,-100,4,2,1,80,0,0
22268,-100,4,2,1,80,0,0
23468,-100,4,2,1,80,0,0
24668,-100,4,2,1,60,0,0
24968,-100,4,2,1,70,0,0
25268,-100,4,2,1,75,0,0
25568,-100,4,2,1,60,0,0
25868,-100,4,2,1,80,0,0
26168,-100,4,2,1,80,0,0
26468,-100,4,2,1,80,0,0
26918,-100,4,2,1,80,0,0
28868,-100,4,2,1,80,0,0
29318,-100,4,2,1,80,0,0
31268,-100,4,2,1,80,0,0
32618,-100,4,2,1,80,0,0
34268,-100,4,2,1,70,0,0
35318,-100,4,2,1,65,0,0
35468,-100,4,2,1,80,0,0
35768,-100,4,2,1,80,0,0
36068,-100,4,2,1,80,0,0
36368,-100,4,2,1,80,0,0
36443,-100,4,2,1,80,0,0
36668,-100,4,2,1,80,0,0
36818,-100,4,2,1,80,0,0
37268,-100,4,2,1,80,0,0
37368,-100,4,2,1,55,0,0
37868,-100,4,2,1,80,0,0
38468,-100,4,2,1,80,0,0
38918,-100,4,2,1,80,0,0
40868,-100,4,2,1,80,0,0
41318,-100,4,2,1,80,0,0
42818,-100,4,2,1,80,0,0
42893,-100,4,2,1,80,0,0
42968,-100,4,2,1,80,0,0
43043,-100,4,2,1,80,0,0
43118,-100,4,2,1,80,0,0
43193,-100,4,2,1,80,0,0
43268,-100,4,2,1,85,0,0
43343,-100,4,2,1,80,0,0
43418,-100,4,2,1,85,0,0
43493,-100,4,2,1,80,0,0
43568,-100,4,2,1,85,0,0
43643,-100,4,2,1,80,0,0
43718,-100,4,2,1,85,0,0
43793,-100,4,2,1,80,0,0
43868,-100,4,2,1,90,0,0
44768,-100,4,2,1,90,0,0
45068,-100,4,2,1,70,0,0
45818,-100,4,2,1,75,0,0
46268,-100,4,2,1,80,0,0
48518,-100,4,2,1,80,0,0
48668,-100,4,2,1,80,0,0
48743,-100,4,2,1,80,0,0
48968,-100,4,2,1,80,0,0
49043,-100,4,2,1,80,0,0
49118,-100,4,2,1,80,0,0
53318,-100,4,2,1,80,0,0
53618,-100,4,2,1,80,0,0
53918,-100,4,2,1,80,0,0
54218,-100,4,2,1,80,0,0
54668,-100,4,2,1,80,0,0
57068,-100,4,2,0,5,0,0
59468,-100,4,2,1,60,0,0
64268,-100,4,2,1,65,0,0
64418,-100,4,2,1,65,0,0
64868,-100,4,2,1,65,0,0
65018,-100,4,2,1,65,0,0
65468,-100,4,2,1,70,0,0
65618,-100,4,2,1,70,0,0
66668,-100,4,2,1,75,0,0
67268,-100,4,2,1,75,0,0
67718,-100,4,2,1,75,0,0
67868,-100,4,2,1,80,0,0
68468,-100,4,2,1,60,0,0
69068,-100,4,2,1,65,0,0
69668,-100,4,2,1,70,0,0
70268,-100,4,2,1,75,0,0
70868,-100,4,2,1,80,0,0
71468,-100,4,2,1,80,0,0
73568,-100,4,2,1,70,0,0
73868,-100,4,2,1,90,0,1
83468,-100,4,2,1,90,0,1
83618,-100,4,2,1,90,0,1
85368,-100,4,2,1,55,0,1
85568,-100,4,2,1,90,0,1
85668,-100,4,2,1,55,0,1
85868,-100,4,2,1,90,0,1
93068,-100,4,2,1,90,0,0
97868,-100,4,2,1,70,0,0
98468,-100,4,2,1,75,0,0
99068,-100,4,2,1,80,0,0
99668,-100,4,2,1,85,0,0
100268,-100,4,2,1,90,0,0
101468,-100,4,2,1,90,0,0
101618,-100,4,2,1,10,0,0
101693,-100,4,2,1,90,0,0
101843,-100,4,2,1,10,0,0
101918,-100,4,2,1,90,0,0
102068,-100,4,2,1,10,0,0
102143,-100,4,2,1,90,0,0
102293,-100,4,2,1,10,0,0
102368,-100,4,2,1,90,0,0
102968,-100,4,2,1,90,0,1
112193,-100,4,2,1,90,0,1
112268,-100,4,2,1,90,0,0
119168,-100,4,2,1,90,0,0
121118,-100,4,2,1,90,0,0

[Colours]
Combo1 : 141,141,135
Combo2 : 247,191,117

[HitObjects]
433,350,1868,5,4,0:0:0:0:
294,283,2168,2,0,L|294:60,1,208.5,2|2,0:0|0:0,0:0:0:0:
363,126,2768,1,2,0:0:0:0:
432,187,2918,1,2,0:0:0:0:
294,283,3218,2,0,L|134:283,2,139,2|2|2,0:0|0:0|0:0,0:0:0:0:
433,186,4118,6,0,L|209:186,1,208.5,2|2,0:0|0:0,0:0:0:0:
156,139,4718,1,2,0:0:0:0:
224,186,4868,2,0,L|320:186,1,69.5,2|2,0:0|0:0,0:0:0:0:
433,68,5318,1,2,0:0:0:0:
175,0,5918,2,0,L|36:0,1,139,2|2,0:0|0:0,0:0:0:0:
223,241,6668,5,2,0:0:0:0:
85,107,6968,2,0,L|85:331,1,208.5,2|2,0:0|0:0,0:0:0:0:
154,280,7568,1,2,0:0:0:0:
223,241,7718,1,2,0:0:0:0:
362,83,8018,2,0,L|170:83,1,139,2|2,0:0|0:0,0:0:0:0:
84,1,8618,1,2,0:0:0:0:
292,342,9068,6,0,L|452:342,2,139,2|2|2,0:0|0:0|0:0,0:0:0:0:
153,221,9968,2,0,L|281:221,1,69.5,2|2,0:0|0:0,0:0:0:0:
361,127,10418,1,2,0:0:0:0:
292,99,10568,1,2,0:0:0:0:
223,70,10718,2,0,L|362:70,1,139,2|2,0:0|0:0,0:0:0:0:
431,25,11168,1,0,0:0:0:0:
181,327,11468,5,4,1:2:0:0:
42,291,11768,2,0,L|262:291,1,208.5,2|2,0:0|0:0,0:0:0:0:
181,235,12368,1,2,0:0:0:0:
112,198,12518,1,2,0:0:0:0:
251,107,12818,6,0,L|411:107,2,139,2|2|2,0:0|0:0|0:0,0:0:0:0:
112,198,13718,1,2,0:0:0:0:
272,323,13868,6,0,L|432:323,1,139,4|2,1:2|0:0,0:0:0:0:
480,262,14318,1,2,0:0:0:0:
411,323,14468,2,0,L|315:323,1,69.5,2|2,0:0|0:0,0:0:0:0:
203,143,14918,6,0,L|363:143,1,139,2|2,0:0|0:0,0:0:0:0:
203,143,15518,2,0,L|11:143,1,139,2|2,0:0|0:0,0:0:0:0:
224,50,15968,1,4,0:0:0:0:
363,180,16268,6,0,L|221:180,1,139,4|2,1:2|0:0,0:0:0:0:
85,316,16868,2,0,L|178:316,1,69.5,4|2,1:2|0:0,0:0:0:0:
224,316,17168,1,2,0:0:0:0:
474,210,17468,6,0,L|474:132,1,69.5,4|2,1:2|0:0,0:0:0:0:
335,58,17918,2,0,L|463:58,1,69.5,2|4,0:0|1:2,0:0:0:0:
474,58,18218,1,2,0:0:0:0:
141,183,18668,6,0,L|141:343,1,139,4|0,1:2|1:0,0:0:0:0:
391,265,19268,2,0,L|199:265,1,139,0|0,1:0|1:0,0:0:0:0:
252,265,19718,1,0,0:0:0:0:
391,125,20018,6,0,L|487:125,2,69.5,2|2|2,0:0|0:0|0:0,0:0:0:0:
252,15,20618,2,0,L|156:15,1,69.5,2|0,0:0|0:0,0:0:0:0:
433,158,21068,6,0,L|433:318,1,139,4|0,3:2|3:2,0:0:0:0:
294,297,21668,2,0,L|486:297,1,139,0|0,3:0|3:2,0:0:0:0:
183,101,22268,6,0,L|-9:101,2,139,4|0|0,3:2|3:2|3:0,3:3:0:0:
322,17,23168,1,0,3:2:0:0:
72,88,23468,6,0,L|72:248,1,139,4|0,3:2|0:0,0:0:0:0:
322,334,24068,2,0,L|482:334,1,139,0|0,3:0|3:0,3:3:0:0:
211,88,24668,5,0,1:0:0:0:
141,88,24818,1,0,1:0:0:0:
72,88,24968,2,0,L|264:88,1,139,0|0,1:0|3:0,0:0:0:0:
350,228,25568,1,2,2:2:0:0:
100,346,25868,6,0,L|100:154,1,139,4|0,1:2|0:0,0:0:0:0:
169,171,26318,1,0,3:0:0:0:
238,128,26468,2,0,L|29:128,1,208.5,8|0,1:2|0:0,0:0:0:0:
189,262,27068,6,0,L|285:262,1,69.5,4|0,2:3|0:0,0:0:0:0:
189,262,27368,2,0,L|93:262,1,69.5,4|0,2:3|0:0,0:0:0:0:
189,262,27668,1,8,1:2:0:0:
328,83,27968,2,0,L|424:83,1,69.5,0|0,0:0|0:0,0:0:0:0:
238,140,28268,6,0,L|78:140,1,139,4|0,2:3|0:0,0:0:0:0:
168,189,28718,1,4,0:3:0:0:
237,240,28868,2,0,L|461:240,1,208.5,8|0,1:2|0:0,0:0:0:0:
285,82,29468,6,0,L|189:82,1,69.5,4|0,0:3|0:0,0:0:0:0:
285,82,29768,2,0,L|361:82,1,69.5,4|0,0:3|0:0,0:0:0:0:
354,82,30068,1,8,1:2:0:0:
215,220,30368,2,0,L|119:220,1,69.5,4|8,0:3|1:2,0:0:0:0:
305,384,30668,6,0,L|305:288,1,69.5,4|2,1:2|0:0,0:0:0:0:
235,246,30968,2,0,L|235:150,1,69.5,2|2,0:0|0:0,0:0:0:0:
304,142,31268,2,0,L|48:142,1,208.5,8|4,1:2|0:3,0:0:0:0:
255,13,31868,6,0,L|351:13,1,69.5,4|0,0:3|0:0,0:0:0:0:
255,13,32168,2,0,L|159:13,1,69.5,4|0,0:3|0:0,0:0:0:0:
255,13,32468,1,8,1:2:0:0:
395,249,32768,2,0,L|464:249,1,69.5,2|2,0:0|0:0,0:0:0:0:
304,375,33068,6,0,L|144:375,2,139,4|2|2,1:2|0:0|0:0,0:0:0:0:
443,134,33968,2,0,L|347:134,1,69.5,4|0,0:3|0:0,0:0:0:0:
214,10,34268,6,0,L|54:10,1,139,4|0,0:3|0:0,0:0:0:0:
144,44,34718,1,8,0:0:0:0:
283,171,35018,2,0,L|283:267,1,69.5,0|8,0:0|0:0,0:0:0:0:
214,295,35318,1,2,0:0:0:0:
373,384,35468,6,0,L|373:192,1,139,2|4,0:0|2:3,0:0:0:0:
304,212,35918,1,0,0:0:0:0:
235,176,36068,2,0,L|459:176,1,208.5,8|4,1:2|0:3,0:0:0:0:
284,31,36668,6,0,L|188:31,1,69.5,4|0,0:3|0:0,0:0:0:0:
284,31,36968,2,0,L|380:31,1,69.5,4|0,0:3|0:0,0:0:0:0:
284,31,37268,1,8,1:2:0:0:
145,146,37568,2,0,L|191:146,1,46.3333333333333,0|0,0:0|0:0,0:0:0:0:
378,218,37868,6,0,L|378:378,1,139,4|0,0:3|0:0,0:0:0:0:
309,271,38318,1,4,0:3:0:0:
239,218,38468,2,0,L|378:218,1,139,8|4,1:2|0:3,0:0:0:0:
128,105,39068,5,4,0:3:0:0:
59,148,39218,1,2,0:0:0:0:
59,182,39293,1,2,0:0:0:0:
59,217,39368,1,4,0:3:0:0:
128,267,39518,1,0,0:0:0:0:
288,207,39668,2,0,L|448:207,1,139,8|4,1:2|0:3,0:0:0:0:
358,149,40118,1,10,1:2:0:0:
198,76,40268,6,0,L|38:76,2,139,4|8|4,1:2|1:2|0:3,0:0:0:0:
267,21,41018,1,0,0:0:0:0:
128,183,41318,1,8,1:2:0:0:
378,279,41618,2,0,L|378:349,1,69.5,4|8,0:3|1:2,0:0:0:0:
309,384,41918,1,0,0:0:0:0:
240,309,42068,2,0,L|80:309,1,139,4|8,0:3|1:2,0:0:0:0:
351,180,42668,6,0,L|351:20,1,139,4|0,1:2|0:0,0:0:0:0:
212,227,43268,2,0,L|212:67,1,139,0|0,0:0|0:0,0:0:0:0:
281,135,43718,1,0,0:0:0:0:
351,180,43868,5,0,0:0:0:0:
212,227,44168,1,0,0:0:0:0:
73,267,44468,2,0,L|73:107,1,139,0|0,0:0|0:0,0:0:0:0:
323,377,45068,5,4,0:3:0:0:
392,377,45218,1,0,0:0:0:0:
392,377,45368,1,0,0:0:0:0:
322,377,45518,1,0,0:0:0:0:
253,336,45668,1,0,0:0:0:0:
253,266,45818,1,4,0:3:0:0:
322,377,45968,1,8,1:2:0:0:
72,172,46268,6,0,L|72:76,1,69.5,4|0,1:2|0:0,0:0:0:0:
141,63,46568,1,4,0:3:0:0:
211,172,46718,2,0,L|19:172,1,139,0|0,0:0|0:0,0:0:0:0:
322,349,47318,6,0,L|482:349,1,139,0|0,0:0|0:0,0:0:0:0:
461,349,47768,2,0,L|333:349,1,69.5,0|4,0:0|0:3,0:0:0:0:
322,349,48068,2,0,L|418:349,1,69.5,8|0,1:2|0:0,0:0:0:0:
141,225,48518,6,0,L|141:33,1,139,0|0,0:0|0:0,0:0:0:0:
210,129,48968,1,0,3:0:0:0:
279,176,49118,2,0,L|418:176,2,139,0|0|8,0:0|0:0|1:2,0:0:0:0:
119,339,49868,6,0,L|49:339,1,69.5,4|0,1:2|0:0,0:0:0:0:
119,339,50168,2,0,L|337:339,1,208.5,0|0,0:0|0:0,0:0:0:0:
258,284,50768,1,0,0:0:0:0:
188,252,50918,1,8,1:2:0:0:
348,134,51068,6,0,L|444:134,1,69.5,4|0,1:2|0:0,0:0:0:0:
417,134,51368,1,4,0:3:0:0:
348,134,51518,2,0,L|156:134,1,139,0|0,0:0|0:0,0:0:0:0:
71,188,52118,1,8,1:2:0:0:
231,384,52268,6,0,L|391:384,1,139,4|8,1:2|1:2,0:0:0:0:
120,274,52868,1,4,1:2:0:0:
189,274,53018,2,0,L|285:274,1,69.5,8|0,1:2|0:0,0:0:0:0:
189,274,53318,6,0,L|41:274,1,139,4|8,0:3|1:2,0:0:0:0:
120,274,53768,1,0,0:0:0:0:
280,109,53918,2,0,L|440:109,1,139,4|4,0:3|2:3,0:0:0:0:
488,109,54368,2,0,L|418:109,1,69.5,8|0,1:2|0:0,0:0:0:0:
258,16,54668,1,0,0:0:0:0:
256,192,54968,12,0,57068,0:0:0:0:
336,189,59468,6,0,L|176:189,1,139,2|2,0:0|0:0,0:0:0:0:
58,189,60068,2,0,L|218:189,1,139,2|2,0:0|0:0,0:0:0:0:
336,189,60668,2,0,L|336:119,1,69.5,0|2,0:0|0:0,0:0:0:0:
266,78,60968,2,0,L|458:78,2,139,2|2|2,0:0|0:0|0:0,0:0:0:0:
127,273,61868,6,0,L|31:273,2,69.5,2|0|2,0:0|0:0|0:0,0:0:0:0:
266,348,62468,2,0,L|266:188,1,139,2|2,0:0|0:0,0:0:0:0:
197,179,62918,1,2,0:0:0:0:
336,118,63218,1,2,0:0:0:0:
475,241,63518,1,2,0:0:0:0:
406,285,63668,2,0,L|214:285,1,139,2|2,0:0|0:0,0:0:0:0:
17,206,64268,6,0,L|17:14,1,139,4|0,0:2|3:0,0:0:0:0:
86,99,64718,2,0,L|246:99,1,139,0|0,3:0|3:0,0:0:0:0:
156,49,65168,1,0,3:0:0:0:
406,138,65468,6,0,L|406:330,1,139,0|0,3:0|3:0,0:0:0:0:
337,322,65918,1,0,3:0:0:0:
267,277,66068,2,0,L|427:277,1,139,0|0,3:0|3:0,0:0:0:0:
156,98,66668,6,0,L|60:98,2,69.5,2|0|0,3:2|3:0|3:0,0:0:0:0:
225,184,67118,2,0,L|321:184,2,69.5,2|0|0,3:2|3:0|3:0,0:0:0:0:
156,98,67568,1,2,3:2:0:0:
406,271,67868,6,0,L|406:399,1,69.5,2|0,3:2|3:0,0:0:0:0:
337,384,68168,2,0,L|249:384,1,69.5,2|0,3:2|3:0,0:0:0:0:
107,258,68468,1,2,0:0:0:0:
107,258,69068,6,0,L|267:258,1,139,4|0,1:2|3:0,0:0:0:0:
107,128,69668,2,0,L|299:128,1,139,4|0,1:2|3:0,0:0:0:0:
496,174,70268,2,0,L|336:174,1,139,4|0,1:2|3:0,0:0:0:0:
496,44,70868,2,0,L|304:44,1,139,4|0,1:2|3:0,0:0:0:0:
107,161,71468,6,0,L|107:257,1,69.5,0|0,1:3|3:0,3:3:0:0:
176,272,71768,1,0,1:3:0:0:
426,76,72068,2,0,L|234:76,1,139,0|0,1:3|1:3,3:3:0:0:
218,10,72518,1,0,3:0:0:0:
378,182,72668,6,0,L|378:374,1,139,0|8,1:2|3:0,3:3:0:0:
309,359,73118,1,8,3:0:0:0:
240,384,73268,1,4,3:0:0:0:
476,141,73568,1,2,3:2:0:0:
240,24,73868,6,0,L|48:24,1,139,4|8,3:2|0:0,0:0:0:0:
171,81,74318,1,0,0:0:0:0:
240,163,74468,2,0,L|240:24,1,139,4|8,1:3|0:0,0:0:0:0:
309,53,74918,1,0,0:0:0:0:
469,165,75068,6,0,L|469:293,1,104.25,4|0,1:3|0:0,0:0:0:0:
261,315,75518,1,0,0:0:0:0:
192,208,75668,2,0,L|352:208,1,139,4|8,1:3|0:0,0:0:0:0:
262,149,76118,1,0,0:0:0:0:
192,69,76268,6,0,L|192:229,1,139,4|8,1:3|0:0,0:0:0:0:
331,301,76868,2,0,L|410:301,2,69.5,4|0|8,1:3|0:0|0:0,0:0:0:0:
53,158,77468,6,0,L|181:158,2,104.25,4|4|4,1:3|0:3|0:3,0:0:0:0:
122,254,78068,2,0,L|282:254,1,139,4|8,1:3|0:0,0:0:0:0:
227,223,78443,1,0,3:0:0:0:
192,198,78518,1,0,3:0:0:0:
351,55,78668,6,0,L|490:55,1,139,4|8,1:3|2:0,0:0:0:0:
421,101,79118,1,0,0:0:0:0:
351,55,79268,2,0,L|351:215,1,139,4|8,1:3|0:0,0:0:0:0:
282,217,79718,1,0,0:0:0:0:
122,311,79868,6,0,L|17:311,1,104.25,4|0,1:3|0:0,0:0:0:0:
225,142,80318,1,0,0:0:0:0:
294,92,80468,2,0,L|134:92,1,139,4|8,1:3|2:2,0:0:0:0:
86,34,80918,1,0,0:0:0:0:
155,92,81068,6,0,L|155:252,1,139,4|8,1:3|0:0,0:0:0:0:
294,333,81668,2,0,L|363:333,1,69.5,4|0,1:3|2:0,0:0:0:0:
433,263,81968,1,8,0:0:0:0:
183,242,82268,5,4,0:0:0:0:
287,205,82493,1,0,0:0:0:0:
391,169,82718,1,4,2:3:0:0:
322,98,82868,2,0,L|162:98,1,139,0|8,0:0|0:0,0:0:0:0:
252,36,83318,1,4,0:3:0:0:
391,138,83618,6,0,L|391:234,1,69.5,4|8,1:3|2:2,0:0:0:0:
252,338,84068,2,0,L|92:338,1,139,4|8,1:3|0:0,0:0:0:0:
182,283,84518,1,0,0:0:0:0:
342,186,84668,6,0,L|470:186,1,104.25,4|0,1:3|0:0,0:0:0:0:
238,68,85118,1,0,0:0:0:0:
238,68,85268,2,0,L|398:68,1,139,4|8,1:3|0:0,0:0:0:0:
331,107,85668,1,0,0:0:0:0:
146,231,85868,6,0,L|146:423,1,139,4|8,1:3|0:0,0:0:0:0:
285,323,86468,2,0,L|381:323,1,69.5,4|0,1:3|0:0,0:0:0:0:
424,261,86768,1,8,0:0:0:0:
174,91,87068,6,0,L|46:91,2,104.25,4|0|0,1:3|0:0|0:0,0:0:0:0:
244,140,87668,2,0,L|244:300,1,139,4|8,1:3|0:0,0:0:0:0:
209,298,88043,1,0,3:0:0:0:
175,314,88118,1,0,3:0:0:0:
334,220,88268,6,0,L|473:220,1,139,4|8,1:2|0:0,0:0:0:0:
404,169,88718,1,0,0:0:0:0:
334,220,88868,2,0,L|174:220,1,139,4|8,1:3|0:0,0:0:0:0:
264,275,89318,1,0,3:0:0:0:
424,384,89468,6,0,L|424:256,1,104.25,4|0,1:2|0:0,0:0:0:0:
216,163,89918,1,0,0:0:0:0:
146,110,90068,2,0,L|306:110,1,139,4|8,1:3|0:0,0:0:0:0:
354,110,90518,1,0,0:0:0:0:
194,291,90668,6,0,L|34:291,1,139,4|8,1:2|0:0,0:0:0:0:
194,291,91268,2,0,L|354:291,1,139,4|8,1:2|0:0,0:0:0:0:
83,199,91868,6,0,L|83:119,1,69.5,4|0,1:2|3:2,0:0:0:0:
152,115,92168,2,0,L|152:19,1,69.5,8|0,3:2|3:2,0:0:0:0:
221,163,92468,2,0,L|381:163,1,139,8|8,0:3|0:3,0:0:0:0:
110,384,93068,1,4,0:0:0:0:
149,180,97868,6,0,L|291:180,1,139,4|0,1:2|3:0,0:0:0:0:
427,316,98468,2,0,L|334:316,1,69.5,4|0,1:2|3:0,0:0:0:0:
288,316,98768,1,0,3:0:0:0:
38,210,99068,6,0,L|38:132,1,69.5,4|0,1:2|3:0,0:0:0:0:
177,58,99518,2,0,L|49:58,1,69.5,0|4,3:0|1:2,0:0:0:0:
38,58,99818,1,0,3:0:0:0:
371,183,100268,6,0,L|371:343,1,139,8|8,1:2|1:2,0:0:0:0:
121,265,100868,2,0,L|313:265,1,139,8|8,1:2|1:2,3:3:0:0:
420,99,101318,1,4,3:0:0:0:
454,99,101393,1,0,3:0:0:0:
489,99,101468,6,0,L|361:99,1,104.25,8|8,1:2|1:2,0:0:0:0:
280,221,101918,2,0,L|384:221,1,104.25,8|8,1:2|1:2,0:0:0:0:
197,349,102368,2,0,L|101:349,2,69.5,8|2|0,1:2|3:2|3:0,3:3:0:0:
447,244,102968,6,0,L|447:148,1,69.5,12|4,1:2|1:3,0:0:0:0:
378,139,103268,1,4,0:3:0:0:
239,47,103568,2,0,L|308:47,1,69.5,8|0,0:0|0:0,0:0:0:0:
169,200,104018,6,0,L|9:200,2,139,0|0|0,0:0|0:0|0:0,0:0:0:0:
238,253,104768,1,8,0:0:0:0:
397,178,104918,6,0,L|397:18,1,139,0|0,0:0|0:0,0:0:0:0:
328,90,105368,2,0,L|232:90,1,69.5,8|0,0:0|0:0,0:0:0:0:
328,90,105668,2,0,L|328:172,1,69.5,4|0,1:3|0:0,0:0:0:0:
189,328,106118,6,0,L|332:328,1,139,2|0,0:0|0:0,0:0:0:0:
189,328,106718,2,0,L|26:328,1,139,2|0,0:0|0:0,0:0:0:0:
119,286,107168,1,8,0:0:0:0:
368,62,107468,6,0,L|208:62,1,139,4|8,1:2|0:0,0:0:0:0:
90,141,108068,2,0,L|90:237,1,69.5,4|0,1:3|0:0,0:0:0:0:
159,264,108368,2,0,L|255:264,1,69.5,8|4,0:0|0:3,0:0:0:0:
389,384,108668,5,4,1:2:0:0:
459,336,108818,2,0,L|459:176,1,139,0|0,0:0|0:0,0:0:0:0:
320,99,109418,2,0,L|480:99,1,139,0|4,0:0|0:3,0:0:0:0:
299,333,109868,6,0,L|139:333,1,139,4|8,1:2|0:0,0:0:0:0:
299,333,110468,2,0,L|299:173,1,139,4|8,1:2|0:0,0:0:0:0:
229,149,110918,6,0,L|389:149,1,139,4|0,0:3|0:0,0:0:0:0:
368,149,111368,1,8,0:0:0:0:
209,33,111518,2,0,L|49:33,1,139,0|8,0:0|0:3,0:0:0:0:
139,81,111968,1,4,2:3:0:0:
389,283,112268,5,4,0:0:0:0:
250,176,112568,2,0,L|154:176,1,69.5,8|0,0:0|0:0,0:0:0:0:
250,176,112868,2,0,L|410:176,1,139,4|8,1:3|0:0,0:0:0:0:
458,123,113318,1,0,0:0:0:0:
298,28,113468,6,0,L|138:28,1,139,4|8,1:3|0:0,0:0:0:0:
159,28,113918,1,0,0:0:0:0:
228,121,114068,2,0,L|388:121,1,139,4|8,1:3|0:0,0:0:0:0:
298,172,114518,1,0,0:0:0:0:
138,236,114668,6,0,L|138:375,1,139,4|8,1:3|0:0,0:0:0:0:
277,136,115268,2,0,L|277:296,1,139,4|8,1:3|0:0,0:0:0:0:
207,222,115718,1,0,0:0:0:0:
47,152,115868,6,0,L|47:56,1,69.5,4|0,1:3|0:0,0:0:0:0:
117,37,116168,2,0,L|277:37,1,139,8|4,0:0|1:3,0:0:0:0:
187,86,116618,1,0,0:0:0:0:
117,37,116768,1,8,0:0:0:0:
367,185,117068,5,4,1:2:0:0:
228,380,117368,2,0,L|228:284,1,69.5,8|0,0:0|0:0,0:0:0:0:
298,274,117668,2,0,L|138:274,1,139,4|4,1:3|2:3,0:0:0:0:
319,149,118118,6,0,L|479:149,1,139,8|4,0:0|0:3,0:0:0:0:
389,99,118568,1,8,0:0:0:0:
319,149,118718,2,0,L|159:149,1,139,0|0,0:0|0:0,0:0:0:0:
319,320,119318,1,0,3:0:0:0:
479,382,119468,6,0,L|479:222,1,139,4|8,0:0|0:0,0:0:0:0:
340,165,120068,2,0,L|244:165,2,69.5,0|8|0,0:0|0:0|0:0,0:0:0:0:
409,85,120518,2,0,L|249:85,1,139,8|4,0:0|0:3,0:0:0:0:
20,11,121118,6,0,L|20:363,1,347.5,8|0,0:0|0:0,0:0:0:0:
