osu file format v14

[General]
AudioFilename: Xp.mp3
AudioLeadIn: 0
PreviewTime: 73869
Countdown: 0
SampleSet: Soft
StackLeniency: 0.7
Mode: 3
LetterboxInBreaks: 0
SpecialStyle: 0
WidescreenStoryboard: 0

[Editor]
Bookmarks: 6669,11469,16269,18669,19869,21069,25869,33069,35769,42369,45069,54669,64269,69069,73869,90369,93069,97869,102369,111669,119469
DistanceSpacing: 0.8
BeatDivisor: 8
GridSize: 16
TimelineZoom: 1.6

[Metadata]
Title:Xperanza
TitleUnicode:Xperanza
Artist:aran
ArtistUnicode:aran
Creator:-MysticEyes
Version:Xtravaganza
Source:beatmania IIDX 25 CANNON BALLERS
Tags:LN Hybrid Hardcore Konami
BeatmapID:1654130
BeatmapSetID:788120

[Difficulty]
HPDrainRate:8.5
CircleSize:4
OverallDifficulty:8
ApproachRate:5
SliderMultiplier:1.4
SliderTickRate:1

[Events]
//Background and Video events
0,0,"xperanza.jpg",0,0
//Break Periods
//Storyboard Layer 0 (Background)
//Storyboard Layer 1 (Fail)
//Storyboard Layer 2 (Pass)
//Storyboard Layer 3 (Foreground)
//Storyboard Sound Samples
Sample,18819,0,"HHClose.wav",75
Sample,19119,0,"HHClose.wav",75
Sample,19419,0,"HHClose.wav",75
Sample,19719,0,"HHClose.wav",75

[TimingPoints]
1869,300,4,2,1,60,1,0
30669,-76.9230769230769,4,2,1,60,0,0
30744,-142.857142857143,4,2,1,60,0,0
30819,-76.9230769230769,4,2,1,60,0,0
30894,-142.857142857143,4,2,1,60,0,0
30969,-76.9230769230769,4,2,1,60,0,0
31044,-142.857142857143,4,2,1,60,0,0
31119,-76.9230769230769,4,2,1,60,0,0
31194,-142.857142857143,4,2,1,60,0,0
31269,-100,4,2,1,60,0,0
68469,-66.6666666666667,4,2,1,60,0,0
68519,-200,4,2,1,60,0,0
68569,-66.6666666666667,4,2,1,60,0,0
68619,-200,4,2,1,60,0,0
68669,-66.6666666666667,4,2,1,60,0,0
68719,-200,4,2,1,60,0,0
68769,-66.6666666666667,4,2,1,60,0,0
68819,-200,4,2,1,60,0,0
68869,-66.6666666666667,4,2,1,60,0,0
68919,-200,4,2,1,60,0,0
68969,-66.6666666666667,4,2,1,60,0,0
69019,-200,4,2,1,60,0,0
69069,-100,4,2,1,60,0,0
73869,-100,4,2,1,60,0,1
93069,-100,4,2,1,60,0,0
101469,-71.4285714285714,4,2,1,60,0,0
101582,-166.666666666667,4,2,1,60,0,0
101694,-71.4285714285714,4,2,1,60,0,0
101807,-166.666666666667,4,2,1,60,0,0
101919,-71.4285714285714,4,2,1,60,0,0
102032,-166.666666666667,4,2,1,60,0,0
102144,-100,4,2,1,60,0,0
102969,-100,4,2,1,60,0,1
111069,-100,4,2,1,60,0,0
112269,-100,4,2,1,60,0,1
121119,-100,4,2,1,60,0,0

[HitObjects]
64,192,1869,5,8,0:0:0:0:
320,192,1869,1,4,2:0:0:0:
448,192,1869,1,0,0:0:0:60:sSoft.wav
192,192,2019,1,0,0:0:0:60:sSoft.wav
320,192,2169,1,0,0:0:0:60:sSoft.wav
320,192,2319,1,0,0:0:0:60:sSoft.wav
448,192,2469,1,0,0:0:0:60:sSoft.wav
192,192,2619,1,0,0:0:0:60:sSoft.wav
192,192,2769,1,0,0:0:0:60:sSoft.wav
192,192,2919,1,0,0:0:0:60:sSoft.wav
64,192,3069,1,8,0:0:0:0:
320,192,3069,1,0,0:0:0:60:sSoft.wav
448,192,3219,1,0,0:0:0:60:sSoft.wav
448,192,3369,1,0,0:0:0:60:sSoft.wav
192,192,3519,1,0,0:0:0:60:sSoft.wav
192,192,3669,1,0,0:0:0:60:sSoft.wav
320,192,3819,1,0,0:0:0:60:sSoft.wav
320,192,3969,1,0,0:0:0:60:sSoft.wav
64,192,4119,1,0,0:0:0:60:sSoft.wav
64,192,4269,1,8,0:0:0:0:
448,192,4269,1,0,0:0:0:60:sSoft.wav
192,192,4419,1,0,0:0:0:60:sSoft.wav
320,192,4569,1,0,0:0:0:60:sSoft.wav
448,192,4719,1,0,0:0:0:60:sSoft.wav
192,192,4869,1,0,0:0:0:60:sSoft.wav
320,192,5019,1,0,0:0:0:60:sSoft.wav
64,192,5169,1,0,0:0:0:60:sSoft.wav
320,192,5319,1,0,0:0:0:60:sSoft.wav
64,192,5469,1,8,0:0:0:0:
320,192,5469,1,0,0:0:0:60:sSoft.wav
192,192,5619,1,0,0:0:0:60:sSoft.wav
64,192,5769,1,0,0:0:0:60:sSoft.wav
448,192,5919,1,0,0:0:0:60:sSoft.wav
448,192,6069,1,0,0:0:0:60:sSoft.wav
192,192,6219,1,0,0:0:0:60:sSoft.wav
192,192,6369,1,0,0:0:0:60:sSoft.wav
64,192,6519,1,0,0:0:0:60:sSoft.wav
320,192,6669,1,8,0:0:0:0:
448,192,6669,1,0,0:0:0:60:sSoft.wav
192,192,6819,1,0,0:0:0:60:sSoft.wav
64,192,6969,1,0,0:0:0:60:sSoft.wav
320,192,6969,1,0,0:0:0:0:
320,192,7119,1,0,0:0:0:60:sSoft.wav
192,192,7269,1,0,0:0:0:60:sSoft.wav
320,192,7419,1,0,0:0:0:60:sSoft.wav
448,192,7419,1,0,0:0:0:0:
64,192,7569,1,0,0:0:0:60:sSoft.wav
320,192,7569,1,0,0:0:0:0:
192,192,7719,1,0,0:0:0:60:sSoft.wav
320,192,7719,1,0,0:0:0:0:
64,192,7869,1,8,0:0:0:0:
192,192,8019,1,0,0:0:0:70:sSoft.wav
448,192,8019,1,0,0:0:0:0:
192,192,8169,1,0,0:0:0:70:sSoft.wav
64,192,8319,1,0,0:0:0:70:sSoft.wav
448,192,8319,1,0,0:0:0:0:
448,192,8469,1,0,0:0:0:70:sSoft.wav
64,192,8619,1,0,0:0:0:70:sSoft.wav
192,192,8619,1,0,0:0:0:0:
64,192,8769,1,0,0:0:0:70:sSoft.wav
448,192,8919,1,0,0:0:0:70:sSoft.wav
64,192,9069,1,8,0:0:0:0:
320,192,9069,1,0,0:0:0:70:sSoft.wav
320,192,9219,1,0,0:0:0:70:sSoft.wav
64,192,9369,1,0,0:0:0:70:sSoft.wav
448,192,9369,1,0,0:0:0:0:
64,192,9519,1,0,0:0:0:60:sSoft.wav
192,192,9669,1,0,0:0:0:60:sSoft.wav
448,192,9669,1,0,0:0:0:0:
448,192,9819,1,0,0:0:0:60:sSoft.wav
64,192,9969,1,0,0:0:0:60:sSoft.wav
192,192,9969,1,0,0:0:0:0:
64,192,10119,1,0,0:0:0:60:sSoft.wav
320,192,10119,1,0,0:0:0:0:
448,192,10269,1,8,0:0:0:0:
64,192,10419,1,0,0:0:0:60:sSoft.wav
192,192,10419,1,0,0:0:0:0:
192,192,10569,1,0,0:0:0:60:sSoft.wav
320,192,10569,1,0,0:0:0:0:
192,192,10719,1,0,0:0:0:60:sSoft.wav
448,192,10719,1,0,0:0:0:0:
64,192,10869,1,8,0:0:0:0:
192,192,11019,1,0,0:0:0:60:sSoft.wav
448,192,11019,1,0,0:0:0:0:
64,192,11169,128,0,11469:0:0:0:60:sSoft.wav
192,192,11469,1,4,0:0:0:0:
320,192,11469,1,8,0:0:0:0:
448,192,11469,128,0,11769:0:0:0:60:sSoft.wav
64,192,11619,1,0,0:0:0:60:sSoft.wav
192,192,11769,1,0,0:0:0:60:sSoft.wav
320,192,11919,1,0,0:0:0:60:sSoft.wav
448,192,12069,128,0,12369:0:0:0:60:sSoft.wav
64,192,12219,1,0,0:0:0:60:sSoft.wav
64,192,12369,1,0,0:0:0:60:sSoft.wav
64,192,12519,1,0,0:0:0:60:sSoft.wav
192,192,12669,128,0,12969:0:0:0:60:sSoft.wav
448,192,12819,1,0,0:0:0:60:sSoft.wav
64,192,12969,1,0,0:0:0:60:sSoft.wav
320,192,13119,1,0,0:0:0:60:sSoft.wav
192,192,13269,128,0,13569:0:0:0:60:sSoft.wav
448,192,13419,1,0,0:0:0:60:sSoft.wav
320,192,13569,1,0,0:0:0:60:sSoft.wav
64,192,13719,1,0,0:0:0:60:sSoft.wav
192,192,13869,1,8,0:0:0:0:
320,192,13869,1,4,0:0:0:0:
448,192,13869,1,0,0:0:0:60:sSoft.wav
64,192,14019,1,0,0:0:0:60:sSoft.wav
320,192,14169,1,0,0:0:0:60:sSoft.wav
192,192,14319,1,0,0:0:0:60:sSoft.wav
448,192,14469,1,0,0:0:0:60:sSoft.wav
320,192,14619,1,0,0:0:0:60:sSoft.wav
192,192,14769,1,0,0:0:0:60:sSoft.wav
320,192,14919,1,0,0:0:0:60:sSoft.wav
64,192,15069,1,0,0:0:0:60:sSoft.wav
320,192,15219,1,0,0:0:0:60:sSoft.wav
192,192,15369,1,0,0:0:0:60:sSoft.wav
320,192,15519,1,0,0:0:0:60:sSoft.wav
448,192,15669,1,0,0:0:0:60:sSoft.wav
64,192,15819,1,0,0:0:0:60:sSoft.wav
320,192,15819,128,0,15969:0:0:0:0:
64,192,15969,1,8,0:0:0:0:
192,192,15969,1,4,0:0:0:0:
448,192,15969,1,0,0:0:0:60:sSoft.wav
64,192,16269,1,4,0:0:0:0:
320,192,16269,1,8,0:0:0:0:
448,192,16269,1,0,0:0:0:75:HHClose.wav
192,192,16419,1,0,0:0:0:75:HHClose.wav
448,192,16419,1,0,0:0:0:0:
64,192,16569,1,0,0:0:0:75:HHClose.wav
320,192,16569,1,0,0:0:0:0:
192,192,16719,1,0,0:0:0:75:HHClose.wav
448,192,16719,1,0,0:0:0:0:
64,192,16869,1,4,0:0:0:0:
192,192,16869,1,8,0:0:0:0:
320,192,16869,1,0,0:0:0:75:HHClose.wav
64,192,17019,1,0,0:0:0:75:HHClose.wav
448,192,17019,1,0,0:0:0:0:
192,192,17169,1,0,0:0:0:75:HHClose.wav
448,192,17169,1,0,0:0:0:0:
64,192,17319,1,0,0:0:0:75:HHClose.wav
448,192,17319,1,0,0:0:0:0:
64,192,17469,1,4,0:0:0:0:
192,192,17469,1,8,0:0:0:0:
320,192,17469,1,0,0:0:0:75:HHClose.wav
192,192,17619,1,0,0:0:0:75:HHClose.wav
448,192,17619,1,0,0:0:0:0:
64,192,17769,1,0,0:0:0:75:HHClose.wav
320,192,17769,1,0,0:0:0:0:
192,192,17919,1,0,0:0:0:75:HHClose.wav
448,192,17919,1,0,0:0:0:0:
64,192,18069,1,8,0:0:0:0:
320,192,18069,1,4,0:0:0:0:
448,192,18069,1,0,0:0:0:75:HHClose.wav
64,192,18219,1,0,0:0:0:75:HHClose.wav
192,192,18219,1,0,0:0:0:0:
320,192,18369,1,0,0:0:0:75:HHClose.wav
448,192,18369,1,0,0:0:0:0:
64,192,18519,1,0,0:0:0:75:HHClose.wav
192,192,18519,1,0,0:0:0:0:
64,192,18669,1,4,0:0:0:0:
192,192,18669,1,8,0:0:0:0:
448,192,18669,1,0,0:0:0:75:HHClose.wav
320,192,18744,1,8,0:0:0:0:
448,192,18819,1,8,0:0:0:0:
192,192,18894,1,8,0:0:0:0:
64,192,18969,1,4,0:0:0:0:
320,192,18969,1,8,0:0:0:0:
448,192,18969,1,0,0:0:0:75:HHClose.wav
192,192,19044,1,8,0:0:0:0:
64,192,19119,1,8,0:0:0:0:
320,192,19194,1,8,0:0:0:0:
64,192,19269,1,4,0:0:0:0:
192,192,19269,1,8,0:0:0:0:
448,192,19269,1,0,0:0:0:75:HHClose.wav
320,192,19344,1,8,0:0:0:0:
192,192,19419,1,8,0:0:0:0:
448,192,19494,1,8,0:0:0:0:
64,192,19569,1,4,0:0:0:0:
192,192,19569,1,8,0:0:0:0:
320,192,19569,1,0,0:0:0:75:HHClose.wav
448,192,19644,1,8,0:0:0:0:
320,192,19719,1,8,0:0:0:0:
192,192,19794,1,8,0:0:0:0:
64,192,19869,1,4,0:0:0:0:
320,192,19869,1,8,0:0:0:0:
448,192,19869,1,0,0:0:0:75:HHClose.wav
192,192,20019,1,0,0:0:0:75:HHClose.wav
448,192,20019,128,0,20169:0:0:0:0:
192,192,20169,1,0,0:0:0:75:HHClose.wav
320,192,20169,128,0,20319:0:0:0:0:
192,192,20319,1,0,0:0:0:75:HHClose.wav
448,192,20319,128,0,20469:0:0:0:0:
64,192,20469,128,0,20619:0:0:0:75:HHClose.wav
192,192,20619,1,0,0:0:0:75:HHClose.wav
320,192,20619,128,0,20769:0:0:0:0:
64,192,20769,1,8,0:0:0:0:
448,192,20769,128,0,21069:0:0:0:0:
64,192,20919,1,0,0:0:0:0:
64,192,21069,1,4,0:0:0:0:
192,192,21069,1,8,0:0:0:0:
320,192,21069,1,0,0:0:0:0:
320,192,21219,1,8,0:0:0:0:
448,192,21219,1,0,0:0:0:0:
64,192,21294,1,8,0:0:0:0:
192,192,21369,1,8,0:0:0:0:
320,192,21369,1,0,0:0:0:0:
448,192,21444,1,8,0:0:0:0:
64,192,21519,1,8,0:0:0:0:
192,192,21519,1,0,0:0:0:0:
320,192,21594,1,8,0:0:0:0:
64,192,21669,1,8,0:0:0:0:
448,192,21669,1,0,0:0:0:0:
192,192,21744,1,8,0:0:0:0:
320,192,21819,1,8,0:0:0:0:
448,192,21819,1,0,0:0:0:0:
64,192,21894,1,8,0:0:0:0:
192,192,21969,1,8,0:0:0:0:
320,192,21969,1,0,0:0:0:0:
448,192,22044,1,8,0:0:0:0:
64,192,22119,1,8,0:0:0:0:
192,192,22119,1,0,0:0:0:0:
320,192,22194,1,8,0:0:0:0:
64,192,22269,1,8,0:0:0:0:
192,192,22269,1,4,0:0:0:0:
448,192,22269,1,0,0:0:0:0:
320,192,22419,1,8,0:0:0:0:
448,192,22419,1,0,0:0:0:0:
192,192,22494,1,8,0:0:0:0:
64,192,22569,1,8,0:0:0:0:
448,192,22569,1,0,0:0:0:0:
320,192,22644,1,8,0:0:0:0:
64,192,22719,1,8,0:0:0:0:
192,192,22719,1,0,0:0:0:0:
448,192,22794,1,8,0:0:0:0:
192,192,22869,1,8,0:0:0:0:
320,192,22869,1,0,0:0:0:0:
64,192,22944,1,8,0:0:0:0:
320,192,23019,1,8,0:0:0:0:
448,192,23019,1,0,0:0:0:0:
192,192,23094,1,8,0:0:0:0:
64,192,23169,1,8,0:0:0:0:
448,192,23169,1,0,0:0:0:0:
320,192,23244,1,8,0:0:0:0:
64,192,23319,1,8,0:0:0:0:
192,192,23319,1,0,0:0:0:0:
448,192,23394,1,0,0:0:0:0:
64,192,23469,1,4,0:0:0:0:
192,192,23469,1,8,0:0:0:0:
320,192,23469,1,0,0:0:0:0:
192,192,23619,1,0,0:0:0:90:Burst.wav
448,192,23619,1,0,0:0:0:0:
320,192,23694,1,0,0:0:0:90:Burst.wav
64,192,23769,1,0,0:0:0:90:Burst.wav
192,192,23769,1,0,0:0:0:0:
448,192,23844,1,0,0:0:0:90:Burst.wav
64,192,23919,1,0,0:0:0:90:Burst.wav
320,192,23919,1,0,0:0:0:0:
192,192,23994,1,0,0:0:0:90:Burst.wav
64,192,24069,1,4,0:0:0:0:
320,192,24069,1,8,0:0:0:0:
448,192,24069,1,0,0:0:0:90:Burst.wav
192,192,24144,1,0,0:0:0:90:Burst.wav
320,192,24219,1,0,0:0:0:90:Burst.wav
448,192,24219,1,0,0:0:0:0:
64,192,24294,1,0,0:0:0:90:Burst.wav
192,192,24369,1,0,0:0:0:90:Burst.wav
448,192,24369,1,0,0:0:0:0:
64,192,24444,1,0,0:0:0:90:Burst.wav
192,192,24519,1,0,0:0:0:90:Burst.wav
320,192,24519,1,0,0:0:0:0:
448,192,24594,1,0,0:0:0:90:Burst.wav
64,192,24669,1,4,0:0:0:0:
192,192,24669,1,8,0:0:0:0:
320,192,24669,1,0,0:0:0:90:Burst.wav
320,192,24819,1,8,0:0:0:0:
448,192,24819,1,0,0:0:0:90:Burst.wav
64,192,24894,1,8,0:0:0:0:
320,192,24969,1,8,0:0:0:0:
448,192,24969,1,0,0:0:0:90:Burst.wav
64,192,25044,1,8,0:0:0:0:
320,192,25119,1,8,0:0:0:0:
448,192,25119,1,0,0:0:0:90:Burst.wav
192,192,25194,1,8,0:0:0:0:
320,192,25269,1,8,0:0:0:0:
448,192,25269,1,0,0:0:0:90:Burst.wav
64,192,25344,1,8,0:0:0:0:
192,192,25344,1,0,0:0:0:90:Burst.wav
320,192,25419,1,8,0:0:0:0:
448,192,25419,1,0,0:0:0:90:Burst.wav
64,192,25494,1,8,0:0:0:0:
192,192,25494,1,0,0:0:0:90:Burst.wav
320,192,25569,128,0,25869:0:0:0:0:
448,192,25569,128,0,25869:0:0:0:0:
64,192,25869,128,8,25944:0:0:0:0:
192,192,25869,128,0,26319:0:0:0:0:
320,192,26169,128,0,26244:0:0:0:0:
64,192,26319,1,8,0:0:0:0:
448,192,26319,1,0,0:0:0:0:
64,192,26469,128,2,26544:0:0:0:0:
320,192,26469,1,0,0:0:0:0:
448,192,26469,128,0,26919:0:0:0:0:
320,192,26769,128,0,26844:0:0:0:0:
192,192,26919,1,8,0:0:0:0:
64,192,26919,1,0,0:0:0:0:
320,192,26994,1,0,0:0:0:60:sSoft.wav
64,192,27069,128,8,27294:0:0:0:0:
448,192,27069,128,0,27144:0:0:0:0:
448,192,27219,128,0,27294:0:0:0:0:
192,192,27369,128,8,27444:0:0:0:0:
320,192,27369,128,0,27594:0:0:0:0:
192,192,27519,128,0,27594:0:0:0:0:
320,192,27669,1,0,0:0:0:0:
448,192,27669,128,2,27894:0:0:0:0:
64,192,27669,128,0,27744:0:0:0:0:
64,192,27819,128,0,27894:0:0:0:0:
192,192,27969,128,0,28044:0:0:0:0:
192,192,28119,128,0,28194:0:0:0:0:
64,192,28269,1,8,0:0:0:0:
320,192,28269,1,0,0:0:0:0:
448,192,28419,128,0,28494:0:0:0:0:
320,192,28494,1,0,0:0:0:60:sSoft.wav
192,192,28569,128,0,28644:0:0:0:0:
64,192,28719,1,8,0:0:0:0:
448,192,28719,1,0,0:0:0:0:
64,192,28869,128,2,29169:0:0:0:0:
320,192,28869,128,0,29169:0:0:0:0:
448,192,28869,1,0,0:0:0:0:
448,192,29169,128,0,29319:0:0:0:0:
192,192,29319,1,8,0:0:0:0:
320,192,29319,128,0,29469:0:0:0:0:
64,192,29394,1,0,0:0:0:60:sSoft.wav
192,192,29469,128,8,29544:0:0:0:0:
448,192,29469,128,0,29694:0:0:0:0:
192,192,29619,128,0,29694:0:0:0:0:
64,192,29769,128,8,29844:0:0:0:0:
320,192,29769,128,0,29994:0:0:0:0:
64,192,29919,128,0,29994:0:0:0:0:
64,192,30069,1,2,0:0:0:0:
192,192,30069,1,0,0:0:0:0:
448,192,30069,128,0,30144:0:0:0:0:
320,192,30219,128,0,30294:0:0:0:0:
192,192,30369,128,8,30444:0:0:0:0:
448,192,30369,128,0,30519:0:0:0:0:
64,192,30444,1,0,0:0:0:60:sSoft.wav
192,192,30519,1,2,0:0:0:0:
320,192,30519,128,0,30594:0:0:0:0:
64,192,30669,1,4,0:0:0:0:
448,192,30669,1,8,0:0:0:0:
192,192,30819,1,0,0:0:0:0:
192,192,30969,1,0,0:0:0:0:
320,192,31119,1,8,0:0:0:0:
192,192,31119,1,0,0:0:0:0:
64,192,31269,128,2,31569:0:0:0:0:
192,192,31269,128,0,31569:0:0:0:0:
448,192,31269,1,0,0:0:0:0:
320,192,31419,1,0,0:0:0:0:
320,192,31569,1,0,0:0:0:0:
448,192,31719,1,8,0:0:0:0:
320,192,31719,1,0,0:0:0:0:
192,192,31794,1,0,0:0:0:60:sSoft.wav
448,192,31869,128,8,32094:0:0:0:0:
64,192,31869,128,0,31944:0:0:0:0:
64,192,32019,128,0,32094:0:0:0:0:
192,192,32169,128,8,32244:0:0:0:0:
320,192,32169,128,0,32394:0:0:0:0:
192,192,32319,128,0,32394:0:0:0:0:
320,192,32469,1,2,0:0:0:0:
64,192,32469,128,0,32694:0:0:0:0:
448,192,32469,128,0,32544:0:0:0:0:
448,192,32619,128,0,32694:0:0:0:0:
192,192,32769,128,0,32844:0:0:0:0:
192,192,32919,128,0,32994:0:0:0:0:
64,192,32994,1,0,0:0:0:60:sSoft.wav
320,192,33069,1,4,0:0:0:0:
448,192,33069,1,8,0:0:0:0:
64,192,33219,1,0,0:0:0:60:sSoft.wav
192,192,33294,1,0,0:0:0:60:sSoft.wav
64,192,33369,1,0,0:0:0:60:sSoft.wav
448,192,33519,1,0,0:0:0:60:sSoft.wav
320,192,33669,1,0,0:0:0:60:sSoft.wav
192,192,33744,1,0,0:0:0:60:sSoft.wav
320,192,33819,1,0,0:0:0:60:sSoft.wav
64,192,33969,1,4,0:0:0:0:
192,192,33969,1,8,0:0:0:0:
448,192,34119,1,0,0:0:0:60:sSoft.wav
64,192,34269,1,4,0:0:0:0:
320,192,34269,1,8,0:0:0:0:
192,192,34419,1,0,0:0:0:60:sSoft.wav
64,192,34569,1,0,0:0:0:60:sSoft.wav
192,192,34719,1,2,0:0:0:0:
320,192,34719,1,0,0:0:0:60:sSoft.wav
448,192,34719,1,0,0:0:0:0:
64,192,34869,1,0,0:0:0:60:sSoft.wav
320,192,35019,1,0,0:0:0:60:sSoft.wav
64,192,35169,128,2,35319:0:0:0:0:
320,192,35169,1,0,0:0:0:60:sSoft.wav
448,192,35169,1,0,0:0:0:0:
192,192,35244,128,0,35319:0:0:0:60:sSoft.wav
448,192,35319,128,0,35469:0:0:0:60:sSoft.wav
320,192,35394,128,0,35469:0:0:0:60:sSoft.wav
192,192,35469,128,0,35769:0:0:0:60:sSoft.wav
448,192,35769,128,8,35919:0:0:0:0:
64,192,35769,1,4,0:0:0:0:
320,192,35844,128,0,35919:0:0:0:0:
192,192,35919,128,0,35994:0:0:0:0:
64,192,35994,128,0,36069:0:0:0:0:
320,192,36069,1,0,0:0:0:0:
192,192,36069,1,0,0:0:0:0:
448,192,36069,128,2,36519:0:0:0:0:
64,192,36519,1,8,0:0:0:0:
320,192,36519,1,0,0:0:0:0:
64,192,36669,128,8,36819:0:0:0:0:
320,192,36669,128,0,36819:0:0:0:0:
192,192,36819,128,0,36969:0:0:0:0:
448,192,36969,128,8,37119:0:0:0:0:
320,192,36969,128,0,37119:0:0:0:0:
64,192,37119,128,0,37269:0:0:0:0:
192,192,37269,1,2,0:0:0:0:
448,192,37269,128,0,37569:0:0:0:0:
320,192,37269,128,0,37369:0:0:0:0:
64,192,37369,128,0,37469:0:0:0:0:
192,192,37469,128,0,37569:0:0:0:0:
320,192,37569,128,8,37669:0:0:0:0:
64,192,37569,128,0,37869:0:0:0:0:
448,192,37669,128,0,37769:0:0:0:0:
192,192,37769,128,0,37869:0:0:0:0:
320,192,37869,128,8,38019:0:0:0:0:
448,192,37869,128,0,38169:0:0:0:0:
64,192,38019,128,0,38169:0:0:0:0:
192,192,38094,1,0,0:0:0:60:sSoft.wav
320,192,38169,128,0,38319:0:0:0:0:
64,192,38319,1,8,0:0:0:0:
448,192,38319,1,0,0:0:0:0:
64,192,38469,128,2,38769:0:0:0:0:
192,192,38469,128,0,38769:0:0:0:0:
448,192,38469,1,0,0:0:0:0:
320,192,38769,128,8,38919:0:0:0:0:
448,192,38769,1,0,0:0:0:0:
192,192,38919,128,0,39069:0:0:0:0:
448,192,38994,1,0,0:0:0:60:sSoft.wav
64,192,39069,128,8,39219:0:0:0:0:
320,192,39069,128,0,39219:0:0:0:0:
192,192,39219,128,0,39294:0:0:0:0:
448,192,39294,128,0,39369:0:0:0:0:
64,192,39369,1,8,0:0:0:0:
320,192,39369,128,0,39519:0:0:0:0:
192,192,39519,128,0,39669:0:0:0:0:
64,192,39669,1,2,0:0:0:0:
320,192,39669,128,0,39969:0:0:0:0:
448,192,39669,128,0,39744:0:0:0:0:
192,192,39819,128,0,39894:0:0:0:0:
64,192,39969,128,8,40044:0:0:0:0:
448,192,39969,1,0,0:0:0:0:
320,192,40044,1,0,0:0:0:70:sSoft.wav
64,192,40119,1,2,0:0:0:0:
192,192,40119,1,0,0:0:0:0:
448,192,40119,128,0,40194:0:0:0:0:
320,192,40194,128,0,40269:0:0:0:0:
64,192,40269,128,8,40419:0:0:0:0:
192,192,40269,128,4,40419:0:0:0:0:
320,192,40419,128,0,40569:0:0:0:0:
64,192,40569,1,2,0:0:0:0:
192,192,40569,128,0,40719:0:0:0:0:
448,192,40569,128,0,40869:0:0:0:0:
64,192,40869,128,8,41019:0:0:0:0:
192,192,40869,128,0,41019:0:0:0:0:
448,192,41019,128,0,41169:0:0:0:0:
320,192,41169,128,0,41319:0:0:0:0:
192,192,41319,1,4,0:0:0:0:
448,192,41319,128,0,41469:0:0:0:0:
64,192,41319,128,2,41394:0:0:0:0:
320,192,41394,128,0,41469:0:0:0:0:
192,192,41469,128,0,41619:0:0:0:0:
64,192,41619,1,8,0:0:0:0:
320,192,41619,1,0,0:0:0:0:
448,192,41694,1,0,0:0:0:70:sSoft.wav
64,192,41769,128,2,41919:0:0:0:0:
192,192,41769,128,0,41919:0:0:0:0:
320,192,41769,1,0,0:0:0:0:
448,192,41919,128,0,42069:0:0:0:0:
320,192,41994,1,0,0:0:0:70:sSoft.wav
64,192,42069,128,8,42219:0:0:0:0:
192,192,42069,128,0,42219:0:0:0:0:
320,192,42219,128,0,42369:0:0:0:0:
64,192,42369,1,2,0:0:0:0:
192,192,42369,1,0,0:0:0:0:
448,192,42369,1,0,0:0:0:0:
320,192,42444,1,0,0:0:0:0:
192,192,42519,1,0,0:0:0:0:
320,192,42594,1,0,0:0:0:0:
64,192,42669,1,8,0:0:0:0:
448,192,42669,1,4,0:0:0:0:
192,192,42744,1,0,0:0:0:0:
320,192,42819,1,0,0:0:0:90:Burst.wav
64,192,42894,1,0,0:0:0:0:
320,192,42969,1,0,0:0:0:90:Burst.wav
192,192,43044,1,0,0:0:0:0:
320,192,43119,1,0,0:0:0:90:Burst.wav
448,192,43194,1,0,0:0:0:0:
192,192,43269,1,0,0:0:0:90:Burst.wav
320,192,43344,1,0,0:0:0:0:
192,192,43419,1,0,0:0:0:90:Burst.wav
64,192,43494,1,0,0:0:0:0:
192,192,43569,1,0,0:0:0:90:Burst.wav
448,192,43644,1,0,0:0:0:0:
320,192,43719,1,0,0:0:0:90:Burst.wav
192,192,43794,1,0,0:0:0:0:
64,192,43869,1,0,0:0:0:90:Burst.wav
448,192,43869,1,0,0:0:0:0:
320,192,43944,1,0,0:0:0:90:Burst.wav
192,192,44019,1,0,0:0:0:90:Burst.wav
448,192,44019,1,0,0:0:0:0:
64,192,44094,1,0,0:0:0:90:Burst.wav
192,192,44169,1,0,0:0:0:90:Burst.wav
320,192,44169,1,0,0:0:0:0:
448,192,44244,1,0,0:0:0:90:Burst.wav
64,192,44319,1,0,0:0:0:90:Burst.wav
320,192,44319,1,0,0:0:0:0:
192,192,44394,1,0,0:0:0:90:Burst.wav
64,192,44469,1,0,0:0:0:90:Burst.wav
448,192,44469,1,0,0:0:0:0:
192,192,44544,1,0,0:0:0:90:Burst.wav
320,192,44619,1,0,0:0:0:90:Burst.wav
448,192,44619,1,0,0:0:0:0:
64,192,44694,1,0,0:0:0:90:Burst.wav
192,192,44769,1,0,0:0:0:90:Burst.wav
320,192,44769,1,0,0:0:0:0:
448,192,44844,1,0,0:0:0:90:Burst.wav
64,192,44919,1,0,0:0:0:90:Burst.wav
192,192,44919,1,0,0:0:0:0:
448,192,44994,1,0,0:0:0:90:Burst.wav
64,192,45069,1,8,0:0:0:0:
320,192,45069,128,4,45219:0:0:0:0:
192,192,45369,128,0,45444:0:0:0:0:
192,192,45519,128,0,45594:0:0:0:0:
320,192,45669,128,0,45744:0:0:0:0:
192,192,45819,1,8,0:0:0:0:
320,192,45819,128,0,45894:0:0:0:0:
64,192,45969,128,2,46044:0:0:0:0:
192,192,45969,1,0,0:0:0:0:
448,192,45969,1,0,0:0:0:0:
64,192,46119,128,0,46194:0:0:0:0:
448,192,46194,1,8,0:0:0:0:
192,192,46269,128,8,46419:0:0:0:0:
320,192,46269,1,4,0:0:0:0:
64,192,46419,128,0,46569:0:0:0:0:
320,192,46569,128,8,46719:0:0:0:0:
448,192,46569,1,0,0:0:0:0:
192,192,46719,128,0,46869:0:0:0:0:
64,192,46869,128,2,47019:0:0:0:0:
320,192,46869,1,0,0:0:0:0:
448,192,46869,128,0,47019:0:0:0:0:
320,192,47019,128,0,47169:0:0:0:0:
192,192,47169,128,0,47319:0:0:0:0:
320,192,47319,128,0,47469:0:0:0:0:
64,192,47469,128,8,47769:0:0:0:0:
448,192,47469,1,0,0:0:0:0:
448,192,47619,128,0,47769:0:0:0:0:
192,192,47694,1,0,0:0:0:60:sSoft.wav
320,192,47769,128,0,47919:0:0:0:0:
192,192,47919,1,8,0:0:0:0:
64,192,47919,128,0,48069:0:0:0:0:
192,192,48069,128,2,48219:0:0:0:0:
320,192,48069,1,0,0:0:0:0:
448,192,48069,128,0,48219:0:0:0:0:
64,192,48219,128,0,48294:0:0:0:0:
448,192,48369,128,0,48444:0:0:0:0:
192,192,48519,128,0,48594:0:0:0:0:
320,192,48594,1,0,0:0:0:70:sSoft.wav
64,192,48669,128,8,48819:0:0:0:0:
448,192,48669,128,0,48969:0:0:0:0:
192,192,48819,128,0,48969:0:0:0:0:
64,192,48969,128,8,49119:0:0:0:0:
320,192,48969,128,0,49119:0:0:0:0:
448,192,49119,128,0,49269:0:0:0:0:
64,192,49269,128,2,49569:0:0:0:0:
192,192,49269,128,0,49419:0:0:0:0:
320,192,49269,1,0,0:0:0:0:
448,192,49419,128,0,49569:0:0:0:0:
192,192,49569,1,8,0:0:0:0:
320,192,49569,128,4,49719:0:0:0:0:
64,192,49719,1,2,0:0:0:0:
192,192,49719,128,4,49869:0:0:0:0:
448,192,49719,1,0,0:0:0:0:
320,192,49869,128,4,50019:0:0:0:0:
448,192,49869,128,8,50169:0:0:0:0:
64,192,50019,128,0,50169:0:0:0:0:
192,192,50169,128,0,50319:0:0:0:0:
64,192,50319,1,8,0:0:0:0:
320,192,50319,128,0,50469:0:0:0:0:
192,192,50469,128,2,50619:0:0:0:0:
448,192,50469,128,0,50619:0:0:0:0:
64,192,50469,1,0,0:0:0:0:
320,192,50619,128,0,50769:0:0:0:0:
192,192,50769,1,8,0:0:0:0:
64,192,50769,128,0,50919:0:0:0:0:
448,192,50919,1,2,0:0:0:0:
192,192,50919,128,0,51069:0:0:0:0:
320,192,50919,128,0,51069:0:0:0:0:
64,192,51069,128,4,51219:0:0:0:0:
448,192,51069,128,8,51369:0:0:0:0:
320,192,51219,128,0,51369:0:0:0:0:
64,192,51369,128,8,51519:0:0:0:0:
192,192,51369,128,0,51519:0:0:0:0:
320,192,51519,128,0,51594:0:0:0:0:
448,192,51594,1,0,0:0:0:70:sSoft.wav
64,192,51669,128,2,51819:0:0:0:0:
192,192,51669,128,0,51819:0:0:0:0:
320,192,51669,1,0,0:0:0:0:
448,192,51819,128,0,51969:0:0:0:0:
192,192,51969,1,8,0:0:0:0:
320,192,51969,128,0,52119:0:0:0:0:
64,192,52119,1,2,0:0:0:0:
192,192,52119,128,0,52269:0:0:0:0:
448,192,52119,128,0,52269:0:0:0:0:
64,192,52269,128,8,52419:0:0:0:0:
320,192,52269,128,4,52419:0:0:0:0:
192,192,52419,128,0,52569:0:0:0:0:
64,192,52569,1,2,0:0:0:0:
320,192,52569,128,0,52719:0:0:0:0:
448,192,52569,128,0,52719:0:0:0:0:
192,192,52719,128,0,52869:0:0:0:0:
64,192,52869,128,4,53019:0:0:0:0:
320,192,52869,1,8,0:0:0:0:
192,192,53019,1,2,0:0:0:0:
320,192,53019,128,0,53169:0:0:0:0:
448,192,53019,128,0,53169:0:0:0:0:
64,192,53169,128,4,53319:0:0:0:0:
192,192,53319,128,4,53469:0:0:0:0:
448,192,53319,128,8,53469:0:0:0:0:
320,192,53469,128,0,53619:0:0:0:0:
192,192,53619,128,0,53769:0:0:0:0:
448,192,53619,1,2,0:0:0:0:
64,192,53619,128,0,53769:0:0:0:0:
320,192,53769,128,0,53919:0:0:0:0:
448,192,53919,128,8,54069:0:0:0:0:
64,192,53919,128,4,54069:0:0:0:0:
192,192,54069,128,0,54219:0:0:0:0:
320,192,54219,1,8,0:0:0:0:
448,192,54219,128,0,54369:0:0:0:0:
320,192,54369,1,0,0:0:0:0:
192,192,54369,128,0,54519:0:0:0:0:
64,192,54369,128,2,54519:0:0:0:0:
448,192,54519,128,0,54669:0:0:0:0:
192,192,54669,128,8,55869:0:0:0:0:
64,192,54669,1,0,0:0:0:0:
320,192,54669,1,4,0:0:0:0:
64,192,55119,1,0,0:0:0:60:sSoft.wav
320,192,55269,1,0,0:0:0:60:sSoft.wav
448,192,55419,1,0,0:0:0:60:sSoft.wav
64,192,55569,1,0,0:0:0:60:sSoft.wav
320,192,55719,1,0,0:0:0:60:sSoft.wav
64,192,55869,128,0,57069:0:0:0:60:sSoft.wav
448,192,55869,1,0,0:0:0:0:
192,192,56019,1,0,0:0:0:60:sSoft.wav
448,192,56169,1,0,0:0:0:60:sSoft.wav
192,192,56319,1,0,0:0:0:60:sSoft.wav
448,192,56469,1,0,0:0:0:60:sSoft.wav
192,192,56619,1,0,0:0:0:60:sSoft.wav
448,192,56769,1,0,0:0:0:60:sSoft.wav
192,192,56919,1,0,0:0:0:60:sSoft.wav
320,192,57069,128,0,58269:0:0:0:60:sSoft.wav
448,192,57519,1,0,0:0:0:60:sSoft.wav
192,192,57669,1,0,0:0:0:60:sSoft.wav
64,192,57819,1,0,0:0:0:60:sSoft.wav
448,192,57969,1,0,0:0:0:60:sSoft.wav
64,192,58119,1,0,0:0:0:60:sSoft.wav
192,192,58269,1,0,0:0:0:60:sSoft.wav
448,192,58269,128,0,59469:0:0:0:0:
64,192,58419,1,0,0:0:0:60:sSoft.wav
192,192,58494,1,0,0:0:0:60:sSoft.wav
64,192,58569,1,0,0:0:0:60:sSoft.wav
64,192,58869,128,0,59019:0:0:0:60:sSoft.wav
192,192,59019,1,0,0:0:0:60:sSoft.wav
320,192,59169,128,0,59319:0:0:0:60:sSoft.wav
64,192,59319,1,0,0:0:0:60:sSoft.wav
192,192,59469,1,0,0:0:0:60:HHClose.wav
320,192,59469,1,0,0:0:0:0:
64,192,59619,1,0,0:0:0:60:HHClose.wav
64,192,59769,1,0,0:0:0:60:HHClose.wav
448,192,59919,1,0,0:0:0:60:HHClose.wav
192,192,60069,128,0,60219:0:0:0:60:HHClose.wav
320,192,60219,1,0,0:0:0:60:HHClose.wav
448,192,60369,128,0,60519:0:0:0:60:HHClose.wav
192,192,60519,1,0,0:0:0:60:HHClose.wav
320,192,60669,1,0,0:0:0:60:HHClose.wav
192,192,60819,1,0,0:0:0:60:HHClose.wav
320,192,60894,1,0,0:0:0:0:
192,192,60969,128,0,61119:0:0:0:60:HHClose.wav
64,192,61119,1,0,0:0:0:60:HHClose.wav
448,192,61269,128,0,61419:0:0:0:60:HHClose.wav
192,192,61419,1,0,0:0:0:60:HHClose.wav
320,192,61569,1,0,0:0:0:60:HHClose.wav
192,192,61644,1,0,0:0:0:0:
320,192,61719,1,0,0:0:0:60:HHClose.wav
448,192,61794,1,0,0:0:0:0:
64,192,61869,1,0,0:0:0:60:HHClose.wav
192,192,61944,1,0,0:0:0:0:
320,192,62019,1,0,0:0:0:60:HHClose.wav
64,192,62094,1,0,0:0:0:0:
448,192,62169,128,0,62319:0:0:0:60:HHClose.wav
320,192,62319,1,0,0:0:0:60:HHClose.wav
64,192,62469,128,0,62619:0:0:0:60:HHClose.wav
320,192,62619,1,0,0:0:0:60:HHClose.wav
448,192,62769,128,0,62919:0:0:0:60:HHClose.wav
192,192,62919,1,0,0:0:0:60:HHClose.wav
320,192,63069,1,0,0:0:0:60:HHClose.wav
64,192,63219,128,0,63369:0:0:0:60:HHClose.wav
448,192,63369,1,0,0:0:0:60:HHClose.wav
192,192,63519,1,0,0:0:0:60:HHClose.wav
320,192,63594,1,0,0:0:0:0:
64,192,63669,128,0,63819:0:0:0:60:HHClose.wav
320,192,63819,1,0,0:0:0:60:HHClose.wav
192,192,63969,1,0,0:0:0:60:HHClose.wav
448,192,64044,1,0,0:0:0:0:
192,192,64119,1,0,0:0:0:60:HHClose.wav
320,192,64194,1,0,0:0:0:0:
64,192,64269,1,8,0:0:0:0:
192,192,64269,1,4,0:0:0:0:
448,192,64269,1,0,0:0:0:75:HHClose.wav
64,192,64419,1,8,0:0:0:0:
448,192,64419,1,0,0:0:0:75:HHClose.wav
320,192,64494,1,0,0:0:0:0:
64,192,64569,1,8,0:0:0:0:
448,192,64569,1,0,0:0:0:75:HHClose.wav
192,192,64719,1,8,0:0:0:0:
320,192,64719,1,0,0:0:0:75:HHClose.wav
64,192,64869,1,8,0:0:0:0:
320,192,64869,1,0,0:0:0:75:HHClose.wav
192,192,65019,1,8,0:0:0:0:
448,192,65019,1,0,0:0:0:75:HHClose.wav
64,192,65094,1,0,0:0:0:0:
320,192,65169,1,8,0:0:0:0:
448,192,65169,1,0,0:0:0:75:HHClose.wav
64,192,65319,1,8,0:0:0:0:
320,192,65319,1,0,0:0:0:75:HHClose.wav
64,192,65469,1,8,0:0:0:0:
192,192,65469,1,0,0:0:0:75:HHClose.wav
192,192,65619,1,8,0:0:0:0:
320,192,65619,1,0,0:0:0:75:HHClose.wav
64,192,65769,1,8,0:0:0:0:
448,192,65769,1,0,0:0:0:75:HHClose.wav
320,192,65844,1,0,0:0:0:0:
64,192,65919,1,8,0:0:0:0:
192,192,65919,1,0,0:0:0:75:HHClose.wav
320,192,65994,1,0,0:0:0:0:
64,192,66069,1,8,0:0:0:0:
448,192,66069,1,0,0:0:0:75:HHClose.wav
192,192,66144,1,0,0:0:0:0:
320,192,66219,1,8,0:0:0:0:
448,192,66219,1,0,0:0:0:75:HHClose.wav
64,192,66294,1,0,0:0:0:0:
192,192,66369,1,8,0:0:0:0:
320,192,66369,1,0,0:0:0:75:HHClose.wav
448,192,66444,1,0,0:0:0:0:
64,192,66519,1,8,0:0:0:0:
192,192,66519,1,0,0:0:0:75:HHClose.wav
64,192,66669,1,8,0:0:0:0:
192,192,66669,1,0,0:0:0:75:HHClose.wav
320,192,66819,1,8,0:0:0:0:
448,192,66819,1,0,0:0:0:75:HHClose.wav
64,192,66894,1,0,0:0:0:0:
320,192,66969,1,8,0:0:0:0:
448,192,66969,1,0,0:0:0:75:HHClose.wav
192,192,67119,1,8,0:0:0:0:
448,192,67119,1,0,0:0:0:75:HHClose.wav
64,192,67269,1,8,0:0:0:0:
192,192,67269,1,0,0:0:0:75:HHClose.wav
320,192,67344,1,0,0:0:0:0:
64,192,67419,1,8,0:0:0:0:
192,192,67419,1,0,0:0:0:75:HHClose.wav
64,192,67569,1,8,0:0:0:0:
448,192,67569,1,0,0:0:0:75:HHClose.wav
192,192,67719,1,8,0:0:0:0:
320,192,67719,1,0,0:0:0:75:HHClose.wav
448,192,67794,1,0,0:0:0:0:
192,192,67869,1,8,0:0:0:0:
320,192,67869,1,0,0:0:0:75:HHClose.wav
64,192,68019,1,8,0:0:0:0:
448,192,68019,1,0,0:0:0:75:HHClose.wav
192,192,68094,1,0,0:0:0:0:
64,192,68169,1,8,0:0:0:0:
448,192,68169,1,0,0:0:0:75:HHClose.wav
192,192,68319,1,8,0:0:0:0:
320,192,68319,1,0,0:0:0:75:HHClose.wav
64,192,68469,1,4,0:0:0:0:
192,192,68469,1,8,0:0:0:0:
448,192,68469,1,0,0:0:0:60:sSoft.wav
320,192,68569,1,0,0:0:0:60:sSoft.wav
192,192,68669,1,0,0:0:0:60:sSoft.wav
448,192,68769,1,0,0:0:0:60:sSoft.wav
320,192,68869,1,0,0:0:0:60:sSoft.wav
64,192,68969,128,0,69069:0:0:0:60:sSoft.wav
192,192,69069,1,8,0:0:0:0:
320,192,69069,1,4,0:0:0:0:
448,192,69069,1,0,0:0:0:0:
320,192,69219,1,8,0:0:0:0:
448,192,69219,1,0,0:0:0:0:
192,192,69294,1,8,0:0:0:0:
64,192,69369,1,8,0:0:0:0:
448,192,69369,1,0,0:0:0:0:
320,192,69444,1,8,0:0:0:0:
64,192,69519,1,8,0:0:0:0:
192,192,69519,1,0,0:0:0:0:
320,192,69594,1,8,0:0:0:0:
64,192,69669,1,4,0:0:0:0:
192,192,69669,1,8,0:0:0:0:
448,192,69669,1,0,0:0:0:0:
320,192,69819,1,8,0:0:0:0:
448,192,69819,1,0,0:0:0:0:
64,192,69894,1,8,0:0:0:0:
192,192,69969,1,8,0:0:0:0:
320,192,69969,1,0,0:0:0:0:
448,192,70044,1,8,0:0:0:0:
64,192,70119,1,8,0:0:0:0:
192,192,70119,1,0,0:0:0:0:
320,192,70194,1,8,0:0:0:0:
64,192,70269,1,4,0:0:0:0:
192,192,70269,1,8,0:0:0:0:
448,192,70269,1,0,0:0:0:0:
64,192,70419,1,8,0:0:0:0:
448,192,70419,1,0,0:0:0:0:
320,192,70494,1,8,0:0:0:0:
192,192,70569,1,8,0:0:0:0:
448,192,70569,1,0,0:0:0:0:
64,192,70644,1,8,0:0:0:0:
192,192,70719,1,8,0:0:0:0:
320,192,70719,1,0,0:0:0:0:
448,192,70794,1,8,0:0:0:0:
64,192,70869,1,8,0:0:0:0:
192,192,70869,1,4,0:0:0:0:
320,192,70869,1,0,0:0:0:0:
64,192,71019,1,8,0:0:0:0:
448,192,71019,1,0,0:0:0:0:
320,192,71094,1,8,0:0:0:0:
64,192,71169,1,8,0:0:0:0:
192,192,71169,1,0,0:0:0:0:
448,192,71244,1,8,0:0:0:0:
192,192,71319,1,8,0:0:0:0:
320,192,71319,1,0,0:0:0:0:
64,192,71394,1,8,0:0:0:0:
192,192,71469,1,4,0:0:0:0:
320,192,71469,1,8,0:0:0:0:
448,192,71469,1,0,0:0:0:0:
64,192,71544,1,8,0:0:0:0:
320,192,71619,1,8,0:0:0:0:
448,192,71619,1,0,0:0:0:0:
192,192,71694,1,8,0:0:0:0:
64,192,71769,1,4,0:0:0:0:
320,192,71769,1,8,0:0:0:0:
448,192,71769,1,0,0:0:0:0:
192,192,71844,1,8,0:0:0:0:
64,192,71919,1,8,0:0:0:0:
448,192,71919,1,0,0:0:0:0:
320,192,71994,1,8,0:0:0:0:
64,192,72069,1,4,0:0:0:0:
192,192,72069,1,8,0:0:0:0:
448,192,72069,1,0,0:0:0:0:
320,192,72144,1,8,0:0:0:0:
64,192,72219,1,8,0:0:0:0:
192,192,72219,1,0,0:0:0:0:
448,192,72294,1,8,0:0:0:0:
64,192,72369,1,8,0:0:0:0:
192,192,72369,1,4,0:0:0:0:
320,192,72369,1,0,0:0:0:0:
448,192,72444,1,8,0:0:0:0:
192,192,72519,1,8,0:0:0:0:
320,192,72519,1,0,0:0:0:0:
64,192,72594,1,8,0:0:0:0:
192,192,72669,1,4,0:0:0:0:
320,192,72669,1,8,0:0:0:0:
448,192,72669,1,0,0:0:0:0:
64,192,72819,1,8,0:0:0:0:
192,192,72819,1,0,0:0:0:0:
320,192,72894,1,8,0:0:0:0:
64,192,72969,1,8,0:0:0:0:
192,192,72969,1,0,0:0:0:0:
320,192,73044,1,8,0:0:0:0:
64,192,73119,1,8,0:0:0:0:
192,192,73119,1,0,0:0:0:0:
320,192,73194,1,8,0:0:0:0:
64,192,73269,1,8,0:0:0:0:
192,192,73269,1,0,0:0:0:0:
320,192,73344,1,8,0:0:0:0:
448,192,73344,1,0,0:0:0:0:
64,192,73419,1,8,0:0:0:0:
192,192,73419,1,0,0:0:0:0:
320,192,73494,1,8,0:0:0:0:
448,192,73494,1,0,0:0:0:0:
64,192,73569,1,0,0:0:0:0:
192,192,73644,1,0,0:0:0:0:
448,192,73719,1,0,0:0:0:0:
320,192,73794,1,0,0:0:0:0:
64,192,73869,128,8,74019:0:0:0:0:
192,192,73869,1,0,0:0:0:0:
448,192,73869,128,0,74019:0:0:0:0:
320,192,74019,128,0,74169:0:0:0:0:
64,192,74169,1,2,0:0:0:0:
192,192,74169,128,8,74244:0:0:0:0:
448,192,74169,128,0,74469:0:0:0:0:
192,192,74319,128,0,74469:0:0:0:0:
64,192,74469,128,8,74619:0:0:0:0:
320,192,74469,128,0,74619:0:0:0:0:
192,192,74619,128,0,74769:0:0:0:0:
64,192,74769,128,2,75069:0:0:0:0:
320,192,74769,128,8,74844:0:0:0:0:
448,192,74769,1,0,0:0:0:0:
320,192,74919,128,0,75069:0:0:0:0:
192,192,75069,128,8,75219:0:0:0:0:
448,192,75069,128,0,75294:0:0:0:0:
192,192,75294,128,0,75369:0:0:0:0:
448,192,75369,128,2,75519:0:0:0:0:
320,192,75369,1,0,0:0:0:0:
64,192,75369,1,8,0:0:0:0:
192,192,75519,128,0,75594:0:0:0:0:
192,192,75669,128,8,75819:0:0:0:0:
448,192,75669,128,0,75819:0:0:0:0:
320,192,75819,128,0,75969:0:0:0:0:
64,192,75969,128,2,76044:0:0:0:0:
192,192,75969,1,8,0:0:0:0:
448,192,75969,1,0,0:0:0:0:
64,192,76119,128,0,76269:0:0:0:0:
320,192,76269,128,8,76419:0:0:0:0:
448,192,76269,128,0,76419:0:0:0:0:
64,192,76419,128,0,76569:0:0:0:0:
192,192,76569,128,2,76644:0:0:0:0:
320,192,76569,1,8,0:0:0:0:
448,192,76569,1,0,0:0:0:0:
192,192,76719,128,0,76869:0:0:0:0:
64,192,76869,1,8,0:0:0:0:
448,192,76869,128,0,76944:0:0:0:0:
448,192,77019,128,0,77169:0:0:0:0:
64,192,77169,1,2,0:0:0:0:
192,192,77169,128,8,77469:0:0:0:0:
320,192,77169,128,0,77319:0:0:0:0:
448,192,77319,128,0,77469:0:0:0:0:
64,192,77469,128,8,77619:0:0:0:0:
320,192,77469,1,0,0:0:0:0:
192,192,77619,1,0,0:0:0:0:
448,192,77694,1,8,0:0:0:0:
64,192,77769,1,2,0:0:0:0:
192,192,77769,1,0,0:0:0:0:
320,192,77769,1,0,0:0:0:0:
64,192,77919,1,8,0:0:0:0:
448,192,77919,1,0,0:0:0:0:
320,192,77994,128,0,78069:0:0:0:0:
192,192,78069,128,8,78219:0:0:0:0:
448,192,78069,128,0,78219:0:0:0:0:
64,192,78219,1,0,0:0:0:0:
64,192,78369,1,2,0:0:0:0:
192,192,78369,128,8,78444:0:0:0:0:
448,192,78369,1,0,0:0:0:0:
320,192,78444,128,0,78519:0:0:0:0:
192,192,78519,128,0,78594:0:0:0:0:
320,192,78594,128,0,78669:0:0:0:0:
64,192,78669,128,8,78819:0:0:0:0:
448,192,78669,128,0,78819:0:0:0:0:
320,192,78819,128,0,78969:0:0:0:0:
64,192,78969,1,2,0:0:0:0:
192,192,78969,128,8,79044:0:0:0:0:
448,192,78969,128,0,79269:0:0:0:0:
192,192,79119,128,0,79269:0:0:0:0:
64,192,79269,128,8,79419:0:0:0:0:
320,192,79269,128,0,79419:0:0:0:0:
192,192,79419,128,0,79569:0:0:0:0:
64,192,79569,128,2,79869:0:0:0:0:
320,192,79569,1,8,0:0:0:0:
448,192,79569,128,0,79644:0:0:0:0:
448,192,79719,128,0,79869:0:0:0:0:
192,192,79869,128,8,80094:0:0:0:0:
320,192,79869,128,0,80019:0:0:0:0:
320,192,80094,128,0,80169:0:0:0:0:
64,192,80169,1,2,0:0:0:0:
192,192,80169,128,8,80319:0:0:0:0:
448,192,80169,1,0,0:0:0:0:
320,192,80319,128,0,80394:0:0:0:0:
192,192,80469,128,8,80619:0:0:0:0:
320,192,80469,128,0,80619:0:0:0:0:
448,192,80619,128,0,80769:0:0:0:0:
64,192,80769,128,2,80844:0:0:0:0:
192,192,80769,1,8,0:0:0:0:
320,192,80769,1,0,0:0:0:0:
64,192,80919,128,0,81069:0:0:0:0:
192,192,81069,128,8,81219:0:0:0:0:
320,192,81069,128,0,81219:0:0:0:0:
448,192,81219,128,0,81369:0:0:0:0:
64,192,81369,128,2,81444:0:0:0:0:
192,192,81369,1,8,0:0:0:0:
320,192,81369,1,0,0:0:0:0:
64,192,81519,128,0,81669:0:0:0:0:
192,192,81669,1,8,0:0:0:0:
448,192,81669,128,0,81744:0:0:0:0:
448,192,81819,128,0,81969:0:0:0:0:
192,192,81969,128,0,82269:0:0:0:0:
320,192,81969,1,0,0:0:0:0:
64,192,81969,128,2,82119:0:0:0:0:
320,192,82119,128,0,82269:0:0:0:0:
64,192,82269,1,8,0:0:0:0:
448,192,82269,128,4,82419:0:0:0:0:
320,192,82419,1,0,0:0:0:0:
64,192,82494,1,12,0:0:0:0:
192,192,82569,1,2,0:0:0:0:
320,192,82569,1,0,0:0:0:0:
448,192,82569,1,0,0:0:0:0:
64,192,82719,1,4,0:0:0:0:
448,192,82719,1,8,0:0:0:0:
192,192,82869,1,0,0:0:0:0:
320,192,83019,1,4,0:0:0:0:
448,192,83019,1,8,0:0:0:0:
64,192,83169,1,4,0:0:0:0:
192,192,83169,1,2,0:0:0:0:
320,192,83169,1,8,0:0:0:0:
64,192,83319,1,8,0:0:0:0:
192,192,83319,1,4,0:0:0:0:
448,192,83394,1,0,0:0:0:60:sSoft.wav
320,192,83431,1,0,0:0:0:60:sSoft.wav
192,192,83469,1,0,0:0:0:60:sSoft.wav
64,192,83619,1,8,0:0:0:0:
448,192,83619,1,0,0:0:0:0:
64,192,83769,128,2,84069:0:0:0:0:
192,192,83769,1,8,0:0:0:0:
320,192,83769,128,0,83919:0:0:0:0:
448,192,83919,128,0,83994:0:0:0:0:
192,192,84069,128,8,84219:0:0:0:0:
448,192,84069,128,0,84219:0:0:0:0:
64,192,84219,128,0,84369:0:0:0:0:
320,192,84369,128,8,84444:0:0:0:0:
448,192,84369,1,0,0:0:0:0:
192,192,84369,128,2,84669:0:0:0:0:
320,192,84519,128,0,84669:0:0:0:0:
64,192,84669,128,8,84819:0:0:0:0:
448,192,84669,128,0,84894:0:0:0:0:
64,192,84894,128,0,84969:0:0:0:0:
192,192,84969,1,2,0:0:0:0:
448,192,84969,128,8,85119:0:0:0:0:
320,192,84969,1,0,0:0:0:0:
64,192,85119,128,0,85194:0:0:0:0:
64,192,85269,128,8,85369:0:0:0:0:
192,192,85269,128,0,85369:0:0:0:0:
448,192,85369,128,0,85469:0:0:0:0:
320,192,85469,128,0,85569:0:0:0:0:
64,192,85569,1,2,0:0:0:0:
192,192,85569,1,8,0:0:0:0:
448,192,85569,128,0,85669:0:0:0:0:
320,192,85669,128,0,85769:0:0:0:0:
448,192,85769,128,0,85869:0:0:0:0:
64,192,85869,128,8,86019:0:0:0:0:
192,192,85869,128,0,86019:0:0:0:0:
448,192,86019,128,0,86169:0:0:0:0:
64,192,86169,1,2,0:0:0:0:
192,192,86169,1,8,0:0:0:0:
320,192,86169,128,0,86244:0:0:0:0:
64,192,86319,128,0,86469:0:0:0:0:
320,192,86319,128,0,86469:0:0:0:0:
192,192,86469,128,8,86544:0:0:0:0:
448,192,86469,1,0,0:0:0:0:
192,192,86619,128,0,86769:0:0:0:0:
64,192,86769,128,2,86919:0:0:0:0:
320,192,86769,128,8,87069:0:0:0:0:
448,192,86769,1,0,0:0:0:0:
192,192,86919,128,0,87069:0:0:0:0:
64,192,87069,1,8,0:0:0:0:
448,192,87069,128,0,87219:0:0:0:0:
64,192,87219,1,0,0:0:0:0:
192,192,87294,1,0,0:0:0:0:
64,192,87369,128,2,87519:0:0:0:0:
320,192,87369,128,8,87669:0:0:0:0:
448,192,87369,1,0,0:0:0:0:
192,192,87519,128,0,87669:0:0:0:0:
64,192,87669,128,8,87819:0:0:0:0:
448,192,87669,128,0,87744:0:0:0:0:
448,192,87819,128,0,87894:0:0:0:0:
64,192,87969,1,2,0:0:0:0:
192,192,87969,128,8,88119:0:0:0:0:
320,192,87969,128,0,88269:0:0:0:0:
448,192,88119,1,0,0:0:0:0:
64,192,88194,1,0,0:0:0:0:
192,192,88269,128,8,88344:0:0:0:0:
448,192,88269,128,4,88419:0:0:0:0:
192,192,88419,128,0,88494:0:0:0:0:
64,192,88569,128,2,88719:0:0:0:0:
320,192,88569,1,8,0:0:0:0:
448,192,88569,128,0,88869:0:0:0:0:
192,192,88719,128,0,88869:0:0:0:0:
64,192,88869,128,8,88944:0:0:0:0:
320,192,88869,128,0,89019:0:0:0:0:
64,192,89019,128,0,89094:0:0:0:0:
192,192,89169,128,2,89469:0:0:0:0:
320,192,89169,1,8,0:0:0:0:
448,192,89169,1,0,0:0:0:0:
448,192,89319,1,0,0:0:0:0:
320,192,89394,1,0,0:0:0:0:
64,192,89469,128,8,89619:0:0:0:0:
448,192,89469,128,4,89619:0:0:0:0:
192,192,89619,128,0,89769:0:0:0:0:
64,192,89769,128,2,89844:0:0:0:0:
320,192,89769,128,8,90069:0:0:0:0:
448,192,89769,1,0,0:0:0:0:
64,192,89919,128,0,89994:0:0:0:0:
192,192,90069,128,8,90369:0:0:0:0:
448,192,90069,128,0,90144:0:0:0:0:
448,192,90219,128,0,90294:0:0:0:0:
64,192,90369,1,2,0:0:0:0:
320,192,90369,1,8,0:0:0:0:
448,192,90369,1,0,0:0:0:0:
192,192,90444,1,0,0:0:0:0:
320,192,90519,1,0,0:0:0:0:
192,192,90594,1,0,0:0:0:0:
64,192,90669,1,4,0:0:0:0:
448,192,90669,1,8,0:0:0:0:
320,192,90744,1,0,0:0:0:0:
448,192,90819,1,0,0:0:0:0:
192,192,90894,1,0,0:0:0:0:
64,192,90969,1,2,0:0:0:0:
320,192,90969,1,8,0:0:0:0:
448,192,90969,1,0,0:0:0:0:
192,192,91044,1,0,0:0:0:0:
64,192,91119,1,0,0:0:0:0:
192,192,91194,1,0,0:0:0:0:
320,192,91269,1,4,0:0:0:0:
448,192,91269,1,8,0:0:0:0:
64,192,91344,1,0,0:0:0:0:
192,192,91419,1,0,0:0:0:0:
320,192,91494,1,0,0:0:0:0:
64,192,91569,1,2,0:0:0:0:
192,192,91569,1,8,0:0:0:0:
448,192,91569,1,0,0:0:0:0:
320,192,91644,1,0,0:0:0:0:
448,192,91719,1,0,0:0:0:0:
320,192,91794,1,0,0:0:0:0:
64,192,91869,1,8,0:0:0:0:
192,192,91869,1,4,0:0:0:0:
448,192,91944,1,0,0:0:0:0:
320,192,92019,1,0,0:0:0:0:
192,192,92094,1,0,0:0:0:0:
64,192,92169,1,8,0:0:0:0:
320,192,92169,1,4,0:0:0:0:
192,192,92244,1,0,0:0:0:0:
448,192,92319,1,0,0:0:0:0:
320,192,92394,1,0,0:0:0:0:
64,192,92469,1,8,0:0:0:0:
192,192,92469,1,0,0:0:0:0:
448,192,92544,1,8,0:0:0:0:
64,192,92619,1,8,0:0:0:0:
320,192,92619,1,0,0:0:0:0:
448,192,92694,1,8,0:0:0:0:
64,192,92769,1,8,0:0:0:0:
320,192,92769,1,0,0:0:0:0:
192,192,92844,1,8,0:0:0:0:
320,192,92919,1,8,0:0:0:0:
448,192,92919,1,0,0:0:0:0:
192,192,92994,1,8,0:0:0:0:
64,192,93069,1,8,0:0:0:0:
448,192,93069,1,4,0:0:0:0:
320,192,93219,1,0,0:0:0:60:sSoft.wav
64,192,93369,1,0,0:0:0:60:sSoft.wav
192,192,93369,1,0,0:0:0:90:Burst.wav
192,192,93519,1,0,0:0:0:60:sSoft.wav
448,192,93669,1,0,0:0:0:60:sSoft.wav
320,192,93819,1,0,0:0:0:60:sSoft.wav
320,192,93969,1,0,0:0:0:60:sSoft.wav
192,192,93969,1,0,0:0:0:90:Burst.wav
320,192,94119,1,0,0:0:0:60:sSoft.wav
64,192,94269,1,0,0:0:0:60:sSoft.wav
192,192,94419,1,0,0:0:0:60:sSoft.wav
64,192,94569,1,0,0:0:0:60:sSoft.wav
192,192,94569,1,0,0:0:0:90:Burst.wav
448,192,94719,1,0,0:0:0:60:sSoft.wav
448,192,94869,1,0,0:0:0:60:sSoft.wav
64,192,95019,1,0,0:0:0:60:sSoft.wav
448,192,95169,1,0,0:0:0:60:sSoft.wav
64,192,95169,1,0,0:0:0:90:Burst.wav
320,192,95319,1,0,0:0:0:60:sSoft.wav
320,192,95469,1,0,0:0:0:60:sSoft.wav
192,192,95619,1,0,0:0:0:60:sSoft.wav
64,192,95769,1,0,0:0:0:60:sSoft.wav
320,192,95769,1,0,0:0:0:90:Burst.wav
448,192,95919,1,0,0:0:0:60:sSoft.wav
192,192,96069,1,0,0:0:0:60:sSoft.wav
64,192,96219,1,0,0:0:0:60:sSoft.wav
320,192,96369,1,0,0:0:0:60:sSoft.wav
448,192,96369,1,0,0:0:0:90:Burst.wav
192,192,96519,1,0,0:0:0:60:sSoft.wav
192,192,96669,1,0,0:0:0:60:sSoft.wav
320,192,96819,1,0,0:0:0:60:sSoft.wav
64,192,96969,1,0,0:0:0:60:sSoft.wav
448,192,96969,1,8,0:0:0:90:Burst.wav
192,192,97119,1,0,0:0:0:60:sSoft.wav
192,192,97269,1,0,0:0:0:60:sSoft.wav
448,192,97419,1,0,0:0:0:60:sSoft.wav
64,192,97569,1,0,0:0:0:60:sSoft.wav
448,192,97569,1,8,0:0:0:90:Burst.wav
192,192,97719,1,0,0:0:0:60:sSoft.wav
64,192,97869,1,4,0:0:0:0:
320,192,97869,1,8,0:0:0:0:
448,192,97869,1,0,0:0:0:0:
192,192,98019,1,8,0:0:0:0:
448,192,98019,1,0,0:0:0:0:
192,192,98169,1,8,0:0:0:0:
320,192,98169,1,0,0:0:0:90:Burst.wav
64,192,98319,1,8,0:0:0:0:
320,192,98319,1,0,0:0:0:0:
64,192,98469,1,8,0:0:0:0:
192,192,98469,1,4,0:0:0:0:
448,192,98469,1,0,0:0:0:0:
192,192,98619,1,8,0:0:0:0:
320,192,98619,1,0,0:0:0:0:
64,192,98769,1,8,0:0:0:0:
448,192,98769,1,0,0:0:0:90:Burst.wav
192,192,98919,1,8,0:0:0:0:
320,192,98919,1,0,0:0:0:0:
64,192,98994,1,8,0:0:0:0:
192,192,99069,1,4,0:0:0:0:
320,192,99069,1,8,0:0:0:0:
448,192,99069,1,0,0:0:0:0:
64,192,99219,1,0,0:0:0:0:
448,192,99219,1,0,0:0:0:0:
64,192,99369,1,0,0:0:0:90:Burst.wav
320,192,99369,1,0,0:0:0:0:
192,192,99519,1,8,0:0:0:0:
320,192,99519,1,0,0:0:0:0:
64,192,99669,1,8,0:0:0:0:
192,192,99669,1,4,0:0:0:0:
448,192,99669,1,0,0:0:0:0:
64,192,99819,1,8,0:0:0:0:
320,192,99819,1,0,0:0:0:0:
192,192,99969,1,0,0:0:0:90:Burst.wav
448,192,99969,1,0,0:0:0:0:
64,192,100119,1,0,0:0:0:90:Burst.wav
320,192,100119,1,0,0:0:0:0:
448,192,100194,1,0,0:0:0:90:Burst.wav
64,192,100269,1,8,0:0:0:0:
192,192,100269,1,4,0:0:0:0:
320,192,100269,1,0,0:0:0:90:Burst.wav
448,192,100344,1,0,0:0:0:90:Burst.wav
192,192,100419,1,0,0:0:0:90:Burst.wav
64,192,100494,1,0,0:0:0:90:Burst.wav
192,192,100569,1,4,0:0:0:0:
320,192,100569,1,8,0:0:0:0:
448,192,100569,1,0,0:0:0:90:Burst.wav
64,192,100644,1,0,0:0:0:90:Burst.wav
448,192,100719,1,0,0:0:0:90:Burst.wav
320,192,100794,1,0,0:0:0:90:Burst.wav
64,192,100869,1,8,0:0:0:0:
192,192,100869,1,4,0:0:0:0:
448,192,100869,1,0,0:0:0:90:Burst.wav
320,192,100944,1,0,0:0:0:90:Burst.wav
192,192,101019,1,0,0:0:0:90:Burst.wav
448,192,101094,1,0,0:0:0:90:Burst.wav
64,192,101169,1,8,0:0:0:0:
192,192,101169,1,4,0:0:0:0:
320,192,101169,1,0,0:0:0:90:Burst.wav
448,192,101244,1,0,0:0:0:90:Burst.wav
64,192,101319,1,0,0:0:0:90:Burst.wav
320,192,101394,1,0,0:0:0:90:Burst.wav
64,192,101469,1,4,0:0:0:0:
192,192,101469,1,8,0:0:0:0:
448,192,101469,1,0,0:0:0:90:Burst.wav
64,192,101694,1,4,0:0:0:0:
192,192,101694,1,8,0:0:0:0:
448,192,101694,1,0,0:0:0:90:Burst.wav
64,192,101919,1,4,0:0:0:0:
192,192,101919,1,8,0:0:0:0:
448,192,101919,1,0,0:0:0:90:Burst.wav
64,192,102144,1,4,0:0:0:0:
192,192,102144,1,8,0:0:0:0:
448,192,102144,1,0,0:0:0:90:Burst.wav
64,192,102369,1,8,0:0:0:0:
320,192,102369,1,4,0:0:0:0:
448,192,102369,1,0,0:0:0:90:Burst.wav
192,192,102519,1,0,0:0:0:0:
64,192,102594,1,0,0:0:0:0:
448,192,102669,1,0,0:0:0:0:
320,192,102706,1,0,0:0:0:0:
192,192,102744,1,0,0:0:0:0:
64,192,102781,1,0,0:0:0:0:
448,192,102819,128,0,102969:0:0:0:0:
64,192,102969,1,2,0:0:0:0:
192,192,102969,128,8,103119:0:0:0:0:
320,192,102969,1,0,0:0:0:0:
320,192,103119,1,8,0:0:0:0:
448,192,103119,1,0,0:0:0:0:
64,192,103269,1,8,0:0:0:0:
192,192,103269,1,0,0:0:0:0:
320,192,103419,128,0,103494:0:0:0:0:
64,192,103569,1,2,0:0:0:0:
320,192,103569,128,8,103644:0:0:0:0:
448,192,103569,128,0,103869:0:0:0:0:
192,192,103719,128,0,103794:0:0:0:0:
64,192,103869,1,8,0:0:0:0:
320,192,103869,1,0,0:0:0:0:
192,192,104019,128,0,104169:0:0:0:0:
64,192,104169,128,2,104469:0:0:0:0:
320,192,104169,1,8,0:0:0:0:
448,192,104169,1,0,0:0:0:0:
448,192,104319,128,0,104469:0:0:0:0:
192,192,104469,1,8,0:0:0:0:
320,192,104469,1,0,0:0:0:0:
320,192,104619,128,0,104769:0:0:0:0:
64,192,104769,1,2,0:0:0:0:
192,192,104769,1,8,0:0:0:0:
448,192,104769,128,0,105069:0:0:0:0:
192,192,104919,128,0,105219:0:0:0:0:
64,192,105069,1,8,0:0:0:0:
320,192,105069,1,0,0:0:0:0:
448,192,105219,1,0,0:0:0:0:
64,192,105369,128,2,105669:0:0:0:0:
192,192,105369,1,8,0:0:0:0:
320,192,105369,128,0,105519:0:0:0:0:
448,192,105519,128,0,105669:0:0:0:0:
192,192,105669,128,8,105819:0:0:0:0:
320,192,105669,1,0,0:0:0:0:
64,192,105819,128,0,105969:0:0:0:0:
192,192,105969,1,2,0:0:0:0:
320,192,105969,1,8,0:0:0:0:
448,192,105969,128,0,106269:0:0:0:0:
192,192,106119,128,0,106269:0:0:0:0:
64,192,106269,1,8,0:0:0:0:
320,192,106269,1,0,0:0:0:0:
64,192,106419,128,0,106569:0:0:0:0:
192,192,106569,128,2,106869:0:0:0:0:
320,192,106569,1,8,0:0:0:0:
448,192,106569,1,0,0:0:0:0:
320,192,106719,128,0,106869:0:0:0:0:
64,192,106869,1,8,0:0:0:0:
448,192,106869,1,0,0:0:0:0:
448,192,107019,128,0,107169:0:0:0:0:
64,192,107169,1,2,0:0:0:0:
192,192,107169,1,8,0:0:0:0:
320,192,107169,128,0,107469:0:0:0:0:
192,192,107319,1,0,0:0:0:0:
64,192,107469,128,8,107619:0:0:0:0:
192,192,107469,1,4,0:0:0:0:
448,192,107469,1,0,0:0:0:0:
320,192,107619,1,0,0:0:0:0:
64,192,107769,1,2,0:0:0:0:
192,192,107769,128,8,108069:0:0:0:0:
448,192,107769,1,0,0:0:0:0:
320,192,107919,1,0,0:0:0:0:
64,192,108069,1,8,0:0:0:0:
448,192,108069,1,0,0:0:0:0:
320,192,108219,128,0,108294:0:0:0:0:
64,192,108369,1,2,0:0:0:0:
320,192,108369,128,8,108444:0:0:0:0:
448,192,108369,128,0,108669:0:0:0:0:
192,192,108519,128,0,108594:0:0:0:0:
64,192,108669,1,4,0:0:0:0:
192,192,108669,1,8,0:0:0:0:
320,192,108669,1,0,0:0:0:0:
192,192,108819,128,0,108969:0:0:0:0:
64,192,108969,128,2,109269:0:0:0:0:
320,192,108969,1,8,0:0:0:0:
448,192,108969,1,0,0:0:0:0:
448,192,109119,128,0,109269:0:0:0:0:
192,192,109269,1,8,0:0:0:0:
320,192,109269,1,0,0:0:0:0:
320,192,109419,128,0,109569:0:0:0:0:
64,192,109569,1,2,0:0:0:0:
192,192,109569,128,8,109869:0:0:0:0:
448,192,109569,1,0,0:0:0:0:
320,192,109719,1,0,0:0:0:0:
64,192,109869,1,8,0:0:0:0:
320,192,109869,1,4,0:0:0:0:
448,192,109869,128,0,110169:0:0:0:0:
192,192,110019,1,0,0:0:0:0:
64,192,110169,1,2,0:0:0:0:
192,192,110169,1,8,0:0:0:0:
320,192,110169,128,0,110319:0:0:0:0:
64,192,110319,1,0,0:0:0:0:
192,192,110469,128,4,110619:0:0:0:0:
320,192,110469,1,8,0:0:0:0:
448,192,110469,1,0,0:0:0:0:
320,192,110619,1,0,0:0:0:0:
64,192,110769,128,2,110919:0:0:0:0:
192,192,110769,1,8,0:0:0:0:
448,192,110769,1,0,0:0:0:0:
448,192,110919,128,0,111069:0:0:0:0:
64,192,111069,1,4,0:0:0:0:
192,192,111069,1,8,0:0:0:0:
320,192,111069,1,0,0:0:0:0:
320,192,111219,128,0,111294:0:0:0:0:
64,192,111369,128,2,111444:0:0:0:0:
192,192,111369,1,0,0:0:0:0:
448,192,111369,1,0,0:0:0:0:
320,192,111519,128,0,111669:0:0:0:0:
64,192,111669,1,8,0:0:0:0:
192,192,111669,1,0,0:0:0:0:
448,192,111744,1,8,0:0:0:0:
64,192,111819,1,8,0:0:0:0:
320,192,111819,1,0,0:0:0:0:
192,192,111894,1,8,0:0:0:0:
64,192,111969,1,8,0:0:0:0:
320,192,111969,1,2,0:0:0:0:
448,192,111969,1,0,0:0:0:0:
192,192,112044,1,8,0:0:0:0:
320,192,112119,1,8,0:0:0:0:
448,192,112119,1,0,0:0:0:0:
64,192,112194,1,8,0:0:0:0:
192,192,112269,128,4,112569:0:0:0:0:
320,192,112269,1,8,0:0:0:0:
448,192,112269,1,0,0:0:0:0:
64,192,112569,128,2,112719:0:0:0:0:
320,192,112569,1,8,0:0:0:0:
448,192,112569,128,0,112869:0:0:0:0:
192,192,112719,128,0,112869:0:0:0:0:
64,192,112869,128,8,113169:0:0:0:0:
320,192,112869,128,0,113019:0:0:0:0:
192,192,113169,1,2,0:0:0:0:
320,192,113169,1,8,0:0:0:0:
448,192,113169,128,0,113319:0:0:0:0:
320,192,113319,128,0,113469:0:0:0:0:
64,192,113469,1,8,0:0:0:0:
192,192,113469,128,0,113619:0:0:0:0:
64,192,113619,128,0,113769:0:0:0:0:
192,192,113769,128,2,113919:0:0:0:0:
320,192,113769,1,8,0:0:0:0:
448,192,113769,128,0,114069:0:0:0:0:
64,192,113919,128,0,114069:0:0:0:0:
192,192,114069,128,8,114369:0:0:0:0:
320,192,114069,1,0,0:0:0:0:
64,192,114369,128,2,114519:0:0:0:0:
320,192,114369,128,8,114669:0:0:0:0:
448,192,114369,1,0,0:0:0:0:
192,192,114519,128,0,114669:0:0:0:0:
64,192,114669,128,8,114969:0:0:0:0:
448,192,114669,1,0,0:0:0:0:
192,192,114969,128,2,115269:0:0:0:0:
320,192,114969,1,8,0:0:0:0:
448,192,114969,128,0,115119:0:0:0:0:
320,192,115119,128,0,115269:0:0:0:0:
64,192,115269,128,8,115569:0:0:0:0:
448,192,115269,1,0,0:0:0:0:
192,192,115569,1,2,0:0:0:0:
320,192,115569,128,8,115719:0:0:0:0:
448,192,115569,1,0,0:0:0:0:
448,192,115719,128,0,115869:0:0:0:0:
64,192,115869,1,8,0:0:0:0:
192,192,115869,128,0,116019:0:0:0:0:
320,192,116019,128,0,116169:0:0:0:0:
64,192,116169,1,2,0:0:0:0:
192,192,116169,128,8,116469:0:0:0:0:
448,192,116169,1,0,0:0:0:0:
64,192,116469,128,8,116619:0:0:0:0:
320,192,116469,1,0,0:0:0:0:
192,192,116619,128,0,116769:0:0:0:0:
64,192,116769,1,2,0:0:0:0:
320,192,116769,128,8,116919:0:0:0:0:
448,192,116769,1,0,0:0:0:0:
448,192,116919,128,0,117069:0:0:0:0:
64,192,117069,1,8,0:0:0:0:
192,192,117069,128,4,117369:0:0:0:0:
320,192,117069,1,0,0:0:0:0:
64,192,117369,128,2,117519:0:0:0:0:
320,192,117369,1,8,0:0:0:0:
448,192,117369,1,0,0:0:0:0:
192,192,117519,128,0,117669:0:0:0:0:
64,192,117669,1,8,0:0:0:0:
448,192,117669,128,0,117819:0:0:0:0:
320,192,117819,128,0,117969:0:0:0:0:
64,192,117969,1,8,0:0:0:0:
448,192,117969,1,0,0:0:0:0:
64,192,118119,128,2,118419:0:0:0:0:
320,192,118119,1,0,0:0:0:0:
448,192,118119,1,0,0:0:0:0:
192,192,118419,1,8,0:0:0:0:
320,192,118419,1,0,0:0:0:0:
64,192,118569,1,2,0:0:0:0:
192,192,118569,1,8,0:0:0:0:
448,192,118569,128,0,118719:0:0:0:0:
320,192,118719,128,0,119019:0:0:0:0:
64,192,118869,1,8,0:0:0:0:
192,192,118869,1,0,0:0:0:0:
448,192,119019,1,0,0:0:0:0:
64,192,119169,1,2,0:0:0:0:
320,192,119169,1,8,0:0:0:0:
448,192,119169,1,0,0:0:0:0:
192,192,119244,1,0,0:0:0:0:
320,192,119319,1,0,0:0:0:0:
448,192,119394,1,0,0:0:0:0:
64,192,119469,1,8,0:0:0:0:
192,192,119469,1,4,0:0:0:0:
320,192,119469,1,0,0:0:0:0:
192,192,119619,1,8,0:0:0:0:
320,192,119694,1,8,0:0:0:0:
64,192,119769,1,2,0:0:0:0:
192,192,119769,1,8,0:0:0:0:
448,192,119769,1,0,0:0:0:0:
448,192,119919,1,8,0:0:0:0:
192,192,119994,1,8,0:0:0:0:
64,192,120069,1,8,0:0:0:0:
320,192,120069,1,0,0:0:0:0:
64,192,120219,1,2,0:0:0:0:
192,192,120219,1,8,0:0:0:0:
448,192,120219,1,0,0:0:0:0:
320,192,120369,1,8,0:0:0:0:
192,192,120444,1,8,0:0:0:0:
64,192,120519,1,2,0:0:0:0:
320,192,120519,1,8,0:0:0:0:
448,192,120519,1,0,0:0:0:0:
64,192,120819,1,8,0:0:0:0:
320,192,120819,1,0,0:0:0:0:
192,192,120969,1,8,0:0:0:0:
320,192,121044,1,8,0:0:0:0:
64,192,121119,128,2,121869:0:0:0:0:
192,192,121119,1,0,0:0:0:0:
448,192,121119,128,0,121869:0:0:0:0:
