osu file format v14

[General]
AudioFilename: Xp.mp3
AudioLeadIn: 0
PreviewTime: 73869
Countdown: 0
SampleSet: Soft
StackLeniency: 0.7
Mode: 3
LetterboxInBreaks: 0
SpecialStyle: 0
WidescreenStoryboard: 0

[Editor]
Bookmarks: 6669,11469,16269,18669,19869,21069,25869,33069,35769,42369,45069,54669,64269,69069,73869,90369,93069,97869,102369,111669
DistanceSpacing: 0.8
BeatDivisor: 4
GridSize: 16
TimelineZoom: 1.1

[Metadata]
Title:Xperanza
TitleUnicode:Xperanza
Artist:aran
ArtistUnicode:aran
Creator:-MysticEyes
Version:Normal
Source:beatmania IIDX 25 CANNON BALLERS
Tags:LN Hybrid Hardcore Konami
BeatmapID:1654129
BeatmapSetID:788120

[Difficulty]
HPDrainRate:7.5
CircleSize:4
OverallDifficulty:7.5
ApproachRate:5
SliderMultiplier:1.4
SliderTickRate:1

[Events]
//Background and Video events
0,0,"xperanza.jpg",0,0
//Break Periods
//Storyboard Layer 0 (Background)
//Storyboard Layer 1 (Fail)
//Storyboard Layer 2 (Pass)
//Storyboard Layer 3 (Foreground)
//Storyboard Sound Samples
Sample,18819,0,"HHClose.wav",75
Sample,18969,0,"HHClose.wav",75
Sample,19119,0,"HHClose.wav",75
Sample,19419,0,"HHClose.wav",75
Sample,19569,0,"HHClose.wav",75
Sample,19719,0,"HHClose.wav",75
Sample,24819,0,"Burst.wav",90
Sample,25119,0,"Burst.wav",90
Sample,25419,0,"Burst.wav",90
Sample,64419,0,"HHClose.wav",75
Sample,64569,0,"HHClose.wav",75
Sample,64719,0,"HHClose.wav",75
Sample,64869,0,"HHClose.wav",75
Sample,65019,0,"HHClose.wav",75
Sample,65169,0,"HHClose.wav",75
Sample,65319,0,"HHClose.wav",75
Sample,65469,0,"HHClose.wav",75
Sample,65619,0,"HHClose.wav",75
Sample,65769,0,"HHClose.wav",75
Sample,65919,0,"HHClose.wav",75
Sample,66069,0,"HHClose.wav",75
Sample,66219,0,"HHClose.wav",75
Sample,66369,0,"HHClose.wav",75
Sample,66519,0,"HHClose.wav",75
Sample,66669,0,"HHClose.wav",75
Sample,66819,0,"HHClose.wav",75
Sample,66969,0,"HHClose.wav",75
Sample,67119,0,"HHClose.wav",75
Sample,67269,0,"HHClose.wav",75
Sample,67419,0,"HHClose.wav",75
Sample,67569,0,"HHClose.wav",75
Sample,67719,0,"HHClose.wav",75
Sample,67869,0,"HHClose.wav",75
Sample,68019,0,"HHClose.wav",75
Sample,68169,0,"HHClose.wav",75
Sample,68319,0,"HHClose.wav",75
Sample,93369,0,"Burst.wav",90
Sample,93969,0,"Burst.wav",90
Sample,94569,0,"Burst.wav",90
Sample,95169,0,"Burst.wav",90
Sample,95769,0,"Burst.wav",90
Sample,96369,0,"Burst.wav",90
Sample,96969,0,"Burst.wav",90
Sample,97569,0,"Burst.wav",90
Sample,98169,0,"Burst.wav",90
Sample,98769,0,"Burst.wav",90
Sample,101469,0,"Burst.wav",90
Sample,101694,0,"Burst.wav",90
Sample,101919,0,"Burst.wav",90
Sample,102144,0,"Burst.wav",90
Sample,102369,0,"Burst.wav",90

[TimingPoints]
1869,300,4,2,1,60,1,0
73869,-100,4,2,1,60,0,1
93069,-100,4,2,1,60,0,0
102969,-100,4,2,1,60,0,1
111069,-100,4,2,1,60,0,0
112269,-100,4,2,1,60,0,1
121119,-100,4,2,1,60,0,0

[HitObjects]
320,192,1869,5,12,0:0:0:0:
448,192,1869,1,0,0:0:0:60:sSoft.wav
64,192,2169,1,0,0:0:0:60:sSoft.wav
192,192,2619,1,0,0:0:0:60:sSoft.wav
320,192,2769,1,0,0:0:0:60:sSoft.wav
448,192,2919,1,0,0:0:0:60:sSoft.wav
64,192,3069,1,8,0:0:0:0:
192,192,3069,1,0,0:0:0:60:sSoft.wav
320,192,3219,1,0,0:0:0:60:sSoft.wav
192,192,3519,1,0,0:0:0:60:sSoft.wav
448,192,3819,1,0,0:0:0:60:sSoft.wav
64,192,4119,1,0,0:0:0:60:sSoft.wav
320,192,4269,1,8,0:0:0:0:
448,192,4269,1,0,0:0:0:60:sSoft.wav
192,192,4569,1,0,0:0:0:60:sSoft.wav
64,192,4719,1,0,0:0:0:60:sSoft.wav
448,192,4869,1,0,0:0:0:60:sSoft.wav
320,192,5019,1,0,0:0:0:60:sSoft.wav
192,192,5319,1,0,0:0:0:60:sSoft.wav
64,192,5469,1,8,0:0:0:0:
448,192,5469,1,0,0:0:0:60:sSoft.wav
320,192,5919,1,0,0:0:0:60:sSoft.wav
320,192,6219,1,0,0:0:0:60:sSoft.wav
64,192,6669,1,8,0:0:0:0:
192,192,6669,1,0,0:0:0:60:sSoft.wav
448,192,6969,1,0,0:0:0:60:sSoft.wav
64,192,7419,1,0,0:0:0:60:sSoft.wav
320,192,7569,1,0,0:0:0:60:sSoft.wav
192,192,7719,1,0,0:0:0:60:sSoft.wav
64,192,7869,1,8,0:0:0:0:
448,192,7869,1,0,0:0:0:0:
320,192,8019,1,0,0:0:0:70:sSoft.wav
192,192,8319,1,0,0:0:0:70:sSoft.wav
320,192,8619,1,0,0:0:0:70:sSoft.wav
64,192,9069,1,8,0:0:0:0:
448,192,9069,1,0,0:0:0:70:sSoft.wav
192,192,9369,1,0,0:0:0:70:sSoft.wav
320,192,9669,1,0,0:0:0:60:sSoft.wav
448,192,9969,1,0,0:0:0:60:sSoft.wav
320,192,10119,1,0,0:0:0:60:sSoft.wav
64,192,10269,1,8,0:0:0:0:
192,192,10269,1,0,0:0:0:0:
448,192,10419,1,0,0:0:0:60:sSoft.wav
64,192,10569,1,0,0:0:0:60:sSoft.wav
192,192,10719,1,0,0:0:0:60:sSoft.wav
320,192,10869,1,8,0:0:0:0:
448,192,10869,1,0,0:0:0:0:
64,192,11019,1,0,0:0:0:60:sSoft.wav
320,192,11169,128,0,11469:0:0:0:60:sSoft.wav
64,192,11469,1,12,0:0:0:0:
448,192,11469,1,0,0:0:0:60:sSoft.wav
192,192,11769,1,0,0:0:0:60:sSoft.wav
320,192,12219,1,0,0:0:0:60:sSoft.wav
192,192,12369,1,0,0:0:0:60:sSoft.wav
64,192,12519,1,0,0:0:0:60:sSoft.wav
320,192,12819,1,0,0:0:0:60:sSoft.wav
192,192,13119,1,0,0:0:0:60:sSoft.wav
448,192,13419,1,0,0:0:0:60:sSoft.wav
64,192,13719,1,0,0:0:0:60:sSoft.wav
320,192,13869,1,12,0:0:0:0:
448,192,13869,1,0,0:0:0:60:sSoft.wav
192,192,14169,1,0,0:0:0:60:sSoft.wav
320,192,14319,1,0,0:0:0:60:sSoft.wav
64,192,14469,1,0,0:0:0:60:sSoft.wav
192,192,14619,1,0,0:0:0:60:sSoft.wav
448,192,14919,1,0,0:0:0:60:sSoft.wav
320,192,15219,1,0,0:0:0:60:sSoft.wav
64,192,15519,1,0,0:0:0:60:sSoft.wav
192,192,15819,1,0,0:0:0:60:sSoft.wav
320,192,15969,1,12,0:0:0:0:
448,192,15969,1,0,0:0:0:60:sSoft.wav
64,192,16269,1,12,0:0:0:0:
448,192,16269,1,0,0:0:0:75:HHClose.wav
320,192,16419,1,0,0:0:0:75:HHClose.wav
192,192,16569,1,0,0:0:0:75:HHClose.wav
64,192,16719,1,0,0:0:0:75:HHClose.wav
320,192,16869,1,12,0:0:0:0:
448,192,16869,1,0,0:0:0:75:HHClose.wav
192,192,17019,1,0,0:0:0:75:HHClose.wav
320,192,17169,1,0,0:0:0:75:HHClose.wav
448,192,17319,1,0,0:0:0:75:HHClose.wav
64,192,17469,1,12,0:0:0:0:
192,192,17469,1,0,0:0:0:75:HHClose.wav
320,192,17619,1,0,0:0:0:75:HHClose.wav
64,192,17769,1,0,0:0:0:75:HHClose.wav
448,192,17919,1,0,0:0:0:75:HHClose.wav
192,192,18069,1,12,0:0:0:0:
320,192,18069,1,0,0:0:0:75:HHClose.wav
64,192,18219,1,0,0:0:0:75:HHClose.wav
320,192,18369,1,0,0:0:0:75:HHClose.wav
192,192,18519,1,0,0:0:0:75:HHClose.wav
64,192,18669,1,12,0:0:0:0:
448,192,18669,1,0,0:0:0:75:HHClose.wav
320,192,18819,1,8,0:0:0:0:
192,192,18969,1,12,0:0:0:0:
448,192,19119,1,8,0:0:0:0:
192,192,19269,1,12,0:0:0:0:
320,192,19269,1,0,0:0:0:75:HHClose.wav
64,192,19419,1,8,0:0:0:0:
320,192,19569,1,12,0:0:0:0:
192,192,19719,1,8,0:0:0:0:
64,192,19869,1,12,0:0:0:0:
448,192,19869,1,0,0:0:0:75:HHClose.wav
320,192,20019,1,0,0:0:0:75:HHClose.wav
192,192,20169,1,0,0:0:0:75:HHClose.wav
320,192,20319,1,0,0:0:0:75:HHClose.wav
192,192,20619,1,0,0:0:0:75:HHClose.wav
320,192,20769,1,8,0:0:0:0:
192,192,20919,1,0,0:0:0:0:
320,192,21069,1,4,0:0:0:0:
448,192,21069,1,8,0:0:0:0:
64,192,21219,1,8,0:0:0:0:
320,192,21369,1,8,0:0:0:0:
192,192,21519,1,8,0:0:0:0:
64,192,21669,1,8,0:0:0:0:
320,192,21819,1,8,0:0:0:0:
192,192,21969,1,8,0:0:0:0:
448,192,22119,1,8,0:0:0:0:
64,192,22269,1,8,0:0:0:0:
192,192,22269,1,4,0:0:0:0:
320,192,22419,1,8,0:0:0:0:
448,192,22569,1,8,0:0:0:0:
64,192,22719,1,8,0:0:0:0:
192,192,22869,1,8,0:0:0:0:
448,192,23019,1,8,0:0:0:0:
320,192,23169,1,8,0:0:0:0:
192,192,23319,1,8,0:0:0:0:
64,192,23469,1,4,0:0:0:0:
320,192,23469,1,8,0:0:0:0:
448,192,23619,1,0,0:0:0:90:Burst.wav
192,192,23769,1,0,0:0:0:90:Burst.wav
64,192,23919,1,0,0:0:0:90:Burst.wav
320,192,24069,1,12,0:0:0:0:
448,192,24069,1,0,0:0:0:90:Burst.wav
64,192,24219,1,0,0:0:0:90:Burst.wav
192,192,24369,1,0,0:0:0:90:Burst.wav
320,192,24519,1,0,0:0:0:90:Burst.wav
64,192,24669,1,12,0:0:0:0:
192,192,24669,1,0,0:0:0:90:Burst.wav
448,192,24819,1,8,0:0:0:0:
64,192,24969,1,8,0:0:0:0:
320,192,24969,1,0,0:0:0:90:Burst.wav
192,192,25119,1,8,0:0:0:0:
320,192,25269,1,8,0:0:0:0:
448,192,25269,1,0,0:0:0:90:Burst.wav
64,192,25419,1,8,0:0:0:0:
192,192,25569,1,0,0:0:0:0:
64,192,25869,128,8,26319:0:0:0:0:
448,192,25869,128,0,26319:0:0:0:0:
320,192,26319,1,8,0:0:0:0:
64,192,26469,1,2,0:0:0:0:
192,192,26469,128,0,26919:0:0:0:0:
448,192,26919,1,8,0:0:0:0:
64,192,27069,1,8,0:0:0:0:
448,192,27219,1,0,0:0:0:0:
320,192,27369,1,8,0:0:0:0:
64,192,27519,1,0,0:0:0:0:
192,192,27669,1,2,0:0:0:0:
448,192,27669,1,0,0:0:0:0:
320,192,27819,1,0,0:0:0:0:
64,192,27969,1,0,0:0:0:0:
448,192,28119,1,0,0:0:0:0:
320,192,28269,1,8,0:0:0:0:
64,192,28419,1,0,0:0:0:0:
192,192,28569,1,0,0:0:0:0:
448,192,28719,1,8,0:0:0:0:
192,192,28869,1,2,0:0:0:0:
320,192,28869,128,0,29319:0:0:0:0:
64,192,29319,1,8,0:0:0:0:
448,192,29469,1,8,0:0:0:0:
320,192,29619,1,0,0:0:0:0:
64,192,29769,1,8,0:0:0:0:
192,192,29919,1,0,0:0:0:0:
320,192,30069,1,2,0:0:0:0:
448,192,30069,1,0,0:0:0:0:
64,192,30219,1,0,0:0:0:0:
192,192,30369,1,8,0:0:0:0:
64,192,30519,1,2,0:0:0:0:
448,192,30519,1,0,0:0:0:0:
192,192,30669,1,4,0:0:0:0:
320,192,30669,1,8,0:0:0:0:
448,192,30819,1,0,0:0:0:0:
192,192,30969,1,0,0:0:0:0:
64,192,31119,1,8,0:0:0:0:
320,192,31269,1,2,0:0:0:0:
448,192,31269,128,0,31719:0:0:0:0:
192,192,31719,1,8,0:0:0:0:
320,192,31869,1,8,0:0:0:0:
64,192,32019,1,0,0:0:0:0:
320,192,32169,1,8,0:0:0:0:
448,192,32319,1,0,0:0:0:0:
64,192,32469,1,2,0:0:0:0:
192,192,32469,1,0,0:0:0:0:
320,192,32619,1,0,0:0:0:0:
448,192,32769,1,0,0:0:0:0:
192,192,32919,1,0,0:0:0:0:
64,192,33069,1,4,0:0:0:0:
448,192,33069,1,8,0:0:0:0:
320,192,33219,1,0,0:0:0:60:sSoft.wav
192,192,33369,1,0,0:0:0:60:sSoft.wav
64,192,33519,1,0,0:0:0:60:sSoft.wav
320,192,33669,1,0,0:0:0:60:sSoft.wav
448,192,33819,1,0,0:0:0:60:sSoft.wav
64,192,33969,1,4,0:0:0:0:
192,192,33969,1,8,0:0:0:0:
320,192,34119,1,0,0:0:0:60:sSoft.wav
64,192,34269,1,4,0:0:0:0:
192,192,34269,1,8,0:0:0:0:
448,192,34419,1,0,0:0:0:60:sSoft.wav
192,192,34569,1,0,0:0:0:60:sSoft.wav
64,192,34719,1,2,0:0:0:0:
448,192,34719,1,0,0:0:0:60:sSoft.wav
320,192,34869,1,0,0:0:0:60:sSoft.wav
64,192,35019,1,0,0:0:0:60:sSoft.wav
192,192,35169,1,2,0:0:0:0:
448,192,35169,128,0,35469:0:0:0:60:sSoft.wav
64,192,35469,128,0,35769:0:0:0:60:sSoft.wav
320,192,35769,128,4,36069:0:0:0:0:
448,192,35769,128,8,36069:0:0:0:0:
64,192,36069,128,2,36519:0:0:0:0:
192,192,36069,1,0,0:0:0:0:
320,192,36519,1,8,0:0:0:0:
192,192,36669,1,8,0:0:0:0:
448,192,36819,1,0,0:0:0:0:
320,192,36969,1,8,0:0:0:0:
64,192,37119,1,0,0:0:0:0:
320,192,37269,1,2,0:0:0:0:
448,192,37269,1,0,0:0:0:0:
192,192,37419,1,0,0:0:0:0:
448,192,37569,1,8,0:0:0:0:
192,192,37719,1,0,0:0:0:0:
320,192,37869,1,8,0:0:0:0:
64,192,38019,1,0,0:0:0:0:
448,192,38169,1,0,0:0:0:0:
192,192,38319,1,8,0:0:0:0:
64,192,38469,128,2,38769:0:0:0:0:
320,192,38469,1,0,0:0:0:0:
448,192,38769,1,8,0:0:0:0:
192,192,38919,1,0,0:0:0:0:
64,192,39069,1,8,0:0:0:0:
448,192,39219,1,0,0:0:0:0:
320,192,39369,1,8,0:0:0:0:
64,192,39519,1,0,0:0:0:0:
192,192,39669,1,2,0:0:0:0:
448,192,39669,1,0,0:0:0:0:
320,192,39819,1,0,0:0:0:0:
448,192,39969,1,8,0:0:0:0:
64,192,40119,1,2,0:0:0:0:
192,192,40119,1,0,0:0:0:0:
320,192,40269,1,12,0:0:0:0:
192,192,40419,1,0,0:0:0:0:
64,192,40569,1,2,0:0:0:0:
448,192,40569,1,0,0:0:0:0:
192,192,40869,1,8,0:0:0:0:
320,192,41019,1,0,0:0:0:0:
192,192,41169,1,0,0:0:0:0:
64,192,41319,1,2,0:0:0:0:
448,192,41319,1,4,0:0:0:0:
320,192,41469,1,0,0:0:0:0:
192,192,41619,1,8,0:0:0:0:
64,192,41769,1,2,0:0:0:0:
448,192,41769,1,0,0:0:0:0:
320,192,41919,1,0,0:0:0:0:
64,192,42069,1,8,0:0:0:0:
448,192,42219,1,0,0:0:0:0:
192,192,42369,1,2,0:0:0:0:
320,192,42369,1,0,0:0:0:0:
64,192,42669,128,8,43869:0:0:0:0:
192,192,42669,1,4,0:0:0:0:
448,192,42819,1,0,0:0:0:90:Burst.wav
320,192,42969,1,0,0:0:0:90:Burst.wav
192,192,43119,1,0,0:0:0:90:Burst.wav
448,192,43269,1,0,0:0:0:90:Burst.wav
320,192,43419,1,0,0:0:0:90:Burst.wav
448,192,43569,1,0,0:0:0:90:Burst.wav
192,192,43719,1,0,0:0:0:90:Burst.wav
448,192,43869,128,0,45069:0:0:0:90:Burst.wav
320,192,44019,1,0,0:0:0:90:Burst.wav
64,192,44169,1,0,0:0:0:90:Burst.wav
192,192,44319,1,0,0:0:0:90:Burst.wav
320,192,44469,1,0,0:0:0:90:Burst.wav
192,192,44619,1,0,0:0:0:90:Burst.wav
64,192,44769,1,0,0:0:0:90:Burst.wav
320,192,44919,1,0,0:0:0:90:Burst.wav
64,192,45069,128,12,45219:0:0:0:0:
320,192,45369,128,0,45819:0:0:0:0:
64,192,45819,1,8,0:0:0:0:
192,192,45969,1,2,0:0:0:0:
448,192,45969,1,0,0:0:0:0:
320,192,46119,1,0,0:0:0:0:
64,192,46269,1,8,0:0:0:0:
192,192,46269,1,4,0:0:0:0:
448,192,46419,1,0,0:0:0:0:
192,192,46569,1,8,0:0:0:0:
320,192,46719,1,0,0:0:0:0:
64,192,46869,1,2,0:0:0:0:
448,192,46869,1,0,0:0:0:0:
192,192,47019,1,0,0:0:0:0:
448,192,47169,1,0,0:0:0:0:
320,192,47319,1,0,0:0:0:0:
64,192,47469,1,8,0:0:0:0:
448,192,47619,1,0,0:0:0:0:
192,192,47769,1,0,0:0:0:0:
64,192,47919,1,8,0:0:0:0:
320,192,48069,1,2,0:0:0:0:
448,192,48069,1,0,0:0:0:0:
192,192,48219,1,0,0:0:0:0:
448,192,48369,1,0,0:0:0:0:
64,192,48519,1,0,0:0:0:0:
320,192,48669,1,8,0:0:0:0:
192,192,48819,1,0,0:0:0:0:
448,192,48969,1,8,0:0:0:0:
320,192,49119,1,0,0:0:0:0:
64,192,49269,1,2,0:0:0:0:
192,192,49269,1,0,0:0:0:0:
448,192,49419,1,0,0:0:0:0:
64,192,49569,1,12,0:0:0:0:
192,192,49719,1,2,0:0:0:0:
320,192,49719,1,4,0:0:0:0:
448,192,49869,1,12,0:0:0:0:
192,192,50019,1,0,0:0:0:0:
320,192,50169,1,0,0:0:0:0:
64,192,50319,1,8,0:0:0:0:
192,192,50469,1,2,0:0:0:0:
320,192,50469,1,0,0:0:0:0:
448,192,50619,1,0,0:0:0:0:
64,192,50769,1,8,0:0:0:0:
320,192,50919,1,2,0:0:0:0:
448,192,50919,1,0,0:0:0:0:
192,192,51069,1,12,0:0:0:0:
320,192,51219,1,0,0:0:0:0:
192,192,51369,1,8,0:0:0:0:
64,192,51519,1,0,0:0:0:0:
320,192,51669,1,2,0:0:0:0:
448,192,51669,1,0,0:0:0:0:
192,192,51819,1,0,0:0:0:0:
64,192,51969,1,8,0:0:0:0:
192,192,52119,1,2,0:0:0:0:
448,192,52119,1,0,0:0:0:0:
320,192,52269,1,12,0:0:0:0:
448,192,52419,1,0,0:0:0:0:
64,192,52569,1,2,0:0:0:0:
192,192,52569,1,0,0:0:0:0:
320,192,52719,1,0,0:0:0:0:
64,192,52869,1,12,0:0:0:0:
320,192,53019,1,2,0:0:0:0:
448,192,53019,1,0,0:0:0:0:
192,192,53169,1,4,0:0:0:0:
64,192,53319,1,12,0:0:0:0:
448,192,53469,1,0,0:0:0:0:
192,192,53619,1,2,0:0:0:0:
320,192,53619,1,0,0:0:0:0:
64,192,53769,1,0,0:0:0:0:
192,192,53919,1,12,0:0:0:0:
320,192,54069,1,0,0:0:0:0:
64,192,54219,1,8,0:0:0:0:
320,192,54369,1,2,0:0:0:0:
448,192,54369,1,0,0:0:0:0:
64,192,54519,1,0,0:0:0:0:
192,192,54669,1,4,0:0:0:0:
448,192,54669,128,8,55119:0:0:0:0:
64,192,55119,1,0,0:0:0:60:sSoft.wav
192,192,55269,1,0,0:0:0:60:sSoft.wav
320,192,55419,1,0,0:0:0:60:sSoft.wav
448,192,55569,1,0,0:0:0:60:sSoft.wav
192,192,55719,1,0,0:0:0:60:sSoft.wav
64,192,55869,1,0,0:0:0:60:sSoft.wav
448,192,56019,1,0,0:0:0:60:sSoft.wav
320,192,56169,1,0,0:0:0:60:sSoft.wav
64,192,56319,1,0,0:0:0:60:sSoft.wav
192,192,56469,1,0,0:0:0:60:sSoft.wav
448,192,56619,1,0,0:0:0:60:sSoft.wav
320,192,56769,1,0,0:0:0:60:sSoft.wav
192,192,56919,1,0,0:0:0:60:sSoft.wav
448,192,57069,128,0,57519:0:0:0:60:sSoft.wav
320,192,57519,1,0,0:0:0:60:sSoft.wav
192,192,57669,1,0,0:0:0:60:sSoft.wav
64,192,57819,1,0,0:0:0:60:sSoft.wav
320,192,57969,1,0,0:0:0:60:sSoft.wav
448,192,58119,1,0,0:0:0:60:sSoft.wav
64,192,58269,128,0,58569:0:0:0:60:sSoft.wav
320,192,58569,128,0,58869:0:0:0:60:sSoft.wav
192,192,58869,128,0,59169:0:0:0:60:sSoft.wav
448,192,59169,128,0,59469:0:0:0:60:sSoft.wav
64,192,59469,1,0,0:0:0:60:HHClose.wav
320,192,59619,1,0,0:0:0:60:HHClose.wav
192,192,59769,1,0,0:0:0:60:HHClose.wav
64,192,59919,1,0,0:0:0:60:HHClose.wav
320,192,60069,1,0,0:0:0:60:HHClose.wav
448,192,60219,1,0,0:0:0:60:HHClose.wav
192,192,60369,1,0,0:0:0:60:HHClose.wav
320,192,60519,1,0,0:0:0:60:HHClose.wav
64,192,60669,1,0,0:0:0:60:HHClose.wav
448,192,60819,1,0,0:0:0:60:HHClose.wav
320,192,60969,1,0,0:0:0:60:HHClose.wav
64,192,61119,1,0,0:0:0:60:HHClose.wav
192,192,61269,1,0,0:0:0:60:HHClose.wav
320,192,61419,1,0,0:0:0:60:HHClose.wav
64,192,61569,1,0,0:0:0:60:HHClose.wav
448,192,61719,1,0,0:0:0:60:HHClose.wav
320,192,61869,1,0,0:0:0:60:HHClose.wav
64,192,62019,1,0,0:0:0:60:HHClose.wav
448,192,62169,1,0,0:0:0:60:HHClose.wav
320,192,62319,1,0,0:0:0:60:HHClose.wav
192,192,62469,1,0,0:0:0:60:HHClose.wav
448,192,62619,1,0,0:0:0:60:HHClose.wav
64,192,62769,1,0,0:0:0:60:HHClose.wav
192,192,62919,1,0,0:0:0:60:HHClose.wav
320,192,63069,1,0,0:0:0:60:HHClose.wav
448,192,63219,1,0,0:0:0:60:HHClose.wav
192,192,63369,1,0,0:0:0:60:HHClose.wav
64,192,63519,1,0,0:0:0:60:HHClose.wav
320,192,63669,1,0,0:0:0:60:HHClose.wav
192,192,63819,1,0,0:0:0:60:HHClose.wav
448,192,63969,1,0,0:0:0:60:HHClose.wav
320,192,64119,1,0,0:0:0:60:HHClose.wav
64,192,64269,1,12,0:0:0:0:
192,192,64269,1,0,0:0:0:75:HHClose.wav
448,192,64419,1,8,0:0:0:0:
64,192,64569,1,8,0:0:0:0:
192,192,64719,1,8,0:0:0:0:
448,192,64869,1,8,0:0:0:0:
192,192,65019,1,8,0:0:0:0:
64,192,65169,1,8,0:0:0:0:
320,192,65319,1,8,0:0:0:0:
448,192,65469,1,8,0:0:0:0:
192,192,65619,1,8,0:0:0:0:
320,192,65769,1,8,0:0:0:0:
64,192,65919,1,8,0:0:0:0:
448,192,66069,1,8,0:0:0:0:
320,192,66219,1,8,0:0:0:0:
192,192,66369,1,8,0:0:0:0:
448,192,66519,1,8,0:0:0:0:
64,192,66669,1,8,0:0:0:0:
320,192,66819,1,8,0:0:0:0:
192,192,66969,1,8,0:0:0:0:
448,192,67119,1,8,0:0:0:0:
320,192,67269,1,8,0:0:0:0:
192,192,67419,1,8,0:0:0:0:
64,192,67569,1,8,0:0:0:0:
320,192,67719,1,8,0:0:0:0:
448,192,67869,1,8,0:0:0:0:
192,192,68019,1,8,0:0:0:0:
320,192,68169,1,8,0:0:0:0:
64,192,68319,1,8,0:0:0:0:
192,192,68469,128,12,69069:0:0:0:0:
320,192,68469,1,0,0:0:0:60:sSoft.wav
64,192,69069,1,8,0:0:0:0:
448,192,69069,1,4,0:0:0:0:
320,192,69219,1,8,0:0:0:0:
192,192,69369,1,8,0:0:0:0:
64,192,69519,1,8,0:0:0:0:
320,192,69669,1,4,0:0:0:0:
448,192,69669,1,8,0:0:0:0:
192,192,69819,1,8,0:0:0:0:
64,192,69969,1,8,0:0:0:0:
448,192,70119,1,8,0:0:0:0:
192,192,70269,1,4,0:0:0:0:
320,192,70269,1,8,0:0:0:0:
64,192,70419,1,8,0:0:0:0:
192,192,70569,1,8,0:0:0:0:
320,192,70719,1,8,0:0:0:0:
64,192,70869,1,8,0:0:0:0:
448,192,70869,1,4,0:0:0:0:
192,192,71019,1,8,0:0:0:0:
320,192,71169,1,8,0:0:0:0:
64,192,71319,1,8,0:0:0:0:
192,192,71469,1,4,0:0:0:0:
448,192,71469,1,8,0:0:0:0:
64,192,71619,1,8,0:0:0:0:
320,192,71769,1,12,0:0:0:0:
192,192,71919,1,8,0:0:0:0:
64,192,72069,1,4,0:0:0:0:
448,192,72069,1,8,0:0:0:0:
192,192,72219,1,8,0:0:0:0:
320,192,72369,1,12,0:0:0:0:
448,192,72519,1,8,0:0:0:0:
64,192,72669,1,4,0:0:0:0:
192,192,72669,1,8,0:0:0:0:
320,192,72819,1,8,0:0:0:0:
448,192,72969,1,8,0:0:0:0:
64,192,73119,1,8,0:0:0:0:
192,192,73269,1,8,0:0:0:0:
320,192,73419,1,8,0:0:0:0:
64,192,73569,1,0,0:0:0:0:
192,192,73644,1,0,0:0:0:0:
448,192,73719,1,0,0:0:0:0:
320,192,73794,1,0,0:0:0:0:
192,192,73869,128,8,74169:0:0:0:0:
64,192,73869,1,0,0:0:0:0:
320,192,74169,1,2,0:0:0:0:
448,192,74169,1,8,0:0:0:0:
64,192,74469,128,8,74769:0:0:0:0:
192,192,74769,1,2,0:0:0:0:
320,192,74769,1,8,0:0:0:0:
448,192,75069,128,8,75369:0:0:0:0:
64,192,75369,1,2,0:0:0:0:
320,192,75369,1,8,0:0:0:0:
192,192,75519,128,0,75669:0:0:0:0:
320,192,75669,128,8,75969:0:0:0:0:
64,192,75969,1,2,0:0:0:0:
448,192,75969,1,8,0:0:0:0:
192,192,76269,128,8,76569:0:0:0:0:
448,192,76569,1,2,0:0:0:0:
320,192,76569,1,8,0:0:0:0:
64,192,76869,128,8,77169:0:0:0:0:
320,192,77169,128,2,77469:0:0:0:0:
448,192,77169,1,8,0:0:0:0:
192,192,77469,128,8,77769:0:0:0:0:
64,192,77769,128,2,77919:0:0:0:0:
448,192,77769,1,0,0:0:0:0:
320,192,77919,128,8,78069:0:0:0:0:
192,192,78069,128,8,78369:0:0:0:0:
64,192,78369,1,2,0:0:0:0:
448,192,78369,128,8,78669:0:0:0:0:
192,192,78669,128,8,78969:0:0:0:0:
320,192,78969,1,2,0:0:0:0:
448,192,78969,1,8,0:0:0:0:
320,192,79269,128,8,79569:0:0:0:0:
64,192,79569,1,2,0:0:0:0:
192,192,79569,1,8,0:0:0:0:
448,192,79869,128,8,80169:0:0:0:0:
64,192,80169,1,2,0:0:0:0:
320,192,80169,1,8,0:0:0:0:
192,192,80319,128,0,80469:0:0:0:0:
320,192,80469,128,8,80769:0:0:0:0:
64,192,80769,128,2,81069:0:0:0:0:
448,192,80769,1,8,0:0:0:0:
192,192,81069,128,8,81369:0:0:0:0:
320,192,81369,1,2,0:0:0:0:
448,192,81369,1,8,0:0:0:0:
64,192,81669,128,8,81969:0:0:0:0:
320,192,81969,1,2,0:0:0:0:
448,192,81969,128,0,82269:0:0:0:0:
64,192,82269,1,8,0:0:0:0:
192,192,82269,1,4,0:0:0:0:
192,192,82569,1,2,0:0:0:0:
320,192,82569,1,0,0:0:0:0:
64,192,82719,1,4,0:0:0:0:
448,192,82719,1,8,0:0:0:0:
320,192,83019,1,4,0:0:0:0:
448,192,83019,1,8,0:0:0:0:
64,192,83169,128,14,83469:0:0:0:0:
320,192,83319,1,12,0:0:0:0:
448,192,83469,1,0,0:0:0:60:sSoft.wav
192,192,83619,1,8,0:0:0:0:
64,192,83769,1,2,0:0:0:0:
320,192,83769,1,8,0:0:0:0:
448,192,83919,1,0,0:0:0:0:
192,192,84069,1,8,0:0:0:0:
320,192,84219,1,0,0:0:0:0:
64,192,84369,1,2,0:0:0:0:
448,192,84369,1,8,0:0:0:0:
192,192,84519,1,0,0:0:0:0:
320,192,84669,1,8,0:0:0:0:
192,192,84819,1,0,0:0:0:0:
320,192,84969,1,2,0:0:0:0:
448,192,84969,1,8,0:0:0:0:
64,192,85119,1,0,0:0:0:0:
192,192,85269,1,8,0:0:0:0:
320,192,85419,1,0,0:0:0:0:
192,192,85569,1,2,0:0:0:0:
448,192,85569,1,8,0:0:0:0:
64,192,85719,1,0,0:0:0:0:
320,192,85869,1,8,0:0:0:0:
192,192,86019,1,0,0:0:0:0:
448,192,86169,1,8,0:0:0:0:
64,192,86169,1,2,0:0:0:0:
320,192,86319,1,0,0:0:0:0:
192,192,86469,1,8,0:0:0:0:
448,192,86619,1,0,0:0:0:0:
64,192,86769,1,2,0:0:0:0:
192,192,86769,1,8,0:0:0:0:
320,192,86919,1,0,0:0:0:0:
64,192,87069,128,8,87369:0:0:0:0:
320,192,87369,1,2,0:0:0:0:
448,192,87369,1,8,0:0:0:0:
192,192,87669,128,8,87819:0:0:0:0:
320,192,87819,1,0,0:0:0:0:
64,192,87969,128,2,88269:0:0:0:0:
448,192,87969,1,8,0:0:0:0:
192,192,88269,1,8,0:0:0:0:
448,192,88269,1,4,0:0:0:0:
320,192,88419,1,0,0:0:0:0:
64,192,88569,1,2,0:0:0:0:
192,192,88569,1,8,0:0:0:0:
320,192,88869,128,8,89019:0:0:0:0:
192,192,89019,1,0,0:0:0:0:
64,192,89169,1,2,0:0:0:0:
448,192,89169,128,8,89469:0:0:0:0:
64,192,89469,1,8,0:0:0:0:
192,192,89469,1,4,0:0:0:0:
192,192,89769,1,2,0:0:0:0:
320,192,89769,128,8,89919:0:0:0:0:
448,192,89919,1,0,0:0:0:0:
64,192,90069,128,8,90219:0:0:0:0:
448,192,90219,1,0,0:0:0:0:
192,192,90369,1,2,0:0:0:0:
320,192,90369,1,8,0:0:0:0:
64,192,90519,1,0,0:0:0:0:
320,192,90669,1,4,0:0:0:0:
448,192,90669,1,8,0:0:0:0:
192,192,90819,1,0,0:0:0:0:
64,192,90969,1,2,0:0:0:0:
448,192,90969,1,8,0:0:0:0:
320,192,91119,1,0,0:0:0:0:
192,192,91269,1,4,0:0:0:0:
448,192,91269,1,8,0:0:0:0:
64,192,91419,1,0,0:0:0:0:
192,192,91569,1,2,0:0:0:0:
320,192,91569,1,8,0:0:0:0:
64,192,91719,1,0,0:0:0:0:
320,192,91869,1,8,0:0:0:0:
448,192,91869,1,4,0:0:0:0:
320,192,92019,1,0,0:0:0:0:
64,192,92169,1,8,0:0:0:0:
192,192,92169,1,4,0:0:0:0:
192,192,92319,1,0,0:0:0:0:
448,192,92469,1,8,0:0:0:0:
448,192,92619,1,8,0:0:0:0:
64,192,92769,1,8,0:0:0:0:
64,192,92919,1,8,0:0:0:0:
192,192,93069,1,8,0:0:0:0:
320,192,93069,1,4,0:0:0:0:
448,192,93369,1,0,0:0:0:60:sSoft.wav
64,192,93819,1,0,0:0:0:60:sSoft.wav
192,192,93969,1,0,0:0:0:60:sSoft.wav
320,192,94119,1,0,0:0:0:60:sSoft.wav
64,192,94419,1,0,0:0:0:60:sSoft.wav
448,192,94569,1,0,0:0:0:60:sSoft.wav
320,192,94719,1,0,0:0:0:60:sSoft.wav
64,192,95019,1,0,0:0:0:60:sSoft.wav
320,192,95169,1,0,0:0:0:60:sSoft.wav
448,192,95319,1,0,0:0:0:60:sSoft.wav
192,192,95769,1,0,0:0:0:60:sSoft.wav
320,192,95919,1,0,0:0:0:60:sSoft.wav
448,192,96069,1,0,0:0:0:60:sSoft.wav
320,192,96219,1,0,0:0:0:60:sSoft.wav
64,192,96369,1,0,0:0:0:60:sSoft.wav
192,192,96519,1,0,0:0:0:60:sSoft.wav
320,192,96969,1,0,0:0:0:60:sSoft.wav
64,192,97119,1,0,0:0:0:60:sSoft.wav
448,192,97419,1,0,0:0:0:60:sSoft.wav
192,192,97569,1,0,0:0:0:60:sSoft.wav
320,192,97869,1,4,0:0:0:0:
448,192,97869,1,8,0:0:0:0:
64,192,98019,1,8,0:0:0:0:
192,192,98169,1,8,0:0:0:0:
320,192,98319,1,8,0:0:0:0:
64,192,98469,1,8,0:0:0:0:
448,192,98469,1,4,0:0:0:0:
192,192,98619,1,8,0:0:0:0:
320,192,98769,1,8,0:0:0:0:
64,192,98919,1,8,0:0:0:0:
192,192,99069,1,4,0:0:0:0:
448,192,99069,1,8,0:0:0:0:
320,192,99219,1,0,0:0:0:0:
192,192,99369,1,0,0:0:0:90:Burst.wav
64,192,99519,1,8,0:0:0:0:
320,192,99669,1,8,0:0:0:0:
448,192,99669,1,4,0:0:0:0:
192,192,99819,1,8,0:0:0:0:
64,192,99969,1,0,0:0:0:90:Burst.wav
448,192,100119,1,0,0:0:0:90:Burst.wav
192,192,100269,1,12,0:0:0:0:
320,192,100269,1,0,0:0:0:90:Burst.wav
64,192,100419,1,0,0:0:0:90:Burst.wav
192,192,100569,1,12,0:0:0:0:
448,192,100569,1,0,0:0:0:90:Burst.wav
320,192,100719,1,0,0:0:0:90:Burst.wav
64,192,100869,1,12,0:0:0:0:
448,192,100869,1,0,0:0:0:90:Burst.wav
192,192,101019,1,0,0:0:0:90:Burst.wav
64,192,101169,1,12,0:0:0:0:
320,192,101169,1,0,0:0:0:90:Burst.wav
448,192,101319,1,0,0:0:0:90:Burst.wav
192,192,101469,1,12,0:0:0:0:
192,192,101694,1,12,0:0:0:0:
448,192,101919,1,12,0:0:0:0:
448,192,102144,1,12,0:0:0:0:
64,192,102369,1,12,0:0:0:0:
320,192,102519,1,0,0:0:0:0:
192,192,102669,128,0,102819:0:0:0:0:
320,192,102819,1,0,0:0:0:0:
64,192,102969,1,2,0:0:0:0:
448,192,102969,1,8,0:0:0:0:
192,192,103119,1,8,0:0:0:0:
320,192,103269,1,8,0:0:0:0:
64,192,103419,1,0,0:0:0:0:
192,192,103569,1,2,0:0:0:0:
320,192,103569,1,8,0:0:0:0:
448,192,103719,1,0,0:0:0:0:
64,192,103869,1,8,0:0:0:0:
320,192,104019,1,0,0:0:0:0:
192,192,104169,1,2,0:0:0:0:
448,192,104169,1,8,0:0:0:0:
64,192,104319,1,0,0:0:0:0:
448,192,104469,1,8,0:0:0:0:
64,192,104619,1,0,0:0:0:0:
192,192,104769,1,2,0:0:0:0:
320,192,104769,1,8,0:0:0:0:
448,192,104919,128,0,105369:0:0:0:0:
64,192,105069,1,8,0:0:0:0:
192,192,105369,1,2,0:0:0:0:
320,192,105369,1,8,0:0:0:0:
64,192,105519,1,0,0:0:0:0:
448,192,105669,1,8,0:0:0:0:
320,192,105819,1,0,0:0:0:0:
192,192,105969,1,2,0:0:0:0:
448,192,105969,1,8,0:0:0:0:
64,192,106119,1,0,0:0:0:0:
320,192,106269,1,8,0:0:0:0:
448,192,106419,1,0,0:0:0:0:
64,192,106569,1,2,0:0:0:0:
192,192,106569,1,8,0:0:0:0:
320,192,106719,1,0,0:0:0:0:
192,192,106869,1,8,0:0:0:0:
448,192,107019,1,0,0:0:0:0:
64,192,107169,1,2,0:0:0:0:
192,192,107169,1,8,0:0:0:0:
320,192,107469,1,8,0:0:0:0:
448,192,107469,1,4,0:0:0:0:
64,192,107619,1,0,0:0:0:0:
192,192,107769,1,2,0:0:0:0:
448,192,107769,1,8,0:0:0:0:
320,192,107919,1,0,0:0:0:0:
64,192,108069,1,8,0:0:0:0:
448,192,108219,1,0,0:0:0:0:
192,192,108369,1,2,0:0:0:0:
320,192,108369,1,8,0:0:0:0:
64,192,108519,1,0,0:0:0:0:
320,192,108669,1,4,0:0:0:0:
448,192,108669,1,8,0:0:0:0:
192,192,108819,1,0,0:0:0:0:
64,192,108969,1,2,0:0:0:0:
320,192,108969,1,8,0:0:0:0:
448,192,109119,1,0,0:0:0:0:
192,192,109269,1,8,0:0:0:0:
320,192,109419,1,0,0:0:0:0:
64,192,109569,1,2,0:0:0:0:
448,192,109569,1,8,0:0:0:0:
320,192,109719,1,0,0:0:0:0:
64,192,109869,1,8,0:0:0:0:
192,192,109869,1,4,0:0:0:0:
448,192,110019,1,0,0:0:0:0:
192,192,110169,1,2,0:0:0:0:
320,192,110169,1,8,0:0:0:0:
64,192,110319,1,0,0:0:0:0:
320,192,110469,1,4,0:0:0:0:
448,192,110469,1,8,0:0:0:0:
192,192,110619,1,0,0:0:0:0:
64,192,110769,1,2,0:0:0:0:
448,192,110769,1,8,0:0:0:0:
320,192,110919,1,0,0:0:0:0:
64,192,111069,1,4,0:0:0:0:
192,192,111069,1,8,0:0:0:0:
448,192,111219,1,0,0:0:0:0:
64,192,111369,1,2,0:0:0:0:
192,192,111519,1,0,0:0:0:0:
448,192,111669,128,8,111819:0:0:0:0:
320,192,111819,128,8,111969:0:0:0:0:
64,192,111969,128,10,112269:0:0:0:0:
448,192,112269,1,12,0:0:0:0:
64,192,112569,1,2,0:0:0:0:
192,192,112569,1,8,0:0:0:0:
320,192,112719,1,0,0:0:0:0:
192,192,112869,1,8,0:0:0:0:
64,192,113169,1,2,0:0:0:0:
448,192,113169,1,8,0:0:0:0:
192,192,113319,1,0,0:0:0:0:
320,192,113469,1,8,0:0:0:0:
448,192,113619,1,0,0:0:0:0:
192,192,113769,1,2,0:0:0:0:
320,192,113769,1,8,0:0:0:0:
64,192,113919,1,0,0:0:0:0:
192,192,114069,1,8,0:0:0:0:
320,192,114369,1,2,0:0:0:0:
448,192,114369,1,8,0:0:0:0:
192,192,114519,1,0,0:0:0:0:
320,192,114669,1,8,0:0:0:0:
64,192,114969,1,2,0:0:0:0:
192,192,114969,1,8,0:0:0:0:
320,192,115119,1,0,0:0:0:0:
64,192,115269,1,8,0:0:0:0:
192,192,115569,1,2,0:0:0:0:
320,192,115569,1,8,0:0:0:0:
64,192,115719,1,0,0:0:0:0:
448,192,115869,1,8,0:0:0:0:
192,192,116019,1,0,0:0:0:0:
64,192,116169,1,2,0:0:0:0:
320,192,116169,1,8,0:0:0:0:
448,192,116469,1,8,0:0:0:0:
64,192,116619,1,0,0:0:0:0:
192,192,116769,1,2,0:0:0:0:
320,192,116769,1,8,0:0:0:0:
64,192,116919,1,0,0:0:0:0:
320,192,117069,1,8,0:0:0:0:
448,192,117069,1,4,0:0:0:0:
64,192,117369,1,2,0:0:0:0:
192,192,117369,1,8,0:0:0:0:
320,192,117519,1,0,0:0:0:0:
448,192,117669,1,8,0:0:0:0:
192,192,117819,1,0,0:0:0:0:
320,192,117969,1,8,0:0:0:0:
64,192,118119,1,2,0:0:0:0:
448,192,118119,1,0,0:0:0:0:
192,192,118419,1,8,0:0:0:0:
320,192,118569,1,2,0:0:0:0:
448,192,118569,1,8,0:0:0:0:
64,192,118719,1,0,0:0:0:0:
448,192,118869,1,8,0:0:0:0:
192,192,119019,1,0,0:0:0:0:
64,192,119169,1,2,0:0:0:0:
320,192,119169,1,8,0:0:0:0:
448,192,119319,1,0,0:0:0:0:
64,192,119469,1,8,0:0:0:0:
192,192,119469,1,4,0:0:0:0:
448,192,119619,1,8,0:0:0:0:
192,192,119769,1,2,0:0:0:0:
320,192,119769,1,8,0:0:0:0:
64,192,119919,1,8,0:0:0:0:
448,192,120069,1,8,0:0:0:0:
192,192,120219,1,2,0:0:0:0:
320,192,120219,1,8,0:0:0:0:
64,192,120369,1,8,0:0:0:0:
192,192,120519,1,2,0:0:0:0:
448,192,120519,1,8,0:0:0:0:
320,192,120819,1,8,0:0:0:0:
192,192,120969,1,8,0:0:0:0:
64,192,121119,128,2,121869:0:0:0:0:
448,192,121119,128,0,121869:0:0:0:0:
