osu file format v14

[General]
AudioFilename: Xp.mp3
AudioLeadIn: 0
PreviewTime: 73869
Countdown: 0
SampleSet: Soft
StackLeniency: 0.7
Mode: 3
LetterboxInBreaks: 0
SpecialStyle: 0
WidescreenStoryboard: 0

[Editor]
Bookmarks: 6669,11469,16269,18669,19869,21069,25869,33069,35769,42369,45069,54669,64269,69069,73869,90369,93069,97869,102369,111669
DistanceSpacing: 0.8
BeatDivisor: 4
GridSize: 16
TimelineZoom: 0.9

[Metadata]
Title:Xperanza
TitleUnicode:Xperanza
Artist:aran
ArtistUnicode:aran
Creator:-MysticEyes
Version:Easy
Source:beatmania IIDX 25 CANNON BALLERS
Tags:LN Hybrid Hardcore Konami
BeatmapID:1654127
BeatmapSetID:788120

[Difficulty]
HPDrainRate:7
CircleSize:4
OverallDifficulty:7
ApproachRate:5
SliderMultiplier:1.4
SliderTickRate:1

[Events]
//Background and Video events
0,0,"xperanza.jpg",0,0
//Break Periods
//Storyboard Layer 0 (Background)
//Storyboard Layer 1 (Fail)
//Storyboard Layer 2 (Pass)
//Storyboard Layer 3 (Foreground)
//Storyboard Sound Samples
Sample,3069,0,"sSoft.wav",60
Sample,4269,0,"sSoft.wav",60
Sample,5469,0,"sSoft.wav",60
Sample,6669,0,"sSoft.wav",60
Sample,9069,0,"sSoft.wav",70
Sample,64569,0,"HHClose.wav",75
Sample,64869,0,"HHClose.wav",75
Sample,65169,0,"HHClose.wav",75
Sample,65469,0,"HHClose.wav",75
Sample,65769,0,"HHClose.wav",75
Sample,66069,0,"HHClose.wav",75
Sample,66369,0,"HHClose.wav",75
Sample,66669,0,"HHClose.wav",75
Sample,66969,0,"HHClose.wav",75
Sample,67269,0,"HHClose.wav",75
Sample,67569,0,"HHClose.wav",75
Sample,67869,0,"HHClose.wav",75
Sample,68169,0,"HHClose.wav",75
Sample,68469,0,"sSoft.wav",60
Sample,93369,0,"Burst.wav",90
Sample,93969,0,"Burst.wav",90
Sample,94569,0,"Burst.wav",90
Sample,95169,0,"Burst.wav",90
Sample,95769,0,"Burst.wav",90
Sample,96369,0,"Burst.wav",90
Sample,96969,0,"Burst.wav",90
Sample,97569,0,"Burst.wav",90
Sample,98169,0,"Burst.wav",90
Sample,98769,0,"Burst.wav",90
Sample,101469,0,"Burst.wav",90
Sample,101694,0,"Burst.wav",90
Sample,101919,0,"Burst.wav",90
Sample,102144,0,"Burst.wav",90
Sample,102369,0,"Burst.wav",90

[TimingPoints]
1869,300,4,2,1,60,1,0
73869,-100,4,2,1,60,0,1
93069,-100,4,2,1,60,0,0
102969,-100,4,2,1,60,0,1
111069,-100,4,2,1,60,0,0
112269,-100,4,2,1,60,0,1
121119,-100,4,2,1,60,0,0

[HitObjects]
64,192,1869,5,12,0:0:0:0:
448,192,1869,1,0,0:0:0:60:sSoft.wav
320,192,2469,1,0,0:0:0:60:sSoft.wav
448,192,3069,1,8,0:0:0:0:
192,192,3669,1,0,0:0:0:60:sSoft.wav
64,192,4269,1,8,0:0:0:0:
448,192,4869,1,0,0:0:0:60:sSoft.wav
320,192,5469,1,8,0:0:0:0:
192,192,6069,1,0,0:0:0:60:sSoft.wav
448,192,6669,1,8,0:0:0:0:
64,192,6969,1,0,0:0:0:60:sSoft.wav
192,192,7269,1,0,0:0:0:60:sSoft.wav
320,192,7569,1,0,0:0:0:60:sSoft.wav
448,192,7869,1,8,0:0:0:0:
192,192,8169,1,0,0:0:0:70:sSoft.wav
448,192,8469,1,0,0:0:0:70:sSoft.wav
64,192,8769,1,0,0:0:0:70:sSoft.wav
320,192,9069,1,8,0:0:0:0:
448,192,9369,1,0,0:0:0:70:sSoft.wav
192,192,9669,1,0,0:0:0:60:sSoft.wav
320,192,9969,1,0,0:0:0:60:sSoft.wav
64,192,10269,1,8,0:0:0:0:
448,192,10569,1,0,0:0:0:60:sSoft.wav
192,192,10869,1,8,0:0:0:0:
64,192,11169,1,0,0:0:0:60:sSoft.wav
320,192,11469,1,12,0:0:0:0:
448,192,11469,1,0,0:0:0:60:sSoft.wav
192,192,11769,1,0,0:0:0:60:sSoft.wav
320,192,12069,1,0,0:0:0:60:sSoft.wav
64,192,12369,1,0,0:0:0:60:sSoft.wav
448,192,12669,1,0,0:0:0:60:sSoft.wav
320,192,12969,1,0,0:0:0:60:sSoft.wav
192,192,13269,1,0,0:0:0:60:sSoft.wav
64,192,13569,1,0,0:0:0:60:sSoft.wav
320,192,13869,1,12,0:0:0:0:
448,192,13869,1,0,0:0:0:60:sSoft.wav
192,192,14169,1,0,0:0:0:60:sSoft.wav
64,192,14469,1,0,0:0:0:60:sSoft.wav
320,192,14769,1,0,0:0:0:60:sSoft.wav
448,192,15069,1,0,0:0:0:60:sSoft.wav
64,192,15369,1,0,0:0:0:60:sSoft.wav
192,192,15669,1,0,0:0:0:60:sSoft.wav
320,192,15969,1,12,0:0:0:0:
448,192,15969,1,0,0:0:0:60:sSoft.wav
64,192,16269,1,12,0:0:0:0:
192,192,16269,1,0,0:0:0:75:HHClose.wav
448,192,16569,1,0,0:0:0:75:HHClose.wav
192,192,16869,1,12,0:0:0:0:
320,192,16869,1,0,0:0:0:75:HHClose.wav
64,192,17169,1,0,0:0:0:75:HHClose.wav
320,192,17469,1,12,0:0:0:0:
448,192,17469,1,0,0:0:0:75:HHClose.wav
192,192,17769,1,0,0:0:0:75:HHClose.wav
64,192,18069,1,12,0:0:0:0:
448,192,18069,1,0,0:0:0:75:HHClose.wav
320,192,18369,1,0,0:0:0:75:HHClose.wav
64,192,18669,1,12,0:0:0:0:
192,192,18669,1,0,0:0:0:75:HHClose.wav
320,192,18969,1,12,0:0:0:0:
448,192,18969,1,0,0:0:0:75:HHClose.wav
64,192,19269,1,12,0:0:0:0:
192,192,19269,1,0,0:0:0:75:HHClose.wav
320,192,19569,1,12,0:0:0:0:
448,192,19569,1,0,0:0:0:75:HHClose.wav
64,192,19869,1,12,0:0:0:0:
192,192,19869,1,0,0:0:0:75:HHClose.wav
320,192,20769,128,8,21069:0:0:0:0:
64,192,21069,1,4,0:0:0:0:
448,192,21069,1,8,0:0:0:0:
192,192,21369,1,8,0:0:0:0:
320,192,21669,1,8,0:0:0:0:
448,192,21969,1,8,0:0:0:0:
64,192,22269,1,8,0:0:0:0:
192,192,22269,1,4,0:0:0:0:
320,192,22569,1,8,0:0:0:0:
192,192,22869,1,8,0:0:0:0:
64,192,23169,1,8,0:0:0:0:
320,192,23469,1,4,0:0:0:0:
448,192,23469,1,8,0:0:0:0:
320,192,23769,1,0,0:0:0:90:Burst.wav
64,192,24069,1,12,0:0:0:0:
192,192,24069,1,0,0:0:0:90:Burst.wav
64,192,24369,1,0,0:0:0:90:Burst.wav
320,192,24669,128,12,25569:0:0:0:0:
448,192,24669,1,0,0:0:0:90:Burst.wav
192,192,25569,1,0,0:0:0:0:
64,192,25869,1,8,0:0:0:0:
448,192,25869,1,0,0:0:0:0:
320,192,26319,1,8,0:0:0:0:
64,192,26469,1,2,0:0:0:0:
192,192,26469,1,0,0:0:0:0:
448,192,26919,1,8,0:0:0:0:
192,192,27069,1,8,0:0:0:0:
64,192,27369,1,8,0:0:0:0:
192,192,27669,1,2,0:0:0:0:
320,192,27669,1,0,0:0:0:0:
448,192,27969,1,0,0:0:0:0:
64,192,28269,1,8,0:0:0:0:
320,192,28719,1,8,0:0:0:0:
64,192,28869,1,2,0:0:0:0:
192,192,28869,1,0,0:0:0:0:
192,192,29319,1,8,0:0:0:0:
448,192,29469,1,8,0:0:0:0:
320,192,29769,1,8,0:0:0:0:
64,192,30069,1,2,0:0:0:0:
192,192,30069,1,0,0:0:0:0:
448,192,30369,1,8,0:0:0:0:
320,192,30519,1,2,0:0:0:0:
64,192,30669,1,4,0:0:0:0:
192,192,30669,1,8,0:0:0:0:
192,192,31119,1,8,0:0:0:0:
320,192,31269,1,2,0:0:0:0:
448,192,31269,1,0,0:0:0:0:
64,192,31719,1,8,0:0:0:0:
320,192,31869,1,8,0:0:0:0:
192,192,32169,1,8,0:0:0:0:
64,192,32469,1,2,0:0:0:0:
448,192,32469,1,0,0:0:0:0:
320,192,32769,1,0,0:0:0:0:
64,192,33069,1,4,0:0:0:0:
192,192,33069,1,8,0:0:0:0:
320,192,33369,1,0,0:0:0:60:sSoft.wav
192,192,33669,1,0,0:0:0:60:sSoft.wav
320,192,33969,1,4,0:0:0:0:
448,192,33969,1,8,0:0:0:0:
64,192,34269,1,4,0:0:0:0:
192,192,34269,1,8,0:0:0:0:
64,192,34719,1,2,0:0:0:0:
448,192,34719,1,0,0:0:0:60:sSoft.wav
64,192,35169,1,2,0:0:0:0:
448,192,35169,1,0,0:0:0:60:sSoft.wav
64,192,35769,1,12,0:0:0:0:
320,192,36069,1,2,0:0:0:0:
448,192,36069,1,0,0:0:0:0:
192,192,36519,1,8,0:0:0:0:
320,192,36669,1,8,0:0:0:0:
64,192,36969,1,8,0:0:0:0:
320,192,37269,1,2,0:0:0:0:
448,192,37269,1,0,0:0:0:0:
192,192,37569,1,8,0:0:0:0:
448,192,37869,1,8,0:0:0:0:
320,192,38319,1,8,0:0:0:0:
64,192,38469,1,2,0:0:0:0:
192,192,38469,1,0,0:0:0:0:
448,192,38769,1,8,0:0:0:0:
192,192,39069,1,8,0:0:0:0:
320,192,39369,1,8,0:0:0:0:
64,192,39669,1,2,0:0:0:0:
448,192,39669,1,0,0:0:0:0:
192,192,39969,1,8,0:0:0:0:
320,192,40119,1,2,0:0:0:0:
448,192,40119,1,0,0:0:0:0:
64,192,40269,1,12,0:0:0:0:
320,192,40569,1,2,0:0:0:0:
448,192,40569,1,0,0:0:0:0:
192,192,40869,1,8,0:0:0:0:
320,192,41319,1,2,0:0:0:0:
448,192,41319,1,4,0:0:0:0:
64,192,41619,1,8,0:0:0:0:
320,192,41769,1,2,0:0:0:0:
448,192,41769,1,0,0:0:0:0:
320,192,42069,1,8,0:0:0:0:
64,192,42369,1,2,0:0:0:0:
192,192,42369,1,0,0:0:0:0:
320,192,42669,1,8,0:0:0:0:
448,192,42669,1,4,0:0:0:0:
64,192,42969,1,0,0:0:0:90:Burst.wav
320,192,43269,1,0,0:0:0:90:Burst.wav
192,192,43569,1,0,0:0:0:90:Burst.wav
448,192,43869,128,0,44169:0:0:0:90:Burst.wav
320,192,44169,128,0,44469:0:0:0:90:Burst.wav
64,192,44469,128,0,44769:0:0:0:90:Burst.wav
192,192,44769,128,0,45069:0:0:0:90:Burst.wav
448,192,45069,128,12,45819:0:0:0:0:
320,192,45819,1,8,0:0:0:0:
64,192,45969,1,2,0:0:0:0:
192,192,45969,1,0,0:0:0:0:
64,192,46269,1,8,0:0:0:0:
448,192,46269,1,4,0:0:0:0:
192,192,46569,1,8,0:0:0:0:
320,192,46869,1,2,0:0:0:0:
448,192,46869,1,0,0:0:0:0:
64,192,47169,1,0,0:0:0:0:
320,192,47469,1,8,0:0:0:0:
192,192,47919,1,8,0:0:0:0:
320,192,48069,1,2,0:0:0:0:
448,192,48069,1,0,0:0:0:0:
64,192,48369,1,0,0:0:0:0:
320,192,48669,1,8,0:0:0:0:
192,192,48969,1,8,0:0:0:0:
64,192,49269,1,2,0:0:0:0:
448,192,49269,1,0,0:0:0:0:
192,192,49569,1,12,0:0:0:0:
64,192,49719,1,6,0:0:0:0:
448,192,49869,1,8,0:0:0:0:
320,192,49869,1,4,0:0:0:0:
320,192,50319,1,8,0:0:0:0:
64,192,50469,1,2,0:0:0:0:
192,192,50469,1,0,0:0:0:0:
320,192,50769,1,8,0:0:0:0:
448,192,50919,1,2,0:0:0:0:
64,192,51069,1,12,0:0:0:0:
192,192,51069,1,0,0:0:0:0:
320,192,51369,1,8,0:0:0:0:
64,192,51669,1,2,0:0:0:0:
448,192,51669,1,0,0:0:0:0:
192,192,51969,1,8,0:0:0:0:
64,192,52119,1,2,0:0:0:0:
448,192,52269,1,12,0:0:0:0:
320,192,52269,1,0,0:0:0:0:
64,192,52569,1,2,0:0:0:0:
192,192,52569,1,0,0:0:0:0:
448,192,52869,1,12,0:0:0:0:
64,192,53019,1,2,0:0:0:0:
192,192,53019,1,0,0:0:0:0:
320,192,53319,1,12,0:0:0:0:
448,192,53319,1,0,0:0:0:0:
64,192,53619,1,2,0:0:0:0:
192,192,53619,1,0,0:0:0:0:
320,192,53919,1,12,0:0:0:0:
448,192,53919,1,0,0:0:0:0:
64,192,54219,1,8,0:0:0:0:
192,192,54369,1,2,0:0:0:0:
320,192,54369,1,0,0:0:0:0:
64,192,54669,128,4,55869:0:0:0:0:
448,192,54669,1,8,0:0:0:0:
320,192,55869,128,0,57069:0:0:0:60:sSoft.wav
192,192,57069,128,0,58269:0:0:0:60:sSoft.wav
448,192,58269,128,0,59469:0:0:0:60:sSoft.wav
64,192,59469,1,0,0:0:0:60:HHClose.wav
320,192,59769,1,0,0:0:0:60:HHClose.wav
192,192,60069,1,0,0:0:0:60:HHClose.wav
64,192,60369,1,0,0:0:0:60:HHClose.wav
448,192,60669,1,0,0:0:0:60:HHClose.wav
192,192,60969,1,0,0:0:0:60:HHClose.wav
320,192,61269,1,0,0:0:0:60:HHClose.wav
448,192,61569,1,0,0:0:0:60:HHClose.wav
64,192,61869,1,0,0:0:0:60:HHClose.wav
192,192,62169,1,0,0:0:0:60:HHClose.wav
320,192,62469,1,0,0:0:0:60:HHClose.wav
448,192,62769,1,0,0:0:0:60:HHClose.wav
192,192,63069,1,0,0:0:0:60:HHClose.wav
64,192,63369,1,0,0:0:0:60:HHClose.wav
448,192,63669,1,0,0:0:0:60:HHClose.wav
320,192,63969,1,0,0:0:0:60:HHClose.wav
64,192,64269,1,12,0:0:0:0:
192,192,64269,1,0,0:0:0:75:HHClose.wav
448,192,64569,1,8,0:0:0:0:
320,192,64869,1,8,0:0:0:0:
192,192,65169,1,8,0:0:0:0:
448,192,65469,1,8,0:0:0:0:
64,192,65769,1,8,0:0:0:0:
320,192,66069,1,8,0:0:0:0:
192,192,66369,1,8,0:0:0:0:
64,192,66669,1,8,0:0:0:0:
448,192,66969,1,8,0:0:0:0:
192,192,67269,1,8,0:0:0:0:
320,192,67569,1,8,0:0:0:0:
64,192,67869,1,8,0:0:0:0:
192,192,68169,1,8,0:0:0:0:
320,192,68469,128,12,69069:0:0:0:0:
64,192,69069,1,8,0:0:0:0:
192,192,69069,1,4,0:0:0:0:
448,192,69369,1,8,0:0:0:0:
320,192,69669,1,4,0:0:0:0:
448,192,69669,1,8,0:0:0:0:
192,192,69969,1,8,0:0:0:0:
64,192,70269,1,4,0:0:0:0:
192,192,70269,1,8,0:0:0:0:
320,192,70569,1,8,0:0:0:0:
320,192,70869,1,8,0:0:0:0:
448,192,70869,1,4,0:0:0:0:
64,192,71169,1,8,0:0:0:0:
64,192,71469,1,4,0:0:0:0:
192,192,71469,1,8,0:0:0:0:
448,192,71769,1,12,0:0:0:0:
320,192,72069,1,12,0:0:0:0:
192,192,72369,1,12,0:0:0:0:
64,192,72669,1,4,0:0:0:0:
448,192,72669,128,8,73569:0:0:0:0:
320,192,73569,1,0,0:0:0:0:
64,192,73869,1,8,0:0:0:0:
192,192,73869,1,0,0:0:0:0:
320,192,74169,1,2,0:0:0:0:
448,192,74169,1,8,0:0:0:0:
192,192,74469,1,8,0:0:0:0:
320,192,74769,1,2,0:0:0:0:
448,192,74769,1,8,0:0:0:0:
448,192,75069,1,8,0:0:0:0:
64,192,75369,1,2,0:0:0:0:
192,192,75369,1,8,0:0:0:0:
320,192,75669,1,8,0:0:0:0:
64,192,75969,1,2,0:0:0:0:
192,192,75969,1,8,0:0:0:0:
64,192,76269,1,8,0:0:0:0:
320,192,76569,1,2,0:0:0:0:
448,192,76569,1,8,0:0:0:0:
64,192,76869,1,8,0:0:0:0:
64,192,77169,1,2,0:0:0:0:
192,192,77169,1,8,0:0:0:0:
320,192,77469,1,8,0:0:0:0:
64,192,77769,1,2,0:0:0:0:
448,192,77769,1,0,0:0:0:0:
192,192,78069,1,8,0:0:0:0:
64,192,78369,128,2,78669:0:0:0:0:
320,192,78369,1,8,0:0:0:0:
192,192,78669,1,8,0:0:0:0:
320,192,78969,1,2,0:0:0:0:
448,192,78969,1,8,0:0:0:0:
320,192,79269,1,8,0:0:0:0:
64,192,79569,1,2,0:0:0:0:
192,192,79569,1,8,0:0:0:0:
320,192,79869,1,8,0:0:0:0:
64,192,80169,1,2,0:0:0:0:
192,192,80169,1,8,0:0:0:0:
192,192,80469,1,8,0:0:0:0:
320,192,80769,1,2,0:0:0:0:
448,192,80769,1,8,0:0:0:0:
320,192,81069,1,8,0:0:0:0:
64,192,81369,1,2,0:0:0:0:
192,192,81369,1,8,0:0:0:0:
64,192,81669,1,8,0:0:0:0:
320,192,81969,1,2,0:0:0:0:
448,192,81969,1,0,0:0:0:0:
64,192,82269,128,12,82719:0:0:0:0:
320,192,82719,1,12,0:0:0:0:
192,192,83019,1,12,0:0:0:0:
320,192,83169,1,14,0:0:0:0:
64,192,83619,1,8,0:0:0:0:
320,192,83769,1,2,0:0:0:0:
448,192,83769,1,8,0:0:0:0:
192,192,84069,1,8,0:0:0:0:
320,192,84369,1,2,0:0:0:0:
448,192,84369,1,8,0:0:0:0:
448,192,84669,1,8,0:0:0:0:
64,192,84969,1,2,0:0:0:0:
192,192,84969,1,8,0:0:0:0:
320,192,85269,1,8,0:0:0:0:
64,192,85569,1,2,0:0:0:0:
192,192,85569,1,8,0:0:0:0:
64,192,85869,1,8,0:0:0:0:
320,192,86169,1,2,0:0:0:0:
448,192,86169,1,8,0:0:0:0:
192,192,86469,1,8,0:0:0:0:
320,192,86769,1,2,0:0:0:0:
448,192,86769,1,8,0:0:0:0:
448,192,87069,1,8,0:0:0:0:
64,192,87369,1,2,0:0:0:0:
192,192,87369,1,8,0:0:0:0:
320,192,87669,1,8,0:0:0:0:
320,192,87969,1,2,0:0:0:0:
448,192,87969,1,8,0:0:0:0:
64,192,88269,1,8,0:0:0:0:
192,192,88269,1,4,0:0:0:0:
320,192,88569,1,2,0:0:0:0:
448,192,88569,1,8,0:0:0:0:
192,192,88869,1,8,0:0:0:0:
64,192,89169,1,2,0:0:0:0:
192,192,89169,1,8,0:0:0:0:
64,192,89469,1,8,0:0:0:0:
448,192,89469,1,4,0:0:0:0:
320,192,89769,1,2,0:0:0:0:
448,192,89769,1,8,0:0:0:0:
320,192,90069,1,8,0:0:0:0:
64,192,90369,1,2,0:0:0:0:
192,192,90369,1,8,0:0:0:0:
64,192,90669,1,4,0:0:0:0:
192,192,90669,1,8,0:0:0:0:
320,192,90969,1,2,0:0:0:0:
448,192,90969,1,8,0:0:0:0:
320,192,91269,1,4,0:0:0:0:
448,192,91269,1,8,0:0:0:0:
64,192,91569,1,2,0:0:0:0:
192,192,91569,1,8,0:0:0:0:
320,192,91869,1,8,0:0:0:0:
448,192,91869,1,4,0:0:0:0:
320,192,92169,1,8,0:0:0:0:
448,192,92169,1,4,0:0:0:0:
64,192,92469,128,8,93069:0:0:0:0:
448,192,93069,1,12,0:0:0:0:
320,192,93369,1,0,0:0:0:60:sSoft.wav
64,192,93669,1,0,0:0:0:60:sSoft.wav
192,192,93969,1,0,0:0:0:60:sSoft.wav
448,192,94269,1,0,0:0:0:60:sSoft.wav
320,192,94569,1,0,0:0:0:60:sSoft.wav
64,192,94869,1,0,0:0:0:60:sSoft.wav
192,192,95169,1,0,0:0:0:60:sSoft.wav
320,192,95469,1,0,0:0:0:60:sSoft.wav
448,192,95769,1,0,0:0:0:60:sSoft.wav
192,192,96069,1,0,0:0:0:60:sSoft.wav
64,192,96369,1,0,0:0:0:60:sSoft.wav
320,192,96669,1,0,0:0:0:60:sSoft.wav
448,192,96969,1,0,0:0:0:60:sSoft.wav
192,192,97269,1,0,0:0:0:60:sSoft.wav
64,192,97569,1,0,0:0:0:60:sSoft.wav
320,192,97869,1,4,0:0:0:0:
448,192,97869,1,8,0:0:0:0:
192,192,98169,1,8,0:0:0:0:
320,192,98469,1,8,0:0:0:0:
448,192,98469,1,4,0:0:0:0:
192,192,98769,1,8,0:0:0:0:
64,192,99069,1,4,0:0:0:0:
192,192,99069,1,8,0:0:0:0:
320,192,99369,1,0,0:0:0:90:Burst.wav
64,192,99669,1,8,0:0:0:0:
192,192,99669,1,4,0:0:0:0:
320,192,99969,1,0,0:0:0:90:Burst.wav
64,192,100269,1,12,0:0:0:0:
448,192,100269,1,0,0:0:0:90:Burst.wav
320,192,100569,1,12,0:0:0:0:
448,192,100569,1,0,0:0:0:90:Burst.wav
64,192,100869,1,12,0:0:0:0:
192,192,100869,1,0,0:0:0:90:Burst.wav
64,192,101169,1,12,0:0:0:0:
448,192,101169,1,0,0:0:0:90:Burst.wav
192,192,101469,1,12,0:0:0:0:
320,192,101694,1,12,0:0:0:0:
192,192,101919,1,12,0:0:0:0:
320,192,102144,1,12,0:0:0:0:
448,192,102369,128,12,102969:0:0:0:0:
64,192,102969,1,2,0:0:0:0:
192,192,102969,1,8,0:0:0:0:
320,192,103119,1,8,0:0:0:0:
448,192,103269,1,8,0:0:0:0:
64,192,103569,1,2,0:0:0:0:
192,192,103569,1,8,0:0:0:0:
320,192,103869,1,8,0:0:0:0:
320,192,104169,1,2,0:0:0:0:
448,192,104169,1,8,0:0:0:0:
64,192,104469,1,8,0:0:0:0:
320,192,104769,1,2,0:0:0:0:
448,192,104769,1,8,0:0:0:0:
448,192,105069,1,8,0:0:0:0:
64,192,105369,1,2,0:0:0:0:
192,192,105369,1,8,0:0:0:0:
320,192,105669,1,8,0:0:0:0:
64,192,105969,1,2,0:0:0:0:
192,192,105969,1,8,0:0:0:0:
192,192,106269,1,8,0:0:0:0:
320,192,106569,1,2,0:0:0:0:
448,192,106569,1,8,0:0:0:0:
320,192,106869,1,8,0:0:0:0:
64,192,107169,1,2,0:0:0:0:
192,192,107169,1,8,0:0:0:0:
320,192,107469,1,8,0:0:0:0:
448,192,107469,1,4,0:0:0:0:
64,192,107769,1,2,0:0:0:0:
192,192,107769,1,8,0:0:0:0:
320,192,108069,1,8,0:0:0:0:
320,192,108369,1,2,0:0:0:0:
448,192,108369,1,8,0:0:0:0:
64,192,108669,1,4,0:0:0:0:
192,192,108669,1,8,0:0:0:0:
320,192,108969,1,2,0:0:0:0:
448,192,108969,1,8,0:0:0:0:
192,192,109269,1,8,0:0:0:0:
64,192,109569,1,2,0:0:0:0:
192,192,109569,1,8,0:0:0:0:
320,192,109869,128,8,110169:0:0:0:0:
448,192,109869,1,4,0:0:0:0:
64,192,110169,1,2,0:0:0:0:
192,192,110169,1,8,0:0:0:0:
64,192,110469,1,4,0:0:0:0:
192,192,110469,128,8,110769:0:0:0:0:
320,192,110769,1,2,0:0:0:0:
448,192,110769,1,8,0:0:0:0:
64,192,111069,1,4,0:0:0:0:
448,192,111069,1,8,0:0:0:0:
192,192,111369,1,2,0:0:0:0:
320,192,111669,128,8,112269:0:0:0:0:
64,192,112269,1,4,0:0:0:0:
192,192,112269,1,8,0:0:0:0:
64,192,112569,1,2,0:0:0:0:
448,192,112569,1,8,0:0:0:0:
192,192,112869,1,8,0:0:0:0:
320,192,113169,1,2,0:0:0:0:
448,192,113169,1,8,0:0:0:0:
192,192,113469,1,8,0:0:0:0:
64,192,113769,1,2,0:0:0:0:
320,192,113769,1,8,0:0:0:0:
448,192,114069,1,8,0:0:0:0:
64,192,114369,1,2,0:0:0:0:
192,192,114369,1,8,0:0:0:0:
448,192,114669,1,8,0:0:0:0:
64,192,114969,1,2,0:0:0:0:
192,192,114969,1,8,0:0:0:0:
448,192,115269,1,8,0:0:0:0:
192,192,115569,1,2,0:0:0:0:
320,192,115569,1,8,0:0:0:0:
64,192,115869,1,8,0:0:0:0:
320,192,116169,1,2,0:0:0:0:
448,192,116169,1,8,0:0:0:0:
64,192,116469,1,8,0:0:0:0:
192,192,116769,1,2,0:0:0:0:
448,192,116769,1,8,0:0:0:0:
192,192,117069,1,8,0:0:0:0:
320,192,117069,1,4,0:0:0:0:
64,192,117369,1,2,0:0:0:0:
448,192,117369,1,8,0:0:0:0:
192,192,117669,1,8,0:0:0:0:
448,192,117969,1,8,0:0:0:0:
64,192,118119,1,2,0:0:0:0:
192,192,118119,1,0,0:0:0:0:
320,192,118419,1,8,0:0:0:0:
64,192,118569,1,2,0:0:0:0:
192,192,118569,1,8,0:0:0:0:
320,192,118869,1,8,0:0:0:0:
64,192,119169,1,2,0:0:0:0:
448,192,119169,1,8,0:0:0:0:
192,192,119469,1,8,0:0:0:0:
320,192,119469,1,4,0:0:0:0:
320,192,119769,1,2,0:0:0:0:
448,192,119769,1,8,0:0:0:0:
64,192,120069,1,8,0:0:0:0:
192,192,120219,1,2,0:0:0:0:
320,192,120219,1,8,0:0:0:0:
320,192,120519,1,2,0:0:0:0:
448,192,120519,1,8,0:0:0:0:
64,192,120819,1,8,0:0:0:0:
192,192,120969,1,8,0:0:0:0:
320,192,121119,1,0,0:0:0:0:
448,192,121119,128,2,121869:0:0:0:0:
