osu file format v14

[General]
AudioFilename: audio.mp3
AudioLeadIn: 0
PreviewTime: 200105
Countdown: 0
SampleSet: Normal
StackLeniency: 0.6
Mode: 0
LetterboxInBreaks: 0
WidescreenStoryboard: 1

[Editor]
Bookmarks: 22709,33144,43579,54013,61839,64448,72274,74883,82709,85318,95753,106187,116622,127057,137492,147926,155753,158361,168796,179231,189666,200100,210535,220970
DistanceSpacing: 1.6
BeatDivisor: 4
GridSize: 32
TimelineZoom: 2.799999

[Metadata]
Title:VOLT (USAO Remix)
TitleUnicode:VOLT (USAO Remix)
Artist:aran
ArtistUnicode:aran
Creator:C00L
Version:xChorse's Hard
Source:GROOVE COASTER
Tags:dubstep melodic electronic video game drumstep instrumental dnb english ARCHVS c93 taito cool SnowNiNo_ NiNo xChorse DTM9 Nowa Plaudible
BeatmapID:1875486
BeatmapSetID:732280

[Difficulty]
HPDrainRate:4.4
CircleSize:3.2
OverallDifficulty:5.8
ApproachRate:7.8
SliderMultiplier:1.1
SliderTickRate:1

[Events]
//Background and Video events
0,0,"Electric_city.jpg",0,0
//Break Periods
2,116827,125758
//Storyboard Layer 0 (Background)
//Storyboard Layer 1 (Fail)
//Storyboard Layer 2 (Pass)
//Storyboard Layer 3 (Foreground)
//Storyboard Layer 4 (Overlay)
//Storyboard Sound Samples

[TimingPoints]
1845,326.086956521739,4,2,3,30,1,0
22388,-100,4,2,3,10,0,0
22714,-100,4,2,3,30,0,0
30540,-100,4,2,3,35,0,0
30785,-100,4,2,3,5,0,0
30866,-100,4,2,3,35,0,0
31437,-100,4,2,3,5,0,0
31518,-100,4,2,3,35,0,0
33067,-100,4,2,3,10,0,0
33149,-100,4,2,3,40,0,0
43584,-100,4,3,6,50,0,0
52714,-100,4,1,2,40,0,0
53692,-100,4,1,2,60,0,0
54018,-100,4,3,1,70,0,0
54589,-100,4,3,1,10,0,0
54671,-100,4,3,1,70,0,0
56546,-100,4,3,1,10,0,0
56627,-100,4,3,1,70,0,0
56872,-100,4,3,1,10,0,0
56953,-100,4,3,1,70,0,0
57524,-100,4,3,1,10,0,0
57605,-100,4,3,1,70,0,0
58828,-100,4,3,1,10,0,0
58910,-100,4,1,2,70,0,0
58991,-100,4,1,2,10,0,0
59236,-100,4,3,1,70,0,0
59480,-100,4,3,1,10,0,0
59562,-100,4,3,1,70,0,0
61437,-100,4,3,1,10,0,0
61518,-100,4,3,1,70,0,0
61844,-100,4,3,1,55,0,0
62741,-100,4,3,1,10,0,0
62823,-100,4,3,1,55,0,0
63393,-100,4,3,1,10,0,0
63475,-100,4,3,1,55,0,0
63719,-100,4,3,1,10,0,0
63801,-100,4,3,1,55,0,0
64372,-100,4,3,1,10,0,0
64453,-100,4,3,1,70,0,0
65024,-100,4,3,1,10,0,0
65105,-100,4,3,1,70,0,0
66980,-100,4,3,1,10,0,0
67062,-100,4,3,1,70,0,0
67306,-100,4,3,1,10,0,0
67388,-100,4,3,1,70,0,0
67959,-100,4,3,1,10,0,0
68040,-100,4,3,1,70,0,0
69263,-100,4,3,1,10,0,0
69344,-100,4,1,2,70,0,0
69426,-100,4,1,2,10,0,0
69671,-100,4,3,1,70,0,0
69915,-100,4,3,1,10,0,0
69997,-100,4,3,1,70,0,0
71872,-100,4,3,1,10,0,0
71953,-100,4,3,1,70,0,0
72279,-100,4,3,4,50,0,0
74562,-100,4,1,4,60,0,0
74888,-100,4,3,4,80,0,1
75866,-100,4,1,4,80,0,1
76192,-100,4,3,4,80,0,1
77171,-100,4,1,4,80,0,1
77497,-100,4,3,4,80,0,1
78475,-100,4,1,4,80,0,1
78801,-100,4,3,4,80,0,1
79779,-100,4,1,4,80,0,1
80105,-100,4,3,4,80,0,1
81084,-100,4,1,4,80,0,1
81410,-100,4,3,4,80,0,1
82388,-100,4,1,4,80,0,1
82389,-100,4,1,4,80,0,1
82714,-100,4,3,4,60,0,0
84915,-100,4,3,4,10,0,0
84997,-100,4,1,4,60,0,0
85323,-100,4,3,4,80,0,1
86301,-100,4,1,4,80,0,1
86627,-100,4,3,4,80,0,1
87605,-100,4,1,4,80,0,1
87931,-100,4,3,4,80,0,1
88910,-100,4,1,4,80,0,1
89236,-100,4,3,4,80,0,1
90214,-100,4,1,4,80,0,1
90540,-100,4,3,4,80,0,1
91518,-100,4,1,4,80,0,1
91844,-100,4,3,4,80,0,1
92823,-100,4,1,4,80,0,1
93149,-100,4,3,4,75,0,1
93801,-100,4,3,4,70,0,1
94453,-100,4,1,2,80,0,1
94698,-100,4,1,2,10,0,1
94779,-100,4,1,2,80,0,1
95105,-100,4,1,2,80,0,1
95431,-100,4,3,4,70,0,1
95676,-100,4,3,4,10,0,1
95758,-100,4,1,2,55,0,0
96002,-100,4,1,2,10,0,0
96084,-100,4,1,2,55,0,0
98081,-100,4,1,2,10,0,0
98366,-100,4,1,2,55,0,0
98611,-100,4,1,2,10,0,0
98692,-100,4,1,2,55,0,0
100893,-100,4,1,2,5,0,0
100975,-100,4,1,2,55,0,0
103828,-100,4,1,2,10,0,0
103910,-100,4,1,2,55,0,0
105866,-100,4,1,2,60,0,0
106111,-100,4,1,2,10,0,0
106192,-100,4,1,2,55,0,0
106437,-100,4,1,2,10,0,0
106518,-100,4,1,2,55,0,0
107741,-100,4,1,2,10,0,0
107823,-100,4,1,2,55,0,0
108516,-100,4,1,2,10,0,0
108801,-100,4,1,2,55,0,0
109046,-100,4,1,2,10,0,0
109127,-100,4,1,2,55,0,0
110350,-100,4,1,2,10,0,0
110431,-100,4,1,2,55,0,0
111328,-100,4,1,2,10,0,0
111410,-100,4,1,2,50,0,0
112959,-100,4,1,2,10,0,0
113040,-100,4,1,2,50,0,0
113285,-100,4,1,2,10,0,0
113366,-100,4,1,2,50,0,0
114018,-100,4,1,2,45,0,0
115323,-100,4,1,2,40,0,0
115975,-100,4,1,2,40,0,0
116627,-100,4,2,3,50,0,0
127062,-100,4,1,2,25,0,0
128040,-100,4,1,4,25,0,0
128366,-100,4,1,2,30,0,0
129344,-100,4,1,4,30,0,0
129671,-100,4,1,2,35,0,0
130649,-100,4,1,4,35,0,0
130975,-100,4,1,2,40,0,0
131953,-100,4,1,4,40,0,0
132279,-100,4,1,2,45,0,0
133258,-100,4,1,4,45,0,0
133584,-100,4,1,2,45,0,0
134562,-100,4,1,4,45,0,0
134888,-100,4,1,2,40,0,0
135540,-100,4,1,2,30,0,0
136192,-100,4,1,2,40,0,0
136233,-100,4,1,2,20,0,0
136844,-100,4,3,6,15,0,0
137497,-100,4,3,6,50,0,0
140024,-100,4,3,6,10,0,0
140105,-100,4,3,6,50,0,0
146627,-100,4,1,2,40,0,0
147605,-100,4,1,2,60,0,0
147850,-100,4,1,2,10,0,0
147931,-100,4,3,1,70,0,0
148828,-100,4,3,1,10,0,0
148910,-100,4,3,1,70,0,0
149154,-100,4,3,1,10,0,0
149236,-100,4,3,1,70,0,0
149480,-100,4,3,1,10,0,0
149562,-100,4,3,1,70,0,0
150133,-100,4,3,1,10,0,0
150214,-100,4,3,1,70,0,0
150459,-100,4,3,1,10,0,0
150540,-100,4,3,1,70,0,0
150785,-100,4,3,1,10,0,0
150866,-100,4,3,1,70,0,0
151111,-100,4,3,1,10,0,0
151192,-100,4,3,1,70,0,0
154046,-100,4,3,1,10,0,0
154127,-100,4,3,1,70,0,0
154372,-100,4,3,1,10,0,0
154453,-100,4,3,1,70,0,0
155350,-100,4,3,1,10,0,0
155431,-100,4,3,1,70,0,0
155758,-100,4,3,1,60,0,0
157306,-100,4,3,1,10,0,0
157388,-100,4,3,1,60,0,0
157633,-100,4,3,1,10,0,0
157714,-100,4,3,1,60,0,0
158040,-100,4,1,2,60,0,0
158122,-100,4,1,2,10,0,0
158366,-100,4,3,1,70,0,0
159589,-100,4,3,1,10,0,0
159671,-100,4,3,1,70,0,0
159915,-100,4,3,1,10,0,0
159997,-100,4,3,1,70,0,0
160567,-100,4,3,1,10,0,0
160649,-100,4,3,1,70,0,0
160893,-100,4,3,1,10,0,0
160975,-100,4,3,1,70,0,0
161219,-100,4,3,1,10,0,0
161301,-100,4,3,1,70,0,0
163258,-100,4,1,2,70,0,0
163584,-100,4,3,1,70,0,0
163828,-100,4,3,1,10,0,0
163910,-100,4,3,1,70,0,0
167171,-100,4,3,1,60,0,0
167497,-100,4,3,1,50,0,0
168149,-100,4,1,2,45,0,0
168475,-100,4,3,1,60,0,0
168719,-100,4,3,1,10,0,0
168801,-100,4,1,2,60,0,0
170350,-100,4,1,2,10,0,0
170431,-100,4,1,2,60,0,0
171084,-100,4,1,4,60,0,0
171410,-100,4,1,2,65,0,0
172388,-100,4,1,4,65,0,0
172714,-100,4,1,2,65,0,0
173692,-100,4,1,2,70,0,0
174018,-100,4,1,2,60,0,0
176219,-100,4,1,2,10,0,0
176301,-100,4,1,2,60,0,0
176627,-100,4,1,2,50,0,0
176953,-100,4,1,2,65,0,0
177931,-100,4,1,2,70,0,0
178910,-100,4,1,2,55,0,0
179154,-100,4,1,2,10,0,0
179236,-100,4,1,2,65,0,0
181437,-100,4,1,2,10,0,0
181518,-100,4,1,2,65,0,0
184046,-100,4,1,2,10,0,0
184127,-100,4,1,2,65,0,0
184372,-100,4,1,2,10,0,0
184453,-100,4,1,2,65,0,0
188611,-100,4,1,2,10,0,0
188692,-100,4,1,2,65,0,0
189344,-100,4,1,2,70,0,0
189385,-100,4,1,2,10,0,0
189671,-100,4,1,2,70,0,0
190649,-100,4,1,4,70,0,0
190975,-100,4,1,2,70,0,0
191953,-100,4,1,4,70,0,0
192279,-100,4,1,2,70,0,0
193258,-100,4,1,4,70,0,0
193584,-100,4,1,2,70,0,0
194562,-100,4,1,2,55,0,0
194603,-100,4,1,2,10,0,0
194888,-100,4,1,2,55,0,0
195866,-100,4,1,4,50,0,0
196192,-100,4,1,2,45,0,0
196681,-100,4,1,2,40,0,0
196844,-100,4,1,2,40,0,0
197008,-100,4,1,2,35,0,0
197171,-100,4,1,4,30,0,0
197497,-100,4,1,2,60,0,0
198149,-100,4,1,2,65,0,0
198801,-100,4,1,2,70,0,0
199698,-100,4,1,2,10,0,0
199779,-100,4,1,4,70,0,0
200105,-100,4,3,4,85,0,1
201084,-100,4,1,4,85,0,1
201410,-100,4,3,4,85,0,1
202388,-100,4,1,4,85,0,1
202714,-100,4,3,4,85,0,1
203692,-100,4,1,4,85,0,1
204018,-100,4,3,4,85,0,1
204997,-100,4,1,4,85,0,1
205037,-100,4,1,4,5,0,1
205078,-100,4,1,4,85,0,1
205323,-100,4,3,4,85,0,1
206301,-100,4,1,4,85,0,1
206627,-100,4,3,4,85,0,1
207605,-100,4,1,4,85,0,1
207931,-100,4,3,4,85,0,1
208910,-100,4,1,4,85,0,1
209236,-100,4,3,4,70,0,1
209888,-100,4,3,1,65,0,1
210133,-100,4,3,1,10,0,1
210214,-100,4,3,1,65,0,1
210459,-100,4,3,1,10,0,1
210540,-100,4,3,4,80,0,1
211518,-100,4,1,4,80,0,1
211844,-100,4,3,4,80,0,1
212823,-100,4,1,4,80,0,1
213149,-100,4,3,4,80,0,1
214127,-100,4,1,4,80,0,1
214453,-100,4,3,4,80,0,1
215431,-100,4,1,4,80,0,1
215758,-100,4,3,4,60,0,0
216736,-100,4,1,4,55,0,0
217062,-100,4,3,4,50,0,0
218040,-100,4,1,4,45,0,0
218366,-100,4,3,4,40,0,0
219671,-100,4,1,2,40,0,0
219997,-100,4,1,2,35,0,0
220323,-100,4,1,2,30,0,0
220567,-100,4,1,2,10,0,0
220649,-100,4,1,2,25,0,0
220975,-100,4,2,3,40,0,0

[Colours]
Combo1 : 64,255,64
Combo2 : 131,105,236
Combo3 : 67,252,252
Combo4 : 215,67,231

[HitObjects]
157,176,22714,6,0,P|103:184|35:152,2,110,2|0|8,0:0|0:0|0:0,0:0:0:0:
308,86,23692,2,0,L|322:170,1,55,2|0,0:0|0:0,0:0:0:0:
277,219,24018,2,0,B|305:211|325:191|325:191|355:204|398:203,1,110,0|2,0:0|0:0,0:0:0:0:
449,151,24508,1,0,0:0:0:0:
508,215,24671,2,0,L|500:333,1,110,8|2,0:0|0:0,0:0:0:0:
501,325,25323,6,0,P|451:314|377:330,2,110,2|0|8,0:0|0:0|0:0,0:0:0:0:
352,227,26301,2,0,P|307:232|281:222,1,55,2|0,0:0|0:0,0:0:0:0:
218,191,26627,2,0,B|234:199|241:222|241:222|209:253|210:310,1,110,0|2,0:0|0:0,0:0:0:0:
235,369,27116,1,0,0:0:0:0:
147,366,27279,2,0,L|37:358,1,110,8|2,0:0|0:0,0:0:0:0:
37,358,27931,6,0,P|48:308|32:234,2,110,2|0|8,0:0|0:0|0:0,0:0:0:0:
133,210,28910,2,0,P|129:179|138:139,1,55,2|0,0:0|0:0,0:0:0:0:
95,75,29236,2,0,B|123:83|143:103|143:103|173:90|216:91,1,110,0|2,0:0|0:0,0:0:0:0:
274,129,29725,1,0,0:0:0:0:
351,87,29888,2,0,B|372:73|398:81|398:81|412:115|403:162,1,110,8|2,0:0|0:0,0:0:0:0:
406,141,30540,6,0,P|383:195|384:261,1,110,2|0,0:0|0:0,0:0:0:0:
243,355,31192,2,0,P|207:308|150:275,1,110,8|2,0:0|0:0,0:0:0:0:
95,226,31681,1,0,0:0:0:0:
166,175,31844,2,0,P|224:167|280:134,1,110,0|2,0:0|0:0,0:0:0:0:
339,90,32334,1,0,0:0:0:0:
392,160,32497,2,0,L|399:222,1,55,8|0,0:0|0:0,0:0:0:0:
340,281,32823,2,0,L|333:343,1,55,2|0,0:0|0:0,0:0:0:0:
243,355,33149,6,0,P|207:308|150:275,1,110,2|0,0:0|0:0,0:0:0:0:
77,269,33638,1,0,0:0:0:0:
48,185,33801,2,0,P|44:142|46:116,1,55,8|0,0:0|0:0,0:0:0:0:
98,60,34127,2,0,P|121:46|143:29,1,55,2|0,0:0|0:0,0:0:0:0:
227,57,34453,6,0,L|358:44,1,110,0|2,0:0|0:0,0:0:0:0:
395,111,34942,1,0,0:0:0:0:
466,60,35105,2,0,B|483:50|504:48|504:48|510:88|498:141,1,110,8|2,0:0|0:0,0:0:0:0:
502,117,35758,6,0,P|479:170|480:236,1,110,2|0,0:0|0:0,0:0:0:0:
511,302,36247,1,0,0:0:0:0:
439,353,36410,2,0,P|396:357|370:355,1,55,8|0,0:0|0:0,0:0:0:0:
301,326,36736,2,0,P|287:302|270:280,1,55,2|0,0:0|0:0,0:0:0:0:
182,287,37062,6,0,L|169:156,1,110,0|2,0:0|0:0,0:0:0:0:
110,113,37551,1,0,0:0:0:0:
180,60,37714,2,0,B|209:60|233:74|233:74|259:54|301:44,1,110,8|2,0:0|0:0,0:0:0:0:
281,50,38366,6,0,P|326:79|359:123,1,110,2|0,0:0|0:0,0:0:0:0:
363,211,38855,1,0,0:0:0:0:
309,280,39018,2,0,P|308:307|312:334,1,55,8|0,0:0|0:0,0:0:0:0:
387,380,39344,2,0,P|410:366|432:349,1,55,0|0,0:0|0:0,0:0:0:0:
512,326,39671,6,0,L|501:216,1,110,2|0,0:0|0:0,0:0:0:0:
445,148,40160,1,0,0:0:0:0:
368,191,40323,2,0,B|351:201|330:203|330:203|324:163|336:110,1,110,8|0,0:0|0:0,0:0:0:0:
331,133,40975,6,0,P|277:156|211:155,1,110,2|0,0:0|0:0,0:0:0:0:
149,115,41464,1,0,0:0:0:0:
83,173,41627,2,0,P|87:216|85:242,1,55,10|0,0:0|0:0,0:0:0:0:
142,295,41953,2,0,P|155:271|172:249,1,55,0|0,0:0|0:0,0:0:0:0:
257,273,42279,6,0,L|388:260,1,110,2|2,0:0|0:0,0:0:0:0:
447,227,42768,1,0,0:0:0:0:
446,139,42931,2,0,L|435:29,1,110,0|2,0:0|0:0,0:0:0:0:
435,30,43584,6,0,B|409:41|395:66|395:66|365:47|321:55,1,110,4|0,0:0|0:0,0:0:0:0:
200,157,44236,2,0,B|226:146|240:121|240:121|270:140|314:132,1,110,0|0,0:0|0:0,0:0:0:0:
465,166,44888,6,0,B|439:177|425:202|425:202|395:183|351:191,1,110,0|0,0:0|0:0,0:0:0:0:
230,293,45540,2,0,B|256:282|270:257|270:257|300:276|344:268,1,110,0|0,0:0|0:0,0:0:0:0:
482,343,46192,6,0,B|456:332|442:307|442:307|412:326|368:318,1,110,0|0,0:0|0:0,0:0:0:0:
280,166,46844,2,0,B|306:177|320:202|320:202|350:183|394:191,1,110,0|0,0:0|0:0,0:0:0:0:
204,243,47497,6,0,B|178:232|164:207|164:207|134:226|90:218,1,110,0|0,0:0|0:0,0:0:0:0:
2,66,48149,2,0,B|28:77|42:102|42:102|72:83|116:91,1,110,0|0,0:0|0:0,0:0:0:0:
262,34,48801,5,0,0:0:0:0:
262,34,48964,1,0,0:0:0:0:
213,107,49127,2,0,P|180:161|163:174,1,55,0|0,0:0|0:0,0:0:0:0:
225,233,49453,2,0,P|289:234|308:242,1,55,0|0,0:0|0:0,0:0:0:0:
328,160,49779,2,0,P|296:104|294:83,1,55,0|0,0:0|0:0,0:0:0:0:
262,34,50105,5,0,0:0:0:0:
262,34,50268,1,0,0:0:0:0:
213,107,50431,2,0,P|180:161|163:174,1,55,0|0,0:0|0:0,0:0:0:0:
118,210,50758,2,0,P|86:154|84:133,1,55,0|0,0:0|0:0,0:0:0:0:
76,76,51084,2,0,P|140:77|158:85,1,55,0|0,0:0|0:0,0:0:0:0:
213,107,51410,6,0,L|225:67,3,27.5,0|0|0|0,0:0|0:0|0:0|0:0,0:0:0:0:
241,140,51736,2,0,L|233:166,3,27.5,0|0|0|0,0:0|0:0|0:0|0:0,0:0:0:0:
281,127,52062,2,0,L|288:100,3,27.5,0|0|0|0,0:0|0:0|0:0|0:0,0:0:0:0:
309,160,52388,2,0,L|301:186,3,27.5,0|0|0|0,0:0|0:0|0:0|0:0,0:0:0:0:
349,147,52714,5,0,0:0:0:0:
469,94,53040,1,0,0:0:0:0:
504,220,53366,1,0,0:0:0:0:
343,367,53692,5,0,0:0:0:0:
385,289,53855,1,0,0:0:0:0:
327,222,54018,2,0,B|303:203|303:203|260:210,1,55,4|0,0:0|0:0,0:0:0:0:
219,272,54344,2,0,B|194:275|194:275|170:256,1,55,0|0,0:0|0:0,0:0:0:0:
87,227,54671,2,0,B|82:191|82:191|91:169|91:169|82:107,1,110,8|0,0:0|0:0,0:0:0:0:
146,58,55160,1,0,0:0:0:0:
224,96,55323,6,0,L|293:85,1,55,0|0,0:0|0:0,0:0:0:0:
323,162,55649,2,0,L|268:170,1,55,0|0,0:0|0:0,0:0:0:0:
246,255,55975,2,0,L|300:246,1,55,8|0,0:0|0:0,0:0:0:0:
345,321,56301,2,0,L|254:335,1,82.5,0|0,0:0|0:0,0:0:0:0:
220,344,56627,6,0,B|196:353|184:371|184:371|142:369|114:321,1,110,0|0,0:0|0:0,0:0:0:0:
109,256,57116,1,0,0:0:0:0:
154,180,57279,2,0,L|145:125,1,55,8|0,0:0|0:0,0:0:0:0:
167,40,57605,1,0,0:0:0:0:
257,81,57768,1,0,0:0:0:0:
257,81,57850,1,0,0:0:0:0:
257,81,57931,6,0,L|331:66,1,55,0|0,0:0|0:0,0:0:0:0:
353,147,58258,2,0,L|406:136,1,55,0|0,0:0|0:0,0:0:0:0:
474,80,58584,1,8,0:0:0:0:
483,238,58910,1,0,0:0:0:0:
329,323,59236,6,0,B|302:316|283:296|283:296|268:316|212:331,1,110,0|0,0:0|0:0,0:0:0:0:
147,330,59725,1,0,0:0:0:0:
80,272,59888,2,0,P|64:243|56:202,1,55,8|0,0:0|0:0,0:0:0:0:
125,165,60214,2,0,P|141:136|149:95,1,55,0|0,0:0|0:0,0:0:0:0:
107,36,60540,6,0,B|149:40|149:40|164:26|164:26|232:32,1,110,0|0,0:0|0:0,0:0:0:0:
272,92,61029,1,0,0:0:0:0:
349,49,61192,2,0,P|390:31|426:28,1,55,8|0,0:0|0:0,0:0:0:0:
486,42,61518,1,0,0:0:0:0:
444,119,61681,1,0,0:0:0:0:
490,193,61844,6,0,P|495:245|486:304,2,110,0|0|8,0:0|0:0|0:0,0:0:0:0:
444,119,62660,1,0,0:0:0:0:
382,181,62823,1,0,0:0:0:0:
313,125,62986,1,0,0:0:0:0:
313,125,63067,1,0,0:0:0:0:
313,125,63149,6,0,P|267:116|226:117,1,82.5,0|0,0:0|0:0,0:0:0:0:
200,148,63475,2,0,P|169:149|139:142,1,55,0|0,0:0|0:0,0:0:0:0:
73,93,63801,2,0,P|65:79|53:63,2,27.5,8|0|0,0:0|0:0|0:0,0:0:0:0:
39,178,64127,1,0,0:0:0:0:
39,178,64453,6,0,B|59:203|54:248,1,55,4|0,0:0|0:0,0:0:0:0:
134,266,64779,2,0,B|129:239|149:214,1,55,0|0,0:0|0:0,0:0:0:0:
226,170,65105,2,0,B|262:165|262:165|284:174|284:174|346:165,1,110,8|0,0:0|0:0,0:0:0:0:
400,223,65594,1,0,0:0:0:0:
458,157,65758,6,0,L|466:102,1,55,0|0,0:0|0:0,0:0:0:0:
383,74,66084,2,0,L|374:19,1,55,0|0,0:0|0:0,0:0:0:0:
286,9,66410,2,0,L|277:63,1,55,8|0,0:0|0:0,0:0:0:0:
217,127,66736,2,0,L|126:141,1,82.5,0|0,0:0|0:0,0:0:0:0:
93,153,67062,6,0,B|73:167|65:195|65:195|86:226|87:267,1,110,0|0,0:0|0:0,0:0:0:0:
74,336,67551,1,0,0:0:0:0:
157,364,67714,2,0,L|211:355,1,55,8|0,0:0|0:0,0:0:0:0:
257,280,68040,1,0,0:0:0:0:
340,335,68203,1,0,0:0:0:0:
340,335,68285,1,0,0:0:0:0:
340,335,68366,6,0,L|414:320,1,55,0|0,0:0|0:0,0:0:0:0:
441,249,68692,2,0,L|430:195,1,55,0|0,0:0|0:0,0:0:0:0:
489,130,69018,1,8,0:0:0:0:
337,40,69344,1,0,0:0:0:0:
205,157,69671,6,0,B|178:150|159:130|159:130|144:150|88:165,1,110,0|0,0:0|0:0,0:0:0:0:
24,141,70160,1,0,0:0:0:0:
32,228,70323,2,0,P|40:254|53:277,1,55,8|0,0:0|0:0,0:0:0:0:
108,346,70649,2,0,P|131:331|156:321,1,55,0|0,0:0|0:0,0:0:0:0:
225,266,70975,6,0,B|267:270|267:270|282:256|282:256|350:262,1,110,0|0,0:0|0:0,0:0:0:0:
399,313,71464,1,0,0:0:0:0:
467,257,71627,2,0,P|474:230|475:203,1,55,8|0,0:0|0:0,0:0:0:0:
438,123,71953,1,0,0:0:0:0:
376,185,72116,1,0,0:0:0:0:
300,139,72279,6,0,B|267:146|252:166|252:166|233:146|206:139,1,110,0|0,0:0|0:0,0:0:0:0:
126,103,72768,1,0,0:0:0:0:
95,185,72931,2,0,P|96:212|103:238,1,55,8|0,0:0|0:0,0:0:0:0:
167,300,73258,1,0,0:0:0:0:
247,265,73421,1,0,0:0:0:0:
247,265,73502,1,0,0:0:0:0:
247,265,73584,6,0,P|278:265|312:272,1,55,0|0,0:0|0:0,0:0:0:0:
350,342,73910,2,0,P|377:342|404:337,1,55,0|0,0:0|0:0,0:0:0:0:
476,286,74236,2,0,P|491:299|505:319,2,27.5,0|0|0,0:0|0:0|0:0,0:0:0:0:
429,211,74562,1,0,0:0:0:0:
430,190,74643,1,0,0:0:0:0:
431,169,74725,1,0,0:0:0:0:
432,149,74806,1,0,0:0:0:0:
433,128,74888,6,0,L|439:27,1,82.5,4|0,0:0|0:0,0:0:0:0:
406,14,75214,2,0,P|361:28|333:29,1,55,0|0,0:0|0:0,0:0:0:0:
276,71,75540,2,0,P|296:88|314:110,1,55,8|0,0:0|0:0,0:0:0:0:
333,195,75866,2,0,L|336:227,3,27.5,0|0|0|0,0:0|0:0|0:0|0:0,0:0:0:0:
308,257,76192,6,0,L|225:252,1,82.5,0|0,0:0|0:0,0:0:0:0:
182,259,76518,2,0,P|168:294|161:327,1,55,0|0,0:0|0:0,0:0:0:0:
84,349,76844,2,0,P|76:322|65:297,1,55,8|0,0:0|0:0,0:0:0:0:
68,208,77171,2,0,L|28:180,3,27.5,0|0|0|0,0:0|0:0|0:0|0:0,0:0:0:0:
24,153,77497,6,0,L|30:52,1,82.5,0|0,0:0|0:0,0:0:0:0:
63,43,77823,2,0,P|90:38|115:28,1,55,0|0,0:0|0:0,0:0:0:0:
188,77,78149,2,0,P|213:81|240:91,1,55,8|0,0:0|0:0,0:0:0:0:
315,46,78475,2,0,L|347:43,3,27.5,0|0|0|0,0:0|0:0|0:0|0:0,0:0:0:0:
375,73,78801,6,0,L|370:155,1,82.5,0|0,0:0|0:0,0:0:0:0:
364,199,79127,2,0,P|350:234|343:267,1,55,0|0,0:0|0:0,0:0:0:0:
276,305,79453,2,0,P|268:278|257:253,1,55,8|0,0:0|0:0,0:0:0:0:
211,179,79779,1,0,0:0:0:0:
190,180,79861,1,0,0:0:0:0:
169,181,79942,1,0,0:0:0:0:
149,182,80024,1,0,0:0:0:0:
128,183,80105,6,0,L|27:189,1,82.5,0|0,0:0|0:0,0:0:0:0:
15,219,80431,2,0,P|10:246|0:271,1,55,0|0,0:0|0:0,0:0:0:0:
46,346,80758,2,0,P|71:336|98:332,1,55,8|0,0:0|0:0,0:0:0:0:
185,342,81084,2,0,L|217:345,3,27.5,0|0|0|0,0:0|0:0|0:0|0:0,0:0:0:0:
243,313,81410,6,0,L|247:230,1,82.5,0|0,0:0|0:0,0:0:0:0:
286,209,81736,2,0,P|321:223|354:230,1,55,0|0,0:0|0:0,0:0:0:0:
397,162,82062,2,0,P|389:135|378:110,1,55,8|0,0:0|0:0,0:0:0:0:
311,51,82388,1,0,0:0:0:0:
251,115,82551,1,0,0:0:0:0:
174,72,82714,6,0,P|138:63|61:86,1,110,0|0,0:0|0:0,0:0:0:0:
10,146,83203,1,0,0:0:0:0:
52,223,83366,2,0,L|123:236,1,55,0|0,0:0|0:0,0:0:0:0:
165,297,83692,2,0,L|219:287,1,55,0|0,0:0|0:0,0:0:0:0:
265,212,84018,5,0,0:0:0:0:
321,279,84181,1,0,0:0:0:0:
384,218,84344,2,0,L|393:163,1,55,0|0,0:0|0:0,0:0:0:0:
478,187,84671,2,0,L|468:241,1,55,0|0,0:0|0:0,0:0:0:0:
420,315,84997,1,0,0:0:0:0:
399,314,85078,1,0,0:0:0:0:
378,313,85160,1,0,0:0:0:0:
358,312,85241,1,0,0:0:0:0:
337,311,85323,6,0,P|302:295|236:305,1,82.5,4|0,0:0|0:0,0:0:0:0:
217,311,85649,2,0,P|179:327|103:307,1,110,8|0,0:0|0:0,0:0:0:0:
46,257,86138,1,0,0:0:0:0:
78,175,86301,2,0,L|80:147,3,27.5,8|0|0|0,0:0|0:0|0:0|0:0,0:0:0:0:
114,119,86627,6,0,P|154:117|192:134,1,82.5,0|0,0:0|0:0,0:0:0:0:
226,161,86953,2,0,L|351:141,1,110,8|0,0:0|0:0,0:0:0:0:
407,93,87442,1,0,0:0:0:0:
469,154,87605,2,0,L|467:182,3,27.5,8|0|0|0,0:0|0:0|0:0|0:0,0:0:0:0:
449,222,87931,6,0,L|455:323,1,82.5,0|0,0:0|0:0,0:0:0:0:
449,348,88258,2,0,P|389:357|329:326,1,110,8|0,0:0|0:0,0:0:0:0:
279,279,88747,1,0,0:0:0:0:
200,319,88910,2,0,L|203:351,3,27.5,8|0|0|0,0:0|0:0|0:0|0:0,0:0:0:0:
160,361,89236,6,0,L|78:356,1,82.5,0|0,0:0|0:0,0:0:0:0:
38,336,89562,2,0,P|29:276|60:216,1,110,8|0,0:0|0:0,0:0:0:0:
103,164,90051,1,0,0:0:0:0:
185,194,90214,1,8,0:0:0:0:
206,195,90296,1,0,0:0:0:0:
227,196,90377,1,0,0:0:0:0:
247,197,90459,1,0,0:0:0:0:
268,198,90540,6,0,P|311:191|356:153,1,82.5,0|0,0:0|0:0,0:0:0:0:
374,139,90866,2,0,L|382:259,1,110,8|0,0:0|0:0,0:0:0:0:
327,318,91355,1,0,0:0:0:0:
241,298,91518,2,0,L|209:301,3,27.5,8|0|0|0,0:0|0:0|0:0|0:0,0:0:0:0:
181,269,91844,6,0,L|185:186,1,82.5,0|0,0:0|0:0,0:0:0:0:
211,150,92171,2,0,P|257:140|302:84,1,110,8|0,0:0|0:0,0:0:0:0:
341,18,92660,1,0,0:0:0:0:
412,68,92823,2,0,L|409:95,3,27.5,8|0|0|0,0:0|0:0|0:0|0:0,0:0:0:0:
430,134,93149,6,0,L|424:210,1,55,0|0,0:0|0:0,0:0:0:0:
346,225,93475,2,0,L|342:170,1,55,8|0,0:0|0:0,0:0:0:0:
272,116,93801,2,0,P|238:110|201:116,1,55,0|0,0:0|0:0,0:0:0:0:
175,34,94127,2,0,P|141:40|104:34,1,55,8|0,0:0|0:0,0:0:0:0:
33,27,94453,2,0,B|8:53|8:53|25:89|21:139,1,110,0|8,0:0|0:0,0:0:0:0:
11,212,94942,1,0,0:0:0:0:
87,255,95105,2,0,L|166:249,1,55,0|0,0:0|0:0,0:0:0:0:
215,203,95431,1,8,0:0:0:0:
215,203,95758,6,0,P|247:246|318:272,2,110,2|8|2,0:0|0:0|0:0,0:0:0:0:
341,80,96736,2,0,L|425:94,1,55,8|2,0:0|0:0,0:0:0:0:
480,111,97062,2,0,B|472:139|454:155|454:155|465:189|464:232,1,110,0|8,0:0|0:0,0:0:0:0:
421,289,97551,1,0,0:0:0:0:
345,244,97714,2,0,L|290:253,1,55,2|2,0:0|0:0,0:0:0:0:
238,323,98040,1,8,0:0:0:0:
238,323,98366,6,0,P|188:312|114:328,2,110,2|8|2,0:0|0:0|0:0,0:0:0:0:
139,177,99344,2,0,L|129:122,1,55,8|2,0:0|0:0,0:0:0:0:
219,130,99671,2,0,B|238:138|250:153|250:153|281:121|338:122,1,110,0|8,0:0|0:0,0:0:0:0:
387,171,100160,1,0,0:0:0:0:
472,151,100323,2,0,L|464:261,1,110,2|8,0:0|0:0,0:0:0:0:
464,260,100975,6,0,P|412:279|371:315,2,110,2|8|2,0:0|0:0|0:0,0:0:0:0:
287,260,101953,2,0,P|291:291|282:331,1,55,8|2,0:0|0:0,0:0:0:0:
223,356,102279,2,0,B|195:348|175:328|175:328|145:341|102:340,1,110,0|8,0:0|0:0,0:0:0:0:
56,281,102768,1,0,0:0:0:0:
114,216,102931,2,0,P|117:188|113:161,1,55,2|2,0:0|0:0,0:0:0:0:
63,88,103258,1,8,0:0:0:0:
133,36,103421,1,0,0:0:0:0:
199,93,103584,6,0,P|253:116|319:115,1,110,2|8,0:0|0:0,0:0:0:0:
414,254,104236,2,0,P|406:195|373:138,1,110,2|8,0:0|0:0,0:0:0:0:
304,118,104725,1,2,0:0:0:0:
243,181,104888,6,0,P|242:234|239:254,1,55,0|2,0:0|0:0,0:0:0:0:
217,320,105214,1,8,0:0:0:0:
142,272,105377,1,0,0:0:0:0:
71,324,105540,1,2,0:0:0:0:
71,324,105622,1,0,0:0:0:0:
71,324,105703,1,2,0:0:0:0:
7,262,105866,2,0,L|13:207,1,55,8|0,0:0|0:0,0:0:0:0:
4,119,106192,6,0,P|44:116|75:103,1,55,2|0,0:0|0:0,0:0:0:0:
106,37,106518,2,0,L|177:37,1,55,8|0,0:0|0:0,0:0:0:0:
221,101,106844,2,0,P|238:138|252:154,1,55,2|0,0:0|0:0,0:0:0:0:
335,150,107171,2,0,P|351:127|360:102,1,55,10|0,0:0|0:0,0:0:0:0:
305,33,107497,6,0,B|360:53|360:11|428:47,1,110,2|8,0:0|0:0,0:0:0:0:
472,104,107986,1,0,0:0:0:0:
425,178,108149,1,2,0:0:0:0:
476,249,108312,1,2,0:0:0:0:
417,314,108475,2,0,L|323:304,1,82.5,8|0,0:0|0:0,0:0:0:0:
296,283,108801,6,0,P|288:256|288:229,1,55,2|0,0:0|0:0,0:0:0:0:
290,141,109127,2,0,L|235:130,1,55,8|0,0:0|0:0,0:0:0:0:
148,129,109453,2,0,L|94:139,1,55,2|0,0:0|0:0,0:0:0:0:
95,228,109779,2,0,P|94:255|87:281,1,55,10|0,0:0|0:0,0:0:0:0:
151,342,110105,6,0,B|206:362|206:320|274:356,1,110,2|8,0:0|0:0,0:0:0:0:
307,275,110594,1,0,0:0:0:0:
374,331,110758,1,2,0:0:0:0:
441,267,110921,1,2,0:0:0:0:
405,186,111084,2,0,L|411:131,1,55,8|0,0:0|0:0,0:0:0:0:
445,50,111410,5,2,0:0:0:0:
358,63,111573,1,0,0:0:0:0:
288,8,111736,2,0,L|217:8,1,55,0|0,0:0|0:0,0:0:0:0:
155,49,112062,2,0,P|138:86|124:102,1,55,10|0,0:0|0:0,0:0:0:0:
178,169,112388,2,0,P|206:164|233:167,1,55,2|0,0:0|0:0,0:0:0:0:
316,141,112714,6,0,B|336:196|294:196|330:264,1,110,2|0,0:0|0:0,0:0:0:0:
382,313,113203,1,0,0:0:0:0:
302,350,113366,2,0,L|247:356,1,55,10|2,0:0|0:0,0:0:0:0:
188,291,113692,1,0,0:0:0:0:
117,343,113855,1,0,0:0:0:0:
45,292,114018,6,0,P|19:243|13:189,1,110,2|0,0:0|0:0,0:0:0:0:
52,109,114508,1,0,0:0:0:0:
130,149,114671,2,0,P|172:161|207:163,1,55,10|0,0:0|0:0,0:0:0:0:
254,111,114997,2,0,P|296:99|331:97,1,55,2|0,0:0|0:0,0:0:0:0:
379,148,115323,6,0,L|368:258,1,110,2|0,0:0|0:0,0:0:0:0:
420,327,115812,1,0,0:0:0:0:
336,353,115975,2,0,L|226:342,1,110,2|8,0:0|0:0,0:0:0:0:
183,162,116627,5,4,0:0:0:0:
459,290,127062,6,0,L|474:176,1,110,0|0,0:0|0:0,0:0:0:0:
435,101,127551,1,0,0:0:0:0:
348,117,127714,2,0,P|322:107|295:102,1,55,0|0,0:0|0:0,0:0:0:0:
218,145,128040,2,0,L|221:177,3,27.5,0|0|0|0,0:0|0:0|0:0|0:0,0:0:0:0:
189,204,128366,6,0,B|109:202|109:202|136:245,1,110,0|0,0:0|0:0,0:0:0:0:
97,310,128855,1,0,0:0:0:0:
171,356,129018,2,0,P|196:344|222:337,1,55,0|0,0:0|0:0,0:0:0:0:
310,335,129344,2,0,L|313:307,3,27.5,0|0|0|0,0:0|0:0|0:0|0:0,0:0:0:0:
351,285,129671,6,0,L|357:184,1,82.5,0|0,0:0|0:0,0:0:0:0:
369,160,129997,2,0,P|396:155|421:145,1,55,0|0,0:0|0:0,0:0:0:0:
458,65,130323,2,0,P|432:55|405:50,1,55,0|0,0:0|0:0,0:0:0:0:
321,79,130649,2,0,L|289:76,3,27.5,0|0|0|0,0:0|0:0|0:0|0:0,0:0:0:0:
260,47,130975,6,0,L|178:52,1,82.5,0|0,0:0|0:0,0:0:0:0:
145,82,131301,2,0,L|71:77,1,55,0|0,0:0|0:0,0:0:0:0:
38,149,131627,2,0,P|50:174|57:200,1,55,0|0,0:0|0:0,0:0:0:0:
26,282,131953,2,0,L|-6:279,3,27.5,0|0|0|0,0:0|0:0|0:0|0:0,0:0:0:0:
39,295,132279,6,0,L|140:289,1,82.5,0|0,0:0|0:0,0:0:0:0:
158,314,132605,2,0,P|185:309|210:299,1,55,0|0,0:0|0:0,0:0:0:0:
269,233,132931,2,0,P|296:238|321:248,1,55,0|0,0:0|0:0,0:0:0:0:
385,309,133258,2,0,L|417:312,3,27.5,0|0|0|0,0:0|0:0|0:0|0:0,0:0:0:0:
442,279,133584,6,0,L|446:196,1,82.5,0|0,0:0|0:0,0:0:0:0:
473,162,133910,2,0,P|487:127|494:94,1,55,0|0,0:0|0:0,0:0:0:0:
458,28,134236,2,0,P|432:16|406:9,1,55,0|0,0:0|0:0,0:0:0:0:
333,58,134562,2,0,L|336:90,3,27.5,0|0|0|0,0:0|0:0|0:0|0:0,0:0:0:0:
317,45,134888,6,0,B|270:22|270:22|209:48,1,110,0|0,0:0|0:0,0:0:0:0:
169,118,135377,2,0,B|216:141|216:141|277:115,1,110,0|0,0:0|0:0,0:0:0:0:
340,169,135866,2,0,L|337:196,3,27.5,0|0|0|0,0:0|0:0|0:0|0:0,0:0:0:0:
309,231,136192,5,0,0:0:0:0:
256,192,136274,12,4,137497,0:0:0:0:
78,307,137823,5,0,0:0:0:0:
78,307,138149,2,0,B|104:296|118:271|118:271|148:290|192:282,1,110,0|0,0:0|0:0,0:0:0:0:
311,179,138801,6,0,B|285:190|271:215|271:215|241:196|197:204,1,110,0|0,0:0|0:0,0:0:0:0:
42,197,139453,2,0,B|68:186|82:161|82:161|112:180|156:172,1,110,0|0,0:0|0:0,0:0:0:0:
275,69,140105,6,0,B|249:80|235:105|235:105|205:86|161:94,1,110,0|0,0:0|0:0,0:0:0:0:
339,171,140758,2,0,B|365:160|379:135|379:135|409:154|453:146,1,110,0|0,0:0|0:0,0:0:0:0:
289,251,141410,6,0,B|263:240|249:215|249:215|219:234|175:226,1,110,0|0,0:0|0:0,0:0:0:0:
40,147,142062,2,0,B|62:141|92:160|92:160|106:135|132:124,1,110,0|0,0:0|0:0,0:0:0:0:
307,142,142714,5,0,0:0:0:0:
307,142,142877,1,0,0:0:0:0:
276,226,143040,2,0,P|243:280|226:293,1,55,0|0,0:0|0:0,0:0:0:0:
288,352,143366,2,0,P|352:353|371:361,1,55,0|0,0:0|0:0,0:0:0:0:
401,284,143692,2,0,P|428:286|455:282,1,55,0|0,0:0|0:0,0:0:0:0:
510,213,144018,5,0,0:0:0:0:
439,160,144181,1,0,0:0:0:0:
356,193,144344,2,0,P|328:195|301:191,1,55,0|0,0:0|0:0,0:0:0:0:
314,103,144671,2,0,P|325:78|343:57,1,55,0|0,0:0|0:0,0:0:0:0:
412,113,144997,2,0,P|428:135|438:160,1,55,0|0,0:0|0:0,0:0:0:0:
425,247,145323,6,0,L|417:273,3,27.5,0|0|0|0,0:0|0:0|0:0|0:0,0:0:0:0:
373,263,145649,2,0,L|365:289,3,27.5,0|0|0|0,0:0|0:0|0:0|0:0,0:0:0:0:
321,279,145975,2,0,L|313:305,3,27.5,0|0|0|0,0:0|0:0|0:0|0:0,0:0:0:0:
269,295,146301,2,0,L|261:321,3,27.5,0|0|0|0,0:0|0:0|0:0|0:0,0:0:0:0:
217,311,146627,1,0,0:0:0:0:
109,242,146953,1,0,0:0:0:0:
194,146,147279,1,0,0:0:0:0:
354,218,147605,5,0,0:0:0:0:
399,142,147768,1,0,0:0:0:0:
349,69,147931,2,0,B|279:61,1,55,4|0,0:0|0:0,0:0:0:0:
249,140,148258,2,0,B|194:146,1,55,0|0,0:0|0:0,0:0:0:0:
106,135,148584,2,0,B|113:184|113:184|104:206|104:206|109:242,1,110,8|0,0:0|0:0,0:0:0:0:
170,305,149073,1,0,0:0:0:0:
254,329,149236,6,0,P|283:330|323:318,1,55,0|0,0:0|0:0,0:0:0:0:
376,268,149562,2,0,P|362:242|331:213,1,55,0|0,0:0|0:0,0:0:0:0:
261,195,149888,2,0,P|245:219|236:260,1,55,8|0,0:0|0:0,0:0:0:0:
170,305,150214,2,0,P|134:284|94:275,1,82.5,0|0,0:0|0:0,0:0:0:0:
49,272,150540,6,0,P|63:209|56:151,1,110,0|0,0:0|0:0,0:0:0:0:
33,80,151029,1,0,0:0:0:0:
120,88,151192,2,0,L|175:79,1,55,8|0,0:0|0:0,0:0:0:0:
230,11,151518,1,0,0:0:0:0:
316,61,151681,1,0,0:0:0:0:
316,61,151763,1,0,0:0:0:0:
316,61,151844,6,0,L|390:46,1,55,0|0,0:0|0:0,0:0:0:0:
418,123,152171,2,0,L|365:134,1,55,0|0,0:0|0:0,0:0:0:0:
356,221,152497,1,8,0:0:0:0:
456,365,152823,1,0,0:0:0:0:
282,337,153149,6,0,B|256:325|241:302|241:302|223:319|165:324,1,110,0|0,0:0|0:0,0:0:0:0:
101,316,153638,1,0,0:0:0:0:
152,244,153801,2,0,P|165:220|173:194,1,55,8|0,0:0|0:0,0:0:0:0:
100,145,154127,2,0,P|86:121|78:95,1,55,0|0,0:0|0:0,0:0:0:0:
114,14,154453,5,0,0:0:0:0:
183,67,154616,1,0,0:0:0:0:
261,27,154779,2,0,P|287:34|311:46,1,55,0|0,0:0|0:0,0:0:0:0:
333,132,155105,2,0,P|359:124|383:112,1,55,8|0,0:0|0:0,0:0:0:0:
453,58,155431,1,0,0:0:0:0:
497,133,155594,1,0,0:0:0:0:
438,199,155758,6,0,P|433:251|442:310,1,110,0|0,0:0|0:0,0:0:0:0:
268,344,156410,2,0,P|248:292|216:248,1,110,8|0,0:0|0:0,0:0:0:0:
130,231,156899,1,0,0:0:0:0:
130,231,156980,1,0,0:0:0:0:
130,231,157062,6,0,P|183:202|212:155,1,110,0|0,0:0|0:0,0:0:0:0:
384,141,157714,2,0,P|394:152|409:167,2,27.5,8|0|0,0:0|0:0|0:0,0:0:0:0:
339,65,158040,2,0,L|268:52,1,55,0|0,0:0|0:0,0:0:0:0:
198,71,158366,6,0,B|171:64|152:44|152:44|137:64|81:79,1,110,4|8,0:0|0:0,0:0:0:0:
21,101,158855,1,0,0:0:0:0:
6,187,159018,2,0,P|14:213|27:236,1,55,0|0,0:0|0:0,0:0:0:0:
112,260,159344,2,0,P|104:286|91:309,1,55,8|0,0:0|0:0,0:0:0:0:
161,362,159671,6,0,B|181:369|203:366|203:366|223:351|223:351|243:358|286:358,1,110,0|8,0:0|0:0,0:0:0:0:
348,329,160160,1,0,0:0:0:0:
400,258,160323,2,0,P|407:231|408:204,1,55,0|0,0:0|0:0,0:0:0:0:
368,124,160649,2,0,L|314:116,1,55,8|0,0:0|0:0,0:0:0:0:
228,134,160975,6,0,B|235:167|255:182|255:182|235:201|228:228,1,110,0|8,0:0|0:0,0:0:0:0:
206,312,161464,1,0,0:0:0:0:
130,266,161627,2,0,P|122:239|121:212,1,55,0|0,0:0|0:0,0:0:0:0:
140,125,161953,1,8,0:0:0:0:
73,67,162116,1,0,0:0:0:0:
143,15,162279,6,0,P|174:15|208:22,1,55,0|0,0:0|0:0,0:0:0:0:
256,84,162605,2,0,P|283:84|310:79,1,55,8|0,0:0|0:0,0:0:0:0:
388,39,162931,2,0,L|407:107,1,55,0|0,0:0|0:0,0:0:0:0:
374,175,163258,2,0,P|371:213|381:247,1,55,8|0,0:0|0:0,0:0:0:0:
338,309,163584,6,0,P|306:287|272:279,1,55,0|0,0:0|0:0,0:0:0:0:
204,264,163910,1,8,0:0:0:0:
133,316,164073,1,0,0:0:0:0:
58,268,164236,2,0,L|49:192,1,55,0|0,0:0|0:0,0:0:0:0:
61,125,164562,1,8,0:0:0:0:
146,146,164725,6,0,L|222:137,1,55,0|0,0:0|0:0,0:0:0:0:
277,97,165051,1,0,0:0:0:0:
351,143,165214,2,0,P|398:175|416:180,1,55,8|0,0:0|0:0,0:0:0:0:
483,173,165540,2,0,L|477:239,1,55,0|0,0:0|0:0,0:0:0:0:
430,301,165866,2,0,P|445:328|446:336,2,27.5,8|0|0,0:0|0:0|0:0,0:0:0:0:
343,282,166192,6,0,L|342:254,3,27.5,0|0|0|0,0:0|0:0|0:0|0:0,0:0:0:0:
292,263,166518,2,0,L|291:235,3,27.5,8|0|0|0,0:0|0:0|0:0|0:0,0:0:0:0:
241,244,166844,2,0,L|240:216,3,27.5,0|0|0|0,0:0|0:0|0:0|0:0,0:0:0:0:
190,225,167171,2,0,L|189:197,3,27.5,8|0|0|0,0:0|0:0|0:0|0:0,0:0:0:0:
146,205,167497,6,0,B|118:197|104:177|104:177|67:167|36:193,2,110,0|8|0,0:0|0:0|0:0,0:0:0:0:
258,70,168475,1,8,0:0:0:0:
395,179,168801,6,0,B|424:185|450:178|450:178|435:212|433:255,1,110,0|8,0:0|0:0,0:0:0:0:
439,318,169290,1,0,0:0:0:0:
352,301,169453,2,0,L|281:292,1,55,0|0,0:0|0:0,0:0:0:0:
228,348,169779,2,0,L|173:354,1,55,8|0,0:0|0:0,0:0:0:0:
87,334,170105,6,0,P|97:280|80:214,1,110,0|8,0:0|0:0,0:0:0:0:
32,157,170594,1,0,0:0:0:0:
75,79,170758,2,0,L|143:67,1,55,0|0,0:0|0:0,0:0:0:0:
210,102,171084,2,0,L|223:144,3,27.5,8|0|0|0,0:0|0:0|0:0|0:0,0:0:0:0:
256,150,171410,6,0,P|259:184|271:242,1,82.5,0|0,0:0|0:0,0:0:0:0:
301,260,171736,2,0,P|328:262|355:266,1,55,8|0,0:0|0:0,0:0:0:0:
443,273,172062,2,0,P|447:245|449:218,1,55,0|0,0:0|0:0,0:0:0:0:
446,130,172388,2,0,L|419:121,3,27.5,8|0|0|0,0:0|0:0|0:0|0:0,0:0:0:0:
391,87,172714,6,0,P|357:90|299:102,1,82.5,0|0,0:0|0:0,0:0:0:0:
266,108,173040,2,0,L|186:93,1,55,8|0,0:0|0:0,0:0:0:0:
131,62,173366,1,0,0:0:0:0:
77,131,173529,1,0,0:0:0:0:
159,162,173692,1,8,0:0:0:0:
159,162,174018,6,0,L|147:288,1,110,0|8,0:0|0:0,0:0:0:0:
215,329,174508,1,0,0:0:0:0:
296,294,174671,2,0,P|326:304|360:326,1,55,0|0,0:0|0:0,0:0:0:0:
431,338,174997,2,0,P|457:329|481:316,1,55,8|0,0:0|0:0,0:0:0:0:
503,231,175323,5,0,0:0:0:0:
437,172,175486,1,0,0:0:0:0:
484,98,175649,2,0,L|494:27,1,55,8|0,0:0|0:0,0:0:0:0:
406,22,175975,2,0,P|373:39|338:41,1,55,0|0,0:0|0:0,0:0:0:0:
294,105,176301,2,0,P|270:91|243:85,1,55,8|0,0:0|0:0,0:0:0:0:
161,53,176627,5,0,0:0:0:0:
117,129,176790,1,0,0:0:0:0:
94,214,176953,2,0,P|93:270|86:293,1,55,8|0,0:0|0:0,0:0:0:0:
121,351,177279,2,0,P|169:323|193:318,1,55,0|0,0:0|0:0,0:0:0:0:
226,259,177605,2,0,P|178:230|161:212,1,55,8|0,0:0|0:0,0:0:0:0:
94,214,177931,6,0,L|74:82,1,110,0|8,0:0|0:0,0:0:0:0:
103,20,178421,1,0,0:0:0:0:
189,70,178584,1,0,0:0:0:0:
189,70,178665,1,0,0:0:0:0:
189,70,178747,1,0,0:0:0:0:
270,37,178910,2,0,L|344:32,1,55,8|0,0:0|0:0,0:0:0:0:
396,84,179236,6,0,P|395:111|388:137,1,55,2|0,0:0|0:0,0:0:0:0:
312,182,179562,2,0,L|312:253,1,55,8|0,0:0|0:0,0:0:0:0:
351,315,179888,2,0,P|328:331|303:340,1,55,2|0,0:0|0:0,0:0:0:0:
219,313,180214,2,0,L|219:258,1,55,8|2,0:0|0:0,0:0:0:0:
171,183,180540,6,0,B|116:163|116:205|48:169,1,110,0|8,0:0|0:0,0:0:0:0:
19,100,181029,1,2,0:0:0:0:
76,33,181192,1,2,0:0:0:0:
145,87,181355,1,0,0:0:0:0:
208,26,181518,2,0,L|262:32,1,55,10|0,0:0|0:0,0:0:0:0:
327,92,181844,6,0,P|330:132|343:163,1,55,2|0,0:0|0:0,0:0:0:0:
399,204,182171,2,0,L|470:204,1,55,8|0,0:0|0:0,0:0:0:0:
503,276,182497,2,0,P|486:313|472:329,1,55,2|0,0:0|0:0,0:0:0:0:
390,338,182823,2,0,L|335:338,1,55,8|2,0:0|0:0,0:0:0:0:
250,363,183149,6,0,B|230:308|272:308|236:240,1,110,0|8,0:0|0:0,0:0:0:0:
199,179,183638,1,2,0:0:0:0:
263,119,183801,1,2,0:0:0:0:
201,56,183964,1,0,0:0:0:0:
129,106,184127,2,0,L|66:98,1,55,10|0,0:0|0:0,0:0:0:0:
15,164,184453,5,2,0:0:0:0:
72,230,184616,1,0,0:0:0:0:
29,306,184779,2,0,L|29:377,1,55,8|0,0:0|0:0,0:0:0:0:
116,370,185105,2,0,P|153:353|169:339,1,55,2|0,0:0|0:0,0:0:0:0:
222,277,185431,2,0,L|222:222,1,55,8|2,0:0|0:0,0:0:0:0:
200,137,185758,6,0,B|255:117|255:159|323:123,1,110,0|8,0:0|0:0,0:0:0:0:
371,69,186247,1,2,0:0:0:0:
428,134,186410,2,0,L|421:188,1,55,2|0,0:0|0:0,0:0:0:0:
373,262,186736,1,10,0:0:0:0:
296,219,186899,1,0,0:0:0:0:
223,268,187062,6,0,P|165:276|109:309,1,110,2|8,0:0|0:0,0:0:0:0:
53,357,187551,1,0,0:0:0:0:
10,285,187714,2,0,P|14:242|12:216,1,55,2|0,0:0|0:0,0:0:0:0:
65,158,188040,2,0,P|90:168|114:182,1,55,8|2,0:0|0:0,0:0:0:0:
200,200,188366,6,0,L|211:90,1,110,0|10,0:0|0:0,0:0:0:0:
262,19,188855,1,0,0:0:0:0:
345,46,189018,2,0,L|455:57,1,110,0|10,0:0|0:0,0:0:0:0:
454,56,189671,6,0,P|436:98|423:149,1,82.5,2|0,0:0|0:0,0:0:0:0:
420,177,189997,2,0,L|431:246,1,55,8|0,0:0|0:0,0:0:0:0:
355,279,190323,2,0,L|346:224,1,55,2|0,0:0|0:0,0:0:0:0:
278,168,190649,1,8,0:0:0:0:
257,169,190730,1,0,0:0:0:0:
236,170,190812,1,2,0:0:0:0:
216,171,190893,1,0,0:0:0:0:
195,172,190975,6,0,L|94:178,1,82.5,0|0,0:0|0:0,0:0:0:0:
77,204,191301,2,0,P|72:231|62:256,1,55,8|2,0:0|0:0,0:0:0:0:
121,321,191627,2,0,P|141:338|159:360,1,55,2|0,0:0|0:0,0:0:0:0:
244,340,191953,2,0,L|241:308,3,27.5,8|0|0|0,0:0|0:0|0:0|0:0,0:0:0:0:
269,278,192279,6,0,L|352:283,1,82.5,2|0,0:0|0:0,0:0:0:0:
395,276,192605,2,0,P|409:241|416:208,1,55,8|0,0:0|0:0,0:0:0:0:
358,155,192931,2,0,P|350:128|339:103,1,55,2|0,0:0|0:0,0:0:0:0:
271,46,193258,2,0,L|230:37,3,27.5,8|0|2|0,0:0|0:0|0:0|0:0,0:0:0:0:
209,67,193584,6,0,L|108:73,1,82.5,0|0,0:0|0:0,0:0:0:0:
96,104,193910,2,0,P|91:131|81:156,1,55,8|2,0:0|0:0,0:0:0:0:
67,243,194236,2,0,P|92:247|119:257,1,55,2|0,0:0|0:0,0:0:0:0:
160,336,194562,2,0,P|185:326|212:321,1,55,8|0,0:0|0:0,0:0:0:0:
297,344,194888,6,0,L|292:262,1,82.5,2|0,0:0|0:0,0:0:0:0:
276,220,195214,2,0,P|262:185|255:152,1,55,8|0,0:0|0:0,0:0:0:0:
340,139,195540,2,0,P|351:113|358:87,1,55,2|0,0:0|0:0,0:0:0:0:
280,46,195866,2,0,L|282:18,3,27.5,8|0|2|0,0:0|0:0|0:0|0:0,0:0:0:0:
240,5,196192,6,0,L|139:11,1,82.5,0|0,0:0|0:0,0:0:0:0:
122,36,196518,2,0,P|117:63|107:88,1,55,8|2,0:0|0:0,0:0:0:0:
107,176,196844,2,0,P|132:166|159:162,1,55,2|0,0:0|0:0,0:0:0:0:
226,218,197171,2,0,P|222:244|212:270,1,55,8|0,0:0|0:0,0:0:0:0:
173,352,197497,5,2,0:0:0:0:
173,352,197660,1,0,0:0:0:0:
260,358,197823,2,0,P|286:350|311:339,1,55,8|0,0:0|0:0,0:0:0:0:
398,324,198149,2,0,P|390:297|379:272,1,55,2|0,0:0|0:0,0:0:0:0:
373,184,198475,2,0,P|346:191|321:202,1,55,8|2,0:0|0:0,0:0:0:0:
246,247,198801,6,0,P|210:256|133:233,1,110,0|8,0:0|0:0,0:0:0:0:
98,161,199290,1,2,0:0:0:0:
155,93,199453,2,0,L|164:38,1,55,2|0,0:0|0:0,0:0:0:0:
251,24,199779,1,8,0:0:0:0:
270,36,199861,1,0,0:0:0:0:
291,43,199942,1,0,0:0:0:0:
313,44,200024,1,0,0:0:0:0:
334,41,200105,6,0,P|342:107|333:147,1,82.5,4|0,0:0|0:0,0:0:0:0:
313,157,200431,2,0,P|304:197|303:222,1,55,8|0,0:0|0:0,0:0:0:0:
379,256,200758,2,0,P|385:282|388:310,1,55,0|0,0:0|0:0,0:0:0:0:
319,364,201084,1,8,0:0:0:0:
300,352,201165,1,0,0:0:0:0:
279,345,201247,1,0,0:0:0:0:
257,344,201328,1,0,0:0:0:0:
236,347,201410,6,0,P|228:281|237:241,1,82.5,0|0,0:0|0:0,0:0:0:0:
219,222,201736,2,0,P|191:218|164:212,1,55,8|0,0:0|0:0,0:0:0:0:
99,152,202062,2,0,P|105:125|108:97,1,55,0|0,0:0|0:0,0:0:0:0:
195,89,202388,2,0,L|193:61,3,27.5,8|0|0|0,0:0|0:0|0:0|0:0,0:0:0:0:
228,35,202714,6,0,P|268:33|306:50,1,82.5,0|0,0:0|0:0,0:0:0:0:
343,74,203040,2,0,L|360:148,1,55,8|0,0:0|0:0,0:0:0:0:
435,163,203366,2,0,L|422:216,1,55,0|0,0:0|0:0,0:0:0:0:
350,266,203692,2,0,L|352:294,3,27.5,8|0|0|0,0:0|0:0|0:0|0:0,0:0:0:0:
317,320,204018,6,0,P|276:321|238:304,1,82.5,0|0,0:0|0:0,0:0:0:0:
202,281,204344,2,0,L|185:207,1,55,8|0,0:0|0:0,0:0:0:0:
110,192,204671,2,0,L|122:138,1,55,0|0,0:0|0:0,0:0:0:0:
197,91,204997,1,8,0:0:0:0:
220,92,205078,1,0,0:0:0:0:
242,87,205160,1,0,0:0:0:0:
261,77,205241,1,0,0:0:0:0:
278,64,205323,6,0,P|305:88|326:124,1,55,0|0,0:0|0:0,0:0:0:0:
404,105,205649,2,0,P|395:145|394:170,1,55,8|0,0:0|0:0,0:0:0:0:
320,208,205975,2,0,P|326:234|329:262,1,55,0|0,0:0|0:0,0:0:0:0:
273,329,206301,1,8,0:0:0:0:
250,328,206383,1,0,0:0:0:0:
228,333,206464,1,0,0:0:0:0:
209,343,206546,1,0,0:0:0:0:
192,356,206627,6,0,P|138:360|96:337,1,82.5,0|0,0:0|0:0,0:0:0:0:
87,313,206953,2,0,P|95:283|97:248,1,55,8|0,0:0|0:0,0:0:0:0:
166,204,207279,2,0,P|159:183|156:149,1,55,0|0,0:0|0:0,0:0:0:0:
232,107,207605,2,0,L|234:79,3,27.5,8|0|0|0,0:0|0:0|0:0|0:0,0:0:0:0:
275,63,207931,6,0,L|376:47,1,82.5,0|0,0:0|0:0,0:0:0:0:
397,67,208258,2,0,P|385:99|380:141,1,55,8|0,0:0|0:0,0:0:0:0:
448,176,208584,2,0,P|458:201|463:228,1,55,0|0,0:0|0:0,0:0:0:0:
410,298,208910,2,0,L|408:326,3,27.5,8|0|0|0,0:0|0:0|0:0|0:0,0:0:0:0:
367,342,209236,6,0,L|288:352,1,55,0|0,0:0|0:0,0:0:0:0:
230,317,209562,2,0,L|151:327,1,55,8|0,0:0|0:0,0:0:0:0:
97,283,209888,2,0,P|86:249|90:210,1,55,0|0,0:0|0:0,0:0:0:0:
158,180,210214,2,0,P|167:154|169:126,1,55,8|0,0:0|0:0,0:0:0:0:
175,39,210540,5,4,0:0:0:0:
91,10,210703,1,0,0:0:0:0:
65,94,210866,2,0,P|66:121|76:147,1,55,8|0,0:0|0:0,0:0:0:0:
158,180,211192,2,0,P|156:207|146:233,1,55,0|0,0:0|0:0,0:0:0:0:
187,310,211518,1,8,0:0:0:0:
210,311,211600,1,0,0:0:0:0:
232,306,211681,1,0,0:0:0:0:
251,296,211763,1,0,0:0:0:0:
268,283,211844,6,0,P|322:279|364:302,1,82.5,0|0,0:0|0:0,0:0:0:0:
390,299,212171,2,0,P|392:271|400:245,1,55,8|0,0:0|0:0,0:0:0:0:
332,188,212497,2,0,P|329:160|321:134,1,55,0|0,0:0|0:0,0:0:0:0:
260,71,212823,1,8,0:0:0:0:
237,70,212904,1,0,0:0:0:0:
215,75,212986,1,0,0:0:0:0:
196,85,213067,1,0,0:0:0:0:
179,98,213149,6,0,P|125:102|83:79,1,82.5,0|0,0:0|0:0,0:0:0:0:
57,82,213475,2,0,P|40:108|29:141,1,55,8|0,0:0|0:0,0:0:0:0:
92,193,213801,2,0,P|109:219|120:252,1,55,0|0,0:0|0:0,0:0:0:0:
61,308,214127,2,0,L|56:341,3,27.5,8|0|0|0,0:0|0:0|0:0|0:0,0:0:0:0:
94,358,214453,6,0,L|195:342,1,82.5,0|0,0:0|0:0,0:0:0:0:
209,316,214779,2,0,L|263:324,1,55,8|0,0:0|0:0,0:0:0:0:
341,363,215105,2,0,L|395:354,1,55,0|0,0:0|0:0,0:0:0:0:
444,281,215431,2,0,L|449:248,3,27.5,8|0|0|0,0:0|0:0|0:0|0:0,0:0:0:0:
412,227,215758,6,0,L|396:126,1,82.5,0|0,0:0|0:0,0:0:0:0:
366,115,216084,2,0,P|339:115|311:106,1,55,0|0,0:0|0:0,0:0:0:0:
240,56,216410,2,0,L|185:64,1,55,8|0,0:0|0:0,0:0:0:0:
118,122,216736,2,0,L|113:155,3,27.5,0|0|0|0,0:0|0:0|0:0|0:0,0:0:0:0:
150,176,217062,6,0,L|166:277,1,82.5,0|0,0:0|0:0,0:0:0:0:
196,288,217388,2,0,P|223:288|250:296,1,55,0|0,0:0|0:0,0:0:0:0:
322,347,217714,2,0,L|376:338,1,55,8|0,0:0|0:0,0:0:0:0:
443,281,218040,2,0,L|448:248,3,27.5,0|0|0|0,0:0|0:0|0:0|0:0,0:0:0:0:
411,227,218366,6,0,P|389:183|401:102,1,110,0|0,0:0|0:0,0:0:0:0:
228,57,219018,2,0,P|200:98|124:128,1,110,8|0,0:0|0:0,0:0:0:0:
67,89,219508,1,0,0:0:0:0:
67,89,219589,1,0,0:0:0:0:
67,89,219671,6,0,L|56:198,1,110,0|0,0:0|0:0,0:0:0:0:
81,282,220160,1,0,0:0:0:0:
168,289,220323,2,0,L|277:299,1,110,0|0,0:0|0:0,0:0:0:0:
180,152,220975,1,4,0:0:0:0:
