osu file format v14

[General]
AudioFilename: audio.mp3
AudioLeadIn: 0
PreviewTime: 200105
Countdown: 0
SampleSet: Normal
StackLeniency: 0.6
Mode: 0
LetterboxInBreaks: 0
WidescreenStoryboard: 1

[Editor]
Bookmarks: 22709,33144,43579,54013,61839,64448,72274,74883,82709,85318,95753,106187,116622,127057,137492,147926,155753,158361,168796,179231,189666,200100,210535,220970
DistanceSpacing: 1
BeatDivisor: 2
GridSize: 32
TimelineZoom: 2.799999

[Metadata]
Title:VOLT (USAO Remix)
TitleUnicode:VOLT (USAO Remix)
Artist:aran
ArtistUnicode:aran
Creator:C00L
Version:Normal
Source:GROOVE COASTER
Tags:dubstep melodic electronic video game drumstep instrumental dnb english ARCHVS c93 taito cool SnowNiNo_ NiNo xChorse DTM9 Nowa Plaudible
BeatmapID:1551524
BeatmapSetID:732280

[Difficulty]
HPDrainRate:3
CircleSize:3
OverallDifficulty:4
ApproachRate:5.5
SliderMultiplier:1.1
SliderTickRate:1

[Events]
//Background and Video events
0,0,"Electric_city.jpg",0,0
//Break Periods
2,116827,125758
//Storyboard Layer 0 (Background)
//Storyboard Layer 1 (Fail)
//Storyboard Layer 2 (Pass)
//Storyboard Layer 3 (Foreground)
//Storyboard Layer 4 (Overlay)
//Storyboard Sound Samples

[TimingPoints]
1845,326.086956521739,4,2,3,30,1,0
22388,-100,4,2,3,10,0,0
22714,-100,4,2,3,30,0,0
30540,-100,4,2,3,35,0,0
30785,-100,4,2,3,5,0,0
30866,-100,4,2,3,35,0,0
31437,-100,4,2,3,5,0,0
31518,-100,4,2,3,35,0,0
33067,-100,4,2,3,10,0,0
33149,-100,4,2,3,40,0,0
43584,-100,4,3,6,50,0,0
52714,-100,4,1,2,40,0,0
53692,-100,4,1,2,60,0,0
54018,-100,4,3,1,70,0,0
54589,-100,4,3,1,10,0,0
54671,-100,4,3,1,70,0,0
56546,-100,4,3,1,10,0,0
56627,-100,4,3,1,70,0,0
56872,-100,4,3,1,10,0,0
56953,-100,4,3,1,70,0,0
57524,-100,4,3,1,10,0,0
57605,-100,4,3,1,70,0,0
58828,-100,4,3,1,10,0,0
58910,-100,4,1,2,70,0,0
58991,-100,4,1,2,10,0,0
59236,-100,4,3,1,70,0,0
59480,-100,4,3,1,10,0,0
59562,-100,4,3,1,70,0,0
61437,-100,4,3,1,10,0,0
61518,-100,4,3,1,70,0,0
61844,-100,4,3,1,55,0,0
62741,-100,4,3,1,10,0,0
62823,-100,4,3,1,55,0,0
63393,-100,4,3,1,10,0,0
63475,-100,4,3,1,55,0,0
63719,-100,4,3,1,10,0,0
63801,-100,4,3,1,55,0,0
64372,-100,4,3,1,10,0,0
64453,-100,4,3,1,70,0,0
65024,-100,4,3,1,10,0,0
65105,-100,4,3,1,70,0,0
66980,-100,4,3,1,10,0,0
67062,-100,4,3,1,70,0,0
67306,-100,4,3,1,10,0,0
67388,-100,4,3,1,70,0,0
67959,-100,4,3,1,10,0,0
68040,-100,4,3,1,70,0,0
69263,-100,4,3,1,10,0,0
69344,-100,4,1,2,70,0,0
69426,-100,4,1,2,10,0,0
69671,-100,4,3,1,70,0,0
69915,-100,4,3,1,10,0,0
69997,-100,4,3,1,70,0,0
71872,-100,4,3,1,10,0,0
71953,-100,4,3,1,70,0,0
72279,-100,4,3,4,50,0,0
74562,-100,4,1,4,60,0,0
74888,-100,4,3,4,80,0,1
75866,-100,4,1,4,80,0,1
76192,-100,4,3,4,80,0,1
77171,-100,4,1,4,80,0,1
77497,-100,4,3,4,80,0,1
78475,-100,4,1,4,80,0,1
78801,-100,4,3,4,80,0,1
79779,-100,4,1,4,80,0,1
80105,-100,4,3,4,80,0,1
81084,-100,4,1,4,80,0,1
81410,-100,4,3,4,80,0,1
82388,-100,4,1,4,80,0,1
82389,-100,4,1,4,80,0,1
82714,-100,4,3,4,60,0,0
84915,-100,4,3,4,10,0,0
84997,-100,4,1,4,60,0,0
85323,-100,4,3,4,80,0,1
86301,-100,4,1,4,80,0,1
86627,-100,4,3,4,80,0,1
87605,-100,4,1,4,80,0,1
87931,-100,4,3,4,80,0,1
88910,-100,4,1,4,80,0,1
89236,-100,4,3,4,80,0,1
90214,-100,4,1,4,80,0,1
90540,-100,4,3,4,80,0,1
91518,-100,4,1,4,80,0,1
91844,-100,4,3,4,80,0,1
92823,-100,4,1,4,80,0,1
93149,-100,4,3,4,75,0,1
93801,-100,4,3,4,70,0,1
94453,-100,4,1,2,80,0,1
94698,-100,4,1,2,10,0,1
94779,-100,4,1,2,80,0,1
95105,-100,4,1,2,80,0,1
95431,-100,4,3,4,70,0,1
95676,-100,4,3,4,10,0,1
95758,-100,4,1,2,55,0,0
96002,-100,4,1,2,10,0,0
96084,-100,4,1,2,55,0,0
98081,-100,4,1,2,10,0,0
98366,-100,4,1,2,55,0,0
98611,-100,4,1,2,10,0,0
98692,-100,4,1,2,55,0,0
100893,-100,4,1,2,5,0,0
100975,-100,4,1,2,55,0,0
103828,-100,4,1,2,10,0,0
103910,-100,4,1,2,55,0,0
105866,-100,4,1,2,60,0,0
106111,-100,4,1,2,10,0,0
106192,-100,4,1,2,55,0,0
106437,-100,4,1,2,10,0,0
106518,-100,4,1,2,55,0,0
107741,-100,4,1,2,10,0,0
107823,-100,4,1,2,55,0,0
108516,-100,4,1,2,10,0,0
108801,-100,4,1,2,55,0,0
109046,-100,4,1,2,10,0,0
109127,-100,4,1,2,55,0,0
110350,-100,4,1,2,10,0,0
110431,-100,4,1,2,55,0,0
111328,-100,4,1,2,10,0,0
111410,-100,4,1,2,50,0,0
112959,-100,4,1,2,10,0,0
113040,-100,4,1,2,50,0,0
113285,-100,4,1,2,10,0,0
113366,-100,4,1,2,50,0,0
114018,-100,4,1,2,45,0,0
115323,-100,4,1,2,40,0,0
115975,-100,4,1,2,40,0,0
116627,-100,4,2,3,50,0,0
127062,-100,4,1,2,25,0,0
128040,-100,4,1,4,25,0,0
128366,-100,4,1,2,30,0,0
129344,-100,4,1,4,30,0,0
129671,-100,4,1,2,35,0,0
130649,-100,4,1,4,35,0,0
130975,-100,4,1,2,40,0,0
131953,-100,4,1,4,40,0,0
132279,-100,4,1,2,45,0,0
133258,-100,4,1,4,45,0,0
133584,-100,4,1,2,45,0,0
134562,-100,4,1,4,45,0,0
134888,-100,4,1,2,40,0,0
135540,-100,4,1,2,30,0,0
136192,-100,4,1,2,40,0,0
136233,-100,4,1,2,20,0,0
136844,-100,4,3,6,15,0,0
137497,-100,4,3,6,50,0,0
140024,-100,4,3,6,10,0,0
140105,-100,4,3,6,50,0,0
146627,-100,4,1,2,40,0,0
147605,-100,4,1,2,60,0,0
147850,-100,4,1,2,10,0,0
147931,-100,4,3,1,70,0,0
148828,-100,4,3,1,10,0,0
148910,-100,4,3,1,70,0,0
149154,-100,4,3,1,10,0,0
149236,-100,4,3,1,70,0,0
149480,-100,4,3,1,10,0,0
149562,-100,4,3,1,70,0,0
150133,-100,4,3,1,10,0,0
150214,-100,4,3,1,70,0,0
150459,-100,4,3,1,10,0,0
150540,-100,4,3,1,70,0,0
150785,-100,4,3,1,10,0,0
150866,-100,4,3,1,70,0,0
151111,-100,4,3,1,10,0,0
151192,-100,4,3,1,70,0,0
154046,-100,4,3,1,10,0,0
154127,-100,4,3,1,70,0,0
154372,-100,4,3,1,10,0,0
154453,-100,4,3,1,70,0,0
155350,-100,4,3,1,10,0,0
155431,-100,4,3,1,70,0,0
155758,-100,4,3,1,60,0,0
157306,-100,4,3,1,10,0,0
157388,-100,4,3,1,60,0,0
157633,-100,4,3,1,10,0,0
157714,-100,4,3,1,60,0,0
158040,-100,4,1,2,60,0,0
158122,-100,4,1,2,10,0,0
158366,-100,4,3,1,70,0,0
159589,-100,4,3,1,10,0,0
159671,-100,4,3,1,70,0,0
159915,-100,4,3,1,10,0,0
159997,-100,4,3,1,70,0,0
160567,-100,4,3,1,10,0,0
160649,-100,4,3,1,70,0,0
160893,-100,4,3,1,10,0,0
160975,-100,4,3,1,70,0,0
161219,-100,4,3,1,10,0,0
161301,-100,4,3,1,70,0,0
163258,-100,4,1,2,70,0,0
163584,-100,4,3,1,70,0,0
163828,-100,4,3,1,10,0,0
163910,-100,4,3,1,70,0,0
167171,-100,4,3,1,60,0,0
167497,-100,4,3,1,50,0,0
168149,-100,4,1,2,45,0,0
168475,-100,4,3,1,60,0,0
168719,-100,4,3,1,10,0,0
168801,-100,4,1,2,60,0,0
170350,-100,4,1,2,10,0,0
170431,-100,4,1,2,60,0,0
171084,-100,4,1,4,60,0,0
171410,-100,4,1,2,65,0,0
172388,-100,4,1,4,65,0,0
172714,-100,4,1,2,65,0,0
173692,-100,4,1,2,70,0,0
174018,-100,4,1,2,60,0,0
176219,-100,4,1,2,10,0,0
176301,-100,4,1,2,60,0,0
176627,-100,4,1,2,50,0,0
176953,-100,4,1,2,65,0,0
177931,-100,4,1,2,70,0,0
178910,-100,4,1,2,55,0,0
179154,-100,4,1,2,10,0,0
179236,-100,4,1,2,65,0,0
181437,-100,4,1,2,10,0,0
181518,-100,4,1,2,65,0,0
184046,-100,4,1,2,10,0,0
184127,-100,4,1,2,65,0,0
184372,-100,4,1,2,10,0,0
184453,-100,4,1,2,65,0,0
188611,-100,4,1,2,10,0,0
188692,-100,4,1,2,65,0,0
189344,-100,4,1,2,70,0,0
189385,-100,4,1,2,10,0,0
189671,-100,4,1,2,70,0,0
190649,-100,4,1,4,70,0,0
190975,-100,4,1,2,70,0,0
191953,-100,4,1,4,70,0,0
192279,-100,4,1,2,70,0,0
193258,-100,4,1,4,70,0,0
193584,-100,4,1,2,70,0,0
194562,-100,4,1,2,55,0,0
194603,-100,4,1,2,10,0,0
194888,-100,4,1,2,55,0,0
195866,-100,4,1,4,50,0,0
196192,-100,4,1,2,45,0,0
196681,-100,4,1,2,40,0,0
196844,-100,4,1,2,40,0,0
197008,-100,4,1,2,35,0,0
197171,-100,4,1,4,30,0,0
197497,-100,4,1,2,60,0,0
198149,-100,4,1,2,65,0,0
198801,-100,4,1,2,70,0,0
199698,-100,4,1,2,10,0,0
199779,-100,4,1,4,70,0,0
200105,-100,4,3,4,85,0,1
201084,-100,4,1,4,85,0,1
201410,-100,4,3,4,85,0,1
202388,-100,4,1,4,85,0,1
202714,-100,4,3,4,85,0,1
203692,-100,4,1,4,85,0,1
204018,-100,4,3,4,85,0,1
204997,-100,4,1,4,85,0,1
205037,-100,4,1,4,5,0,1
205078,-100,4,1,4,85,0,1
205323,-100,4,3,4,85,0,1
206301,-100,4,1,4,85,0,1
206627,-100,4,3,4,85,0,1
207605,-100,4,1,4,85,0,1
207931,-100,4,3,4,85,0,1
208910,-100,4,1,4,85,0,1
209236,-100,4,3,4,70,0,1
209888,-100,4,3,1,65,0,1
210133,-100,4,3,1,10,0,1
210214,-100,4,3,1,65,0,1
210459,-100,4,3,1,10,0,1
210540,-100,4,3,4,80,0,1
211518,-100,4,1,4,80,0,1
211844,-100,4,3,4,80,0,1
212823,-100,4,1,4,80,0,1
213149,-100,4,3,4,80,0,1
214127,-100,4,1,4,80,0,1
214453,-100,4,3,4,80,0,1
215431,-100,4,1,4,80,0,1
215758,-100,4,3,4,60,0,0
216736,-100,4,1,4,55,0,0
217062,-100,4,3,4,50,0,0
218040,-100,4,1,4,45,0,0
218366,-100,4,3,4,40,0,0
219671,-100,4,1,2,40,0,0
219997,-100,4,1,2,35,0,0
220323,-100,4,1,2,30,0,0
220567,-100,4,1,2,10,0,0
220649,-100,4,1,2,25,0,0
220975,-100,4,2,3,40,0,0

[Colours]
Combo1 : 64,255,64
Combo2 : 131,105,236
Combo3 : 67,252,252
Combo4 : 215,67,231

[HitObjects]
152,237,22714,6,2,B|153:183|84:163|84:163|42:222|81:269,1,220,2|8,0:0|0:0,0:0:0:0:
151,347,23692,1,2,0:0:0:0:
246,291,24018,2,0,B|301:280|301:280|359:293,2,110,0|2|8,0:0|0:0|0:0,0:0:0:0:
151,347,24997,1,2,0:0:0:0:
51,300,25323,6,2,B|55:238|55:238|45:186|45:186|61:143|61:143|66:74,1,220,2|8,0:0|0:0,0:0:0:0:
165,129,26301,1,2,0:0:0:0:
274,117,26627,2,0,L|282:5,2,110,0|2|8,0:0|0:0|0:0,0:0:0:0:
265,226,27605,1,2,0:0:0:0:
359,282,27931,6,0,P|372:229|361:176,1,110,2|0,0:0|0:0,0:0:0:0:
366,65,28584,2,8,P|313:80|273:117,1,110,8|2,0:0|0:0,0:0:0:0:
265,226,29236,1,0,0:0:0:0:
162,187,29562,2,0,B|106:173|106:173|46:185,2,110,2|8|2,0:0|0:0|0:0,0:0:0:0:
265,226,30540,6,0,B|266:262|266:262|277:288|277:288|279:338,1,110,2|0,0:0|0:0,0:0:0:0:
388,334,31192,2,8,B|390:288|390:288|400:263|400:263|402:226,1,110,8|2,0:0|0:0,0:0:0:0:
333,140,31844,1,0,0:0:0:0:
280,42,32171,2,0,B|333:27|333:27|385:43,2,110,2|8|2,0:0|0:0|0:0,0:0:0:0:
175,7,33149,6,2,L|181:116,1,110,2|0,0:0|0:0,0:0:0:0:
191,226,33801,1,8,0:0:0:0:
191,226,34127,1,2,0:0:0:0:
279,160,34453,2,0,B|334:144|334:144|394:153,2,110,0|2|8,0:0|0:0|0:0,0:0:0:0:
191,226,35431,1,2,0:0:0:0:
93,277,35758,6,0,P|79:224|92:171,1,110,2|0,0:0|0:0,0:0:0:0:
157,82,36410,1,8,0:0:0:0:
157,82,36736,1,2,0:0:0:0:
252,135,37062,2,0,B|262:80|262:80|251:21,2,110,0|2|8,0:0|0:0|0:0,0:0:0:0:
191,226,38040,1,2,0:0:0:0:
290,272,38366,6,0,B|445:254|445:254|372:234,1,220,2|8,0:0|0:0,0:0:0:0:
181,329,39671,2,0,B|176:280|176:280|157:254|157:254|150:178|150:178|194:230,1,220,2|8,0:0|0:0,0:0:0:0:
410,219,40975,6,0,B|356:204|356:204|303:217,1,110,2|0,0:0|0:0,0:0:0:0:
287,326,41627,2,0,B|235:341|235:341|180:328,1,110,10|0,0:0|0:0,0:0:0:0:
90,265,42279,1,2,0:0:0:0:
448,236,43584,6,0,B|456:191|456:191|443:126,1,110,4|0,0:0|0:0,0:0:0:0:
416,23,44236,1,0,0:0:0:0:
327,88,44562,1,0,0:0:0:0:
230,34,44888,2,0,B|188:20|188:20|113:35,2,110,0|0|0,0:0|0:0|0:0,0:0:0:0:
327,88,45866,5,0,0:0:0:0:
358,193,46192,2,0,B|364:241|364:241|340:298,1,110,0|0,0:0|0:0,0:0:0:0:
236,261,46844,1,0,0:0:0:0:
135,214,47171,2,0,B|122:268|122:268|137:330,2,110,0|0|0,0:0|0:0|0:0,0:0:0:0:
177,112,48149,1,0,0:0:0:0:
68,127,48475,1,0,0:0:0:0:
135,214,48801,6,0,B|198:219,1,55
219,264,49127,2,0,B|281:252,1,55
313,290,49453,2,0,B|369:262,2,55
240,372,50105,6,0,L|185:367,1,55
148,326,50431,2,0,L|93:330,1,55
56,372,50758,2,0,L|1:367,2,55
256,192,51410,12,0,52714,0:0:0:0:
69,231,53692,6,0,L|131:237,1,55,0|0,0:0|0:0,0:0:0:0:
178,242,54018,2,0,B|189:286|189:286|174:361,1,110,4|0,0:0|0:0,0:0:0:0:
277,305,54671,1,8,0:0:0:0:
362,235,54997,2,0,L|358:172,1,55,0|0,0:0|0:0,0:0:0:0:
353,125,55323,2,0,B|405:112|405:112|458:130,2,110,0|0|8,0:0|0:0|0:0,0:0:0:0:
278,207,56301,2,0,B|239:219|239:219|161:202,1,110,0|0,0:0|0:0,0:0:0:0:
103,117,56953,6,0,B|100:156|100:156|87:179|87:179|84:231,1,110,0|8,0:0|0:0,0:0:0:0:
74,332,57605,1,0,0:0:0:0:
172,380,57931,2,0,B|217:381|217:381|291:357,1,110,0|0,0:0|0:0,0:0:0:0:
380,320,58584,1,8,0:0:0:0:
380,320,58910,1,0,0:0:0:0:
477,365,59236,6,0,B|485:313|485:313|471:258,1,110,0|0,0:0|0:0,0:0:0:0:
408,167,59888,2,8,B|450:147|450:147|513:160,2,110,8|0|0,0:0|0:0|0:0,0:0:0:0:
327,243,60866,1,0,0:0:0:0:
219,221,61192,2,8,L|211:103,1,110,8|0,0:0|0:0,0:0:0:0:
250,8,61844,6,0,P|194:0|138:24,1,110,0|0,0:0|0:0,0:0:0:0:
35,34,62497,2,8,P|56:86|104:122,1,110,8|0,0:0|0:0,0:0:0:0:
211,111,63149,1,0,0:0:0:0:
211,111,63475,1,0,0:0:0:0:
219,221,63801,2,8,L|226:338,1,110,8|0,0:0|0:0,0:0:0:0:
314,266,64453,6,0,B|369:256|369:256|431:268,1,110,4|0,0:0|0:0,0:0:0:0:
369,169,65105,1,8,0:0:0:0:
270,119,65431,2,0,L|265:58,1,55,0|0,0:0|0:0,0:0:0:0:
256,9,65758,2,0,B|308:-4|308:-4|373:3,2,110,0|0|8,0:0|0:0|0:0,0:0:0:0:
186,90,66736,2,0,B|178:125|178:125|197:201,1,110,0|0,0:0|0:0,0:0:0:0:
185,304,67388,6,0,B|229:301|229:301|252:288|252:288|291:285,1,110,0|8,0:0|0:0,0:0:0:0:
400,273,68040,1,0,0:0:0:0:
451,175,68366,2,0,B|405:159|405:159|337:172,1,110,0|0,0:0|0:0,0:0:0:0:
239,202,69018,1,8,0:0:0:0:
239,202,69344,1,0,0:0:0:0:
134,166,69671,6,0,B|128:209|128:209|151:284,1,110,0|0,0:0|0:0,0:0:0:0:
206,365,70323,2,8,B|167:385|167:385|100:376,2,110,8|0|0,0:0|0:0|0:0,0:0:0:0:
299,306,71301,1,0,0:0:0:0:
404,338,71627,2,8,L|394:217,1,110,8|0,0:0|0:0,0:0:0:0:
381,119,72279,6,0,L|375:53,2,55,0|0|0,0:0|0:0|0:0,0:0:0:0:
394,228,72931,1,8,0:0:0:0:
290,188,73258,1,0,0:0:0:0:
185,221,73584,2,0,P|180:194|182:166,1,55,0|0,0:0|0:0,0:0:0:0:
205,116,73910,1,0,0:0:0:0:
177,9,74236,1,0,0:0:0:0:
283,38,74562,2,0,P|309:43|337:42,1,55,0|0,0:0|0:0,0:0:0:0:
393,21,74888,6,0,L|403:145,1,110,4|0,0:0|0:0,0:0:0:0:
438,172,75377,1,0,0:0:0:0:
443,226,75540,1,8,0:0:0:0:
344,273,75866,2,0,P|317:281|290:279,1,55,0|0,0:0|0:0,0:0:0:0:
262,232,76192,6,0,L|137:242,1,110,0|0,0:0|0:0,0:0:0:0:
103,266,76681,1,0,0:0:0:0:
48,269,76844,1,8,0:0:0:0:
53,158,77171,2,0,P|78:146|106:144,1,55,0|0,0:0|0:0,0:0:0:0:
161,154,77497,6,0,B|163:122|163:122|159:108|159:108|163:72,2,82.5,0|0|0,0:0|0:0|0:0,0:0:0:0:
158,208,78149,1,8,0:0:0:0:
268,141,78475,1,0,0:0:0:0:
323,130,78638,1,0,0:0:0:0:
370,158,78801,6,0,L|360:275,1,110,0|0,0:0|0:0,0:0:0:0:
350,384,79453,1,8,0:0:0:0:
242,319,79779,2,0,P|215:313|187:315,1,55,0|0,0:0|0:0,0:0:0:0:
147,351,80105,6,0,L|157:228,1,110,0|0,0:0|0:0,0:0:0:0:
133,191,80594,1,0,0:0:0:0:
139,136,80758,1,8,0:0:0:0:
46,76,81084,2,0,P|71:64|98:60,1,55,0|0,0:0|0:0,0:0:0:0:
151,52,81410,6,0,L|274:62,1,110,0|0,0:0|0:0,0:0:0:0:
298,101,81899,1,0,0:0:0:0:
352,108,82062,1,8,0:0:0:0:
413,198,82388,2,0,P|389:212|363:217,1,55,0|0,0:0|0:0,0:0:0:0:
307,205,82714,5,0,0:0:0:0:
202,77,83203,1,0,0:0:0:0:
148,81,83366,1,0,0:0:0:0:
52,136,83692,1,0,0:0:0:0:
163,257,84181,1,0,0:0:0:0:
217,253,84344,1,0,0:0:0:0:
271,348,84671,1,0,0:0:0:0:
164,380,84997,1,0,0:0:0:0:
51,343,85323,6,0,L|61:220,1,110,4|8,0:0|0:0,0:0:0:0:
92,188,85812,1,0,0:0:0:0:
98,133,85975,1,0,0:0:0:0:
168,48,86301,2,0,P|194:54|228:76,1,55,8|0,0:0|0:0,0:0:0:0:
259,106,86627,6,0,L|248:224,1,110,0|8,0:0|0:0,0:0:0:0:
278,262,87116,1,0,0:0:0:0:
270,316,87279,1,0,0:0:0:0:
376,343,87605,2,0,P|403:341|428:329,1,55,8|0,0:0|0:0,0:0:0:0:
477,303,87931,6,0,B|486:263|486:263|470:192,1,110,0|8,0:0|0:0,0:0:0:0:
490,143,88421,1,0,0:0:0:0:
478,89,88584,1,0,0:0:0:0:
413,0,88910,1,8,0:0:0:0:
304,17,89236,6,0,L|299:139,1,110,0|8,0:0|0:0,0:0:0:0:
296,183,89725,1,0,0:0:0:0:
291,238,89888,1,0,0:0:0:0:
286,347,90214,1,8,0:0:0:0:
193,289,90540,6,0,P|162:288|134:298,2,55,0|0|8,0:0|0:0|0:0,0:0:0:0:
118,207,91192,2,0,P|91:199|64:200,2,55,0|0|8,0:0|0:0|0:0,0:0:0:0:
226,192,91844,2,0,P|257:191|285:201,1,55,0|0,0:0|0:0,0:0:0:0:
327,226,92171,1,8,0:0:0:0:
377,128,92497,2,0,P|403:120|430:121,1,55,0|0,0:0|0:0,0:0:0:0:
483,137,92823,1,8,0:0:0:0:
256,192,93149,12,0,94453,0:0:0:0:
97,132,95105,6,0,L|103:252,1,110,0|8,0:0|0:0,0:0:0:0:
58,343,95758,6,2,B|111:330|111:330|166:338,1,110,2|8,0:0|0:0,0:0:0:0:
278,356,96410,1,2,0:0:0:0:
278,356,96736,1,8,0:0:0:0:
267,246,97062,2,0,L|259:136,1,110,2|8,0:0|0:0,0:0:0:0:
312,149,97551,1,0,0:0:0:0:
365,160,97714,2,2,L|372:50,1,110,2|8,0:0|0:0,0:0:0:0:
265,40,98366,6,2,B|218:33|218:33|157:49,1,110,2|8,0:0|0:0,0:0:0:0:
60,100,99018,1,2,0:0:0:0:
60,100,99344,1,8,0:0:0:0:
6,196,99671,2,0,P|49:210|119:197,1,110,2|8,0:0|0:0,0:0:0:0:
146,243,100160,1,0,0:0:0:0:
181,285,100323,2,2,P|215:255|238:187,1,110,2|8,0:0|0:0,0:0:0:0:
186,98,100975,6,2,B|240:87|240:87|300:103,1,110,2|8,0:0|0:0,0:0:0:0:
402,135,101627,1,2,0:0:0:0:
402,135,101953,1,8,0:0:0:0:
448,234,102279,2,0,B|399:246|399:246|335:229,1,110,2|8,0:0|0:0,0:0:0:0:
312,183,102768,1,0,0:0:0:0:
257,189,102931,1,2,0:0:0:0:
201,88,103258,2,0,P|174:94|143:90,1,55,8|0,0:0|0:0,0:0:0:0:
90,82,103584,6,2,P|75:120|89:189,1,110,2|8,0:0|0:0,0:0:0:0:
147,279,104236,1,2,0:0:0:0:
147,279,104562,1,8,0:0:0:0:
248,236,104888,1,2,0:0:0:0:
314,323,105214,2,0,P|339:331|367:329,1,55,8|0,0:0|0:0,0:0:0:0:
417,307,105540,2,0,P|444:304|470:313,2,55,2|2|8,0:0|0:0|0:0,0:0:0:0:
387,202,106192,6,2,B|393:154|393:154|382:92,1,110,2|8,0:0|0:0,0:0:0:0:
289,34,106844,2,2,L|171:27,1,110,2|10,0:0|0:0,0:0:0:0:
69,22,107497,1,2,0:0:0:0:
102,126,107823,1,8,0:0:0:0:
85,234,108149,5,2,0:0:0:0:
77,288,108312,1,2,0:0:0:0:
93,340,108475,1,8,0:0:0:0:
179,277,108801,6,2,B|233:266|233:266|289:280,1,110,2|8,0:0|0:0,0:0:0:0:
381,335,109453,2,2,P|394:283|375:223,1,110,2|10,0:0|0:0,0:0:0:0:
300,152,110105,1,2,0:0:0:0:
379,75,110431,1,8,0:0:0:0:
274,38,110758,5,2,0:0:0:0:
220,27,110921,1,2,0:0:0:0:
166,37,111084,1,8,0:0:0:0:
56,23,111410,6,2,P|55:50|64:80,1,55,2|0,0:0|0:0,0:0:0:0:
89,124,111736,1,0,0:0:0:0:
151,214,112062,1,10,0:0:0:0:
42,233,112388,1,2,0:0:0:0:
113,316,112714,6,2,P|105:341|107:379,2,55,2|0|0,0:0|0:0|0:0,0:0:0:0:
151,214,113366,1,10,0:0:0:0:
217,301,113692,1,0,0:0:0:0:
256,192,114018,12,2,115323,0:0:0:0:
230,323,115975,6,0,B|232:290|232:290|245:267|245:267|250:211,2,110,2|8|4,0:0|0:0|0:0,0:0:0:0:
128,167,127062,6,0,B|124:207|124:207|116:223|116:223|114:247,2,82.5,0|0|0,0:0|0:0|0:0,0:0:0:0:
98,119,127714,1,0,0:0:0:0:
157,9,128040,1,0,0:0:0:0:
227,93,128366,6,0,P|267:97|306:85,1,82.5,0|0,0:0|0:0,0:0:0:0:
356,21,128855,2,0,P|397:17|436:31,1,82.5,0|0,0:0|0:0,0:0:0:0:
490,94,129344,1,0,0:0:0:0:
405,182,129671,6,0,B|445:185|445:185|461:193|461:193|485:195,2,82.5,0|0|0,0:0|0:0|0:0,0:0:0:0:
368,223,130323,1,0,0:0:0:0:
268,162,130649,1,0,0:0:0:0:
159,183,130975,6,0,P|144:220|145:261,1,82.5,0|0,0:0|0:0,0:0:0:0:
69,295,131464,2,0,P|44:262|8:242,1,82.5,0|0,0:0|0:0,0:0:0:0:
65,163,131953,1,0,0:0:0:0:
256,192,132279,12,0,136192,0:0:0:0:
18,221,137497,6,0,B|62:207|62:207|133:223,1,110,4|0,0:0|0:0,0:0:0:0:
228,254,138149,1,0,0:0:0:0:
292,165,138475,1,0,0:0:0:0:
393,207,138801,2,0,B|448:217|448:217|512:206,2,110,0|0|0,0:0|0:0|0:0,0:0:0:0:
292,165,139779,6,0,L|284:47,1,110,0|0,0:0|0:0,0:0:0:0:
176,32,140431,1,0,0:0:0:0:
140,136,140758,1,0,0:0:0:0:
175,240,141084,2,0,B|184:285|184:285|170:356,2,110,0|0|0,0:0|0:0|0:0,0:0:0:0:
140,136,142062,1,0,0:0:0:0:
65,216,142388,1,0,0:0:0:0:
175,240,142714,6,0,L|229:243,1,55
271,207,143040,2,0,L|322:223,1,55
373,200,143366,2,0,L|418:229,2,55
315,106,144018,6,0,L|260:101,1,55
228,56,144344,2,0,L|173:60,1,55
141,106,144671,2,0,L|86:101,2,55
256,192,145323,12,0,146627,0:0:0:0:
204,249,147605,6,0,L|206:315,1,55,0|0,0:0|0:0,0:0:0:0:
208,358,147931,2,0,B|263:369|263:369|322:354,1,110,4|0,0:0|0:0,0:0:0:0:
424,370,148584,2,8,B|427:350|427:350|420:325|420:325|423:303|423:303|416:281|416:281|422:255,1,110,8|0,0:0|0:0,0:0:0:0:
472,165,149236,2,0,B|418:150|418:150|363:164,1,110,0|0,0:0|0:0,0:0:0:0:
265,211,149888,1,8,0:0:0:0:
179,142,150214,2,0,P|119:126|68:140,1,110,0|0,0:0|0:0,0:0:0:0:
14,229,150866,6,0,B|9:269|9:269|32:336,1,110,0|8,0:0|0:0,0:0:0:0:
113,261,151518,2,0,L|117:198,2,55,0|0|0,0:0|0:0|0:0,0:0:0:0:
199,329,152171,2,0,L|202:383,2,55,0|0|8,0:0|0:0|0:0,0:0:0:0:
280,255,152823,1,0,0:0:0:0:
371,194,153149,6,0,L|367:139,1,55,0|0,0:0|0:0,0:0:0:0:
363,84,153475,1,0,0:0:0:0:
276,16,153801,2,8,B|257:21|257:21|231:18|231:18|210:23|210:23|187:19|187:19|162:27,1,110,8|0,0:0|0:0,0:0:0:0:
61,4,154453,2,0,B|59:45|59:45|81:117,1,110,0|0,0:0|0:0,0:0:0:0:
119,213,155105,2,8,P|60:198|9:209,1,110,8|0,0:0|0:0,0:0:0:0:
61,306,155758,6,0,B|115:321|115:321|173:309,1,110,0|0,0:0|0:0,0:0:0:0:
222,214,156410,2,8,B|274:203|274:203|328:218,1,110,8|0,0:0|0:0,0:0:0:0:
423,273,157062,2,0,L|427:334,2,55,0|0|0,0:0|0:0|0:0,0:0:0:0:
414,163,157714,1,8,0:0:0:0:
414,163,158040,1,0,0:0:0:0:
456,61,158366,6,0,B|402:53|402:53|341:73,1,110,4|8,0:0|0:0,0:0:0:0:
252,122,159018,1,0,0:0:0:0:
157,66,159344,1,8,0:0:0:0:
57,18,159671,2,0,B|46:67|46:67|62:130,1,110,0|8,0:0|0:0,0:0:0:0:
144,195,160323,2,0,L|138:259,1,55,0|0,0:0|0:0,0:0:0:0:
131,304,160649,2,8,B|180:315|180:315|240:301,1,110,8|0,0:0|0:0,0:0:0:0:
330,242,161301,6,8,B|343:293|343:293|336:352,2,110,8|0|8,0:0|0:0|0:0,0:0:0:0:
235,185,162279,2,0,P|178:173|122:193,1,110,0|8,0:0|0:0,0:0:0:0:
74,93,162931,2,0,P|112:49|123:-8,1,110,0|8,0:0|0:0,0:0:0:0:
199,80,163584,6,0,L|315:89,1,110,0|8,0:0|0:0,0:0:0:0:
412,124,164236,2,0,P|418:95|413:59,2,55,0|0|8,0:0|0:0|0:0,0:0:0:0:
343,209,164888,2,0,P|337:238|342:274,2,55,0|0|8,0:0|0:0|0:0,0:0:0:0:
266,129,165540,1,0,0:0:0:0:
161,96,165866,2,8,P|155:126|159:157,1,55,8|0,0:0|0:0,0:0:0:0:
177,200,166192,6,0,L|180:258,2,55,0|0|8,0:0|0:0|0:0,0:0:0:0:
266,129,166844,2,0,L|268:74,2,55,0|0|8,0:0|0:0|0:0,0:0:0:0:
351,204,167497,1,0,0:0:0:0:
392,309,167823,1,8,0:0:0:0:
475,236,168149,1,0,0:0:0:0:
436,134,168475,1,8,0:0:0:0:
478,32,168801,6,0,P|424:20|369:42,1,110,0|8,0:0|0:0,0:0:0:0:
307,125,169453,1,0,0:0:0:0:
307,125,169779,1,8,0:0:0:0:
211,179,170105,2,0,B|198:122|198:122|210:71,1,110,0|8,0:0|0:0,0:0:0:0:
99,73,170758,2,0,B|111:124|111:124|98:181,1,110,0|8,0:0|0:0,0:0:0:0:
175,262,171410,6,0,P|141:266|115:259,2,55,0|0|8,0:0|0:0|0:0,0:0:0:0:
282,238,172062,2,0,P|335:228|396:246,1,110,0|8,0:0|0:0,0:0:0:0:
482,298,172714,2,0,L|487:360,2,55,0|0|8,0:0|0:0|0:0,0:0:0:0:
475,188,173366,1,0,0:0:0:0:
475,188,173692,1,8,0:0:0:0:
512,83,174018,6,0,B|458:76|458:76|402:98,1,110,0|8,0:0|0:0,0:0:0:0:
306,144,174671,2,0,P|298:117|296:83,2,55,0|0|8,0:0|0:0|0:0,0:0:0:0:
351,244,175323,2,0,B|305:256|305:256|234:239,1,110,0|8,0:0|0:0,0:0:0:0:
146,191,175975,2,0,P|133:246|151:304,1,110,0|8,0:0|0:0,0:0:0:0:
244,241,176627,6,0,P|257:212|257:177,2,55,0|0|8,0:0|0:0|0:0,0:0:0:0:
351,244,177279,2,0,P|382:240|412:223,2,55,0|0|8,0:0|0:0|0:0,0:0:0:0:
429,320,177931,1,0,0:0:0:0:
492,229,178258,1,8,0:0:0:0:
448,128,178584,2,0,L|441:63,2,55,0|0|8,0:0|0:0|0:0,0:0:0:0:
348,174,179236,6,2,L|336:56,1,110,2|8,0:0|0:0,0:0:0:0:
226,65,179888,2,2,L|214:174,1,110,2|8,0:0|0:0,0:0:0:0:
227,283,180540,2,0,P|281:299|340:281,2,110,0|8|2,0:0|0:0|0:0,0:0:0:0:
133,224,181518,1,10,0:0:0:0:
33,177,181844,6,2,P|22:225|43:293,1,110,2|8,0:0|0:0,0:0:0:0:
137,330,182497,2,2,P|147:276|133:224,1,110,2|8,0:0|0:0,0:0:0:0:
115,115,183149,2,0,P|167:129|229:112,2,110,0|8|2,0:0|0:0|0:0,0:0:0:0:
166,18,184127,1,10,0:0:0:0:
275,26,184453,6,2,L|394:34,1,110,2|8,0:0|0:0,0:0:0:0:
448,122,185105,2,2,L|338:129,1,110,2|8,0:0|0:0,0:0:0:0:
283,224,185758,2,0,L|392:231,2,110,0|8|2,0:0|0:0|0:0,0:0:0:0:
173,215,186736,1,10,0:0:0:0:
76,162,187062,6,2,B|66:217|66:217|79:282,1,110,2|8,0:0|0:0,0:0:0:0:
130,366,187714,2,2,L|246:373,1,110,2|8,0:0|0:0,0:0:0:0:
343,336,188366,2,0,B|353:282|353:282|343:227,2,110,0|10|0,0:0|0:0|0:0,0:0:0:0:
246,282,189344,1,10,0:0:0:0:
242,171,189671,6,2,L|239:113,1,55,2|0,0:0|0:0,0:0:0:0:
126,50,190160,2,0,L|129:105,1,55,0|2,0:0|0:0,0:0:0:0:
136,214,190649,1,8,0:0:0:0:
120,322,190975,6,0,P|149:324|182:313,1,55,0|2,0:0|0:0,0:0:0:0:
254,242,191464,2,2,P|280:235|307:237,1,55,2|2,0:0|0:0,0:0:0:0:
405,287,191953,1,8,0:0:0:0:
392,177,192279,6,2,L|387:115,1,55,2|0,0:0|0:0,0:0:0:0:
277,130,192768,2,0,L|272:68,1,55,0|2,0:0|0:0,0:0:0:0:
162,83,193258,1,8,0:0:0:0:
174,192,193584,6,0,P|146:192|118:184,1,55,0|2,0:0|0:0,0:0:0:0:
40,261,194073,2,2,P|54:284|61:313,1,55,2|2,0:0|0:0,0:0:0:0:
170,313,194562,1,8,0:0:0:0:
267,262,194888,6,2,B|316:253|316:253|383:264,2,110,2|8|2,0:0|0:0|0:0,0:0:0:0:
170,313,195866,1,8,0:0:0:0:
163,203,196192,2,0,L|157:89,2,110,0|8|2,0:0|0:0|0:0,0:0:0:0:
170,313,197171,1,8,0:0:0:0:
73,260,197497,6,2,L|12:253,2,55,2|0|8,0:0|0:0|0:0,0:0:0:0:
62,150,198149,2,2,L|1:143,2,55,2|0|8,0:0|0:0|0:0,0:0:0:0:
117,55,198801,6,0,B|174:43|174:43|233:57,1,110,0|8,0:0|0:0,0:0:0:0:
172,151,199453,1,2,0:0:0:0:
145,257,199779,2,8,P|175:263|207:256,1,55,8|0,0:0|0:0,0:0:0:0:
259,233,200105,6,0,B|314:226|314:226|382:243,1,110,4|8,0:0|0:0,0:0:0:0:
429,260,200594,1,0,0:0:0:0:
488,289,200758,1,0,0:0:0:0:
479,157,201084,2,0,L|475:100,1,55,8|0,0:0|0:0,0:0:0:0:
468,36,201410,6,0,B|415:49|415:49|360:42,1,110,0|8,0:0|0:0,0:0:0:0:
294,32,201899,1,0,0:0:0:0:
228,25,202062,1,0,0:0:0:0:
314,124,202388,2,0,L|307:201,1,55,8|0,0:0|0:0,0:0:0:0:
302,233,202714,6,0,L|292:338,2,82.5,0|0|0,0:0|0:0|0:0,0:0:0:0:
257,201,203366,1,0,0:0:0:0:
153,164,203692,2,0,P|148:191|151:218,1,55,8|0,0:0|0:0,0:0:0:0:
167,270,204018,2,0,L|61:260,2,82.5,0|0|0,0:0|0:0|0:0,0:0:0:0:
213,300,204671,1,0,0:0:0:0:
328,323,204997,2,0,P|325:295|331:268,1,55,8|0,0:0|0:0,0:0:0:0:
384,230,205323,6,0,P|411:226|438:232,2,55,0|0|8,0:0|0:0|0:0,0:0:0:0:
283,144,205975,1,0,0:0:0:0:
180,61,206301,2,0,P|175:88|176:115,1,55,8|0,0:0|0:0,0:0:0:0:
189,180,206627,6,0,B|199:238|199:238|183:302,1,110,0|8,0:0|0:0,0:0:0:0:
132,321,207116,1,0,0:0:0:0:
131,384,207279,1,0,0:0:0:0:
261,365,207605,2,0,P|301:357|327:341,1,55,8|0,0:0|0:0,0:0:0:0:
334,299,207931,6,0,L|325:206,2,82.5,0|0|0,0:0|0:0|0:0,0:0:0:0:
368,342,208584,1,0,0:0:0:0:
474,362,208910,2,0,P|477:334|473:307,1,55,8|0,0:0|0:0,0:0:0:0:
456,255,209236,5,0,0:0:0:0:
489,150,209562,1,8,0:0:0:0:
380,133,209888,2,0,P|357:148|340:169,2,55,0|0|8,0:0|0:0|0:0,0:0:0:0:
264,68,210540,6,0,P|255:42|256:14,2,55,4|0|8,0:0|0:0|0:0,0:0:0:0:
229,195,211192,1,0,0:0:0:0:
98,177,211518,2,0,P|101:204|95:231,1,55,8|0,0:0|0:0,0:0:0:0:
66,290,211844,6,0,B|121:303|121:303|182:293,1,110,0|8,0:0|0:0,0:0:0:0:
228,331,212334,1,0,0:0:0:0:
293,325,212497,1,0,0:0:0:0:
310,195,212823,2,0,P|336:188|363:189,1,55,8|0,0:0|0:0,0:0:0:0:
407,222,213149,6,0,L|415:321,2,82.5,0|0|0,0:0|0:0|0:0,0:0:0:0:
451,189,213801,1,0,0:0:0:0:
507,94,214127,2,0,P|481:83|454:80,1,55,8|0,0:0|0:0,0:0:0:0:
403,57,214453,2,0,L|304:49,2,82.5,0|0|0,0:0|0:0|0:0,0:0:0:0:
447,35,215105,1,0,0:0:0:0:
374,145,215431,2,0,L|368:203,1,55,8|0,0:0|0:0,0:0:0:0:
396,247,215758,6,0,P|349:226|287:237,1,110,0|0,0:0|0:0,0:0:0:0:
187,200,216410,2,8,P|137:210|79:187,1,110,8|0,0:0|0:0,0:0:0:0:
74,84,217062,5,0,0:0:0:0:
74,84,217388,1,0,0:0:0:0:
179,94,217714,2,8,P|170:147|188:203,1,110,8|0,0:0|0:0,0:0:0:0:
256,192,218366,12,4,220975,0:0:0:0:
