osu file format v14

[General]
AudioFilename: audio.mp3
AudioLeadIn: 0
PreviewTime: 200105
Countdown: 0
SampleSet: Normal
StackLeniency: 0.2
Mode: 0
LetterboxInBreaks: 0
WidescreenStoryboard: 1

[Editor]
Bookmarks: 22709,33144,43579,54013,61839,64448,72274,74883,82709,85318,95753,106187,116622,127057,137492,147926,155753,158361,168796,179231,189666,200100,210535,220970
DistanceSpacing: 0.7
BeatDivisor: 4
GridSize: 16
TimelineZoom: 2.799999

[Metadata]
Title:VOLT (USAO Remix)
TitleUnicode:VOLT (USAO Remix)
Artist:aran
ArtistUnicode:aran
Creator:C00L
Version:NiNo's Insane
Source:GROOVE COASTER
Tags:dubstep melodic electronic video game drumstep instrumental dnb english ARCHVS c93 taito cool SnowNiNo_ NiNo xChorse DTM9 Nowa Plaudible
BeatmapID:1586350
BeatmapSetID:732280

[Difficulty]
HPDrainRate:5
CircleSize:4
OverallDifficulty:8
ApproachRate:9
SliderMultiplier:1.8
SliderTickRate:1

[Events]
//Background and Video events
0,0,"Electric_city.jpg",0,0
//Break Periods
2,116827,125758
//Storyboard Layer 0 (Background)
//Storyboard Layer 1 (Fail)
//Storyboard Layer 2 (Pass)
//Storyboard Layer 3 (Foreground)
//Storyboard Layer 4 (Overlay)
//Storyboard Sound Samples

[TimingPoints]
1845,326.086956521739,4,2,3,30,1,0
22714,-133.333333333333,4,2,3,30,0,0
30540,-133.333333333333,4,2,3,35,0,0
30785,-133.333333333333,4,2,3,5,0,0
30866,-133.333333333333,4,2,3,35,0,0
31437,-133.333333333333,4,2,3,5,0,0
31518,-133.333333333333,4,2,3,35,0,0
33067,-133.333333333333,4,2,3,10,0,0
33149,-133.333333333333,4,2,3,40,0,0
43584,-133.333333333333,4,3,6,50,0,0
52714,-133.333333333333,4,1,2,40,0,0
53692,-100,4,1,2,60,0,0
54018,-100,4,3,1,70,0,0
54589,-100,4,3,1,10,0,0
54671,-100,4,3,1,70,0,0
56301,-83.3333333333333,4,3,1,70,0,0
56546,-83.3333333333333,4,3,1,10,0,0
56627,-100,4,3,1,70,0,0
56872,-100,4,3,1,10,0,0
56953,-100,4,3,1,70,0,0
57524,-100,4,3,1,10,0,0
57605,-100,4,3,1,70,0,0
58828,-100,4,3,1,10,0,0
58910,-58.8235294117647,4,1,2,70,0,0
58991,-58.8235294117647,4,1,2,10,0,0
59154,-58.8235294117647,4,1,2,10,0,0
59236,-100,4,3,1,70,0,0
59480,-100,4,3,1,10,0,0
59562,-100,4,3,1,70,0,0
59888,-66.6666666666667,4,3,1,70,0,0
60540,-100,4,3,1,70,0,0
61437,-100,4,3,1,10,0,0
61518,-66.6666666666667,4,3,1,70,0,0
61844,-100,4,3,1,55,0,0
62741,-100,4,3,1,10,0,0
62823,-100,4,3,1,55,0,0
63393,-100,4,3,1,10,0,0
63475,-100,4,3,1,55,0,0
63719,-100,4,3,1,10,0,0
63801,-100,4,3,1,55,0,0
64372,-100,4,3,1,10,0,0
64453,-100,4,3,1,70,0,0
65024,-100,4,3,1,10,0,0
65105,-100,4,3,1,70,0,0
66736,-83.3333333333333,4,3,1,70,0,0
66980,-83.3333333333333,4,3,1,10,0,0
67062,-100,4,3,1,70,0,0
67306,-100,4,3,1,10,0,0
67388,-100,4,3,1,70,0,0
67959,-100,4,3,1,10,0,0
68040,-100,4,3,1,70,0,0
69263,-100,4,3,1,10,0,0
69344,-58.8235294117647,4,1,2,70,0,0
69426,-58.8235294117647,4,1,2,10,0,0
69588,-58.8235294117647,4,1,2,10,0,0
69671,-100,4,3,1,70,0,0
69915,-100,4,3,1,10,0,0
69997,-100,4,3,1,70,0,0
70323,-58.8235294117647,4,3,1,70,0,0
70975,-100,4,3,1,70,0,0
71872,-100,4,3,1,10,0,0
71953,-100,4,3,1,70,0,0
72279,-100,4,3,4,50,0,0
74562,-100,4,1,4,60,0,0
74888,-100,4,3,4,80,0,1
75866,-100,4,1,4,80,0,1
76192,-100,4,3,4,80,0,1
77171,-100,4,1,4,80,0,1
77497,-100,4,3,4,80,0,1
78475,-100,4,1,4,80,0,1
78801,-100,4,3,4,80,0,1
79779,-100,4,1,4,80,0,1
80105,-100,4,3,4,80,0,1
81084,-100,4,1,4,80,0,1
81410,-100,4,3,4,80,0,1
82388,-100,4,1,4,80,0,1
82714,-100,4,3,4,60,0,0
84915,-100,4,3,4,10,0,0
84997,-100,4,1,4,60,0,0
85323,-100,4,3,4,80,0,1
86301,-100,4,1,4,80,0,1
86627,-100,4,3,4,80,0,1
87605,-100,4,1,4,80,0,1
87931,-100,4,3,4,80,0,1
88910,-100,4,1,4,80,0,1
89236,-100,4,3,4,80,0,1
90214,-100,4,1,4,80,0,1
90540,-100,4,3,4,80,0,1
91518,-100,4,1,4,80,0,1
91844,-100,4,3,4,80,0,1
92823,-100,4,1,4,80,0,1
93149,-100,4,3,4,75,0,1
93801,-100,4,3,4,70,0,1
94453,-100,4,1,2,80,0,1
94698,-100,4,1,2,10,0,1
94779,-100,4,1,2,80,0,1
95431,-100,4,3,4,70,0,1
95676,-100,4,3,4,10,0,1
95758,-100,4,1,2,55,0,0
96002,-100,4,1,2,10,0,0
96084,-100,4,1,2,55,0,0
98081,-100,4,1,2,10,0,0
98366,-100,4,1,2,55,0,0
98611,-100,4,1,2,10,0,0
98692,-100,4,1,2,55,0,0
100893,-100,4,1,2,5,0,0
100975,-100,4,1,2,55,0,0
103828,-100,4,1,2,10,0,0
103910,-100,4,1,2,55,0,0
105866,-100,4,1,2,60,0,0
106111,-100,4,1,2,10,0,0
106192,-100,4,1,2,55,0,0
106437,-100,4,1,2,10,0,0
106518,-100,4,1,2,55,0,0
107741,-100,4,1,2,10,0,0
107823,-100,4,1,2,55,0,0
108516,-100,4,1,2,10,0,0
108638,-100,4,1,2,10,0,0
108801,-100,4,1,2,55,0,0
109046,-100,4,1,2,10,0,0
109127,-100,4,1,2,55,0,0
110350,-100,4,1,2,10,0,0
110431,-100,4,1,2,55,0,0
111328,-100,4,1,2,10,0,0
111410,-100,4,1,2,50,0,0
112959,-100,4,1,2,10,0,0
113040,-100,4,1,2,50,0,0
113285,-100,4,1,2,10,0,0
113366,-100,4,1,2,50,0,0
114018,-100,4,1,2,45,0,0
115323,-100,4,1,2,40,0,0
116464,-100,4,1,2,40,0,0
116627,-100,4,2,3,50,0,0
127062,-133.333333333333,4,1,2,25,0,0
128040,-133.333333333333,4,1,4,25,0,0
128366,-133.333333333333,4,1,2,30,0,0
129344,-133.333333333333,4,1,4,30,0,0
129671,-133.333333333333,4,1,2,35,0,0
130649,-133.333333333333,4,1,4,35,0,0
130975,-133.333333333333,4,1,2,40,0,0
131953,-133.333333333333,4,1,4,40,0,0
132279,-133.333333333333,4,1,2,45,0,0
133258,-133.333333333333,4,1,4,45,0,0
133584,-133.333333333333,4,1,2,45,0,0
134562,-133.333333333333,4,1,4,45,0,0
134888,-133.333333333333,4,1,2,40,0,0
135540,-133.333333333333,4,1,2,30,0,0
136192,-133.333333333333,4,1,2,40,0,0
136233,-133.333333333333,4,1,2,20,0,0
136273,-133.333333333333,4,1,2,20,0,0
136844,-133.333333333333,4,3,6,15,0,0
137497,-133.333333333333,4,3,6,50,0,0
140024,-133.333333333333,4,3,6,10,0,0
140105,-133.333333333333,4,3,6,50,0,0
146627,-133.333333333333,4,1,2,40,0,0
147605,-133.333333333333,4,1,2,60,0,0
147850,-133.333333333333,4,1,2,10,0,0
147931,-100,4,3,1,70,0,0
148584,-66.6666666666667,4,3,1,70,0,0
148828,-66.6666666666667,4,3,1,10,0,0
148910,-66.6666666666667,4,3,1,70,0,0
149154,-66.6666666666667,4,3,1,10,0,0
149236,-66.6666666666667,4,3,1,70,0,0
149480,-66.6666666666667,4,3,1,10,0,0
149562,-100,4,3,1,70,0,0
150133,-100,4,3,1,10,0,0
150214,-66.6666666666667,4,3,1,70,0,0
150459,-66.6666666666667,4,3,1,10,0,0
150540,-66.6666666666667,4,3,1,70,0,0
150785,-66.6666666666667,4,3,1,10,0,0
150866,-66.6666666666667,4,3,1,70,0,0
151111,-66.6666666666667,4,3,1,10,0,0
151192,-66.6666666666667,4,3,1,70,0,0
151844,-100,4,3,1,70,0,0
153801,-66.6666666666667,4,3,1,70,0,0
154046,-66.6666666666667,4,3,1,10,0,0
154127,-66.6666666666667,4,3,1,70,0,0
154372,-66.6666666666667,4,3,1,10,0,0
154453,-66.6666666666667,4,3,1,70,0,0
155350,-66.6666666666667,4,3,1,10,0,0
155431,-66.6666666666667,4,3,1,70,0,0
155758,-100,4,3,1,60,0,0
157306,-100,4,3,1,10,0,0
157388,-100,4,3,1,60,0,0
157633,-100,4,3,1,10,0,0
157714,-100,4,3,1,60,0,0
158040,-100,4,1,2,60,0,0
158122,-100,4,1,2,10,0,0
158203,-100,4,1,2,10,0,0
158366,-100,4,3,1,70,0,0
159589,-100,4,3,1,10,0,0
159671,-100,4,3,1,70,0,0
159915,-100,4,3,1,10,0,0
159997,-100,4,3,1,70,0,0
160567,-100,4,3,1,10,0,0
160649,-100,4,3,1,70,0,0
160893,-100,4,3,1,10,0,0
160975,-100,4,3,1,70,0,0
161219,-100,4,3,1,10,0,0
161301,-100,4,3,1,70,0,0
163258,-66.6666666666667,4,1,2,70,0,0
163502,-66.6666666666667,4,1,2,70,0,0
163584,-100,4,3,1,70,0,0
163828,-100,4,3,1,10,0,0
163910,-100,4,3,1,70,0,0
167171,-100,4,3,1,60,0,0
167497,-100,4,3,1,50,0,0
168149,-100,4,1,2,45,0,0
168475,-100,4,3,1,60,0,0
168719,-100,4,3,1,10,0,0
168801,-100,4,1,2,60,0,0
170350,-100,4,1,2,10,0,0
170431,-100,4,1,2,60,0,0
171084,-100,4,1,4,60,0,0
171410,-100,4,1,2,65,0,0
172388,-100,4,1,4,65,0,0
172714,-100,4,1,2,65,0,0
173692,-100,4,1,2,70,0,0
174018,-100,4,1,2,60,0,0
176219,-100,4,1,2,10,0,0
176301,-100,4,1,2,60,0,0
176627,-100,4,1,2,50,0,0
176953,-100,4,1,2,65,0,0
177931,-100,4,1,2,70,0,0
178910,-100,4,1,2,55,0,0
179154,-100,4,1,2,10,0,0
179236,-100,4,1,2,65,0,0
181437,-100,4,1,2,10,0,0
181518,-100,4,1,2,65,0,0
184046,-100,4,1,2,10,0,0
184127,-100,4,1,2,65,0,0
184372,-100,4,1,2,10,0,0
184453,-100,4,1,2,65,0,0
188611,-100,4,1,2,10,0,0
188692,-100,4,1,2,65,0,0
189344,-100,4,1,2,70,0,0
189385,-100,4,1,2,10,0,0
189671,-100,4,1,2,70,0,0
190649,-100,4,1,4,70,0,0
190975,-100,4,1,2,70,0,0
191953,-100,4,1,4,70,0,0
192279,-100,4,1,2,70,0,0
193258,-100,4,1,4,70,0,0
193584,-100,4,1,2,70,0,0
194562,-100,4,1,2,55,0,0
194603,-100,4,1,2,10,0,0
194888,-100,4,1,2,55,0,0
195866,-100,4,1,4,50,0,0
196192,-100,4,1,2,45,0,0
196681,-100,4,1,2,40,0,0
197008,-100,4,1,2,35,0,0
197171,-100,4,1,4,30,0,0
197497,-100,4,1,2,60,0,0
198149,-100,4,1,2,65,0,0
198801,-100,4,1,2,70,0,0
199698,-100,4,1,2,10,0,0
199779,-100,4,1,4,70,0,0
200105,-100,4,3,4,85,0,1
201084,-100,4,1,4,85,0,1
201410,-100,4,3,4,85,0,1
202388,-100,4,1,4,85,0,1
202714,-100,4,3,4,85,0,1
203692,-100,4,1,4,85,0,1
204018,-100,4,3,4,85,0,1
204997,-100,4,1,4,85,0,1
205037,-100,4,1,4,5,0,1
205078,-100,4,1,4,85,0,1
205323,-100,4,3,4,85,0,1
206301,-100,4,1,4,85,0,1
206627,-100,4,3,4,85,0,1
207605,-100,4,1,4,85,0,1
207931,-100,4,3,4,85,0,1
208910,-100,4,1,4,85,0,1
209236,-100,4,3,4,70,0,1
209888,-100,4,3,1,65,0,1
210133,-100,4,3,1,10,0,1
210214,-100,4,3,1,65,0,1
210459,-100,4,3,1,10,0,1
210540,-100,4,3,4,80,0,1
211518,-100,4,1,4,80,0,1
211844,-100,4,3,4,80,0,1
212823,-100,4,1,4,80,0,1
213149,-100,4,3,4,80,0,1
214127,-100,4,1,4,80,0,1
214453,-100,4,3,4,80,0,1
215431,-100,4,1,4,80,0,1
215758,-100,4,3,4,60,0,0
216736,-100,4,1,4,55,0,0
217062,-100,4,3,4,50,0,0
218040,-100,4,1,4,45,0,0
218366,-100,4,3,4,40,0,0
219671,-100,4,1,2,40,0,0
219997,-100,4,1,2,35,0,0
220323,-100,4,1,2,30,0,0
220567,-100,4,1,2,10,0,0
220649,-100,4,1,2,25,0,0
220975,-100,4,2,3,40,0,0

[Colours]
Combo1 : 64,255,64
Combo2 : 131,105,236
Combo3 : 67,252,252
Combo4 : 215,67,231

[HitObjects]
256,96,22714,6,2,L|119:85,1,135.000005149842,2|0,0:0|0:0,0:0:0:0:
256,192,23366,2,8,L|393:181,1,135.000005149842,8|2,0:0|0:0,0:0:0:0:
256,288,24018,2,0,L|119:277,1,135.000005149842,0|2,0:0|0:0,0:0:0:0:
40,272,24508,1,0,0:0:0:0:
40,272,24671,1,8,0:0:0:0:
256,288,24997,1,2,0:0:0:0:
256,288,25323,6,2,L|393:277,1,135.000005149842,2|0,0:0|0:0,0:0:0:0:
256,192,25975,2,8,L|119:181,1,135.000005149842,8|2,0:0|0:0,0:0:0:0:
256,96,26627,2,0,L|393:85,1,135.000005149842,0|2,0:0|0:0,0:0:0:0:
472,80,27116,1,0,0:0:0:0:
472,80,27279,1,8,0:0:0:0:
256,96,27605,1,2,0:0:0:0:
256,96,27931,6,2,L|119:85,1,135.000005149842,2|0,0:0|0:0,0:0:0:0:
256,192,28584,2,0,L|393:181,1,135.000005149842,8|2,0:0|0:0,0:0:0:0:
256,288,29236,2,0,L|119:277,1,135.000005149842,0|2,0:0|0:0,0:0:0:0:
40,272,29725,1,0,0:0:0:0:
86,205,29888,1,8,0:0:0:0:
256,288,30214,1,2,0:0:0:0:
256,288,30540,6,2,L|393:277,1,135.000005149842,2|0,0:0|0:0,0:0:0:0:
256,192,31192,2,8,L|119:181,1,135.000005149842,8|2,0:0|0:0,0:0:0:0:
256,96,31844,2,0,L|393:85,1,135.000005149842,0|2,0:0|0:0,0:0:0:0:
472,80,32334,1,0,0:0:0:0:
436,152,32497,1,8,0:0:0:0:
256,96,32823,1,2,0:0:0:0:
256,96,33149,6,2,L|119:85,1,135.000005149842,2|0,0:0|0:0,0:0:0:0:
256,192,33638,1,0,0:0:0:0:
256,192,33801,2,8,L|393:181,1,135.000005149842,8|2,0:0|0:0,0:0:0:0:
256,288,34290,1,0,0:0:0:0:
256,288,34453,2,0,L|188:282,1,67.5000025749208,0|0,0:0|0:0,0:0:0:0:
256,192,34779,2,2,L|337:185,1,67.5000025749208,2|0,0:0|0:0,0:0:0:0:
404,181,35105,1,8,0:0:0:0:
404,181,35431,1,2,0:0:0:0:
256,192,35758,6,2,L|119:181,1,135.000005149842,2|0,0:0|0:0,0:0:0:0:
256,96,36247,1,0,0:0:0:0:
256,96,36410,2,8,L|393:85,1,135.000005149842,8|2,0:0|0:0,0:0:0:0:
256,192,36899,1,0,0:0:0:0:
256,192,37062,2,0,L|187:186,1,67.5000025749208,0|0,0:0|0:0,0:0:0:0:
256,288,37388,2,2,L|324:282,1,67.5000025749208,2|0,0:0|0:0,0:0:0:0:
403,275,37714,1,8,0:0:0:0:
403,275,38040,1,2,0:0:0:0:
256,192,38366,6,2,L|119:181,1,135.000005149842,2|0,0:0|0:0,0:0:0:0:
256,96,38855,1,0,0:0:0:0:
256,96,39018,2,8,L|393:85,1,135.000005149842,8|0,0:0|0:0,0:0:0:0:
256,288,39671,2,2,L|119:277,1,135.000005149842,2|0,0:0|0:0,0:0:0:0:
40,272,40160,1,0,0:0:0:0:
86,205,40323,1,8,0:0:0:0:
256,288,40649,1,0,0:0:0:0:
256,288,40975,6,2,L|393:277,1,135.000005149842,2|0,0:0|0:0,0:0:0:0:
256,192,41464,1,0,0:0:0:0:
256,192,41627,2,8,L|119:181,1,135.000005149842,10|0,0:0|0:0,0:0:0:0:
256,96,42116,1,0,0:0:0:0:
256,96,42279,2,2,L|393:85,1,135.000005149842,2|2,0:0|0:0,0:0:0:0:
472,80,42768,1,0,0:0:0:0:
436,152,42931,1,0,0:0:0:0:
256,96,43258,1,2,0:0:0:0:
256,96,43584,6,0,L|160:88,1,67.5000025749208,4|0,0:0|0:0,0:0:0:0:
146,21,43910,2,0,L|50:28,1,67.5000025749208,0|0,0:0|0:0,0:0:0:0:
35,94,44236,2,0,P|26:138|30:174,1,67.5000025749208,0|0,0:0|0:0,0:0:0:0:
98,199,44562,2,0,P|107:243|103:279,1,67.5000025749208,0|0,0:0|0:0,0:0:0:0:
99,346,44888,6,0,L|185:355,1,67.5000025749208,0|0,0:0|0:0,0:0:0:0:
215,289,45214,2,0,L|301:280,1,67.5000025749208,0|0,0:0|0:0,0:0:0:0:
322,352,45540,2,0,L|408:361,1,67.5000025749208,0|0,0:0|0:0,0:0:0:0:
438,295,45866,2,0,L|524:286,1,67.5000025749208,0|0,0:0|0:0,0:0:0:0:
490,208,46192,6,0,P|486:161|474:134,1,67.5000025749208,0|0,0:0|0:0,0:0:0:0:
478,61,46518,2,0,P|435:40|405:37,1,67.5000025749208,0|0,0:0|0:0,0:0:0:0:
337,59,46844,1,0,0:0:0:0:
337,59,47008,1,0,0:0:0:0:
359,136,47171,2,0,L|364:212,1,67.5000025749208,0|0,0:0|0:0,0:0:0:0:
346,282,47497,6,0,P|311:293|275:292,1,67.5000025749208,0|0,0:0|0:0,0:0:0:0:
220,346,47823,2,0,P|185:335|149:336,1,67.5000025749208,0|0,0:0|0:0,0:0:0:0:
73,331,48149,2,0,P|63:295|71:251,1,67.5000025749208,0|0,0:0|0:0,0:0:0:0:
124,209,48475,2,0,P|134:173|126:129,1,67.5000025749208,0|0,0:0|0:0,0:0:0:0:
151,65,48801,5,0,0:0:0:0:
209,121,48964,1,0,0:0:0:0:
131,143,49127,1,0,0:0:0:0:
189,199,49290,1,0,0:0:0:0:
111,221,49453,1,0,0:0:0:0:
169,277,49616,1,0,0:0:0:0:
91,299,49779,1,0,0:0:0:0:
149,355,49942,1,0,0:0:0:0:
169,277,50105,5,0,0:0:0:0:
91,299,50268,1,0,0:0:0:0:
227,333,50431,1,0,0:0:0:0:
149,355,50594,1,0,0:0:0:0:
247,255,50758,1,0,0:0:0:0:
169,277,50921,1,0,0:0:0:0:
305,311,51084,1,0,0:0:0:0:
227,333,51247,1,0,0:0:0:0:
325,233,51410,5,0,0:0:0:0:
325,216,51491,1,0,0:0:0:0:
326,199,51573,1,0,0:0:0:0:
326,182,51654,1,0,0:0:0:0:
327,165,51736,2,0,L|328:131,3,33.7500012874604,0|0|0|0,0:0|0:0|0:0|0:0,0:0:0:0:
250,171,52062,1,0,0:0:0:0:
235,180,52143,1,0,0:0:0:0:
220,186,52225,1,0,0:0:0:0:
203,189,52306,1,0,0:0:0:0:
186,188,52388,2,0,L|148:180,3,33.7500012874604,0|0|0|0,0:0|0:0|0:0|0:0,0:0:0:0:
199,265,52714,5,0,0:0:0:0:
199,265,53040,1,0,0:0:0:0:
199,265,53366,1,0,0:0:0:0:
199,265,53692,2,0,L|132:260,1,45,0|0,0:0|0:0,0:0:0:0:
266,345,53855,2,0,L|333:340,1,45,0|0,0:0|0:0,0:0:0:0:
401,341,54018,6,0,P|359:323|360:220,1,135,4|0,0:0|0:0,0:0:0:0:
363,201,54344,2,0,P|331:242|232:215,1,135,0|0,0:0|0:0,0:0:0:0:
220,207,54671,2,8,B|230:153|230:153|216:130|216:130|230:66,1,135,8|0,0:0|0:0,0:0:0:0:
199,42,54997,2,0,L|137:32,1,45,0|0,0:0|0:0,0:0:0:0:
299,117,55160,2,0,L|343:109,1,45,0|0,0:0|0:0,0:0:0:0:
431,94,55323,5,0,0:0:0:0:
431,94,55486,2,0,B|437:124|448:140|448:140|440:158|439:188,1,90,0|0,0:0|0:0,0:0:0:0:
364,277,55812,1,0,0:0:0:0:
364,277,55975,2,8,B|358:247|347:231|347:231|355:213|356:183,1,90,8|0,0:0|0:0,0:0:0:0:
343,109,56301,2,0,B|264:62|255:155|161:88,1,161.999995056153,0|0,0:0|0:0,0:0:0:0:
143,95,56627,6,0,B|181:148|181:148|166:222,1,135,0|0,0:0|0:0,0:0:0:0:
137,250,56953,2,0,L|144:315,1,45,0|0,0:0|0:0,0:0:0:0:
216,351,57116,2,0,L|223:286,1,45,0|0,0:0|0:0,0:0:0:0:
269,240,57279,2,8,B|316:233|351:271|351:271|377:220|439:220,1,180,8|0,0:0|0:0,0:0:0:0:
492,168,57768,1,0,0:0:0:0:
492,168,57850,1,0,0:0:0:0:
492,168,57931,6,0,L|485:74,1,90,0|0,0:0|0:0,0:0:0:0:
419,221,58258,2,0,L|412:315,1,90,0|0,0:0|0:0,0:0:0:0:
338,361,58584,2,8,B|301:323|301:323|211:338,1,135,8|0,0:0|0:0,0:0:0:0:
180,365,58910,6,0,P|225:301|109:295,1,229.500004377365,0|0,0:0|0:0,0:0:0:0:
75,293,59236,6,0,B|60:249|60:249|70:175,1,90,0|0,0:0|0:0,0:0:0:0:
121,140,59562,2,0,B|136:96|136:96|126:22,1,90,0|0,0:0|0:0,0:0:0:0:
211,24,59888,6,8,P|231:50|238:82,1,67.5000025749208,8|0,0:0|0:0,0:0:0:0:
281,151,60051,2,0,P|306:128|318:97,1,67.5000025749208,0|0,0:0|0:0,0:0:0:0:
371,35,60214,2,0,P|391:61|398:93,1,67.5000025749208,0|0,0:0|0:0,0:0:0:0:
442,163,60377,2,0,P|467:140|479:109,1,67.5000025749208,0|0,0:0|0:0,0:0:0:0:
360,198,60540,6,0,B|353:245|353:245|367:296,1,90,0|0,0:0|0:0,0:0:0:0:
433,348,60866,2,0,L|483:343,1,45,0|0,0:0|0:0,0:0:0:0:
435,362,61029,2,0,L|485:357,1,45,0|0,0:0|0:0,0:0:0:0:
364,285,61192,2,8,B|316:280|316:280|286:301|286:301|208:292,1,135,8|0,0:0|0:0,0:0:0:0:
184,287,61518,6,0,P|203:249|204:204,1,67.5000025749208,0|0,0:0|0:0,0:0:0:0:
146,168,61681,2,0,P|127:206|126:251,1,67.5000025749208,0|0,0:0|0:0,0:0:0:0:
224,143,61844,6,0,P|203:107|108:98,1,135,0|0,0:0|0:0,0:0:0:0:
72,125,62171,2,0,B|106:166|106:166|81:262,1,135,0|0,0:0|0:0,0:0:0:0:
56,291,62497,2,8,B|127:280|127:280|161:306|161:306|243:294,1,180,8|0,0:0|0:0,0:0:0:0:
315,287,62986,1,0,0:0:0:0:
315,287,63067,1,0,0:0:0:0:
315,287,63149,6,0,P|335:243|325:182,1,90,0|0,0:0|0:0,0:0:0:0:
264,143,63475,2,0,P|244:187|254:248,1,90,0|0,0:0|0:0,0:0:0:0:
349,112,63801,2,8,L|409:108,2,45,8|0|0,0:0|0:0|0:0,0:0:0:0:
280,53,64127,2,0,L|177:46,1,90,0|0,0:0|0:0,0:0:0:0:
76,83,64453,6,0,B|119:121|119:121|109:224,1,135,4|0,0:0|0:0,0:0:0:0:
93,239,64779,2,0,B|147:233|147:233|173:251|173:251|229:243,1,135,0|0,0:0|0:0,0:0:0:0:
265,234,65105,2,8,P|224:280|243:354,1,135,8|0,0:0|0:0,0:0:0:0:
276,368,65431,2,0,L|329:361,1,45,0|0,0:0|0:0,0:0:0:0:
371,289,65594,2,0,L|424:296,1,45,0|0,0:0|0:0,0:0:0:0:
477,221,65758,5,0,0:0:0:0:
477,221,65921,2,0,B|462:205|457:184|457:184|471:161|468:128,1,90,0|0,0:0|0:0,0:0:0:0:
378,137,66247,1,0,0:0:0:0:
378,137,66410,2,8,B|393:121|398:100|398:100|384:77|387:44,1,90,8|0,0:0|0:0,0:0:0:0:
281,47,66736,2,0,B|205:19|201:95|113:38,1,161.999995056153,0|0,0:0|0:0,0:0:0:0:
84,26,67062,6,0,P|101:81|49:151,1,135,0|0,0:0|0:0,0:0:0:0:
22,162,67388,2,0,L|31:228,1,45,0|0,0:0|0:0,0:0:0:0:
105,265,67551,2,0,L|114:199,1,45,0|0,0:0|0:0,0:0:0:0:
183,150,67714,2,8,B|199:171|201:207|201:207|262:175|325:223,1,180,8|0,0:0|0:0,0:0:0:0:
391,285,68203,1,0,0:0:0:0:
391,285,68285,1,0,0:0:0:0:
391,285,68366,6,0,L|402:379,1,90,0|0,0:0|0:0,0:0:0:0:
314,215,68692,2,0,L|325:121,1,90,0|0,0:0|0:0,0:0:0:0:
475,206,69018,2,8,B|490:247|490:247|486:300,1,90,8|0,0:0|0:0,0:0:0:0:
325,320,69344,6,0,B|277:334|233:296|233:296|208:340|208:340|171:309|115:326,1,229.500004377365,0|0,0:0|0:0,0:0:0:0:
93,343,69671,6,0,B|115:260|115:260|62:208,1,135,0|0,0:0|0:0,0:0:0:0:
40,203,69997,2,0,P|91:198|117:117,1,135,0|0,0:0|0:0,0:0:0:0:
156,40,70323,6,8,P|115:33|76:44,1,76.5000014591217,8|0,0:0|0:0,0:0:0:0:
120,127,70486,2,0,P|157:135|194:128,1,76.5000014591217,0|0,0:0|0:0,0:0:0:0:
326,50,70649,2,0,P|285:43|246:54,1,76.5000014591217,0|0,0:0|0:0,0:0:0:0:
290,137,70812,2,0,P|327:145|364:138,1,76.5000014591217,0|0,0:0|0:0,0:0:0:0:
443,87,70975,6,0,B|403:120|403:120|416:211,1,135,0|0,0:0|0:0,0:0:0:0:
439,285,71301,2,0,L|498:293,1,45,0|0,0:0|0:0,0:0:0:0:
441,302,71464,2,0,L|500:310,1,45,0|0,0:0|0:0,0:0:0:0:
342,270,71627,2,8,B|304:273|288:307|288:307|268:277|225:272,1,135,8|0,0:0|0:0,0:0:0:0:
188,269,71953,2,0,B|203:216|203:216|197:185|197:185|216:124,1,135,0|0,0:0|0:0,0:0:0:0:
226,96,72279,6,0,P|246:158|365:155,1,180,0|0,0:0|0:0,0:0:0:0:
403,98,72768,1,0,0:0:0:0:
450,174,72931,2,8,L|452:277,1,90,8|0,0:0|0:0,0:0:0:0:
498,341,73258,1,0,0:0:0:0:
413,371,73421,1,0,0:0:0:0:
413,371,73502,1,0,0:0:0:0:
413,371,73584,6,0,L|310:363,1,90,0|0,0:0|0:0,0:0:0:0:
233,357,73910,1,0,0:0:0:0:
241,364,74236,1,0,0:0:0:0:
241,364,74317,1,0,0:0:0:0:
241,364,74399,1,0,0:0:0:0:
162,301,74562,2,0,L|172:194,1,90,0|0,0:0|0:0,0:0:0:0:
178,121,74888,5,4,0:0:0:0:
260,84,75051,1,0,0:0:0:0:
333,135,75214,1,0,0:0:0:0:
333,135,75540,2,8,B|375:186|375:186|351:307,1,180,8|0,0:0|0:0,0:0:0:0:
340,316,75948,1,0,0:0:0:0:
322,329,76029,1,0,0:0:0:0:
300,335,76111,1,0,0:0:0:0:
277,332,76192,6,0,L|176:319,1,90,0|0,0:0|0:0,0:0:0:0:
172,304,76437,1,0,0:0:0:0:
172,304,76518,2,0,L|71:317,1,90,0|0,0:0|0:0,0:0:0:0:
8,369,76844,2,8,B|57:317|57:317|27:194,1,180,8|0,0:0|0:0,0:0:0:0:
24,189,77252,1,0,0:0:0:0:
23,166,77334,1,0,0:0:0:0:
33,146,77415,1,0,0:0:0:0:
51,132,77497,6,0,P|97:121|168:221,1,180,0|0,0:0|0:0,0:0:0:0:
160,302,77986,1,0,0:0:0:0:
250,311,78149,2,8,B|322:306|322:306|349:325|349:325|429:319,1,180,8|0,0:0|0:0,0:0:0:0:
444,312,78556,1,0,0:0:0:0:
459,295,78638,1,0,0:0:0:0:
465,273,78719,1,0,0:0:0:0:
463,250,78801,6,0,L|454:158,1,90,0|0,0:0|0:0,0:0:0:0:
379,110,79127,2,0,L|388:18,1,90,0|0,0:0|0:0,0:0:0:0:
302,50,79453,2,8,B|252:91|252:91|129:45,1,180,8|0,0:0|0:0,0:0:0:0:
122,44,79861,1,0,0:0:0:0:
99,46,79942,1,0,0:0:0:0:
79,57,80024,1,0,0:0:0:0:
66,75,80105,5,0,0:0:0:0:
97,159,80268,1,0,0:0:0:0:
186,147,80431,1,0,0:0:0:0:
186,147,80758,2,8,B|228:101|228:101|355:131,1,180,8|0,0:0|0:0,0:0:0:0:
360,141,81165,1,0,0:0:0:0:
371,160,81247,1,0,0:0:0:0:
376,181,81328,1,0,0:0:0:0:
372,203,81410,6,0,P|361:263|342:292,1,90,0|0,0:0|0:0,0:0:0:0:
327,299,81654,1,0,0:0:0:0:
305,304,81736,2,0,L|199:296,1,90,0|0,0:0|0:0,0:0:0:0:
165,222,82062,2,8,L|59:230,1,90,8|0,0:0|0:0,0:0:0:0:
84,319,82388,6,0,L|128:322,1,45,0|0,0:0|0:0,0:0:0:0:
210,219,82551,2,0,L|165:222,1,45,0|0,0:0|0:0,0:0:0:0:
75,228,82714,6,0,P|93:177|-4:157,1,180,0|0,0:0|0:0,0:0:0:0:
75,228,83203,1,0,0:0:0:0:
165,222,83366,2,0,L|254:215,1,90,0|0,0:0|0:0,0:0:0:0:
296,295,83692,2,0,L|385:301,1,90,0|0,0:0|0:0,0:0:0:0:
474,307,84018,5,0,0:0:0:0:
480,218,84181,1,0,0:0:0:0:
390,211,84344,2,0,L|300:204,1,90
211,220,84671,2,0,P|270:188|258:85,1,180,0|0,0:0|0:0,0:0:0:0:
246,69,85078,1,0,0:0:0:0:
225,59,85160,1,0,0:0:0:0:
202,55,85241,1,0,0:0:0:0:
179,57,85323,6,0,P|124:66|87:97,1,90,4|0,0:0|0:0,0:0:0:0:
87,105,85567,1,0,0:0:0:0:
84,127,85649,2,8,L|87:228,1,90,8|0,0:0|0:0,0:0:0:0:
89,306,85975,1,0,0:0:0:0:
89,306,86056,1,0,0:0:0:0:
89,306,86138,2,0,P|143:328|185:314,1,90,0|8,0:0|0:0,0:0:0:0:
193,313,86383,1,0,0:0:0:0:
210,299,86464,1,0,0:0:0:0:
223,280,86546,1,0,0:0:0:0:
228,258,86627,6,0,L|225:163,1,90,0|0,0:0|0:0,0:0:0:0:
202,163,86872,1,0,0:0:0:0:
202,163,86953,2,8,L|205:68,1,90,8|0,0:0|0:0,0:0:0:0:
277,20,87279,1,0,0:0:0:0:
277,20,87361,1,0,0:0:0:0:
277,20,87442,2,0,P|313:51|356:56,1,90,0|8,0:0|0:0,0:0:0:0:
376,52,87687,1,0,0:0:0:0:
398,52,87768,1,0,0:0:0:0:
419,59,87850,1,0,0:0:0:0:
435,74,87931,6,0,P|448:128|442:170,1,90,0|0,0:0|0:0,0:0:0:0:
429,178,88176,1,0,0:0:0:0:
429,178,88258,2,8,P|416:232|422:274,1,90,8|0,0:0|0:0,0:0:0:0:
482,331,88584,1,0,0:0:0:0:
482,331,88665,1,0,0:0:0:0:
482,331,88747,1,0,0:0:0:0:
394,347,88910,1,8,0:0:0:0:
371,345,88991,1,0,0:0:0:0:
349,343,89073,1,0,0:0:0:0:
326,342,89154,1,0,0:0:0:0:
304,340,89236,6,0,L|209:333,1,90,0|0,0:0|0:0,0:0:0:0:
201,314,89480,1,0,0:0:0:0:
201,314,89562,2,8,L|106:321,1,90,8|0,0:0|0:0,0:0:0:0:
23,300,89888,1,0,0:0:0:0:
23,300,89969,1,0,0:0:0:0:
23,300,90051,2,0,P|43:245|40:207,1,90,0|8,0:0|0:0,0:0:0:0:
35,192,90296,1,0,0:0:0:0:
38,169,90377,1,0,0:0:0:0:
51,151,90459,1,0,0:0:0:0:
71,143,90540,6,0,L|179:151,1,90,0|0,0:0|0:0,0:0:0:0:
174,167,90785,1,0,0:0:0:0:
174,167,90866,2,8,L|282:159,1,90,8|0,0:0|0:0,0:0:0:0:
352,153,91192,2,0,L|358:103,2,45,0|0|0,0:0|0:0|0:0,0:0:0:0:
263,160,91518,1,8,0:0:0:0:
265,182,91600,1,0,0:0:0:0:
268,204,91681,1,0,0:0:0:0:
271,227,91763,1,0,0:0:0:0:
273,249,91844,6,0,L|283:338,1,90,0|0,0:0|0:0,0:0:0:0:
300,353,92089,1,0,0:0:0:0:
300,353,92171,2,8,P|355:370|396:362,1,90,8|0,0:0|0:0,0:0:0:0:
465,322,92497,2,0,L|514:328,2,45,0|0|0,0:0|0:0|0:0,0:0:0:0:
389,276,92823,1,8,0:0:0:0:
378,256,92904,1,0,0:0:0:0:
372,234,92986,1,0,0:0:0:0:
372,212,93067,1,0,0:0:0:0:
378,190,93149,6,0,P|386:159|399:143,3,45,0|0|0|0,0:0|0:0|0:0|0:0,0:0:0:0:
331,176,93475,2,8,P|322:145|325:124,3,45,8|0|0|0,0:0|0:0|0:0|0:0,0:0:0:0:
281,186,93801,1,0,0:0:0:0:
264,200,93883,1,0,0:0:0:0:
244,210,93964,1,0,0:0:0:0:
221,214,94046,1,0,0:0:0:0:
199,211,94127,1,8,0:0:0:0:
177,208,94209,1,0,0:0:0:0:
154,212,94290,1,0,0:0:0:0:
134,222,94372,1,0,0:0:0:0:
118,237,94453,6,0,P|102:290|114:334,1,90,0|0,0:0|0:0,0:0:0:0:
186,371,94779,2,8,L|283:365,1,90,8|0,0:0|0:0,0:0:0:0:
364,359,95105,1,0,0:0:0:0:
364,359,95187,1,0,0:0:0:0:
364,359,95268,1,0,0:0:0:0:
314,285,95431,2,8,L|217:279,1,90,8|0,0:0|0:0,0:0:0:0:
133,271,95758,6,2,P|190:263|195:138,1,180,2|8,0:0|0:0,0:0:0:0:
142,103,96247,1,0,0:0:0:0:
89,176,96410,2,2,L|75:363,1,180,2|8,0:0|0:0,0:0:0:0:
163,374,96899,2,2,B|225:354|225:354|262:371|262:371|350:347,1,180,2|2,0:0|0:0,0:0:0:0:
393,284,97388,1,8,0:0:0:0:
320,231,97551,1,0,0:0:0:0:
380,164,97714,2,2,L|486:159,1,90,2|2,0:0|0:0,0:0:0:0:
307,111,98040,1,8,0:0:0:0:
307,111,98366,6,2,B|263:64|263:64|137:84,1,180,2|8,0:0|0:0,0:0:0:0:
70,126,98855,1,0,0:0:0:0:
148,172,99018,2,2,B|192:219|192:219|318:199,1,180,2|8,0:0|0:0,0:0:0:0:
381,151,99508,2,2,P|330:183|340:306,1,180,2|2,0:0|0:0,0:0:0:0:
411,329,99997,1,8,0:0:0:0:
400,239,100160,1,0,0:0:0:0:
328,293,100323,2,2,L|224:283,1,90,2|2,0:0|0:0,0:0:0:0:
411,329,100649,1,8,0:0:0:0:
411,329,100975,6,2,B|466:302|466:302|447:176,1,180,2|8,0:0|0:0,0:0:0:0:
433,95,101464,1,0,0:0:0:0:
365,153,101627,2,2,P|326:193|192:175,1,180,2|8,0:0|0:0,0:0:0:0:
170,108,102116,2,2,L|179:314,1,180,2|2,0:0|0:0,0:0:0:0:
237,355,102605,1,8,0:0:0:0:
291,283,102768,1,0,0:0:0:0:
351,351,102931,2,2,P|394:365|449:357,1,90,2|2,0:0|0:0,0:0:0:0:
498,293,103258,1,8,0:0:0:0:
421,245,103421,1,0,0:0:0:0:
482,178,103584,6,2,B|491:80,1,90,2|0,0:0|0:0,0:0:0:0:
465,1,103910,2,8,P|422:20|374:18,1,90,8|0,0:0|0:0,0:0:0:0:
291,34,104236,2,2,P|262:85|262:129,1,90,2|0,0:0|0:0,0:0:0:0:
283,202,104562,1,8,0:0:0:0:
347,138,104725,1,2,0:0:0:0:
259,115,104888,5,0,0:0:0:0:
259,115,105214,1,8,0:0:0:0:
181,70,105377,1,0,0:0:0:0:
136,148,105540,1,2,0:0:0:0:
136,148,105622,1,0,0:0:0:0:
136,148,105703,1,2,0:0:0:0:
214,193,105866,2,8,P|262:204|310:188,1,90,8|0,0:0|0:0,0:0:0:0:
382,157,106192,6,2,B|322:197|322:197|340:321,1,180,2|8,0:0|0:0,0:0:0:0:
411,354,106681,1,0,0:0:0:0:
474,289,106844,2,2,L|458:176,1,90,2|0,0:0|0:0,0:0:0:0:
382,157,107171,1,10,0:0:0:0:
302,114,107334,2,0,L|314:24,1,90,0|2,0:0|0:0,0:0:0:0:
370,163,107660,1,0,0:0:0:0:
290,120,107823,2,8,L|302:30,1,90,8|0,0:0|0:0,0:0:0:0:
358,169,108149,1,2,0:0:0:0:
278,126,108312,1,2,0:0:0:0:
346,175,108475,2,8,L|441:184,1,90,8|0,0:0|0:0,0:0:0:0:
266,132,108801,6,2,B|145:139|145:139|106:193,1,180,2|8,0:0|0:0,0:0:0:0:
121,275,109290,1,0,0:0:0:0:
189,218,109453,2,2,L|293:212,1,90,2|0,0:0|0:0,0:0:0:0:
367,206,109779,1,10,0:0:0:0:
327,287,109942,2,0,P|287:245|337:121,1,180,0|0,0:0|0:0,0:0:0:0:
401,123,110431,1,8,0:0:0:0:
367,206,110594,1,0,0:0:0:0:
312,135,110758,2,2,L|318:32,1,90,2|2,0:0|0:0,0:0:0:0:
278,218,111084,1,8,0:0:0:0:
278,218,111410,5,2,0:0:0:0:
223,147,111573,1,0,0:0:0:0:
189,230,111736,2,0,L|195:333,1,90,0|0,0:0|0:0,0:0:0:0:
267,371,112062,2,10,B|295:323|295:323|426:340,1,180,10|2,0:0|0:0,0:0:0:0:
501,372,112551,1,0,0:0:0:0:
501,372,112714,6,2,L|505:274,1,90,2|0,0:0|0:0,0:0:0:0:
427,235,113040,2,0,L|423:137,1,90,0|0,0:0|0:0,0:0:0:0:
419,55,113366,2,10,P|391:126|293:129,1,180,10|0,0:0|0:0,0:0:0:0:
244,58,113855,1,0,0:0:0:0:
176,117,114018,6,2,L|111:122,3,45,2|0|0|0,0:0|0:0|0:0|0:0,0:0:0:0:
172,164,114344,2,0,L|118:200,3,45,0|0|0|0,0:0|0:0|0:0|0:0,0:0:0:0:
192,206,114671,2,8,L|163:264,3,45,10|0|0|0,0:0|0:0|0:0|0:0,0:0:0:0:
230,232,114997,2,0,L|235:297,3,45,2|0|0|0,0:0|0:0|0:0|0:0,0:0:0:0:
277,236,115323,5,2,0:0:0:0:
294,249,115404,1,0,0:0:0:0:
315,258,115486,1,0,0:0:0:0:
337,262,115567,1,0,0:0:0:0:
359,259,115649,1,0,0:0:0:0:
380,251,115730,1,0,0:0:0:0:
398,238,115812,1,0,0:0:0:0:
412,220,115893,1,0,0:0:0:0:
421,200,115975,5,2,0:0:0:0:
412,156,116056,1,0,0:0:0:0:
402,111,116138,1,2,0:0:0:0:
333,49,116301,2,0,L|231:43,1,90,8|0,0:0|0:0,0:0:0:0:
174,102,116627,5,4,0:0:0:0:
384,106,127062,6,0,L|293:98,1,67.5000025749208,0|0,0:0|0:0,0:0:0:0:
311,84,127306,2,0,L|220:92,1,67.5000025749208
226,89,127551,1,0,0:0:0:0:
145,125,127714,2,0,P|130:164|134:205,1,67.5000025749208
188,259,128040,2,0,L|180:296,3,33.7500012874604
222,245,128366,6,0,L|313:253,1,67.5000025749208
299,264,128611,2,0,L|390:256,1,67.5000025749208
380,266,128855,1,0,0:0:0:0:
505,241,129018,2,0,P|512:209|507:161,1,67.5000025749208
429,143,129344,1,0,0:0:0:0:
424,126,129426,1,0,0:0:0:0:
421,110,129508,1,0,0:0:0:0:
421,93,129589,1,0,0:0:0:0:
423,76,129671,6,0,P|420:32|405:2,1,67.5000025749208,0|0,0:0|0:0,0:0:0:0:
394,13,129915,2,0,P|354:25|316:25,1,67.5000025749208
313,18,130160,1,0,0:0:0:0:
245,71,130323,2,0,P|205:59|167:59,1,67.5000025749208
95,103,130649,2,0,L|54:105,3,33.7500012874604
113,136,130975,6,0,P|114:183|123:214,1,67.5000025749208,0|0,0:0|0:0,0:0:0:0:
128,217,131219,2,0,P|160:237|216:241,1,67.5000025749208,0|0,0:0|0:0,0:0:0:0:
205,239,131464,1,0,0:0:0:0:
265,305,131627,2,0,P|297:285|353:281,1,67.5000025749208
402,321,131953,1,0,0:0:0:0:
406,304,132035,1,0,0:0:0:0:
408,288,132116,1,0,0:0:0:0:
410,271,132198,1,0,0:0:0:0:
410,254,132279,6,0,P|404:215|407:179,1,67.5000025749208,0|0,0:0|0:0,0:0:0:0:
415,173,132524,2,0,P|421:134|418:98,1,67.5000025749208,0|0,0:0|0:0,0:0:0:0:
412,90,132769,1,0,0:0:0:0:
356,23,132931,2,0,L|282:27,1,67.5000025749208
240,105,133258,1,0,0:0:0:0:
223,104,133339,1,0,0:0:0:0:
206,103,133421,1,0,0:0:0:0:
189,102,133502,1,0,0:0:0:0:
172,101,133584,6,0,L|98:97,1,67.5000025749208,0|0,0:0|0:0,0:0:0:0:
70,95,133828,2,0,P|52:125|48:170,1,67.5000025749208
53,171,134072,1,0,0:0:0:0:
135,201,134236,2,0,P|153:231|157:276,1,67.5000025749208
174,348,134562,1,0,0:0:0:0:
188,356,134643,1,0,0:0:0:0:
204,362,134725,1,0,0:0:0:0:
221,365,134806,1,0,0:0:0:0:
237,365,134888,6,0,P|271:362|294:358,3,33.7500012874604,0|0|0|0,0:0|0:0|0:0|0:0,0:0:0:0:
245,312,135214,2,0,P|272:292|290:277,3,33.7500012874604,0|0|0|0,0:0|0:0|0:0|0:0,0:0:0:0:
225,262,135540,2,0,P|239:231|247:209,3,33.7500012874604,0|0|0|0,0:0|0:0|0:0|0:0,0:0:0:0:
183,228,135866,2,0,P|180:194|175:171,3,33.7500012874604,0|0|0|0,0:0|0:0|0:0|0:0,0:0:0:0:
129,220,136192,6,0,L|103:218,16,16.8750006437302,0|0|0|0|0|0|0|0|0|0|0|0|0|0|0|0|0,0:0|0:0|0:0|0:0|0:0|0:0|0:0|0:0|0:0|0:0|0:0|0:0|0:0|0:0|0:0|0:0|0:0,0:0:0:0:
129,220,137497,6,0,L|137:135,1,67.5000025749208,4|0,0:0|0:0,0:0:0:0:
149,66,137823,2,0,L|234:74,1,67.5000025749208,0|0,0:0|0:0,0:0:0:0:
290,119,138149,2,0,L|375:111,1,67.5000025749208,0|0,0:0|0:0,0:0:0:0:
444,101,138475,2,0,L|452:186,1,67.5000025749208,0|0,0:0|0:0,0:0:0:0:
379,219,138801,6,0,L|372:286,1,67.5000025749208,0|0,0:0|0:0,0:0:0:0:
330,363,139127,2,0,P|294:363|258:352,1,67.5000025749208,0|0,0:0|0:0,0:0:0:0:
220,278,139453,2,0,P|184:278|148:289,1,67.5000025749208,0|0,0:0|0:0,0:0:0:0:
66,298,139779,2,0,P|53:247|57:218,1,67.5000025749208,0|0,0:0|0:0,0:0:0:0:
110,165,140105,6,0,P|123:114|119:85,1,67.5000025749208,0|0,0:0|0:0,0:0:0:0:
109,12,140431,2,0,P|150:3|194:14,1,67.5000025749208,0|0,0:0|0:0,0:0:0:0:
221,81,140758,2,0,P|262:90|306:79,1,67.5000025749208,0|0,0:0|0:0,0:0:0:0:
350,26,141084,2,0,P|391:17|435:28,1,67.5000025749208,0|0,0:0|0:0,0:0:0:0:
466,91,141410,6,0,L|459:183,1,67.5000025749208,0|0,0:0|0:0,0:0:0:0:
388,208,141736,2,0,L|395:300,1,67.5000025749208,0|0,0:0|0:0,0:0:0:0:
383,362,142062,2,0,L|291:355,1,67.5000025749208,0|0,0:0|0:0,0:0:0:0:
266,284,142388,2,0,L|174:291,1,67.5000025749208,0|0,0:0|0:0,0:0:0:0:
119,252,142714,5,0,0:0:0:0:
188,198,142877,1,0,0:0:0:0:
198,289,143040,1,0,0:0:0:0:
267,235,143203,1,0,0:0:0:0:
277,326,143366,1,0,0:0:0:0:
346,272,143529,1,0,0:0:0:0:
356,363,143692,1,0,0:0:0:0:
425,309,143855,1,0,0:0:0:0:
346,272,144018,5,0,0:0:0:0:
356,363,144181,1,0,0:0:0:0:
415,218,144344,1,0,0:0:0:0:
425,309,144508,1,0,0:0:0:0:
336,181,144671,1,0,0:0:0:0:
346,272,144834,1,0,0:0:0:0:
405,127,144997,1,0,0:0:0:0:
415,218,145160,1,0,0:0:0:0:
326,90,145323,5,0,0:0:0:0:
297,72,145404,1,0,0:0:0:0:
264,69,145486,1,0,0:0:0:0:
233,82,145567,1,0,0:0:0:0:
211,107,145649,1,0,0:0:0:0:
189,132,145730,1,0,0:0:0:0:
158,145,145812,1,0,0:0:0:0:
125,142,145893,1,0,0:0:0:0:
96,124,145975,2,0,L|90:73,7,33.7500012874604,0|0|0|0|0|0|0|0,0:0|0:0|0:0|0:0|0:0|0:0|0:0|0:0,0:0:0:0:
38,185,146627,5,0,0:0:0:0:
38,185,146953,1,0,0:0:0:0:
38,185,147279,1,0,0:0:0:0:
38,185,147605,2,0,B|20:246|20:246|37:291,1,101.250003862381,0|0,0:0|0:0,0:0:0:0:
60,317,147931,6,0,L|116:311,1,45,4|0,0:0|0:0,0:0:0:0:
195,303,148094,1,0,0:0:0:0:
141,228,148258,2,0,B|118:176|118:176|155:88,1,135,0|0,0:0|0:0,0:0:0:0:
169,67,148584,6,8,B|201:51|201:51|233:67|233:67|265:51|265:51|297:67|297:67|329:51|329:51|361:67,1,202.500007724762,8|0,0:0|0:0,0:0:0:0:
372,85,148910,2,0,B|340:101|340:101|308:85|308:85|276:101|276:101|244:85|244:85|212:101|212:101|180:85,1,202.500007724762,0|0,0:0|0:0,0:0:0:0:
169,67,149236,6,0,B|196:126|196:126|152:189|152:189|79:180,1,202.500007724762,0|0,0:0|0:0,0:0:0:0:
46,175,149562,6,0,B|64:217|64:217|53:274,1,90,0|0,0:0|0:0,0:0:0:0:
160,360,149888,2,8,B|142:318|142:318|153:261,1,90,8|0,0:0|0:0,0:0:0:0:
235,181,150214,6,0,P|230:251|321:210,1,202.500007724762,0|0,0:0|0:0,0:0:0:0:
323,171,150540,6,0,B|283:180|283:180|260:152|260:152|209:148|209:148|181:171|181:171|144:155,1,202.500007724762,0|0,0:0|0:0,0:0:0:0:
109,121,150866,2,0,B|107:157|126:180|126:180|88:193|60:229|60:229|36:201|-1:195,1,202.500007724762,0|0,0:0|0:0,0:0:0:0:
7,155,151192,6,8,B|0:120|0:120|11:74,1,67.5000025749208,8|0,0:0|0:0,0:0:0:0:
109,55,151355,2,0,B|116:90|116:90|105:136,1,67.5000025749208,0|0,0:0|0:0,0:0:0:0:
209,159,151518,2,0,B|202:124|202:124|213:78,1,67.5000025749208,0|0,0:0|0:0,0:0:0:0:
311,59,151681,1,0,0:0:0:0:
311,59,151763,1,0,0:0:0:0:
311,59,151844,6,0,P|364:52|401:75,1,90,0|0,0:0|0:0,0:0:0:0:
260,226,152171,2,0,P|219:244|170:234,1,90,0|0,0:0|0:0,0:0:0:0:
343,135,152497,2,8,B|349:203,1,45,8|0,0:0|0:0,0:0:0:0:
357,270,152660,1,0,0:0:0:0:
343,135,152823,1,0,0:0:0:0:
343,135,153149,6,0,L|274:128,1,45,0|0,0:0|0:0,0:0:0:0:
208,122,153312,1,0,0:0:0:0:
246,203,153475,2,0,B|292:240|292:240|280:320,1,135,0|0,0:0|0:0,0:0:0:0:
302,338,153801,6,8,B|270:354|270:354|238:338|238:338|206:354|206:354|174:338|174:338|142:354|142:354|110:338,1,202.500007724762,8|0,0:0|0:0,0:0:0:0:
99,320,154127,2,0,B|131:304|131:304|163:320|163:320|195:304|195:304|227:320|227:320|259:304|259:304|291:320,1,202.500007724762,0|0,0:0|0:0,0:0:0:0:
302,338,154453,6,0,B|297:301|275:279|275:279|306:262|319:216|319:216|354:215|388:183,1,202.500007724762,0|0,0:0|0:0,0:0:0:0:
377,100,154779,2,0,B|342:85|342:85|298:84,1,67.5000025749208,0|0,0:0|0:0,0:0:0:0:
372,196,154942,2,0,B|401:195|401:195|436:180,1,67.5000025749208,0|0,0:0|0:0,0:0:0:0:
266,152,155105,1,8,0:0:0:0:
266,152,155431,6,0,B|232:167|232:167|189:163,1,67.5000025749208,0|0,0:0|0:0,0:0:0:0:
178,49,155594,2,0,B|212:34|212:34|255:38,1,67.5000025749208,0|0,0:0|0:0,0:0:0:0:
124,119,155758,6,0,P|93:82|92:27,1,90,0|0,0:0|0:0,0:0:0:0:
201,164,156084,2,0,P|194:207|165:241,1,90,0|0,0:0|0:0,0:0:0:0:
178,49,156410,2,8,L|365:57,1,180,8|0,0:0|0:0,0:0:0:0:
435,101,156899,1,0,0:0:0:0:
435,101,156980,1,0,0:0:0:0:
435,101,157062,6,0,P|455:143|448:193,1,90,0|0,0:0|0:0,0:0:0:0:
382,243,157388,2,0,P|362:201|369:151,1,90,0|0,0:0|0:0,0:0:0:0:
466,273,157714,1,8,0:0:0:0:
466,273,157796,1,0,0:0:0:0:
466,273,157877,1,0,0:0:0:0:
315,301,158040,2,0,L|213:294,1,90,0|0,0:0|0:0,0:0:0:0:
139,322,158366,6,0,B|181:292|181:292|169:186,1,135,4|0,0:0|0:0,0:0:0:0:
133,125,158692,2,8,P|154:118|177:118,1,45,8|0,0:0|0:0,0:0:0:0:
244,167,158855,2,0,P|265:174|287:174,1,45,0|0,0:0|0:0,0:0:0:0:
378,153,159018,2,0,P|367:198|377:245,1,90,0|0,0:0|0:0,0:0:0:0:
474,354,159344,2,8,P|485:309|475:262,1,90,8|0,0:0|0:0,0:0:0:0:
456,110,159671,6,0,B|428:112|414:120|414:120|391:112|374:97|374:97|351:111|322:111,1,135,0|0,0:0|0:0,0:0:0:0:
234,93,159997,2,8,L|231:39,1,45,8|0,0:0|0:0,0:0:0:0:
215,96,160160,2,0,L|212:42,1,45,0|0,0:0|0:0,0:0:0:0:
271,182,160323,2,0,L|265:280,1,90,0|0,0:0|0:0,0:0:0:0:
140,126,160649,2,8,L|134:27,1,90,8|0,0:0|0:0,0:0:0:0:
174,220,160975,6,0,B|125:233|125:233|92:220|92:220|31:241,1,135,0|0,0:0|0:0,0:0:0:0:
40,340,161301,2,8,L|86:344,1,45,8|0,0:0|0:0,0:0:0:0:
39,326,161464,2,0,L|85:330,1,45,0|0,0:0|0:0,0:0:0:0:
179,366,161627,2,0,P|217:342|272:344,1,90,0|0,0:0|0:0,0:0:0:0:
296,257,161953,2,8,P|340:258|378:282,1,90,8|0,0:0|0:0,0:0:0:0:
450,335,162279,5,0,0:0:0:0:
459,246,162442,1,0,0:0:0:0:
468,157,162605,2,8,B|476:109|476:109|446:54,1,90,8|0,0:0|0:0,0:0:0:0:
372,42,162931,2,0,B|364:90|364:90|394:145,1,90,0|0,0:0|0:0,0:0:0:0:
361,226,163258,6,8,P|363:148|301:214,1,202.500007724762,8|0,0:0|0:0,0:0:0:0:
269,271,163584,6,0,B|218:261|218:261|188:275|188:275|127:262,1,135,0|0,0:0|0:0,0:0:0:0:
53,253,163910,2,8,L|50:202,1,45,8|0,0:0|0:0,0:0:0:0:
123,155,164073,2,0,L|126:104,1,45,0|0,0:0|0:0,0:0:0:0:
133,20,164236,2,0,P|181:40|233:35,1,90,0|0,0:0|0:0,0:0:0:0:
308,31,164562,2,8,P|319:61|321:84,1,45,8|0,0:0|0:0,0:0:0:0:
258,165,164725,2,0,P|247:135|245:112,1,45,0|0,0:0|0:0,0:0:0:0:
359,159,164888,6,0,P|357:199|332:246,1,90,0|0,0:0|0:0,0:0:0:0:
215,175,165214,2,8,P|247:166|270:165,1,45,8|0,0:0|0:0,0:0:0:0:
239,277,165377,2,0,P|216:273|195:266,1,45,0|0,0:0|0:0,0:0:0:0:
335,242,165540,2,0,L|341:349,1,90,0|0,0:0|0:0,0:0:0:0:
242,322,165866,2,8,L|238:263,1,45,8|0,0:0|0:0,0:0:0:0:
148,323,166029,2,0,L|151:381,1,45,0|0,0:0|0:0,0:0:0:0:
59,305,166192,5,0,0:0:0:0:
44,287,166274,1,0,0:0:0:0:
34,267,166355,1,0,0:0:0:0:
28,246,166437,1,0,0:0:0:0:
27,223,166518,1,8,0:0:0:0:
31,201,166600,1,0,0:0:0:0:
40,181,166681,1,0,0:0:0:0:
53,163,166763,1,0,0:0:0:0:
70,148,166844,2,0,P|91:132|117:124,3,45,0|0|0|0,0:0|0:0|0:0|0:0,0:0:0:0:
128,206,167171,2,8,P|149:222|175:230,3,45,8|0|0|0,0:0|0:0|0:0|0:0,0:0:0:0:
190,146,167497,6,0,L|194:121,16,22.5,0|0|0|0|0|0|0|0|8|0|0|0|0|0|0|0|0,0:0|0:0|0:0|0:0|0:0|0:0|0:0|0:0|0:0|0:0|0:0|0:0|0:0|0:0|0:0|0:0|0:0,0:0:0:0:
256,352,168475,1,8,0:0:0:0:
256,352,168801,6,0,B|375:341|375:341|403:267,1,180,0|8,0:0|0:0,0:0:0:0:
421,197,169290,1,0,0:0:0:0:
336,227,169453,2,0,B|292:235|292:235|242:223,1,90,0|0,0:0|0:0,0:0:0:0:
204,145,169779,2,8,B|160:137|160:137|110:149,1,90,8|0,0:0|0:0,0:0:0:0:
54,213,170105,6,0,B|68:146|68:146|51:111|51:111|69:25,1,180,0|8,0:0|0:0,0:0:0:0:
150,10,170594,1,0,0:0:0:0:
193,89,170758,2,0,P|235:109|293:97,1,90,0|0,0:0|0:0,0:0:0:0:
365,86,171084,2,8,L|368:197,1,90,8|0,0:0|0:0,0:0:0:0:
369,265,171410,5,0,0:0:0:0:
291,222,171573,1,0,0:0:0:0:
367,175,171736,2,8,L|469:171,1,90,8|0,0:0|0:0,0:0:0:0:
293,312,172062,2,0,L|191:316,1,90,0|0,0:0|0:0,0:0:0:0:
113,321,172388,1,8,0:0:0:0:
104,300,172469,1,0,0:0:0:0:
100,278,172551,1,0,0:0:0:0:
100,255,172633,1,0,0:0:0:0:
104,233,172714,6,0,P|123:182|120:137,1,90,0|0,0:0|0:0,0:0:0:0:
104,144,172959,1,0,0:0:0:0:
104,144,173040,2,8,P|85:93|88:48,1,90,8|0,0:0|0:0,0:0:0:0:
165,17,173366,1,0,0:0:0:0:
165,17,173529,1,0,0:0:0:0:
208,95,173692,1,8,0:0:0:0:
208,95,174018,6,0,B|286:56|307:148|401:90,1,180,0|8,0:0|0:0,0:0:0:0:
457,51,174508,1,0,0:0:0:0:
460,140,174671,2,0,L|466:200,1,45,0|0,0:0|0:0,0:0:0:0:
381,100,174834,2,0,L|387:40,1,45,0|0,0:0|0:0,0:0:0:0:
329,171,174997,2,8,L|335:231,1,45,8|0,0:0|0:0,0:0:0:0:
250,131,175160,2,0,L|256:71,1,45,0|0,0:0|0:0,0:0:0:0:
198,202,175323,6,0,B|81:188|81:188|48:122,1,180,0|8,0:0|0:0,0:0:0:0:
17,49,175812,1,0,0:0:0:0:
104,27,175975,2,0,L|206:29,1,90,0|0,0:0|0:0,0:0:0:0:
250,98,176301,2,8,L|352:96,1,90,8|0,0:0|0:0,0:0:0:0:
428,80,176627,5,0,0:0:0:0:
370,11,176790,1,0,0:0:0:0:
339,96,176953,2,8,L|345:203,1,90,8|0,0:0|0:0,0:0:0:0:
351,275,177279,1,0,0:0:0:0:
333,261,177361,1,0,0:0:0:0:
312,253,177442,1,0,0:0:0:0:
290,251,177524,1,0,0:0:0:0:
268,255,177605,1,8,0:0:0:0:
248,266,177687,1,0,0:0:0:0:
232,282,177768,1,0,0:0:0:0:
221,301,177850,1,0,0:0:0:0:
217,323,177931,6,0,L|220:355,12,22.5,0|0|0|0|0|0|0|0|8|0|0|0|0,0:0|0:0|0:0|0:0|0:0|0:0|0:0|0:0|0:0|0:0|0:0|0:0|0:0,0:0:0:0:
148,264,178584,1,0,0:0:0:0:
148,264,178665,1,0,0:0:0:0:
148,264,178747,1,0,0:0:0:0:
113,346,178910,2,8,L|13:349,1,90,8|0,0:0|0:0,0:0:0:0:
19,258,179236,6,2,B|25:147|25:147|102:106,1,180,2|8,0:0|0:0,0:0:0:0:
173,134,179725,1,0,0:0:0:0:
105,198,179888,2,2,P|82:147|89:103,1,90,2|0,0:0|0:0,0:0:0:0:
153,50,180214,2,8,P|176:101|169:145,1,90,8|2,0:0|0:0,0:0:0:0:
195,224,180540,6,0,P|196:169|315:116,1,180,0|8,0:0|0:0,0:0:0:0:
280,199,181029,1,2,0:0:0:0:
260,286,181192,2,2,P|219:313|171:311,1,90,2|0,0:0|0:0,0:0:0:0:
114,251,181518,2,10,P|155:224|203:226,1,90,10|0,0:0|0:0,0:0:0:0:
92,338,181844,6,2,P|48:311|56:184,1,180,2|8,0:0|0:0,0:0:0:0:
88,113,182334,1,0,0:0:0:0:
134,189,182497,2,2,P|183:206|237:193,1,90,2|0,0:0|0:0,0:0:0:0:
282,135,182823,2,8,P|331:118|385:131,1,90,8|2,0:0|0:0,0:0:0:0:
448,163,183149,6,0,L|433:355,1,180,0|8,0:0|0:0,0:0:0:0:
352,380,183638,1,2,0:0:0:0:
361,290,183801,2,2,L|368:200,1,90,2|0,0:0|0:0,0:0:0:0:
288,157,184127,2,10,L|280:67,1,90,10|0,0:0|0:0,0:0:0:0:
207,15,184453,6,2,P|156:21|120:45,1,90,2|0,0:0|0:0,0:0:0:0:
66,110,184779,2,8,P|117:116|153:140,1,90,8|0,0:0|0:0,0:0:0:0:
175,222,185105,2,2,P|226:216|262:192,1,90,2|0,0:0|0:0,0:0:0:0:
304,119,185431,2,8,P|355:125|391:149,1,90,8|2,0:0|0:0,0:0:0:0:
445,214,185758,6,0,P|413:181|455:55,1,180,0|8,0:0|0:0,0:0:0:0:
490,137,186247,1,2,0:0:0:0:
445,214,186410,2,2,P|402:229|341:222,1,90,2|0,0:0|0:0,0:0:0:0:
329,141,186736,2,10,P|286:126|225:133,1,90,10|0,0:0|0:0,0:0:0:0:
155,150,187062,6,2,L|160:340,1,180,2|8,0:0|0:0,0:0:0:0:
236,377,187551,1,0,0:0:0:0:
233,287,187714,2,2,P|187:298|158:332,1,90,2|0,0:0|0:0,0:0:0:0:
312,329,188040,2,8,P|324:283|310:241,1,90,8|2,0:0|0:0,0:0:0:0:
237,193,188366,6,0,P|300:209|382:124,1,180,0|10,0:0|0:0,0:0:0:0:
354,51,188855,1,0,0:0:0:0:
290,115,189018,2,0,P|248:99|188:112,1,90,0|2,0:0|0:0,0:0:0:0:
379,138,189344,1,10,0:0:0:0:
379,138,189671,6,2,L|390:243,1,90,2|0,0:0|0:0,0:0:0:0:
405,241,189915,1,0,0:0:0:0:
405,241,189997,2,8,L|394:346,1,90,8|0,0:0|0:0,0:0:0:0:
312,364,190323,2,2,P|268:340|211:343,1,90,2|0,0:0|0:0,0:0:0:0:
139,345,190649,1,8,0:0:0:0:
130,324,190730,1,0,0:0:0:0:
125,302,190812,1,2,0:0:0:0:
125,279,190893,1,0,0:0:0:0:
130,257,190975,6,0,P|145:206|141:163,1,90,0|2,0:0|0:0,0:0:0:0:
129,151,191219,1,0,0:0:0:0:
129,151,191301,2,8,P|114:100|118:57,1,90,8|2,0:0|0:0,0:0:0:0:
197,24,191627,2,2,L|295:33,1,90,2|0,0:0|0:0,0:0:0:0:
311,118,191953,1,8,0:0:0:0:
333,116,192035,1,0,0:0:0:0:
356,114,192116,1,0,0:0:0:0:
378,112,192198,1,0,0:0:0:0:
400,110,192279,6,2,L|498:101,1,90,2|0,0:0|0:0,0:0:0:0:
500,121,192524,1,0,0:0:0:0:
500,121,192605,2,8,L|492:238,1,90,8|0,0:0|0:0,0:0:0:0:
409,241,192931,2,2,L|417:358,1,90,2|0,0:0|0:0,0:0:0:0:
327,354,193258,1,8,0:0:0:0:
305,360,193339,1,0,0:0:0:0:
282,360,193421,1,2,0:0:0:0:
260,356,193502,1,0,0:0:0:0:
240,347,193584,6,0,P|197:298|192:254,1,90,0|2,0:0|0:0,0:0:0:0:
198,253,193828,1,0,0:0:0:0:
198,253,193910,2,8,P|214:206|209:157,1,90,8|2,0:0|0:0,0:0:0:0:
131,124,194236,2,2,P|115:77|120:28,1,90,2|0,0:0|0:0,0:0:0:0:
211,166,194562,1,8,0:0:0:0:
211,166,194888,6,2,L|104:157,1,90,2|0,0:0|0:0,0:0:0:0:
111,138,195133,1,0,0:0:0:0:
111,138,195214,2,8,L|4:147,1,90,8|0,0:0|0:0,0:0:0:0:
17,235,195540,2,2,L|19:333,1,90,2|0,0:0|0:0,0:0:0:0:
99,363,195866,1,8,0:0:0:0:
117,350,195948,1,0,0:0:0:0:
139,343,196029,1,2,0:0:0:0:
161,341,196111,1,0,0:0:0:0:
183,345,196192,6,0,P|224:362|278:355,1,90,0|2,0:0|0:0,0:0:0:0:
291,354,196437,1,0,0:0:0:0:
291,354,196518,2,8,L|300:238,1,90,8|2,0:0|0:0,0:0:0:0:
362,201,196844,2,2,L|353:85,1,90,2|0,0:0|0:0,0:0:0:0:
311,32,197171,1,8,0:0:0:0:
289,24,197252,1,0,0:0:0:0:
267,22,197334,1,0,0:0:0:0:
245,24,197415,1,0,0:0:0:0:
224,32,197497,6,2,P|209:49|197:81,3,45,2|0|0|0,0:0|0:0|0:0|0:0,0:0:0:0:
279,89,197823,2,8,P|274:111|280:144,3,45,8|0|0|0,0:0|0:0|0:0|0:0,0:0:0:0:
355,110,198149,1,2,0:0:0:0:
376,103,198230,1,0,0:0:0:0:
398,104,198312,1,0,0:0:0:0:
420,111,198393,1,0,0:0:0:0:
438,124,198475,1,8,0:0:0:0:
451,142,198556,1,0,0:0:0:0:
459,163,198638,1,2,0:0:0:0:
460,186,198719,1,0,0:0:0:0:
454,207,198801,6,0,L|451:248,16,22.5,0|0|0|0|2|0|0|0|8|0|0|0|2|0|0|0|2,0:0|0:0|0:0|0:0|0:0|0:0|0:0|0:0|0:0|0:0|0:0|0:0|0:0|0:0|0:0|0:0|0:0,0:0:0:0:
359,348,199779,1,8,0:0:0:0:
336,346,199861,1,0,0:0:0:0:
314,345,199942,1,0,0:0:0:0:
291,343,200024,1,0,0:0:0:0:
269,342,200105,6,0,L|165:335,1,90,4|0,0:0|0:0,0:0:0:0:
161,321,200350,1,0,0:0:0:0:
161,321,200431,2,8,L|57:328,1,90,8|0,0:0|0:0,0:0:0:0:
14,256,200758,2,0,P|8:195|22:159,1,90,0|0,0:0|0:0,0:0:0:0:
57,88,201084,1,8,0:0:0:0:
74,101,201165,1,0,0:0:0:0:
95,110,201247,1,0,0:0:0:0:
117,113,201328,1,0,0:0:0:0:
139,110,201410,6,0,P|177:95|232:104,1,90,0|0,0:0|0:0,0:0:0:0:
243,112,201654,1,0,0:0:0:0:
243,112,201736,2,8,L|240:213,1,90,8|0,0:0|0:0,0:0:0:0:
152,221,202062,2,0,L|154:310,1,90,0|0,0:0|0:0,0:0:0:0:
227,363,202388,1,8,0:0:0:0:
248,370,202469,1,0,0:0:0:0:
270,372,202551,1,0,0:0:0:0:
292,369,202633,1,0,0:0:0:0:
314,362,202714,6,0,P|351:326|361:285,1,90,0|0,0:0|0:0,0:0:0:0:
355,267,202959,1,0,0:0:0:0:
355,267,203040,2,8,P|344:222|362:165,1,90,8|0,0:0|0:0,0:0:0:0:
425,126,203366,2,0,P|436:81|418:24,1,90,0|0,0:0|0:0,0:0:0:0:
338,21,203692,1,8,0:0:0:0:
315,22,203774,1,0,0:0:0:0:
293,24,203855,1,0,0:0:0:0:
270,26,203937,1,0,0:0:0:0:
248,29,204018,6,0,L|150:37,1,90,0|0,0:0|0:0,0:0:0:0:
147,56,204263,1,0,0:0:0:0:
147,56,204344,2,8,L|49:48,1,90,8|0,0:0|0:0,0:0:0:0:
213,131,204671,2,0,L|311:123,1,90,0|0,0:0|0:0,0:0:0:0:
147,56,204997,1,8,0:0:0:0:
130,71,205078,1,0,0:0:0:0:
118,90,205160,1,0,0:0:0:0:
112,111,205241,1,0,0:0:0:0:
111,134,205323,6,0,L|115:196,1,45,0|0,0:0|0:0,0:0:0:0:
191,229,205486,2,0,L|195:167,1,45,0|0,0:0|0:0,0:0:0:0:
270,130,205649,2,8,L|277:246,1,90,8|0,0:0|0:0,0:0:0:0:
358,256,205975,2,0,L|350:372,1,90,0|0,0:0|0:0,0:0:0:0:
264,364,206301,1,8,0:0:0:0:
241,367,206383,1,0,0:0:0:0:
219,365,206464,1,0,0:0:0:0:
198,358,206546,1,0,0:0:0:0:
178,347,206627,6,0,P|140:328|83:334,1,90,0|0,0:0|0:0,0:0:0:0:
70,328,206872,1,0,0:0:0:0:
70,328,206953,2,8,P|56:285|64:235,1,90,8|0,0:0|0:0,0:0:0:0:
139,196,207279,2,0,P|153:153|145:103,1,90,0|0,0:0|0:0,0:0:0:0:
143,19,207605,1,8,0:0:0:0:
164,13,207687,1,0,0:0:0:0:
187,12,207768,1,0,0:0:0:0:
209,16,207850,1,0,0:0:0:0:
230,25,207931,6,0,P|272:50|318:49,1,90,0|0,0:0|0:0,0:0:0:0:
331,39,208176,1,0,0:0:0:0:
331,39,208258,2,8,P|375:40|413:64,1,90,8|0,0:0|0:0,0:0:0:0:
442,149,208584,2,0,L|437:263,1,90,0|0,0:0|0:0,0:0:0:0:
434,327,208910,1,8,0:0:0:0:
414,339,208991,1,0,0:0:0:0:
393,346,209073,1,0,0:0:0:0:
371,349,209154,1,0,0:0:0:0:
349,346,209236,6,0,P|302:328|274:290,1,90,0|0,0:0|0:0,0:0:0:0:
281,276,209480,1,0,0:0:0:0:
281,276,209562,2,8,P|293:231|283:180,1,90,8|0,0:0|0:0,0:0:0:0:
206,150,209888,2,0,L|212:100,1,45,0|0,0:0|0:0,0:0:0:0:
192,149,210051,2,0,L|198:101,1,45,0|0,0:0|0:0,0:0:0:0:
130,204,210214,2,8,L|136:254,1,45,8|0,0:0|0:0,0:0:0:0:
116,205,210377,2,0,L|122:253,1,45,0|0,0:0|0:0,0:0:0:0:
49,148,210540,6,0,L|55:98,1,45,4|0,0:0|0:0,0:0:0:0:
120,34,210703,2,0,L|126:84,1,45,0|0,0:0|0:0,0:0:0:0:
192,149,210866,2,8,L|204:50,1,90,8|0,0:0|0:0,0:0:0:0:
284,20,211192,2,0,P|333:48|387:48,1,90,0|0,0:0|0:0,0:0:0:0:
454,40,211518,1,8,0:0:0:0:
447,61,211600,1,0,0:0:0:0:
444,83,211681,1,0,0:0:0:0:
447,106,211763,1,0,0:0:0:0:
454,127,211844,6,0,P|471:176|469:217,1,90,0|0,0:0|0:0,0:0:0:0:
466,236,212089,1,0,0:0:0:0:
466,236,212171,2,8,P|430:264|376:262,1,90,8|0,0:0|0:0,0:0:0:0:
321,204,212497,2,0,P|285:176|231:178,1,90,0|0,0:0|0:0,0:0:0:0:
155,200,212823,1,8,0:0:0:0:
162,178,212904,1,0,0:0:0:0:
166,156,212986,1,0,0:0:0:0:
167,134,213067,1,0,0:0:0:0:
165,112,213149,6,0,P|154:61|130:26,1,90,0|0,0:0|0:0,0:0:0:0:
111,24,213393,1,0,0:0:0:0:
111,24,213475,2,8,L|8:16,1,90,8|0,0:0|0:0,0:0:0:0:
19,106,213801,2,0,L|12:195,1,90,0|0,0:0|0:0,0:0:0:0:
14,285,214127,1,8,0:0:0:0:
31,299,214209,1,0,0:0:0:0:
52,308,214290,1,0,0:0:0:0:
74,311,214372,1,0,0:0:0:0:
96,308,214453,6,0,P|139:291|189:297,1,90,0|0,0:0|0:0,0:0:0:0:
201,306,214698,1,0,0:0:0:0:
201,306,214779,2,8,P|244:323|294:317,1,90,8|0,0:0|0:0,0:0:0:0:
369,283,215105,2,0,L|374:174,1,90,0|0,0:0|0:0,0:0:0:0:
450,147,215431,1,8,0:0:0:0:
448,124,215513,1,0,0:0:0:0:
447,102,215594,1,0,0:0:0:0:
446,79,215676,1,0,0:0:0:0:
445,57,215758,6,0,P|405:29|307:37,1,135,0|0,0:0|0:0,0:0:0:0:
297,67,216084,2,0,P|255:90|200:84,1,90,0|0,0:0|0:0,0:0:0:0:
128,61,216410,2,8,L|125:161,1,90,8|0,0:0|0:0,0:0:0:0:
186,244,216736,1,0,0:0:0:0:
186,244,216817,1,0,0:0:0:0:
186,244,216899,1,0,0:0:0:0:
186,244,216980,1,0,0:0:0:0:
186,244,217062,6,0,P|231:265|319:243,1,135,0|0,0:0|0:0,0:0:0:0:
334,209,217388,2,0,P|379:192|427:201,1,90,0|0,0:0|0:0,0:0:0:0:
505,223,217714,2,8,L|501:125,1,90,8|0,0:0|0:0,0:0:0:0:
428,80,218040,2,0,L|431:28,2,45,0|0|0,0:0|0:0|0:0,0:0:0:0:
352,129,218366,5,0,0:0:0:0:
341,132,218448,1,0,0:0:0:0:
330,134,218529,1,0,0:0:0:0:
319,136,218611,1,0,0:0:0:0:
307,136,218692,1,0,0:0:0:0:
296,135,218774,1,0,0:0:0:0:
285,133,218855,1,0,0:0:0:0:
274,131,218937,1,0,0:0:0:0:
264,127,219018,2,8,P|243:111|230:92,4,45,8|0|0|0|0,0:0|0:0|0:0|0:0|0:0,0:0:0:0:
307,52,219508,5,0,0:0:0:0:
307,52,219589,1,0,0:0:0:0:
307,52,219671,2,0,L|344:55,16,22.5,0|0|0|0|0|0|0|0|0|0|0|0|0|0|0|0|0,0:0|0:0|0:0|0:0|0:0|0:0|0:0|0:0|0:0|0:0|0:0|0:0|0:0|0:0|0:0|0:0|0:0,0:0:0:0:
112,192,220649,1,0,0:0:0:0:
320,288,220975,5,4,0:0:0:0:
