osu file format v14

[General]
AudioFilename: audio.mp3
AudioLeadIn: 0
PreviewTime: -1
Countdown: 0
SampleSet: Normal
StackLeniency: 0.2
Mode: 0
LetterboxInBreaks: 0
WidescreenStoryboard: 0

[Editor]
Bookmarks: 14215,27456,40698,53939,67180,73801,80422,93663,106905,120146,126767,133387,149939,159870,173111
DistanceSpacing: 1.3
BeatDivisor: 4
GridSize: 4
TimelineZoom: 1

[Metadata]
Title:Sunny After Rain feat. Kantan.N
TitleUnicode:Sunny After Rain feat. Kantan.N
Artist:aran
ArtistUnicode:aran
Creator:fanzhen0019
Version:dot
Source:
Tags:megarex spd gar speed UK garage
BeatmapID:1853460
BeatmapSetID:886602

[Difficulty]
HPDrainRate:6
CircleSize:4.4
OverallDifficulty:8
ApproachRate:9.3
SliderMultiplier:2.4
SliderTickRate:1

[Events]
//Background and Video events
0,0,"24o7.jpg",0,0
//Break Periods
2,27656,39270
2,120346,126213
//Storyboard Layer 0 (Background)
//Storyboard Layer 1 (Fail)
//Storyboard Layer 2 (Pass)
//Storyboard Layer 3 (Foreground)
//Storyboard Layer 4 (Overlay)
//Storyboard Sound Samples

[TimingPoints]
974,413.793103448276,4,1,0,100,1,0
40284,-133.333333333333,4,1,0,100,0,0
53525,-50,4,1,0,100,0,0
53939,-50,4,1,0,100,0,1
67180,-66.6666666666667,4,1,0,100,0,1
80422,-100,4,1,0,100,0,0
106905,-222.222222222221,4,1,0,100,0,0
126767,-222.222222222221,4,1,0,30,0,0
132870,-222.222222222221,4,1,0,60,0,0
140008,-222.222222222221,4,1,0,90,0,0
146008,-222.222222222221,4,1,0,60,0,0
146215,-222.222222222221,4,1,0,30,0,0
149525,-222.222222222221,4,1,0,100,0,0
149939,-100,4,1,0,100,0,1
150146,-200,4,1,0,100,0,1
150974,-50,4,1,0,100,0,1
151801,-66.6666666666667,4,1,0,100,0,1
152215,-400,4,1,0,100,0,1
152629,-952.380952380952,4,1,0,100,0,1
153456,-434.782608695652,4,1,0,100,0,1
153870,-50,4,1,0,100,0,1
154284,-1000,4,1,0,100,0,1
154698,-200,4,1,0,100,0,1
155111,-76.3358778625954,4,1,0,100,0,1
155525,-131.578947368421,4,1,0,100,0,1
155939,-50.251256281407,4,1,0,100,0,1
156767,-208.333333333333,4,1,0,100,0,1
157180,-40,4,1,0,100,0,1
157594,-1000,4,1,0,100,0,1
158422,-625,4,1,0,100,0,1
158836,-56.8181818181818,4,1,0,100,0,1
159870,-66.6666666666667,4,1,0,100,0,1
173111,-88.4955752212389,4,1,0,100,0,0
198767,-88.4955752212389,4,1,0,50,0,0
199180,-100,4,1,0,100,0,0

[Colours]
Combo1 : 255,179,255
Combo2 : 40,255,148
Combo3 : 138,197,255
Combo4 : 248,135,152

[HitObjects]
56,88,14215,5,0,0:0:0:0:
164,68,14629,1,8,0:0:0:0:
100,224,14939,2,0,L|-4:216,1,90,2|0,0:2|2:0,0:0:0:0:
0,220,15146,2,0,B|60:204|60:204|120:232,1,120,2|0,0:2|2:0,0:0:0:0:
164,68,15456,1,8,0:0:0:0:
248,352,15870,5,0,0:0:0:0:
236,244,16284,1,8,0:0:0:0:
400,200,16594,2,0,L|388:312,1,90,2|0,0:2|2:0,0:0:0:0:
384,300,16801,2,0,B|412:248|412:248|392:180,1,120,2|0,0:2|2:0,0:0:0:0:
236,244,17111,1,8,0:0:0:0:
472,144,17525,5,0,0:0:0:0:
360,132,17939,1,8,0:0:0:0:
256,24,18249,2,0,L|352:16,1,90,2|0,0:2|2:0,0:0:0:0:
340,8,18456,2,0,B|392:40|392:40|456:32,1,120,2|0,0:2|2:0,0:0:0:0:
360,132,18767,1,8,0:0:0:0:
168,348,19180,5,0,0:0:0:0:
180,244,19594,1,8,0:0:0:0:
32,140,19905,2,0,L|48:240,1,90,2|0,0:2|2:0,0:0:0:0:
32,220,20111,2,0,B|68:268|68:268|52:336,1,120,2|0,0:2|0:0,0:0:0:0:
180,244,20422,1,8,0:0:0:0:
54,326,20629,1,0,0:0:0:0:
256,360,20836,5,0,0:0:0:0:
376,368,21249,1,8,0:0:0:0:
496,236,21560,2,0,L|400:240,1,90,2|0,0:2|2:0,0:0:0:0:
400,248,21767,2,0,B|420:228|420:228|416:128,1,120,2|0,0:2|2:0,0:0:0:0:
376,368,22077,1,8,0:0:0:0:
264,232,22491,5,0,0:0:0:0:
144,240,22904,1,8,0:0:0:0:
24,108,23215,2,0,L|120:112,1,90,2|0,0:2|2:0,0:0:0:0:
120,120,23422,2,0,B|100:100|100:100|104:0,1,120,2|0,0:2|2:0,0:0:0:0:
144,240,23732,1,8,0:0:0:0:
480,100,24146,5,0,0:0:0:0:
396,92,24353,1,0,0:0:0:0:
288,168,24560,5,8,0:0:0:0:
432,156,24767,1,0,0:0:0:0:
248,88,24974,5,0,0:0:0:0:
264,256,25180,1,0,0:0:0:0:
56,324,25387,5,8,0:0:0:0:
80,32,25594,1,0,0:0:0:0:
452,364,25801,5,4,0:2:0:0:
256,192,25853,12,4,27456,0:0:0:0:
48,292,39870,5,0,2:0:0:0:
120,280,40284,2,4,P|88:236|72:300,1,135.000005149841,2|0,2:0|2:0,0:0:0:0:
200,336,40698,5,4,0:0:0:0:
200,336,41111,2,0,L|192:236,1,90.0000034332277,2|0,0:2|2:0,0:0:0:0:
132,108,41525,2,0,P|88:88|36:100,2,90.0000034332277,2|0|2,0:2|2:0|0:2,0:0:0:0:
220,84,42146,2,0,P|312:88|368:8,1,180.000006866455,2|2,0:2|0:2,0:0:0:0:
152,32,42767,1,2,1:2:0:0:
152,32,42974,1,2,0:2:0:0:
68,60,43180,2,0,P|56:120|64:160,1,90.0000034332277,2|0,0:2|2:0,0:0:0:0:
220,168,43594,2,0,P|232:108|224:68,1,90.0000034332277,2|2,0:2|2:0,0:0:0:0:
132,208,44008,6,0,B|212:188|224:260|316:232,2,180.000006866455,2|2|2,0:2|0:2|0:2,0:0:0:0:
48,240,45042,2,0,P|28:280|24:324,1,90.0000034332277,0|2,0:0|0:2,0:0:0:0:
248,332,45456,6,0,P|192:308|92:372,1,180.000006866455,2|0,0:2|0:0,0:0:0:0:
95,363,46077,1,2,0:2:0:0:
310,196,46284,2,0,B|276:280|360:264|328:368,1,180.000006866455,2|0,0:2|0:0,0:0:0:0:
276,104,46905,2,0,P|296:60|336:32,1,90.0000034332277,2|2,0:2|0:2,0:0:0:0:
480,16,47318,6,0,P|470:54|464:112,7,90.0000034332277
480,16,48974,5,0,0:0:0:0:
464,104,49180,1,2,0:2:0:0:
480,16,49387,1,0,0:0:0:0:
464,104,49593,1,2,0:2:0:0:
480,16,49801,1,0,0:0:0:0:
464,104,50007,1,2,0:2:0:0:
480,16,50214,1,0,0:0:0:0:
464,104,50420,1,2,0:2:0:0:
480,16,50629,5,0,0:0:0:0:
412,160,50836,1,2,0:2:0:0:
480,16,51042,1,0,0:0:0:0:
456,228,51249,1,2,0:2:0:0:
480,16,51456,1,0,0:0:0:0:
376,288,51663,1,2,0:2:0:0:
480,16,51870,1,0,0:0:0:0:
424,372,52077,1,2,0:2:0:0:
204,356,52284,5,0,0:0:0:0:
144,348,52422,1,0,0:0:0:0:
204,356,52560,1,0,0:0:0:0:
264,364,52698,1,0,0:0:0:0:
204,356,52836,1,0,0:0:0:0:
144,348,52974,1,0,0:0:0:0:
204,356,53111,1,0,0:0:0:0:
153,1,53525,2,0,B|133:9|225:361|201:357,1,360,0|0,0:0|2:0,0:0:0:0:
196,364,53939,1,0,0:0:0:0:
464,96,54146,5,0,0:0:0:0:
292,316,54560,5,0,0:0:0:0:
300,36,54974,5,0,0:0:0:0:
408,328,55387,5,0,0:0:0:0:
52,132,55801,5,0,0:0:0:0:
284,356,56215,5,0,0:0:0:0:
348,96,56629,5,0,0:0:0:0:
112,280,57042,5,0,0:0:0:0:
96,208,57146,1,0,0:0:0:0:
180,32,57456,5,0,0:0:0:0:
424,176,57870,5,0,0:0:0:0:
244,360,58284,5,0,0:0:0:0:
416,72,58698,5,0,0:0:0:0:
476,24,58801,1,0,0:0:0:0:
48,28,59111,5,0,0:0:0:0:
424,324,59525,5,0,0:0:0:0:
336,364,59939,5,0,0:0:0:0:
208,60,60353,6,0,B|212:30|212:30|248:64,1,60,8|0,0:0|2:2,0:0:0:0:
12,200,60767,5,0,0:0:0:0:
476,316,61180,5,0,0:0:0:0:
304,228,61594,5,0,0:0:0:0:
144,344,62008,5,0,0:0:0:0:
92,88,62422,5,0,0:0:0:0:
360,272,62836,5,0,0:0:0:0:
160,344,63249,5,0,0:0:0:0:
40,264,63663,5,0,0:0:0:0:
116,244,63767,1,0,0:0:0:0:
452,116,64077,5,0,0:0:0:0:
36,356,64491,5,0,0:0:0:0:
364,280,64905,5,0,0:0:0:0:
168,28,65318,5,0,0:0:0:0:
92,12,65422,1,0,0:0:0:0:
452,12,65732,5,0,0:0:0:0:
272,300,66146,5,0,0:0:0:0:
272,300,66284,1,0,0:0:0:0:
272,300,66353,2,0,B|236:236|263:183|263:183|286:201|254:230,1,160,0|0,0:0|2:0,0:0:0:0:
272,300,66560,6,0,B|234:363|174:365|174:365|179:336|220:350,1,160,2|0,0:2|2:0,0:0:0:0:
272,300,66767,6,0,B|345:300|377:351|377:351|349:362|341:319,1,160,2|0,0:2|2:0,0:0:0:0:
272,300,66974,5,8,0:0:0:0:
80,224,67111,5,0,0:0:0:0:
80,224,67180,1,0,0:0:0:0:
184,68,67318,1,0,0:0:0:0:
184,68,67387,2,0,L|-8:56,1,180.000006866455,0|8,0:0|0:0,0:0:0:0:
80,224,67801,5,0,0:0:0:0:
156,48,67939,2,0,L|16:40,1,120.000004577637,2|0,0:2|2:0,0:0:0:0:
36,48,68146,2,0,L|155:54,1,120.000004577637,2|0,0:2|2:0,0:0:0:0:
80,224,68422,1,8,0:0:0:0:
152,256,68629,1,0,0:0:0:0:
88,304,68767,1,0,0:0:0:0:
88,304,68836,5,0,0:0:0:0:
280,384,68973,1,0,0:0:0:0:
280,384,69042,2,0,L|272:196,1,180.000006866455,0|8,0:0|0:0,0:0:0:0:
88,304,69456,5,0,0:0:0:0:
344,236,69594,2,0,L|352:368,1,120.000004577637,2|0,0:2|2:0,0:0:0:0:
360,356,69801,2,0,L|352:236,1,120.000004577637,2|0,0:2|2:0,0:0:0:0:
88,304,70077,1,8,0:0:0:0:
168,332,70284,1,0,0:0:0:0:
200,252,70422,1,0,0:0:0:0:
200,252,70491,5,0,0:0:0:0:
52,92,70629,1,0,0:0:0:0:
52,92,70698,2,0,P|128:32|228:32,1,180.000006866455,0|8,0:0|0:0,0:0:0:0:
200,252,71111,5,0,0:0:0:0:
332,164,71249,2,0,P|276:108|216:100,1,120.000004577637,2|0,0:2|2:0,0:0:0:0:
244,92,71456,2,0,P|300:111|337:157,1,120.000004577637,2|0,0:2|2:0,0:0:0:0:
200,252,71732,1,8,0:0:0:0:
248,184,71939,1,0,0:0:0:0:
280,260,72077,1,0,0:0:0:0:
280,260,72146,5,0,0:0:0:0:
472,324,72284,1,0,0:0:0:0:
472,324,72353,2,0,P|488:256|444:148,1,180.000006866455,0|8,0:0|0:0,0:0:0:0:
280,260,72767,5,0,0:0:0:0:
140,332,72905,2,0,P|120:284|128:212,1,120.000004577637,2|0,0:2|2:0,0:0:0:0:
116,220,73111,2,0,P|109:279|130:334,1,120.000004577637,2|0,0:2|2:0,0:0:0:0:
216,316,73318,1,0,0:0:0:0:
216,316,73387,2,0,P|227:349|248:368,1,60.0000022888184,8|0,0:0|2:0,0:0:0:0:
192,212,73594,2,0,P|192:168|200:140,1,60.0000022888184,8|0,0:0|2:0,0:0:0:0:
320,28,73801,5,0,0:0:0:0:
300,168,73939,1,0,0:0:0:0:
300,168,74008,2,0,L|488:140,1,180.000006866455,2|8,0:2|0:0,0:0:0:0:
320,28,74422,5,0,0:0:0:0:
233,42,74560,1,0,0:0:0:0:
233,42,74629,1,0,0:2:0:0:
412,16,74767,1,0,0:0:0:0:
412,16,74836,2,0,L|233:42,1,180.000006866455,2|8,0:2|0:0,0:0:0:0:
392,152,75249,1,0,0:0:0:0:
188,224,75456,5,0,0:0:0:0:
208,364,75594,1,0,0:0:0:0:
208,364,75663,2,0,L|20:336,1,180.000006866455,2|8,0:2|0:0,0:0:0:0:
188,224,76077,5,0,0:0:0:0:
275,238,76215,1,0,0:0:0:0:
275,238,76284,1,0,0:0:0:0:
96,212,76422,1,0,0:0:0:0:
96,212,76491,2,0,L|274:238,1,180.000006866455,2|8,0:2|0:0,0:0:0:0:
480,268,76904,1,0,0:0:0:0:
244,160,77111,5,0,0:0:0:0:
408,188,77249,1,0,0:0:0:0:
408,188,77318,2,0,L|384:-4,1,180.000006866455,2|8,0:2|0:0,0:0:0:0:
264,304,77732,1,0,0:0:0:0:
244,160,77870,1,0,0:0:0:0:
244,160,77939,5,0,0:0:0:0:
60,136,78077,1,0,0:0:0:0:
59,136,78146,2,0,L|83:328,1,180.000006866455,2|8,0:2|0:0,0:0:0:0:
224,16,78560,1,0,0:0:0:0:
244,160,78698,1,0,0:0:0:0:
244,160,78767,1,0,0:0:0:0:
368,124,78974,6,0,B|420:72|408:0|408:0|420:72|496:104,1,270.000010299683,2|2,0:2|0:2,0:0:0:0:
368,264,79594,2,0,B|299:292|287:364|287:364|299:292|247:240,1,270.000010299683,2|2,0:2|0:2,0:0:0:0:
204,328,80008,6,0,B|276:324|276:324|308:356|308:356|396:352,1,180.000006866455,4|0,0:2|0:0,0:0:0:0:
380,364,80318,1,0,0:0:0:0:
144,272,80422,6,0,P|64:244|120:328,2,240,4|8|0,0:0|0:0|0:0,0:0:0:0:
420,352,81560,1,0,0:0:0:0:
416,280,81663,2,0,P|404:212|376:152,1,120,8|0,0:0|0:0,0:0:0:0:
64,80,82077,1,0,0:0:0:0:
64,80,82284,2,0,P|144:48|248:60,1,180,2|2,0:2|0:2,0:0:0:0:
300,84,82698,1,0,0:0:0:0:
4,128,82905,5,0,0:0:0:0:
64,80,83111,1,2,0:2:0:0:
176,232,83318,1,0,0:0:0:0:
235,55,83525,1,2,0:2:0:0:
300,84,83732,6,0,P|316:52|336:140,2,240,0|8|0,0:0|0:0|0:0,0:0:0:0:
48,248,84870,1,0,0:0:0:0:
20,180,84974,2,0,P|4:120|16:44,1,120,8|0,0:0|0:0,0:0:0:0:
100,304,85387,1,0,0:0:0:0:
192,20,85594,6,0,B|164:56|112:52|112:52|164:56|184:104,1,180,2|2,0:2|0:2,0:0:0:0:
348,224,86215,2,0,B|366:179|418:175|418:175|366:179|338:143,1,180,2|2,0:2|0:2,0:0:0:0:
256,340,86629,1,8,0:0:0:0:
336,348,86836,1,0,0:0:0:0:
416,332,87042,6,0,P|468:264|368:296,2,240,0|8|0,0:0|0:0|0:0,0:0:0:0:
416,60,88180,1,0,0:0:0:0:
340,76,88284,2,0,P|276:108|244:152,1,120,8|0,0:0|0:0,0:0:0:0:
184,368,88698,1,0,0:0:0:0:
184,368,88905,2,0,P|160:292|64:220,1,180,2|2,0:2|0:2,0:0:0:0:
12,208,89318,1,0,0:0:0:0:
349,263,89525,5,0,0:0:0:0:
285,307,89732,1,2,0:2:0:0:
209,311,89939,1,0,0:0:0:0:
133,287,90145,1,2,0:2:0:0:
85,227,90353,1,0,0:0:0:0:
85,227,90767,1,2,0:2:0:0:
252,72,90974,1,0,0:0:0:0:
300,132,91182,1,2,0:2:0:0:
376,156,91388,1,0,0:0:0:0:
452,152,91594,2,0,P|476:92|472:16,1,120,2|2,0:2|0:2,0:0:0:0:
340,240,92008,5,0,0:0:0:0:
496,272,92215,2,0,B|460:300|468:352|468:352|460:300|412:284,1,180,2|2,0:2|0:2,0:0:0:0:
256,56,92836,1,0,0:0:0:0:
104,76,93042,1,0,0:0:0:0:
256,56,93249,1,8,0:0:0:0:
104,76,93456,1,0,0:0:0:0:
4,312,93663,6,0,P|100:356|200:264,1,240,4|8,0:0|0:0,0:0:0:0:
472,212,94491,2,0,P|376:168|276:260,1,240,0|8,0:0|0:0,0:0:0:0:
279,243,95111,1,0,0:0:0:0:
4,312,95318,1,0,0:0:0:0:
4,312,95525,2,0,P|100:356|180:300,1,180,2|2,0:2|0:2,0:0:0:0:
172,312,95939,1,0,0:0:0:0:
224,44,96146,5,0,0:0:0:0:
148,28,96353,1,2,0:2:0:0:
76,64,96560,1,8,0:0:0:0:
40,132,96767,1,2,0:2:0:0:
48,208,96974,2,0,P|180:212|248:312,1,240,4|8,0:0|0:0,0:0:0:0:
512,328,97801,2,0,P|380:324|312:224,1,240,0|8,0:0|0:0,0:0:0:0:
317,246,98422,1,0,0:0:0:0:
48,208,98629,1,0,0:0:0:0:
48,208,98836,2,0,P|180:212|236:284,1,180,2|2,0:2|0:2,0:0:0:0:
216,252,99249,1,0,0:0:0:0:
400,40,99456,5,0,0:0:0:0:
476,32,99663,1,2,0:2:0:0:
400,48,99870,1,8,0:0:0:0:
332,88,100077,1,0,0:0:0:0:
288,152,100284,2,0,P|272:232|336:380,1,240,4|8,0:0|0:0,0:0:0:0:
88,256,101111,2,0,P|104:176|40:28,1,240,0|8,0:0|0:0,0:0:0:0:
45,33,101732,1,0,0:0:0:0:
288,152,101939,1,0,0:0:0:0:
288,152,102146,2,0,P|272:232|324:356,1,180,2|2,0:2|0:2,0:0:0:0:
308,332,102560,1,0,0:0:0:0:
476,208,102767,5,0,0:0:0:0:
392,216,102974,1,2,0:2:0:0:
192,236,103180,1,8,0:0:0:0:
108,244,103387,1,2,0:2:0:0:
156,308,103594,1,0,0:0:0:0:
156,308,104008,1,8,0:0:0:0:
288,360,104215,5,0,0:0:0:0:
292,276,104422,1,2,0:2:0:0:
304,96,104629,1,0,0:0:0:0:
308,12,104836,1,8,0:0:0:0:
384,56,105042,1,2,0:2:0:0:
228,132,105249,5,0,0:0:0:0:
88,104,105456,2,0,B|48:88|36:36|36:36|48:88|16:128,1,180,2|2,0:2|0:2,0:0:0:0:
156,288,106077,2,0,B|196:272|208:220|208:220|196:272|228:312,1,180
16,234,106491,6,0,B|-22:266|55:326|133:321|110:379,1,180,4|0,0:2|2:0,0:0:0:0:
107,375,106905,6,0,P|52:375|-2:379,1,107.999996704102
0,221,107525,2,0,P|55:221|109:217,1,107.999996704102
158,168,108146,1,2,0:2:0:0:
336,40,108560,6,0,L|392:42,1,53.9999983520508,0|0,0:0|2:0,0:0:0:0:
407,29,108870,2,0,P|407:68|415:117,1,80.9999975280763
465,156,109387,1,2,0:2:0:0:
329,285,109594,2,0,P|326:229|319:174,1,107.999996704102,0|2,0:0|0:2,0:0:0:0:
277,121,110215,6,0,L|213:115,1,53.9999983520508
50,277,110629,1,2,0:2:0:0:
127,264,110836,2,0,L|238:274,1,107.999996704102
158,85,111456,1,2,0:2:0:0:
6,288,111870,6,0,L|65:286,1,53.9999983520508,0|0,0:0|2:0,0:0:0:0:
68,272,112180,2,0,P|63:316|61:368,1,80.9999975280763
211,368,112698,1,2,0:2:0:0:
211,368,112905,2,0,L|214:310,1,53.9999983520508
305,156,113318,1,2,0:2:0:0:
305,156,113525,6,0,P|373:154|421:150,1,107.999996704102
499,320,114146,2,0,P|431:322|383:326,1,107.999996704102
48,341,114767,1,2,0:2:0:0:
48,341,115180,6,0,L|45:283,1,53.9999983520508,0|0,0:0|2:0,0:0:0:0:
38,278,115491,2,0,P|69:288|115:318,1,80.9999975280763
278,193,116008,1,2,0:2:0:0:
312,254,116215,2,0,L|303:367,1,107.999996704102
143,247,116836,6,0,L|137:186,1,53.9999983520508
38,39,117249,1,2,0:2:0:0:
213,64,117456,2,0,L|83:74,1,107.999996704102
47,112,118077,1,2,0:2:0:0:
296,130,118387,1,0,0:0:0:0:
296,130,118491,6,0,L|362:137,1,53.9999983520508,0|0,0:0|2:0,0:0:0:0:
362,146,118801,2,0,P|358:117|359:60,1,80.9999975280763
389,230,119318,1,2,0:2:0:0:
389,230,119525,2,0,P|389:267|384:296,1,53.9999983520508,0|8,0:0|0:0,0:0:0:0:
57,347,120146,5,4,0:0:0:0:
62,310,126767,5,2,0:0:0:0:
62,310,127180,1,2,0:0:0:0:
62,310,127594,2,0,L|150:314,2,80.9999975280763,2|2|2,0:0|0:0|0:0,0:0:0:0:
464,300,128629,5,2,0:0:0:0:
360,304,128939,1,2,0:0:0:0:
464,300,129249,2,2,L|472:244,1,53.9999983520508
471,246,129870,1,2,0:0:0:0:
452,372,130077,5,2,0:0:0:0:
452,372,130491,1,2,0:0:0:0:
452,372,130905,2,2,L|360:376,2,80.9999975280763
216,224,131939,2,0,L|124:228,1,80.9999975280763,2|2,0:0|0:0,0:0:0:0:
88,132,132560,2,0,L|-4:136,2,80.9999975280763,2|2|2,0:0|0:0|0:0,0:0:0:0:
256,192,133387,5,0,0:0:0:0:
456,72,133594,1,0,0:0:0:0:
256,192,133801,5,0,0:0:0:0:
376,272,134008,1,0,0:0:0:0:
256,192,134215,5,0,0:0:0:0:
496,356,134422,1,0,0:0:0:0:
256,192,134629,5,0,0:0:0:0:
180,168,134836,1,0,0:0:0:0:
256,192,135042,5,0,0:0:0:0:
284,52,135249,1,0,0:0:0:0:
256,192,135456,5,0,0:0:0:0:
228,328,135663,1,0,0:0:0:0:
256,192,135870,5,0,0:0:0:0:
464,240,136077,1,0,0:0:0:0:
256,192,136284,5,0,0:0:0:0:
104,116,136491,1,0,0:0:0:0:
156,52,136594,1,0,0:0:0:0:
256,192,136698,5,0,0:0:0:0:
420,128,136905,1,0,0:0:0:0:
256,192,137111,5,0,0:0:0:0:
116,292,137318,1,0,0:0:0:0:
256,192,137525,5,0,0:0:0:0:
308,316,137732,1,0,0:0:0:0:
256,192,137939,5,0,0:0:0:0:
176,344,138146,1,0,0:0:0:0:
200,268,138249,1,0,0:0:0:0:
256,192,138353,5,0,0:0:0:0:
480,248,138560,1,0,0:0:0:0:
256,192,138767,5,0,0:0:0:0:
44,240,138974,1,0,0:0:0:0:
256,192,139180,5,0,0:0:0:0:
200,340,139387,1,0,0:0:0:0:
256,192,139594,5,0,0:0:0:0:
40,24,139801,1,0,0:0:0:0:
256,192,140008,5,0,0:0:0:0:
428,84,140146,1,0,0:0:0:0:
428,84,140215,1,0,0:0:0:0:
256,192,140353,5,0,0:0:0:0:
256,192,140422,1,0,0:0:0:0:
444,320,140560,1,0,0:0:0:0:
444,320,140629,1,0,0:0:0:0:
256,192,140767,5,0,0:0:0:0:
256,192,140836,1,0,0:0:0:0:
56,244,140974,1,0,0:0:0:0:
56,244,141042,1,0,0:0:0:0:
256,192,141180,5,0,0:0:0:0:
256,192,141249,1,0,0:0:0:0:
184,328,141387,1,0,0:0:0:0:
184,328,141456,1,0,0:0:0:0:
256,192,141594,5,0,0:0:0:0:
256,192,141663,1,0,0:0:0:0:
204,40,141801,1,0,0:0:0:0:
204,40,141870,1,0,0:0:0:0:
256,192,142008,5,0,0:0:0:0:
256,192,142077,1,0,0:0:0:0:
172,264,142215,1,0,0:0:0:0:
172,264,142284,1,0,0:0:0:0:
256,192,142422,5,0,0:0:0:0:
256,192,142491,1,0,0:0:0:0:
460,208,142629,1,0,0:0:0:0:
460,208,142698,1,0,0:0:0:0:
256,192,142836,5,0,0:0:0:0:
256,192,142905,1,0,0:0:0:0:
336,344,143042,1,0,0:0:0:0:
336,344,143111,1,0,0:0:0:0:
256,192,143249,5,0,0:0:0:0:
256,192,143318,1,0,0:0:0:0:
352,120,143456,1,0,0:0:0:0:
352,120,143525,1,0,0:0:0:0:
256,192,143663,5,0,0:0:0:0:
256,192,143732,1,0,0:0:0:0:
92,176,143870,1,0,0:0:0:0:
92,176,143939,1,0,0:0:0:0:
256,192,144077,5,0,0:0:0:0:
256,192,144146,1,0,0:0:0:0:
388,296,144284,1,0,0:0:0:0:
388,296,144353,1,0,0:0:0:0:
256,192,144491,5,0,0:0:0:0:
256,192,144560,1,0,0:0:0:0:
496,364,144698,1,0,0:0:0:0:
496,364,144767,1,0,0:0:0:0:
256,192,144905,5,0,0:0:0:0:
256,192,144974,2,0,L|260:220,11,17.9999994506836
260,228,145801,1,0,0:0:0:0:
252,264,145939,1,0,0:0:0:0:
244,300,146077,1,0,0:0:0:0:
60,284,146215,5,0,0:0:0:0:
252,264,146353,1,0,0:0:0:0:
444,244,146491,1,0,0:0:0:0:
28,152,146629,6,0,B|139:141|139:141|159:35|159:35|238:27|238:27|280:90|280:90|209:180|209:180|255:248|255:248|333:240|333:240|353:191|353:191|415:185,1,755.999976928712,0|8,0:0|0:0,0:0:0:0:
448,88,149732,1,0,0:0:0:0:
388,28,149836,1,0,0:0:0:0:
480,216,149939,5,4,0:0:0:0:
175,294,150146,6,0,L|163:233,1,60
431,288,150560,6,0,L|376:252,1,60
50,53,150974,6,0,L|308:99,1,240
261,324,151387,5,0,0:0:0:0:
217,380,151491,1,0,0:0:0:0:
194,99,151801,6,0,L|390:81,1,180.000006866455
439,129,152215,6,0,L|435:166,1,30
244,187,152629,6,0,L|255:178,1,12.5999996154785
512,355,153042,6,0,L|513:368,1,12.5999996154785
39,105,153456,6,0,L|47:132,1,27.5999990734864
464,63,153870,6,0,L|383:298,1,240
262,330,154284,6,0,L|260:318,1,12
162,202,154698,6,0,L|94:210,1,60
121,384,155111,6,0,L|107:165,1,157.200002878418
301,97,155525,6,0,L|408:134,1,91.1999988867188
177,318,155939,6,0,L|20:135,1,238.800005921173
0,263,156353,5,0,0:0:0:0:
71,292,156456,1,0,0:0:0:0:
357,32,156767,6,0,L|333:107,1,57.60000140625
435,328,157180,6,0,L|127:343,1,300
339,350,157594,6,0,L|340:363,1,12
45,162,158008,5,0,0:0:0:0:
16,84,158111,1,0,0:0:0:0:
449,219,158422,6,0,L|458:243,1,19.2
163,229,158836,6,0,L|38:204,1,105.600003222656
50,200,159042,6,0,B|84:226|60:246|60:246|31:269|66:290,1,105.600003222656,0|0,0:0|2:0,0:0:0:0:
172,240,159249,6,0,B|206:266|182:286|182:286|153:309|188:330,1,105.600003222656,0|0,0:0|2:0,0:0:0:0:
288,160,159456,6,0,B|322:186|298:206|298:206|269:229|304:250,1,105.600003222656,2|0,0:2|2:0,0:0:0:0:
410,200,159663,6,0,B|444:226|420:246|420:246|391:269|426:290,1,105.600003222656,2|0,0:2|2:0,0:0:0:0:
502,112,159870,5,4,0:2:0:0:
334,41,160008,1,0,0:0:0:0:
334,41,160077,2,0,B|424:67|424:67|509:-2,1,180.000006866455,0|8,0:0|0:0,0:0:0:0:
256,92,160491,6,0,L|138:55,1,120.000004577637,0|2,0:0|0:2,0:0:0:0:
138,43,160698,2,0,L|20:6,1,120.000004577637,0|2,0:0|0:2,0:0:0:0:
14,15,160905,1,0,0:0:0:0:
252,4,161111,1,8,0:0:0:0:
20,104,161318,1,0,0:0:0:0:
172,348,161525,5,0,0:0:0:0:
160,236,161663,1,0,0:0:0:0:
160,236,161732,2,0,B|100:292|100:292|-24:268,1,180.000006866455,2|8,0:2|0:0,0:0:0:0:
276,328,162146,6,0,L|396:352,1,120.000004577637,0|2,0:0|0:2,0:0:0:0:
384,340,162353,2,0,L|504:364,1,120.000004577637,0|2,0:0|0:2,0:0:0:0:
492,352,162560,1,0,0:0:0:0:
248,237,162767,1,8,0:0:0:0:
476,268,162974,1,0,0:0:0:0:
459,180,163111,1,0,0:0:0:0:
459,180,163180,6,0,B|441:110|441:110|494:37,1,120.000004577637
479,58,163387,2,0,B|419:76|419:76|352:53|352:53|337:2,1,180.000006866455,2|8,0:2|0:0,0:0:0:0:
183,146,163801,1,0,0:0:0:0:
49,113,163939,1,2,0:2:0:0:
49,113,164008,6,0,B|67:183|67:183|14:256,1,120.000004577637,0|2,0:0|0:2,0:0:0:0:
29,235,164215,2,0,B|81:219|81:219|151:243|151:243|171:291,2,180.000006866455,0|8|0,0:0|0:0|0:0,0:0:0:0:
341,332,164767,1,2,0:2:0:0:
341,332,164836,1,0,0:0:0:0:
69,315,164974,5,2,0:2:0:0:
69,315,165042,2,0,B|127:310|127:310|177:336|177:336|242:331,1,180.000006866455,0|8,0:0|0:0,0:0:0:0:
351,99,165456,5,0,0:0:0:0:
199,247,165594,1,2,0:2:0:0:
199,247,165663,1,0,0:0:0:0:
471,230,165801,1,2,0:2:0:0:
471,230,165869,2,0,B|412:225|412:225|362:251|362:251|297:246,2,180.000006866455,0|8|8,0:0|0:0|0:0,0:0:0:0:
28,107,166491,5,0,0:0:0:0:
189,66,166629,1,0,0:0:0:0:
189,66,166698,2,0,B|109:111|109:111|193:169,1,180.000006866455,2|8,0:2|0:0,0:0:0:0:
381,162,167111,2,0,B|433:132|433:132|378:94,1,120.000004577637,0|2,0:0|0:2,0:0:0:0:
248,89,167318,2,0,B|195:118|195:118|250:156,1,120.000004577637,0|2,0:0|0:2,0:0:0:0:
440,185,167525,2,0,B|520:140|520:140|436:82,2,180.000006866455,0|8|0,0:0|0:0|0:0,0:0:0:0:
96,280,168146,5,0,0:0:0:0:
425,355,168284,1,2,0:2:0:0:
425,355,168353,2,0,B|505:310|505:310|421:252,1,180.000006866455,0|8,0:0|0:0,0:0:0:0:
233,259,168766,2,0,B|180:288|180:288|235:326,1,120.000004577637,0|2,0:0|0:2,0:0:0:0:
366,332,168973,2,0,B|418:302|418:302|363:264,1,120.000004577637,0|2,0:0|0:2,0:0:0:0:
174,236,169180,2,0,B|94:281|94:281|178:339,2,180.000006866455,0|8|0,0:0|0:0|0:0,0:0:0:0:
462,147,169732,5,2,0:2:0:0:
462,147,169801,2,0,L|477:19,1,120.000004577637,0|2,0:0|0:2,0:0:0:0:
467,30,170008,2,0,L|446:218,1,180.000006866455,0|8,0:0|0:0,0:0:0:0:
244,336,170422,1,0,0:0:0:0:
260,204,170560,2,0,L|273:82,1,120.000004577637,2|0,0:2|2:0,0:0:0:0:
266,80,170767,2,0,L|253:199,1,120.000004577637,2|0,0:2|2:0,0:0:0:0:
72,380,171042,2,0,B|79:319|79:319|60:253|60:253|65:196,1,180.000006866455,8|0,0:0|0:0,0:0:0:0:
74,124,171387,1,0,0:0:0:0:
74,124,171456,1,0,0:0:0:0:
89,295,171663,6,0,B|159:285|182:377|182:377|159:285|223:257,1,270.000010299683,2|2,0:2|0:2,0:0:0:0:
310,109,172284,2,0,B|380:119|403:27|403:27|380:119|444:147,1,270.000010299683,2|2,0:2|0:2,0:0:0:0:
124,73,172698,6,0,B|109:106|367:116|383:208,1,270.000010299683,4|0,0:2|2:0,0:0:0:0:
476,311,173111,6,0,P|410:236|312:227,1,203.400000620728,4|0,0:0|2:0,2:0:0:0:
250,272,173525,2,0,P|354:230|436:261,1,203.400000620728,8|0,0:0|2:0,0:0:0:0:
474,326,173939,2,0,P|408:251|328:243,1,135.600000413818,0|0,0:0|2:0,2:0:0:0:
348,376,174249,1,0,0:0:0:0:
348,376,174353,2,0,P|339:331|378:373,1,135.600000413818,8|0,0:0|0:0,0:0:0:0:
224,318,174767,5,0,0:0:0:0:
375,150,174974,2,0,B|391:108|450:89|450:89|391:108|346:65,1,203.400000620728,2|2,0:2|0:2,0:0:0:0:
413,13,175387,1,0,0:0:0:0:
177,142,175594,2,0,B|151:166|112:153|112:153|151:166|162:194,1,135.600000413818,0|2,0:0|0:2,0:0:0:0:
67,340,175905,1,0,0:0:0:0:
109,280,176008,2,0,B|83:255|44:268|44:268|83:255|94:227,1,135.600000413818,0|2,0:0|0:2,0:0:0:0:
308,130,176422,6,0,P|254:57|125:37,1,203.400000620728,0|0,0:0|2:0,0:0:0:0:
72,68,176836,2,0,P|184:38|261:70,1,203.400000620728,8|0,0:0|2:0,0:0:0:0:
304,144,177249,2,0,P|250:71|150:53,1,135.600000413818,0|0,0:0|2:0,0:0:0:0:
109,183,177560,1,0,0:0:0:0:
109,183,177663,2,0,P|126:141|214:160,1,135.600000413818,8|0,0:0|0:0,0:0:0:0:
360,357,178077,5,0,0:0:0:0:
439,194,178284,2,0,B|399:157|413:100|413:100|401:159|338:172,1,203.400000620728,2|2,0:2|0:2,0:0:0:0:
486,129,178698,1,0,0:0:0:0:
214,276,178905,2,0,B|251:283|258:322|258:322|249:284|275:260,1,135.600000413818
234,207,179215,1,0,0:0:0:0:
125,329,179318,2,0,B|151:353|141:390|141:390|149:351|186:344,1,135.600000413818,8|0,0:0|0:0,0:0:0:0:
3,330,179732,6,0,P|92:287|132:193,1,203.400000620728,0|0,0:0|2:0,0:0:0:0:
125,126,180146,2,0,P|136:224|80:307,1,203.400000620728,8|0,0:0|2:0,0:0:0:0:
20,339,180560,2,0,P|109:296|144:210,1,135.600000413818
174,55,180870,1,0,0:0:0:0:
174,55,180974,2,0,P|219:104|282:126,1,135.600000413818,8|0,0:0|0:0,0:0:0:0:
511,94,181387,5,0,0:0:0:0:
375,157,181594,2,0,B|345:118|284:126|284:126|345:120|366:69,1,203.400000620728,2|2,0:2|0:2,0:0:0:0:
432,105,182008,1,0,0:0:0:0:
485,297,182215,5,0,0:0:0:0:
485,297,182422,1,2,0:2:0:0:
485,297,182629,1,8,0:0:0:0:
485,297,182836,1,2,0:2:0:0:
399,323,183042,1,0,0:0:0:0:
399,323,183456,1,8,0:0:0:0:
285,155,183663,5,2,0:2:0:0:
285,155,183870,1,2,0:2:0:0:
285,155,184077,1,2,0:2:0:0:
285,155,184284,2,0,L|146:135,1,135.600000413818,8|0,0:0|0:0,0:0:0:0:
29,336,184698,5,0,0:0:0:0:
240,354,184905,2,0,B|195:320|200:265|200:265|195:320|142:348,1,203.400000620728,2|2,0:2|0:2,0:0:0:0:
358,363,185525,1,0,0:0:0:0:
29,336,185732,1,0,0:0:0:0:
358,363,185939,1,8,0:0:0:0:
29,336,186146,1,0,0:0:0:0:
259,269,186353,6,0,P|312:194|282:82,1,203.400000620728,0|0,0:0|2:0,0:0:0:0:
289,90,186767,2,0,P|211:41|100:69,1,203.400000620728,8|0,0:0|2:0,0:0:0:0:
107,63,187180,2,0,P|56:137|76:237,1,135.600000413818,0|0,0:0|2:0,0:0:0:0:
185,286,187491,1,0,0:0:0:0:
259,269,187594,2,0,P|310:195|290:95,1,135.600000413818,8|0,0:0|0:0,0:0:0:0:
356,364,188008,5,0,0:0:0:0:
490,194,188215,2,0,B|443:181|430:117|430:117|449:180|412:218,1,203.400000620728,2|2,0:2|0:2,0:0:0:0:
474,270,188629,1,0,0:0:0:0:
191,80,188836,2,0,B|166:101|173:141|173:141|166:101|133:89,1,135.600000413818,0|2,0:0|0:2,0:0:0:0:
16,144,189146,1,0,0:0:0:0:
56,208,189249,2,0,B|89:196|96:156|96:156|89:196|114:217,1,135.600000413818,0|2,0:0|0:2,0:0:0:0:
398,96,189663,6,0,P|451:171|421:283,1,203.400000620728,0|0,0:0|2:0,0:0:0:0:
428,275,190077,2,0,P|350:324|239:296,1,203.400000620728,8|0,0:0|2:0,0:0:0:0:
246,302,190490,2,0,P|195:228|215:128,1,135.600000413818,0|0,0:0|2:0,0:0:0:0:
324,79,190801,1,0,0:0:0:0:
398,96,190904,2,0,P|449:170|429:270,1,135.600000413818,8|0,0:0|0:0,0:0:0:0:
141,345,191215,5,0,0:0:0:0:
54,359,191318,1,0,0:0:0:0:
27,169,191525,2,0,B|67:136|60:77|60:77|67:136|123:159,1,203.400000620728,2|2,0:2|0:2,0:0:0:0:
79,221,191939,1,0,0:0:0:0:
300,34,192146,2,0,B|326:54|319:94|319:94|326:54|362:46,1,135.600000413818
512,146,192456,1,0,0:0:0:0:
394,109,192560,2,0,B|430:117|437:157|437:157|430:117|456:97,1,135.600000413818,8|0,0:0|0:0,0:0:0:0:
503,301,192974,6,0,P|469:221|339:215,1,203.400000620728,2|0,0:2|2:0,0:0:0:0:
362,201,193387,2,0,B|241:234|271:156|163:181,1,203.400000620728,8|0,0:0|2:0,0:0:0:0:
167,180,193801,2,0,P|70:168|40:130,1,135.600000413818,2|0,0:2|2:0,0:0:0:0:
34,63,194111,1,0,0:0:0:0:
93,6,194215,2,0,P|189:17|220:56,1,135.600000413818,8|0,0:0|0:0,0:0:0:0:
298,315,194629,5,0,0:0:0:0:
109,379,194836,2,0,B|70:347|14:356|14:356|70:347|99:300,1,203.400000620728,2|2,0:2|0:2,0:0:0:0:
183,331,195249,1,0,0:0:0:0:
446,336,195456,5,0,0:0:0:0:
462,255,195663,1,2,0:2:0:0:
433,182,195870,1,8,0:0:0:0:
452,108,196077,1,2,0:2:0:0:
429,31,196284,1,0,0:0:0:0:
429,31,196698,1,8,0:0:0:0:
66,48,196905,5,0,0:0:0:0:
50,129,197112,1,2,0:2:0:0:
79,202,197319,1,0,0:0:0:0:
60,276,197525,2,0,B|112:283|112:283|81:371,1,135.600000413818,8|0,0:0|0:0,0:0:0:0:
257,190,197939,5,0,0:0:0:0:
326,43,198146,2,0,P|233:31|126:88,1,203.400000620728,2|2,0:2|0:2,0:0:0:0:
224,335,198767,2,0,P|282:342|349:306,1,135.600000413818
346,216,199077,1,0,0:0:0:0:
339,296,199180,2,0,P|385:324|453:323,1,120,8|8,0:0|2:2,0:0:0:0:
496,44,199594,5,4,0:0:0:0:
