osu file format v14

[General]
AudioFilename: audio.mp3
AudioLeadIn: 0
PreviewTime: 132703
Countdown: 0
SampleSet: Soft
StackLeniency: 0.4
Mode: 0
LetterboxInBreaks: 0
WidescreenStoryboard: 1

[Editor]
Bookmarks: 110634,276152,287186,298221
DistanceSpacing: 1.6
BeatDivisor: 8
GridSize: 4
TimelineZoom: 1.8

[Metadata]
Title:Moonbound feat. Yukacco (USAO Remix)
TitleUnicode:Moonbound feat. Yukacco (USAO Remix)
Artist:aran
ArtistUnicode:aran
Creator:z1085684963
Version:PENDULUMs
Source:
Tags:electro dnb drum and bass alpha unitone グルーヴコースター3EX groove coaster DREAM PARTY TAITO 1112deng Suzuki_1112 Otosaka-Yu
BeatmapID:2064636
BeatmapSetID:986982

[Difficulty]
HPDrainRate:6.5
CircleSize:4.2
OverallDifficulty:8.6
ApproachRate:9.3
SliderMultiplier:1.92
SliderTickRate:1

[Events]
//Background and Video events
0,0,"{JI]~98O(RD1IE]NLEDBGFD.jpg",0,0
//Break Periods
//Storyboard Layer 0 (Background)
//Storyboard Layer 1 (Fail)
//Storyboard Layer 2 (Pass)
//Storyboard Layer 3 (Foreground)
//Storyboard Layer 4 (Overlay)
//Storyboard Sound Samples

[TimingPoints]
290,344.827586206897,4,2,2,20,1,0
290,-133.333333333333,4,2,2,20,0,0
1669,-133.333333333333,4,2,2,22,0,0
4427,-133.333333333333,4,2,2,25,0,0
5807,-133.333333333333,4,2,2,30,0,0
6841,-133.333333333333,4,2,2,33,0,0
8221,-133.333333333333,4,2,2,38,0,0
8565,-133.333333333333,4,2,2,40,0,0
10290,-133.333333333333,4,2,2,45,0,0
11324,-83.3333333333333,4,2,2,65,0,0
32014,-83.3333333333333,4,2,2,55,0,0
33393,-83.3333333333333,4,2,2,65,0,0
54083,-83.3333333333333,4,2,2,55,0,0
55462,-200,4,2,2,40,0,0
77531,-200,4,2,2,20,0,0
79945,-200,4,2,2,22,0,0
81324,-200,4,2,2,26,0,0
82358,-200,4,2,2,30,0,0
83048,-133.333333333333,4,2,2,35,0,0
85117,-133.333333333333,4,2,2,38,0,0
86841,-133.333333333333,4,2,2,40,0,0
88565,-100,4,2,2,50,0,0
99600,-100,4,2,2,55,0,0
105117,-100,4,2,2,60,0,0
107876,-100,4,2,2,65,0,0
109945,-100,4,2,2,70,0,0
110634,-66.6666666666667,4,2,2,80,0,1
111324,-100,4,2,2,80,0,0
111669,-66.6666666666667,4,2,2,80,0,0
111841,-83.3333333333333,4,2,2,80,0,0
112703,-100,4,2,2,80,0,0
113393,-76.9230769230769,4,2,2,80,0,1
114083,-100,4,2,2,80,0,0
114427,-66.6666666666667,4,2,2,80,0,0
114600,-100,4,2,2,80,0,0
114945,-83.3333333333333,4,2,2,80,0,0
115290,-66.6666666666667,4,2,2,80,0,0
115462,-100,4,2,2,80,0,0
116152,-66.6666666666667,4,2,2,80,0,1
116841,-100,4,2,2,80,0,0
117186,-66.6666666666667,4,2,2,80,0,0
117358,-76.9230769230769,4,2,2,80,0,0
117876,-62.5,4,2,2,80,0,0
118048,-76.9230769230769,4,2,2,80,0,0
118221,-100,4,2,2,80,0,0
118910,-76.9230769230769,4,2,2,80,0,1
119600,-100,4,2,2,80,0,0
120117,-66.6666666666667,4,2,2,80,0,0
120290,-100,4,2,2,80,0,0
121669,-50,4,2,2,80,0,1
122358,-50,4,2,2,80,0,0
122703,-66.6666666666667,4,2,2,80,0,0
123048,-100,4,2,2,80,0,0
123393,-76.9230769230769,4,2,2,80,0,0
123738,-66.6666666666667,4,2,2,80,0,0
123910,-55.5555555555556,4,2,2,80,0,0
124083,-50,4,2,2,80,0,0
124427,-66.6666666666667,4,2,2,80,0,1
125117,-55.5555555555556,4,2,2,80,0,0
125462,-100,4,2,2,80,0,0
126496,-83.3333333333333,4,2,2,80,0,0
126669,-66.6666666666667,4,2,2,80,0,0
126841,-76.9230769230769,4,2,2,80,0,0
127186,-66.6666666666667,4,2,2,80,0,1
127876,-100,4,2,2,80,0,0
128221,-50,4,2,2,80,0,0
128565,-66.6666666666667,4,2,2,80,0,0
128738,-100,4,2,2,80,0,0
128910,-76.9230769230769,4,2,2,80,0,0
129255,-66.6666666666667,4,2,2,80,0,0
129600,-100,4,2,2,80,0,0
129945,-76.9230769230769,4,2,2,80,0,1
130634,-50,4,2,2,80,0,0
130979,-76.9230769230769,4,2,2,80,0,0
131324,-100,4,2,2,80,0,0
132703,-100,4,2,2,80,0,1
154083,-133.333333333333,4,2,2,80,0,1
154772,-100,4,2,2,80,0,0
159772,-83.3333333333333,4,2,2,80,0,0
159945,-71.4285714285714,4,2,2,80,0,0
160117,-100,4,2,2,80,0,0
170807,-83.3333333333333,4,2,2,80,0,0
170979,-71.4285714285714,4,2,2,80,0,0
171152,-100,4,2,2,80,0,0
175462,-250,4,2,2,70,0,0
175807,-250,4,2,2,60,0,0
176841,-250,4,2,2,40,0,0
179600,-166.666666666667,4,2,2,40,0,0
181152,-166.666666666667,4,2,2,45,0,0
182358,-125,4,2,2,45,0,0
182531,-125,4,2,2,50,0,0
185117,-125,4,2,2,55,0,0
187876,-100,4,2,2,57,0,0
196841,-100,4,2,2,53,0,0
197186,-125,4,2,2,44,0,0
197876,-125,4,2,2,42,0,0
198221,-166.666666666667,4,2,2,40,0,0
198565,-250,4,2,2,40,0,0
198910,-250,4,2,2,20,0,0
200634,-250,4,2,2,22,0,0
201669,-200,4,2,2,27,0,0
203048,-200,4,2,2,30,0,0
204427,-166.666666666667,4,2,2,30,0,0
204772,-166.666666666667,4,2,2,37,0,0
205807,-166.666666666667,4,2,2,40,0,0
207186,-142.857142857143,4,2,2,42,0,0
208565,-125,4,2,2,42,0,0
209255,-111.111111111111,4,2,2,42,0,0
209945,-100,4,2,2,50,0,0
220979,-100,4,2,2,55,0,0
226496,-100,4,2,2,60,0,0
229255,-100,4,2,2,65,0,0
231324,-100,4,2,2,70,0,0
232014,-55.5555555555556,4,2,2,80,0,1
232703,-100,4,2,2,80,0,1
233048,-66.6666666666667,4,2,2,80,0,1
234772,-58.8235294117647,4,2,2,80,0,1
235462,-71.4285714285714,4,2,2,80,0,1
237186,-52.6315789473684,4,2,2,80,0,1
237531,-55.5555555555556,4,2,2,80,0,1
238221,-100,4,2,2,80,0,1
238565,-66.6666666666667,4,2,2,80,0,1
240290,-58.8235294117647,4,2,2,80,0,1
240979,-71.4285714285714,4,2,2,80,0,1
241669,-83.3333333333333,4,2,2,80,0,0
243048,-55.5555555555556,4,2,2,80,0,1
243738,-66.6666666666667,4,2,2,80,0,1
245807,-58.8235294117647,4,2,2,80,0,1
246496,-71.4285714285714,4,2,2,80,0,1
247186,-50,4,2,2,80,0,0
248221,-37.4531835205993,4,2,2,80,0,0
248565,-55.5555555555556,4,2,2,80,0,1
249255,-66.6666666666667,4,2,2,80,0,1
251324,-58.8235294117647,4,2,2,80,0,1
252014,-71.4285714285714,4,2,2,80,0,1
252703,-66.6666666666667,4,2,2,80,0,0
253221,-76.9230769230769,4,2,2,80,0,0
253738,-90.9090909090909,4,2,2,80,0,0
254083,-76.9230769230769,4,2,2,80,0,1
264255,-133.333333333333,4,2,2,80,0,0
265117,-76.9230769230769,4,2,2,80,0,1
274772,-100,4,2,2,60,0,0
275117,-125,4,2,2,50,0,0
275462,-166.666666666667,4,2,2,40,0,0
275807,-250,4,2,2,30,0,0
276152,-100,4,2,2,65,0,0
298307,-100,4,2,2,5,0,0

[Colours]
Combo1 : 218,92,152
Combo2 : 168,0,0
Combo3 : 253,112,108
Combo4 : 183,111,255
Combo5 : 255,181,255
Combo6 : 255,72,72

[HitObjects]
308,256,290,6,0,L|232:264,1,72.0000027465821,4|0,3:2|0:0,0:0:0:0:
152,272,634,1,2,0:1:0:0:
192,164,807,6,0,L|188:212,1,36.0000013732911,0|0,0:0|0:0,0:0:0:0:
204,372,979,1,0,0:0:0:0:
202,354,1065,1,0,0:0:0:0:
201,336,1151,1,0,3:0:0:0:
80,312,1324,2,0,B|72:276|72:276|80:228,1,72.0000027465821,2|0,0:1|0:0,0:0:0:0:
264,119,1669,6,0,L|272:195,1,72.0000027465821,0|0,3:0|0:0,0:0:0:0:
252,39,2013,1,2,0:1:0:0:
380,336,2186,6,0,L|384:284,1,36.0000013732911,0|0,0:0|0:0,0:0:0:0:
236,263,2358,1,0,0:0:0:0:
270,272,2444,1,0,0:0:0:0:
305,265,2530,1,0,3:0:0:0:
400,59,2703,6,0,B|364:71|364:71|320:67,1,72.0000027465821,2|0,0:1|0:0,0:0:0:0:
376,216,3048,6,0,L|472:220,1,72.0000027465821,0|0,3:0|0:0,0:0:0:0:
472,372,3393,1,2,0:1:0:0:
392,308,3565,6,0,L|452:300,1,36.0000013732911,0|0,0:0|0:0,0:0:0:0:
408,124,3738,1,0,0:0:0:0:
425,128,3824,1,0,0:0:0:0:
442,132,3910,1,0,3:0:0:0:
492,64,4083,5,2,0:1:0:0:
512,224,4255,2,0,L|456:220,2,36.0000013732911,0|0|0,0:0|0:0|3:0,0:0:0:0:
320,84,4600,6,0,P|324:132|324:180,1,72.0000027465821,0|2,0:0|0:1,0:0:0:0:
396,36,4945,1,0,0:0:0:0:
232,132,5117,1,0,0:0:0:0:
232,132,5203,1,0,0:0:0:0:
232,132,5290,1,0,3:0:0:0:
376,224,5462,1,2,0:1:0:0:
256,284,5634,5,0,0:0:0:0:
260,300,5721,1,0,0:0:0:0:
264,316,5807,2,0,P|312:332|352:328,1,72.0000027465821,2|2,3:2|0:0,0:0:0:0:
128,376,6152,2,0,P|163:373|196:360,1,72.0000027465821,2|2,0:1|0:0,0:0:0:0:
220,208,6410,5,0,0:0:0:0:
203,219,6496,2,0,P|183:249|176:284,1,72.0000027465821,2|2,0:0|3:2,0:0:0:0:
24,288,6841,2,0,P|31:322|51:352,1,72.0000027465821,2|2,0:1|0:2,0:0:0:0:
84,228,7186,6,0,L|72:132,1,72.0000027465821,2|2,3:2|0:0,0:0:0:0:
304,188,7531,2,0,L|245:110,1,72.0000027465821,2|2,0:1|0:0,0:0:0:0:
260,130,7790,1,0,0:0:0:0:
260,130,7876,1,2,0:0:0:0:
474,43,8048,1,2,3:2:0:0:
474,43,8221,2,0,L|384:5,1,72.0000027465821,2|2,0:1|0:2,0:0:0:0:
340,112,8565,6,0,P|332:56|340:12,1,72.0000027465821,2|2,3:2|0:0,0:0:0:0:
491,195,8910,2,0,P|498:159|497:123,1,72.0000027465821,2|2,0:1|0:0,0:0:0:0:
332,208,9169,5,0,0:0:0:0:
348,196,9255,2,0,P|396:180|436:184,1,72.0000027465821,2|0,0:0|0:0,0:0:0:0:
312,332,9600,2,0,P|347:334|380:347,1,72.0000027465821,2|2,0:1|0:2,0:0:0:0:
396,264,9945,5,2,3:2:0:0:
463,363,10117,1,2,0:0:0:0:
479,280,10289,1,2,0:1:0:0:
380,347,10462,1,2,0:0:0:0:
92,92,11324,6,0,B|56:80|56:80|236:64,1,172.799994726563,4|0,1:0|0:0,0:0:0:0:
272,60,11669,2,0,P|280:96|280:128,1,57.5999982421876,8|0,0:3|0:0,0:0:0:0:
80,224,11841,2,0,P|72:260|72:292,1,57.5999982421876,2|0,0:0|0:0,0:0:0:0:
208,352,12014,5,2,0:0:0:0:
144,168,12186,1,0,1:0:0:0:
92,144,12272,1,0,0:0:0:0:
36,154,12358,2,0,P|8:184|0:236,1,57.5999982421876,8|0,0:3|0:0,0:0:0:0:
120,344,12531,5,2,0:0:0:0:
336,240,12703,6,0,L|420:232,1,57.5999982421876,0|0,1:0|0:0,0:0:0:0:
264,192,12876,2,0,B|252:248|252:248|272:304,1,115.199996484375,0|8,0:0|0:3,0:0:0:0:
472,228,13221,5,2,0:0:0:0:
472,228,13307,1,0,0:0:0:0:
472,228,13393,1,2,0:0:0:0:
344,360,13565,1,0,1:0:0:0:
456,236,13738,5,8,0:3:0:0:
180,296,13910,1,2,0:0:0:0:
224,112,14083,6,0,P|284:108|344:140,1,115.199996484375,0|0,1:0|0:0,0:0:0:0:
300,24,14427,1,8,0:3:0:0:
276,256,14600,5,2,0:0:0:0:
276,256,14686,1,0,0:0:0:0:
276,256,14772,2,0,L|268:184,1,57.5999982421876,2|0,0:0|0:0,0:0:0:0:
120,108,14945,1,0,1:0:0:0:
460,136,15117,2,0,B|436:156|436:156|336:148,1,115.199996484375,8|2,0:3|0:0,0:0:0:0:
62,113,15462,6,0,L|142:105,1,57.5999982421876,0|0,1:0|0:0,0:0:0:0:
216,44,15634,2,0,P|208:132|204:204,1,115.199996484375,0|8,0:0|0:3,0:0:0:0:
324,332,15979,5,2,0:0:0:0:
269,345,16065,1,0,0:0:0:0:
219,319,16151,1,2,0:0:0:0:
300,120,16324,5,0,1:0:0:0:
404,360,16496,1,8,0:3:0:0:
136,324,16669,1,2,0:0:0:0:
280,256,16841,6,0,B|296:152|232:200|260:80,1,172.799994726563,0|0,1:0|0:0,0:0:0:0:
176,56,17186,2,0,P|148:32|124:-8,1,57.5999982421876,8|0,0:3|0:0,0:0:0:0:
340,123,17358,2,0,P|362:105|380:83,1,57.5999982421876,2|0,0:0|0:0,0:0:0:0:
196,232,17531,5,2,0:0:0:0:
196,232,17617,1,0,0:0:0:0:
196,232,17703,1,0,1:0:0:0:
304,340,17876,1,8,0:3:0:0:
196,232,18048,2,0,P|136:252|40:252,1,115.199996484375,2|0,0:0|1:0,0:0:0:0:
36,92,18393,6,0,L|128:96,1,57.5999982421876,0|0,0:0|0:0,0:0:0:0:
160,328,18565,1,8,0:3:0:0:
132,168,18738,5,2,0:0:0:0:
170,149,18824,1,0,0:0:0:0:
213,149,18910,1,2,0:0:0:0:
252,166,18996,1,0,0:0:0:0:
280,199,19082,1,0,1:0:0:0:
452,240,19255,2,0,P|388:236|340:268,1,115.199996484375,8|2,0:3|0:0,0:0:0:0:
416,328,19514,5,0,0:0:0:0:
424,348,19600,2,0,L|296:340,1,115.199996484375,0|0,1:0|0:0,0:0:0:0:
88,372,19945,1,8,0:3:0:0:
256,163,20117,5,2,0:0:0:0:
268,183,20203,1,0,0:0:0:0:
280,199,20290,2,0,L|272:259,1,57.5999982421876,2|0,0:0|0:0,0:0:0:0:
140,292,20462,2,0,L|148:232,1,57.5999982421876,0|0,1:0|0:0,0:0:0:0:
319,7,20634,5,8,0:3:0:0:
319,7,20807,2,0,P|328:100|329:121,1,115.199996484375,2|0,0:0|1:0,0:0:0:0:
64,24,21152,6,0,L|-28:16,2,57.5999982421876,0|0|8,0:0|0:0|0:3,0:0:0:0:
188,152,21496,1,2,0:0:0:0:
236,68,21669,5,2,0:0:0:0:
198,60,21755,1,0,0:0:0:0:
160,63,21841,1,0,1:0:0:0:
127,82,21927,1,0,0:0:0:0:
93,100,22013,1,8,0:3:0:0:
55,105,22100,1,0,0:0:0:0:
17,100,22186,1,2,0:0:0:0:
84,336,22358,6,0,B|76:204|76:204|112:268,1,172.799994726563,4|0,1:2|0:0,0:0:0:0:
160,288,22703,2,0,P|192:284|240:256,1,57.5999982421876,8|0,0:3|0:0,0:0:0:0:
352,156,22876,2,0,P|325:145|296:142,1,57.5999982421876,2|0,0:0|0:0,0:0:0:0:
220,184,23048,5,2,0:0:0:0:
352,302,23221,1,0,1:0:0:0:
352,302,23307,1,0,0:0:0:0:
352,302,23393,2,0,P|369:326|392:344,1,57.5999982421876,8|0,0:3|0:0,0:0:0:0:
504,240,23565,1,2,0:0:0:0:
420,208,23738,6,0,L|428:304,1,57.5999982421876,0|0,1:0|0:0,0:0:0:0:
452,128,23910,2,0,B|468:72|468:72|440:-8,1,115.199996484375,0|8,0:0|0:3,0:0:0:0:
208,40,24255,5,2,0:0:0:0:
204,48,24341,1,0,0:0:0:0:
200,56,24427,1,2,0:0:0:0:
56,160,24600,1,0,1:0:0:0:
204,80,24772,1,8,0:3:0:0:
160,340,24945,1,2,0:0:0:0:
340,288,25117,6,0,P|364:212|336:156,1,115.199996484375,0|0,1:0|0:0,0:0:0:0:
96,64,25462,1,8,0:3:0:0:
224,236,25634,5,2,0:0:0:0:
224,236,25721,1,0,0:0:0:0:
224,236,25807,2,0,L|304:224,1,57.5999982421876,2|0,0:0|0:0,0:0:0:0:
396,112,25979,1,0,1:0:0:0:
455,291,26152,2,0,L|319:287,1,115.199996484375,8|2,0:3|0:0,0:0:0:0:
196,152,26496,5,0,1:0:0:0:
104,324,26669,2,0,P|72:316|44:292,1,57.5999982421876,0|0,0:0|0:0,0:0:0:0:
44,128,26841,1,8,0:3:0:0:
112,184,27014,6,0,L|104:264,1,57.5999982421876,2|0,0:0|0:0,0:0:0:0:
204,376,27186,1,2,0:0:0:0:
201,347,27272,1,0,0:0:0:0:
198,318,27358,1,0,1:0:0:0:
324,144,27531,2,0,L|340:24,1,115.199996484375,8|2,0:3|0:0,0:0:0:0:
456,192,27876,6,0,B|368:172|392:248|280:220,1,172.799994726563,0|0,1:0|0:0,0:0:0:0:
264,208,28221,1,8,0:3:0:0:
432,276,28393,5,2,0:0:0:0:
432,276,28479,1,0,0:0:0:0:
432,276,28565,2,0,P|436:296|436:340,1,57.5999982421876,2|0,0:0|0:0,0:0:0:0:
360,368,28738,2,0,P|356:348|356:304,1,57.5999982421876,0|0,1:0|0:0,0:0:0:0:
456,104,28910,1,8,0:3:0:0:
196,256,29083,1,2,0:0:0:0:
132,32,29255,6,0,L|148:100,1,57.5999982421876,0|0,1:0|0:0,0:0:0:0:
220,136,29427,2,0,B|172:172|172:172|80:168,1,115.199996484375,0|8,0:0|0:3,0:0:0:0:
344,56,29772,5,2,0:0:0:0:
340,113,29858,1,0,0:0:0:0:
337,171,29944,1,2,0:0:0:0:
276,324,30117,1,0,1:0:0:0:
240,24,30290,1,8,0:3:0:0:
484,160,30462,1,2,0:0:0:0:
216,248,30634,5,0,1:0:0:0:
376,288,30807,1,0,0:0:0:0:
376,288,30893,1,0,0:0:0:0:
376,288,30979,2,0,P|376:252|368:216,1,57.5999982421876,8|0,0:3|0:0,0:0:0:0:
330,129,31152,2,0,P|298:147|271:171,1,57.5999982421876,2|0,0:0|0:0,0:0:0:0:
265,365,31324,5,2,0:0:0:0:
456,184,31496,1,0,1:0:0:0:
456,184,31583,1,0,0:0:0:0:
456,184,31669,2,0,P|424:166|389:154,1,57.5999982421876,8|0,0:3|0:0,0:0:0:0:
204,108,31841,2,0,P|204:144|212:179,1,57.5999982421876,2|0,0:0|0:0,0:0:0:0:
76,384,32014,5,0,3:0:0:0:
52,196,32186,1,2,0:0:0:0:
28,8,32358,1,2,0:3:0:0:
76,384,32531,5,2,0:0:0:0:
28,316,32617,2,0,B|80:296|80:296|140:224,1,115.199996484375,2|0,0:3|0:0,0:0:0:0:
0,80,32876,2,0,B|16:104|16:104|44:116,1,57.5999982421876,2|0,0:0|0:0,0:0:0:0:
52,196,33048,6,0,L|92:180,4,28.7999991210938,2|0|0|0|0,0:3|0:0|0:0|0:0|0:0,0:0:0:0:
148,152,33307,1,2,0:3:0:0:
224,164,33393,6,0,B|176:200|176:200|160:316,1,172.799994726563,4|0,1:0|0:0,0:0:0:0:
212,368,33738,6,0,P|244:364|276:340,1,57.5999982421876,8|0,0:3|0:0,0:0:0:0:
400,188,33910,1,2,0:0:0:0:
344,360,34083,2,0,P|388:284|432:256,1,115.199996484375,2|0,0:0|1:0,0:0:0:0:
476,224,34341,1,0,0:0:0:0:
476,224,34427,2,0,P|480:168|472:136,1,57.5999982421876,8|0,0:3|0:0,0:0:0:0:
300,28,34600,1,2,0:0:0:0:
420,108,34772,6,0,B|328:72|344:140|240:92,1,172.799994726563,0|0,1:0|0:0,0:0:0:0:
220,24,35117,1,8,0:3:0:0:
176,248,35290,1,2,0:0:0:0:
220,24,35462,2,0,P|160:48|108:40,1,115.199996484375,2|0,0:0|1:0,0:0:0:0:
8,180,35807,2,0,P|64:174|116:197,1,115.199996484375,8|2,0:3|0:0,0:0:0:0:
176,248,36065,1,0,0:0:0:0:
176,248,36152,1,0,1:0:0:0:
72,384,36496,6,0,B|68:332|68:332|60:324|60:324|56:256,1,115.199996484375,8|2,0:3|0:0,0:0:0:0:
244,344,36841,2,0,B|248:292|248:292|256:284|256:284|260:216,1,115.199996484375,2|0,0:0|1:0,0:0:0:0:
268,152,37100,1,0,0:0:0:0:
272,128,37186,2,0,L|336:120,1,57.5999982421876,8|0,0:3|0:0,0:0:0:0:
480,60,37358,1,2,0:0:0:0:
464,144,37531,6,0,B|428:132|428:132|392:60|392:60|336:36,1,172.799994726563,0|0,1:0|0:0,0:0:0:0:
320,32,37876,2,0,L|228:44,1,57.5999982421876,8|0,0:3|0:0,0:0:0:0:
84,124,38048,2,0,L|-8:136,1,57.5999982421876,2|0,0:0|0:0,0:0:0:0:
184,56,38221,5,2,0:0:0:0:
173,83,38307,1,0,0:0:0:0:
162,110,38393,1,0,1:0:0:0:
308,224,38565,6,0,L|324:344,1,115.199996484375,8|2,0:3|0:0,0:0:0:0:
431,356,38910,6,0,B|475:340|435:268|387:324|399:364|303:332,1,172.799994726563,0|0,1:0|0:0,0:0:0:0:
256,384,39255,2,0,P|244:352|252:300,1,57.5999982421876,8|0,0:3|0:0,0:0:0:0:
284,144,39427,1,2,0:0:0:0:
128,256,39600,2,0,P|184:246|228:210,1,115.199996484375,2|0,0:0|1:0,0:0:0:0:
308,224,39858,1,0,0:0:0:0:
308,224,39945,2,0,P|348:224|384:240,1,57.5999982421876,8|0,0:3|0:0,0:0:0:0:
512,160,40117,1,2,0:0:0:0:
472,360,40290,6,0,B|460:328|468:296|468:296|444:264|444:264|452:220|432:176,1,172.799994726563,0|0,1:0|0:0,0:0:0:0:
512,160,40634,1,8,0:3:0:0:
284,144,40807,1,2,0:0:0:0:
512,160,40979,2,0,L|516:40,1,115.199996484375,2|0,0:0|1:0,0:0:0:0:
360,0,41324,2,0,L|356:115,1,115.199996484375,8|2,0:3|0:0,0:0:0:0:
284,144,41583,1,0,0:0:0:0:
284,144,41669,1,0,1:0:0:0:
56,280,42014,6,0,P|144:264|196:348,1,172.799994726563,8|0,0:3|0:0,0:0:0:0:
176,336,42358,6,0,L|96:344,1,57.5999982421876,2|0,0:0|0:0,0:0:0:0:
232,232,42531,2,0,L|289:226,1,57.5999982421876,0|0,1:0|0:0,0:0:0:0:
128,140,42703,2,0,B|148:176|148:176|140:288,1,115.199996484375,8|2,0:3|0:0,0:0:0:0:
176,364,43048,6,0,L|40:348,1,115.199996484375,0|0,1:0|0:0,0:0:0:0:
256,280,43393,1,8,0:3:0:0:
450,350,43565,5,2,0:0:0:0:
393,357,43651,1,0,0:0:0:0:
336,364,43737,1,2,0:0:0:0:
256,280,43910,1,0,1:0:0:0:
384,140,44083,2,0,B|364:176|364:176|369:249,1,115.199996484375,8|2,0:3|0:0,0:0:0:0:
284,192,44427,6,0,B|228:200|228:200|232:204|232:204|228:200|228:200|84:220,1,172.799994726563,4|0,1:2|0:0,0:0:0:0:
44,280,44772,2,0,L|108:292,1,57.5999982421876,8|0,0:3|0:0,0:0:0:0:
180,308,44945,1,2,0:0:0:0:
76,144,45117,2,0,L|212:124,1,115.199996484375,2|0,0:0|1:0,0:0:0:0:
248,72,45376,1,0,0:0:0:0:
248,72,45462,2,0,L|241:14,1,57.5999982421876,8|0,0:3|0:0,0:0:0:0:
376,120,45634,1,2,0:0:0:0:
464,12,45807,6,0,P|500:76|424:164,1,172.799994726563,0|0,1:0|0:0,0:0:0:0:
376,120,46152,1,8,0:3:0:0:
308,320,46324,1,2,0:0:0:0:
376,120,46496,2,0,P|320:124|260:176,1,115.199996484375,2|0,0:0|1:0,0:0:0:0:
480,316,46841,2,0,P|424:312|364:260,1,115.199996484375,8|2,0:3|0:0,0:0:0:0:
308,320,47100,1,0,0:0:0:0:
308,320,47186,5,0,1:0:0:0:
348,204,47358,1,0,0:0:0:0:
308,320,47531,2,0,B|244:316|264:352|188:344,1,115.199996484375,8|2,0:3|0:0,0:0:0:0:
200,188,47876,2,0,B|136:192|156:156|80:164,1,115.199996484375,2|0,0:0|1:0,0:0:0:0:
40,224,48134,1,0,0:0:0:0:
24,208,48221,2,0,L|28:276,1,57.5999982421876,8|0,0:3|0:0,0:0:0:0:
12,104,48393,5,2,0:0:0:0:
32,352,48565,2,0,P|76:276|180:292,1,172.799994726563,0|0,1:0|0:0,0:0:0:0:
224,312,48910,6,0,L|236:380,1,57.5999982421876,8|0,0:3|0:0,0:0:0:0:
436,260,49083,2,0,L|448:328,1,57.5999982421876,2|0,0:0|0:0,0:0:0:0:
332,340,49255,1,2,0:0:0:0:
337,311,49341,1,0,0:0:0:0:
342,283,49427,1,0,1:0:0:0:
192,196,49600,6,0,L|184:56,1,115.199996484375,8|2,0:3|0:0,0:0:0:0:
84,24,49945,6,0,B|60:80|60:80|220:56,1,172.799994726563,0|0,1:0|0:0,0:0:0:0:
292,36,50290,2,0,P|267:22|238:20,1,57.5999982421876,8|0,0:3|0:0,0:0:0:0:
36,156,50462,1,2,0:0:0:0:
170,63,50634,2,0,P|170:139|222:191,1,115.199996484375,2|0,0:0|1:0,0:0:0:0:
184,248,50893,1,0,0:0:0:0:
184,248,50979,2,0,P|212:246|237:232,1,57.5999982421876,8|0,0:3|0:0,0:0:0:0:
412,192,51152,1,2,0:0:0:0:
272,160,51324,6,0,B|364:180|344:100|432:116,1,172.799994726563,0|0,1:0|0:0,0:0:0:0:
412,192,51669,1,8,0:3:0:0:
476,48,51841,1,2,0:0:0:0:
412,192,52014,2,0,P|404:252|404:308,1,115.199996484375,2|0,0:0|1:0,0:0:0:0:
192,224,52358,2,0,P|184:164|184:108,1,115.199996484375,8|2,0:3|0:0,0:0:0:0:
208,32,52617,1,0,0:0:0:0:
208,32,52703,5,0,1:0:0:0:
296,148,52876,1,0,0:0:0:0:
180,252,53048,2,0,P|136:252|88:268,1,57.5999982421876,8|0,0:3|0:0,0:0:0:0:
328,336,53221,1,2,0:0:0:0:
12,284,53393,5,2,0:0:0:0:
188,288,53565,1,0,1:0:0:0:
100,264,53738,1,8,0:3:0:0:
244,360,53910,1,2,0:0:0:0:
328,336,54083,6,0,P|392:324|448:332,2,115.199996484375,0|2|8,3:0|0:0|0:3,0:0:0:0:
276,256,54600,5,2,0:0:0:0:
283,228,54686,1,2,0:3:0:0:
287,199,54772,1,0,3:0:0:0:
287,171,54858,1,0,0:0:0:0:
282,142,54944,5,0,3:0:0:0:
124,24,55117,1,2,0:3:0:0:
101,220,55290,1,0,0:0:0:0:
169,129,55462,5,4,3:2:0:0:
404,80,56669,2,0,B|420:60|428:32|428:32|456:56|452:108|452:108|408:128|396:176|412:216|412:216|404:212|404:212|396:264|348:268|320:232|320:232|344:244|368:236,1,432,2|2,0:0|0:0,0:0:0:0:
432,340,59427,6,0,P|356:292|248:304,1,192,2|0,0:0|0:0,0:0:0:0:
112,368,60290,5,2,0:0:0:0:
168,292,60462,1,0,0:0:0:0:
164,196,60634,1,2,0:0:0:0:
128,108,60807,1,0,0:0:0:0:
52,48,60979,6,0,B|40:40|24:36|24:36|88:20|80:72|128:88|128:88|124:84|124:84|176:44|232:68|232:68|268:64|288:32,1,336,2|2,0:0|0:0,0:0:0:0:
283,39,63738,6,0,B|352:72|332:144|332:144|296:128|260:132|236:152|216:184|216:184|184:152|192:104,2,336,2|2|0,0:0|0:0|0:0,0:0:0:0:
204,36,66324,1,0,0:0:0:0:
256,192,66496,12,0,69255,0:0:0:0:
256,192,69341,12,0,72014,0:0:0:0:
256,192,72100,12,0,77186,0:0:0:0:
440,284,77531,6,0,P|404:252|364:240,1,72,6|0,3:2|0:0,0:0:0:0:
312,280,77876,2,0,P|272:284|252:296,2,48,2|0|2,0:1|0:0|0:0,0:0:0:0:
472,356,78393,1,0,3:0:0:0:
440,284,78565,6,0,P|404:252|364:240,1,72,2|0,0:1|0:0,0:0:0:0:
388,168,78910,2,0,P|380:145|380:121,2,48,0|2|2,3:0|0:0|0:1,0:0:0:0:
60,60,79600,6,0,L|8:76,1,48,2|0,0:0|3:0,0:0:0:0:
108,0,79945,2,0,L|160:16,1,48,2|2,0:1|0:0,0:0:0:0:
100,124,80290,6,0,B|108:216,1,72,2|0,3:2|0:0,0:0:0:0:
88,272,80634,2,0,B|72:288|72:288|36:296,2,48,2|0|2,0:1|0:0|0:0,0:0:0:0:
168,88,81152,1,0,3:0:0:0:
100,124,81324,6,0,B|108:216,1,72,2|0,0:1|0:0,0:0:0:0:
160,248,81669,2,0,B|181:253|181:253|206:281,2,48,0|2|2,3:0|0:0|0:1,0:0:0:0:
464,84,82358,6,0,P|472:56|472:32,1,48,2|0,0:0|3:0,0:0:0:0:
396,24,82703,2,0,P|388:52|388:76,1,48,2|2,0:1|0:0,0:0:0:0:
412,144,83048,6,0,B|352:136|368:180|296:168,1,108.000004119873,2|0,3:2|0:0,0:0:0:0:
256,112,83393,2,0,L|176:108,2,72.0000027465821,2|0|2,0:1|0:0|0:0,0:0:0:0:
152,184,83910,1,0,3:0:0:0:
310,169,84083,6,0,B|364:176|356:136|412:144,1,108.000004119873,2|0,0:1|0:0,0:0:0:0:
468,200,84427,2,0,L|552:195,2,72.0000027465821,0|2|2,3:0|0:0|0:1,0:0:0:0:
184,264,85117,6,0,P|172:304|176:340,1,72.0000027465821,2|0,0:0|3:0,0:0:0:0:
76,300,85462,2,0,P|85:340|107:369,1,72.0000027465821,2|2,0:1|0:0,0:0:0:0:
56,216,85807,6,0,P|140:192|160:148,1,108.000004119873,2|0,3:2|0:0,0:0:0:0:
184,108,86152,2,0,L|188:32,2,72.0000027465821,2|0|2,0:1|0:0|0:0,0:0:0:0:
116,8,86669,1,0,3:0:0:0:
344,116,86841,6,0,P|260:140|240:184,1,108.000004119873,2|0,0:1|0:0,0:0:0:0:
216,224,87186,2,0,L|212:300,1,72.0000027465821,0|2,3:0|0:0,0:0:0:0:
250,152,87531,1,2,0:1:0:0:
208,372,87703,5,0,0:0:0:0:
225,372,87789,1,0,0:0:0:0:
242,365,87875,1,2,0:0:0:0:
308,320,88048,5,0,3:0:0:0:
212,295,88221,1,2,0:1:0:0:
132,352,88393,1,2,0:0:0:0:
360,380,88565,6,0,P|388:316|368:224,1,144,4|0,1:2|0:0,0:0:0:0:
344,176,88910,1,8,0:3:0:0:
152,232,89083,1,2,0:0:0:0:
344,176,89255,2,0,P|280:200|220:188,1,96,2|0,0:0|1:0,0:0:0:0:
236,192,89514,1,0,0:0:0:0:
220,184,89600,2,0,P|192:120|212:28,1,144,8|0,0:3|0:0,0:0:0:0:
276,20,89945,5,0,1:0:0:0:
472,48,90117,2,0,L|400:40,1,48,0|0,0:0|0:0,0:0:0:0:
276,20,90290,2,0,B|348:32|348:32|344:80|388:112,1,144,8|0,0:3|0:0,0:0:0:0:
440,136,90634,6,0,P|432:176|432:196,1,48,2|0,0:0|0:0,0:0:0:0:
412,256,90807,2,0,L|409:208,1,48,0|0,1:0|0:0,0:0:0:0:
336,232,90979,6,0,L|338:279,1,48,8|0,0:3|0:0,0:0:0:0:
308,351,91152,2,0,P|313:328|316:304,1,48,2|0,0:0|0:0,0:0:0:0:
370,96,91324,6,0,P|288:132|216:108,1,144,0|0,1:0|0:0,0:0:0:0:
184,64,91669,1,8,0:3:0:0:
132,304,91841,1,2,0:0:0:0:
184,64,92014,2,0,L|192:168,1,96,2|0,0:0|1:0,0:0:0:0:
188,176,92272,1,0,0:0:0:0:
184,192,92358,6,0,P|102:228|30:204,1,144,8|0,0:3|0:0,0:0:0:0:
8,152,92703,1,0,1:0:0:0:
126,351,92876,2,0,L|134:283,1,48,0|0,0:0|0:0,0:0:0:0:
116,52,93048,2,0,B|96:96|96:96|108:164,1,96,8|2,0:3|0:0,0:0:0:0:
56,264,93393,5,2,0:0:0:0:
81,238,93479,1,0,0:0:0:0:
114,225,93565,1,0,1:0:0:0:
150,225,93651,1,0,0:0:0:0:
183,239,93738,2,0,L|291:231,1,96,8|2,0:3|0:0,0:0:0:0:
368,136,94083,6,0,B|336:220|384:188|348:284,1,144,0|0,1:0|0:0,0:0:0:0:
276,312,94427,1,8,0:3:0:0:
440,184,94600,1,2,0:0:0:0:
276,312,94772,2,0,P|232:264|232:216,1,96,2|0,0:0|1:0,0:0:0:0:
188,224,95031,1,0,0:0:0:0:
156,196,95117,6,0,B|124:112|172:144|136:48,1,144,8|0,0:3|0:0,0:0:0:0:
56,20,95461,5,0,1:0:0:0:
228,148,95634,2,0,P|241:113|243:77,1,48,0|0,0:0|0:0,0:0:0:0:
56,20,95806,2,0,P|52:80|84:124,1,96,8|2,0:3|0:0,0:0:0:0:
172,56,96152,6,0,P|158:90|156:126,1,48,2|0,0:0|0:0,0:0:0:0:
152,288,96324,1,0,1:0:0:0:
272,224,96496,6,0,L|224:228,1,48,8|0,0:3|0:0,0:0:0:0:
20,184,96669,2,0,L|67:188,1,48,2|0,0:0|0:0,0:0:0:0:
152,120,96841,6,0,B|156:180|156:180|144:200|144:200|148:272,1,144,0|0,1:0|0:0,0:0:0:0:
120,336,97186,1,8,0:3:0:0:
392,336,97358,1,2,0:0:0:0:
120,336,97531,2,0,L|240:328,1,96,2|0,0:0|1:0,0:0:0:0:
360,120,97876,6,0,B|356:180|356:180|368:200|368:200|364:272,1,144,8|0,0:3|0:0,0:0:0:0:
392,336,98221,1,0,1:0:0:0:
120,336,98393,1,0,0:0:0:0:
392,336,98566,2,0,L|272:328,1,96,8|0,0:3|0:0,0:0:0:0:
200,384,98910,5,2,0:0:0:0:
212,350,98996,1,0,0:0:0:0:
211,314,99082,1,0,1:0:0:0:
196,281,99168,1,0,0:0:0:0:
171,256,99254,1,8,0:3:0:0:
24,272,99427,1,2,0:0:0:0:
92,216,99600,6,0,P|72:156|88:88,2,96,12|0|0,0:1|0:0|3:0,0:0:0:0:
100,304,100117,2,0,P|58:351|-8:371,2,96,8|0|0,0:1|0:0|3:0,0:0:0:0:
171,256,100634,2,0,P|232:268|283:316,1,96,8|0,0:1|0:0,0:0:0:0:
488,328,100979,5,8,0:1:0:0:
337,238,101152,1,0,0:0:0:0:
220,356,101324,1,0,3:0:0:0:
506,221,101496,5,8,0:1:0:0:
353,342,101669,1,0,0:0:0:0:
171,256,101841,1,0,3:0:0:0:
320,120,102014,6,0,P|336:48|328:16,1,96,8|0,0:1|0:0,0:0:0:0:
248,64,102358,5,8,0:1:0:0:
416,79,102531,2,0,L|512:68,1,96,0|0,3:0|3:0,0:0:0:0:
232,176,102876,6,0,L|136:164,1,96,8|0,0:1|3:0,0:0:0:0:
400,160,103221,1,0,3:0:0:0:
246,259,103393,5,8,0:1:0:0:
416,276,103566,2,0,L|511:264,1,96,0|8,3:0|0:1,0:0:0:0:
232,372,103910,6,0,L|136:360,1,96,0|0,3:0|3:0,0:0:0:0:
400,356,104255,1,8,0:1:0:0:
246,259,104427,6,0,L|234:183,1,48,0|0,0:0|0:0,0:0:0:0:
416,276,104600,2,0,L|428:200,1,48,0|0,3:0|0:0,0:0:0:0:
220,132,104772,2,0,L|208:56,1,48,8|0,0:1|0:0,0:0:0:0:
436,148,104945,2,0,L|448:72,1,48,0|0,3:0|0:0,0:0:0:0:
328,108,105117,6,0,B|320:156|320:156|348:216,1,96,8|0,0:1|3:0,0:0:0:0:
128,104,105462,2,0,B|136:56|136:56|108:-4,1,96,8|0,0:1|3:0,0:0:0:0:
56,68,105721,1,0,3:0:0:0:
56,68,105807,6,0,L|44:148,1,48,8|0,0:1|0:0,0:0:0:0:
16,336,105979,1,0,3:0:0:0:
268,296,106152,6,0,L|188:284,1,48,8|0,0:1|0:0,0:0:0:0:
0,256,106324,1,0,3:0:0:0:
236,368,106496,5,8,0:1:0:0:
60,144,106669,1,0,3:0:0:0:
268,296,106841,1,8,0:1:0:0:
76,284,107014,1,0,3:0:0:0:
248,376,107186,5,8,0:1:0:0:
48,136,107358,1,0,3:0:0:0:
280,292,107531,1,8,0:1:0:0:
60,288,107703,1,0,3:0:0:0:
124,360,107876,5,8,0:1:0:0:
256,192,108048,1,8,0:1:0:0:
88,60,108221,5,8,0:1:0:0:
256,192,108393,1,8,0:1:0:0:
388,24,108565,5,8,0:1:0:0:
256,192,108738,1,8,0:1:0:0:
424,324,108910,5,8,0:1:0:0:
256,192,109083,1,8,0:1:0:0:
456,64,109255,5,8,0:1:0:0:
476,76,109341,1,8,0:1:0:0:
508,120,109427,1,8,0:1:0:0:
488,132,109513,1,8,0:1:0:0:
448,176,109600,5,8,0:1:0:0:
468,188,109686,1,8,0:1:0:0:
500,232,109772,1,8,0:1:0:0:
480,244,109858,1,8,0:1:0:0:
412,288,109945,6,0,B|428:308|428:308|424:344,7,48,8|0|0|0|0|0|0|0,0:1|0:0|0:0|0:0|0:0|0:0|0:0|0:0,0:0:0:0:
352,368,110634,6,0,P|248:320|304:232,1,216.000008239746,4|0,1:0|0:0,0:0:0:0:
276,16,110979,2,0,B|268:88|268:88|272:96|272:96|264:168|264:168|220:176|196:224,1,216.000008239746,0|0,1:0|0:0,0:0:0:0:
275,245,111324,6,0,L|279:301,2,48,8|0|0,0:0|0:0|0:0,0:0:0:0:
424,68,111669,6,0,L|352:65,1,72.0000027465821,2|0,0:0|0:0,0:0:0:0:
84,140,111841,6,0,B|140:149|140:149|188:117,1,115.199996484375,0|2,1:0|0:0,0:0:0:0:
128,8,112186,1,0,1:0:0:0:
128,8,112272,1,0,0:0:0:0:
128,8,112358,2,0,L|120:84,1,57.5999982421876,0|0,1:0|0:0,0:0:0:0:
192,260,112531,2,0,L|198:202,1,57.5999982421876,2|0,0:0|0:0,0:0:0:0:
284,28,112703,6,0,B|260:16|260:16|268:132,1,144,8|0,0:0|0:0,0:0:0:0:
336,172,113048,2,0,L|368:168,2,24,2|0|2,0:0|0:0|0:0,0:0:0:0:
396,100,113221,2,0,L|448:108,1,48,0|0,1:0|0:0,0:0:0:0:
504,48,113393,6,0,B|464:156|528:124|480:244,1,187.199991430664,0|0,1:0|0:0,0:0:0:0:
504,312,113738,2,0,P|416:280|408:212,1,124.79999428711,0|0,1:0|0:0,0:0:0:0:
108,168,114083,6,0,L|100:120,2,48,8|0|0,0:0|0:0|0:0,0:0:0:0:
264,284,114427,6,0,L|336:296,1,72.0000027465821,2|0,0:0|0:0,0:0:0:0:
236,360,114600,2,0,L|340:377,1,96,0|2,1:0|0:0,0:0:0:0:
184,296,114945,5,0,1:0:0:0:
184,296,115031,1,0,0:0:0:0:
184,296,115117,2,0,P|160:332|160:364,1,57.5999982421876,0|0,1:0|0:0,0:0:0:0:
344,220,115290,2,0,P|371:227|408:272,1,72.0000027465821,2|0,0:0|0:0,0:0:0:0:
147,100,115462,6,0,P|153:170|204:218,1,144,8|0,0:0|0:0,0:0:0:0:
276,188,115807,2,0,L|278:164,2,24,2|0|2,0:0|0:0|0:0,0:0:0:0:
268,264,115979,2,0,L|274:311,1,48,0|0,1:0|0:0,0:0:0:0:
344,220,116152,6,0,B|292:200|280:140|280:140|252:200|180:204,1,216.000008239746,4|0,1:0|0:0,0:0:0:0:
108,24,116496,2,0,P|168:4|192:124,1,216.000008239746,0|0,1:0|0:0,0:0:0:0:
128,160,116841,6,0,L|52:156,2,48,8|0|0,0:0|0:0|0:0,0:0:0:0:
360,136,117186,6,0,L|364:52,1,72.0000027465821,2|0,0:0|0:0,0:0:0:0:
432,232,117358,2,0,B|372:216|372:216|300:260,1,124.79999428711,0|2,1:0|0:0,0:0:0:0:
212,36,117703,5,0,1:0:0:0:
212,36,117790,1,0,0:0:0:0:
212,36,117876,2,0,B|241:58|241:58|280:63,1,76.8,0|0,1:0|0:0,0:0:0:0:
496,124,118048,2,0,B|471:142|471:142|439:146,1,62.3999971435548,2|0,0:0|0:0,0:0:0:0:
213,239,118221,6,0,B|325:219|325:219|309:283,1,144,8|0,0:0|0:0,0:0:0:0:
296,324,118565,2,0,L|256:316,2,24,2|0|2,0:0|0:0|0:0,0:0:0:0:
196,348,118738,2,0,L|106:330,1,48,0|0,1:0|0:0,0:0:0:0:
76,372,118910,6,0,P|112:284|60:196,1,187.199991430664,0|0,1:0|0:0,0:0:0:0:
112,28,119255,2,0,P|80:72|12:88,1,124.79999428711,0|0,1:0|0:0,0:0:0:0:
112,144,119514,1,0,0:0:0:0:
136,148,119600,6,0,L|188:156,2,48,8|0|0,0:0|0:0|0:0,0:0:0:0:
244,256,119945,6,0,L|240:184,1,48,2|0,0:0|0:0,0:0:0:0:
296,60,120117,6,0,L|280:168,1,72.0000027465821,0|0,1:0|0:0,0:0:0:0:
340,188,120290,5,2,0:0:0:0:
452,280,120462,1,0,1:0:0:0:
452,280,120548,1,0,0:0:0:0:
452,280,120634,1,0,1:0:0:0:
476,138,120807,1,0,0:0:0:0:
392,116,120979,5,8,0:0:0:0:
368,268,121152,1,2,0:3:0:0:
512,216,121324,1,8,0:3:0:0:
512,216,121410,1,0,0:3:0:0:
512,216,121496,1,8,0:3:0:0:
168,52,121669,6,0,B|172:8|172:8|208:36|208:36|216:36|216:36|252:64|252:64|260:64|260:64|320:108,1,192,4|0,1:0|0:0,0:0:0:0:
152,244,121927,6,0,B|111:262|111:262|118:217|118:217|114:210|114:210|120:165|120:165|116:158|116:158|124:84,1,192,4|0,1:2|0:0,0:0:0:0:
327,162,122186,6,0,B|363:187|363:187|320:204|320:204|316:211|316:211|274:228|274:228|270:235|270:235|202:265,1,192,4|8,1:2|0:0,0:0:0:0:
232,251,122703,6,0,B|316:272|316:272|328:280|328:280|332:276|332:276|384:288|384:288|396:308|396:352,1,216.000008239746,2|0,0:0|0:0,0:0:0:0:
324,380,123048,6,0,P|316:340|324:308,1,48,2|0,0:0|0:0,0:0:0:0:
468,304,123221,2,0,P|476:344|468:376,1,48,0|0,1:0|0:0,0:0:0:0:
236,360,123393,5,0,1:0:0:0:
412,204,123565,2,0,P|387:254|363:272,1,62.3999971435548,2|0,0:0|0:0,0:0:0:0:
168,312,123738,6,0,P|214:280|244:276,1,72.0000027465821,8|0,0:0|0:0,0:0:0:0:
432,92,123910,2,0,P|385:123|355:127,1,86.3999973632813,2|0,0:0|0:0,0:0:0:0:
40,136,124083,6,0,B|156:131|93:204|239:201,1,192,2|0,0:0|1:0,0:0:0:0:
16,144,124427,6,0,P|84:32|176:52,1,216.000008239746,0|0,1:0|0:0,0:0:0:0:
288,36,124772,2,0,B|248:28|228:-8|228:-8|256:48|232:100|184:120,1,216.000008239746,0|0,1:0|0:0,0:0:0:0:
92,224,125117,6,0,B|96:200|96:200|100:196|100:196|96:196|96:196|112:96,1,86.3999973632813,10|0,0:0|0:0,0:0:0:0:
88,248,125462,5,2,0:0:0:0:
316,200,125634,1,0,1:0:0:0:
100,328,125807,2,0,B|120:316|120:316|156:320,1,48,2|0,0:0|0:0,0:0:0:0:
252,376,125979,1,0,1:0:0:0:
224,300,126152,6,0,P|208:244|240:172,1,96,0|2,1:0|0:0,0:0:0:0:
256,140,126410,1,0,0:0:0:0:
256,140,126496,2,0,P|284:156|324:160,1,57.5999982421876,8|0,0:0|0:0,0:0:0:0:
504,240,126669,2,0,P|475:245|436:268,1,72.0000027465821,2|0,0:0|0:0,0:0:0:0:
392,152,126841,6,0,B|384:204|384:204|368:216|368:216|357:267,1,124.79999428711,2|0,0:0|1:0,0:0:0:0:
152,64,127186,6,0,B|212:52|212:52|224:36|224:36|296:24|296:24|312:104,1,216.000008239746,4|0,1:0|0:0,0:0:0:0:
292,356,127531,2,0,B|284:312|284:312|288:308|288:308|284:312|284:312|248:100,1,216.000008239746,0|0,1:0|0:0,0:0:0:0:
308,84,127876,6,0,L|356:88,2,48,8|0|0,0:0|0:0|0:0,0:0:0:0:
136,16,128221,6,0,B|139:48|139:48|147:56|147:56|151:108,1,96,2|0,0:0|0:0,0:0:0:0:
160,192,128393,1,0,1:0:0:0:
148,360,128565,6,0,L|140:276,1,72.0000027465821,2|0,0:0|0:0,0:0:0:0:
32,136,128738,2,0,P|63:139|87:148,1,48,0|0,1:0|0:0,0:0:0:0:
252,168,128910,1,0,1:0:0:0:
160,192,129083,5,2,0:0:0:0:
76,236,129255,6,0,P|40:244|-4:248,1,72.0000027465821,8|0,0:0|0:0,0:0:0:0:
176,104,129427,2,0,P|185:73|205:39,1,72.0000027465821,2|0,0:0|0:0,0:0:0:0:
240,264,129600,6,0,L|244:296,2,24,2|0|2,0:0|0:0|0:0,0:0:0:0:
332,212,129772,2,0,L|328:276,1,48,0|0,1:0|0:0,0:0:0:0:
204,364,129945,6,0,B|300:392|282:307|383:342,1,187.199991430664,0|0,1:0|0:0,0:0:0:0:
242,287,130290,2,0,P|277:211|192:184,1,187.199991430664,0|0,1:0|0:0,0:0:0:0:
80,264,130634,6,0,B|100:268|100:268|112:264|112:264|104:268|104:268|200:252,1,96,8|0,0:0|0:0,0:0:0:0:
64,280,130979,6,0,P|28:228|44:164,1,124.79999428711,2|0,0:0|1:0,0:0:0:0:
0,60,131324,5,2,0:0:0:0:
208,104,131496,1,0,3:0:0:0:
392,0,131669,1,0,3:0:0:0:
112,212,131841,5,2,0:0:0:0:
336,180,132014,1,2,0:1:0:0:
148,340,132186,5,2,0:0:0:0:
328,360,132358,1,2,0:1:0:0:
328,360,132445,1,0,0:0:0:0:
328,360,132531,1,2,0:1:0:0:
328,360,132618,1,0,0:0:0:0:
328,360,132703,6,0,P|308:308|336:236,1,96,4|2,1:0|0:0,0:0:0:0:
464,244,133048,2,0,P|483:287|478:334,1,96,0|2,1:0|0:0,0:0:0:0:
396,300,133393,6,0,B|356:212|432:196|372:92,1,192,8|0,0:3|0:0,0:0:0:0:
204,176,133910,2,0,L|299:169,1,96,0|2,1:0|0:0,0:0:0:0:
140,104,134255,1,0,1:0:0:0:
396,22,134427,6,0,P|376:82|388:126,1,96,0|0,1:0|0:0,0:0:0:0:
376,352,134772,2,0,L|380:292,1,48,8|0,0:3|0:0,0:0:0:0:
396,148,134945,1,0,0:0:0:0:
448,264,135117,5,2,0:0:0:0:
421,239,135203,1,0,0:0:0:0:
387,228,135289,1,0,1:0:0:0:
352,232,135375,1,0,0:0:0:0:
321,250,135462,6,0,P|272:268|213:254,1,96,0|2,1:0|0:0,0:0:0:0:
208,108,135807,2,0,P|257:90|316:104,1,96,0|2,1:0|0:0,0:0:0:0:
264,180,136152,6,0,B|176:220|160:144|56:204,1,192,8|0,0:3|0:0,0:0:0:0:
120,360,136669,2,0,L|129:264,1,96,0|2,1:0|0:0,0:0:0:0:
0,152,137013,1,0,1:0:0:0:
68,64,137186,6,0,L|72:120,1,48,0|0,1:0|0:0,0:0:0:0:
77,193,137358,1,0,0:0:0:0:
158,93,137531,6,0,B|110:85|110:85|50:125,1,96,8|0,0:3|0:0,0:0:0:0:
88,204,137876,2,0,B|136:212|136:212|196:172,1,96,2|0,0:0|1:0,0:0:0:0:
248,32,138221,6,0,P|245:87|293:147,1,96,4|2,1:2|0:0,0:0:0:0:
416,92,138566,2,0,P|420:45|401:2,1,96,0|2,1:0|0:0,0:0:0:0:
334,60,138911,6,0,B|323:156|400:147|375:265,1,192,8|0,0:3|0:0,0:0:0:0:
396,336,139427,2,0,L|491:345,1,96,0|2,1:0|0:0,0:0:0:0:
304,304,139772,1,0,1:0:0:0:
228,368,139945,6,0,P|204:308|220:252,1,96,0|0,1:0|0:0,0:0:0:0:
100,96,140290,2,0,L|107:143,1,48,8|0,0:3|0:0,0:0:0:0:
52,304,140462,1,0,0:0:0:0:
28,176,140634,5,2,0:0:0:0:
48,205,140720,1,0,0:0:0:0:
79,223,140806,1,0,1:0:0:0:
114,229,140892,1,0,0:0:0:0:
149,220,140979,6,0,P|196:200|260:208,1,96,0|2,1:0|0:0,0:0:0:0:
268,344,141324,2,0,P|224:363|176:362,1,96,0|2,1:0|0:0,0:0:0:0:
208,284,141669,6,0,B|304:273|295:350|413:325,1,192,8|0,0:3|0:0,0:0:0:0:
396,233,142186,6,0,L|389:328,1,96,0|2,1:0|0:0,0:0:0:0:
152,176,142531,2,0,L|160:256,1,48,0|0,1:0|0:0,0:0:0:0:
176,360,142704,5,0,1:0:0:0:
124,296,142876,1,0,0:0:0:0:
208,284,143048,5,8,0:3:0:0:
216,288,143134,1,0,0:0:0:0:
224,292,143221,1,0,0:0:0:0:
232,296,143307,1,0,0:0:0:0:
256,344,143393,5,2,0:0:0:0:
283,304,143479,1,2,0:0:0:0:
325,282,143565,1,2,0:0:0:0:
372,282,143651,1,2,0:0:0:0:
415,303,143738,6,0,P|472:272|488:228,1,96,4|2,1:2|0:0,0:0:0:0:
392,128,144083,2,0,P|390:192|420:228,1,96,0|2,1:0|0:0,0:0:0:0:
420,40,144427,6,0,B|316:28|344:100|215:81,1,192,8|0,0:3|0:0,0:0:0:0:
148,240,144945,2,0,L|157:144,1,96,0|2,1:0|0:0,0:0:0:0:
64,124,145290,1,0,1:0:0:0:
237,83,145462,2,0,P|255:126|254:174,1,96,0|0,1:0|0:0,0:0:0:0:
60,356,145807,6,0,L|56:304,1,48,8|0,0:3|0:0,0:0:0:0:
164,164,145979,1,0,0:0:0:0:
17,226,146152,5,2,0:0:0:0:
64,220,146238,1,0,0:0:0:0:
109,236,146324,1,0,1:0:0:0:
153,252,146410,1,0,0:0:0:0:
201,246,146496,6,0,B|224:256|240:276|240:276|260:260|292:256,1,96,0|2,1:0|0:0,0:0:0:0:
305,110,146841,2,0,B|284:124|259:128|259:128|263:154|250:183,1,96,0|2,1:0|0:0,0:0:0:0:
368,348,147186,6,0,B|368:296|408:264|408:264|352:244|344:180,1,192,8|0,0:3|0:0,0:0:0:0:
196,292,147703,2,0,L|292:280,1,96,0|2,1:0|0:0,0:0:0:0:
488,256,148048,1,0,1:0:0:0:
440,136,148221,6,0,L|434:183,1,48,0|0,1:0|0:0,0:0:0:0:
464,384,148393,2,0,L|448:336,1,48,0|0,0:0|0:0,0:0:0:0:
356,220,148565,6,0,B|345:267|345:267|369:308,1,96,8|0,0:3|0:0,0:0:0:0:
456,296,148910,2,0,B|466:248|466:248|442:207,1,96,2|0,0:0|1:0,0:0:0:0:
300,48,149255,6,0,P|318:110|298:152,1,96,4|2,1:2|0:0,0:0:0:0:
160,156,149600,2,0,P|204:108|251:104,1,96,0|2,1:0|0:0,0:0:0:0:
8,204,149945,6,0,B|112:192|84:264|213:245,1,192,8|0,0:3|0:0,0:0:0:0:
36,288,150462,2,0,L|44:396,1,96,0|2,1:0|0:0,0:0:0:0:
8,204,150807,1,0,1:0:0:0:
190,247,150979,2,0,P|206:203|198:151,1,96,0|0,1:0|0:0,0:0:0:0:
16,72,151324,6,0,L|20:126,1,48,8|0,0:3|0:0,0:0:0:0:
92,224,151496,1,0,0:0:0:0:
108,120,151669,5,2,0:0:0:0:
136,82,151755,1,0,0:0:0:0:
178,61,151841,1,0,1:0:0:0:
226,62,151927,1,0,0:0:0:0:
269,85,152014,6,0,B|317:89|317:89|357:45,1,96,0|2,1:0|0:0,0:0:0:0:
320,232,152358,2,0,B|299:188|299:188|241:175,1,96,0|2,1:0|0:0,0:0:0:0:
452,72,152703,6,0,B|408:156|408:156|428:260,1,192,8|0,0:3|0:0,0:0:0:0:
236,360,153221,2,0,L|244:252,1,96,0|2,1:0|0:0,0:0:0:0:
396,280,153565,1,0,1:0:0:0:
396,280,153738,2,0,L|388:375,1,96,0|0,1:0|0:0,0:0:0:0:
152,348,154083,6,0,P|196:284|316:328,1,216.000008239746,8|0,0:3|0:0,0:0:0:0:
112,248,154772,6,0,B|80:132|144:172|100:28,1,192,4|0,1:0|1:0,0:0:0:0:
190,193,155290,1,2,0:0:0:0:
28,116,155462,1,8,0:3:0:0:
175,14,155634,1,0,0:0:0:0:
175,14,155721,1,0,0:0:0:0:
175,14,155807,2,0,L|256:24,1,48,0|0,0:0|0:0,0:0:0:0:
340,68,155979,6,0,B|288:76|288:76|260:96|260:96|184:108,1,144,0|0,1:0|0:0,0:0:0:0:
168,112,156324,1,0,1:0:0:0:
320,252,156496,2,0,L|324:156,1,96,0|0,1:0|0:0,0:0:0:0:
344,328,156841,5,8,0:3:0:0:
184,288,157014,1,0,0:0:0:0:
464,227,157186,5,2,0:0:0:0:
352,348,157359,1,0,1:0:0:0:
304,192,157531,6,0,B|284:92|284:92|312:36,1,144,0|0,1:0|0:0,0:0:0:0:
360,0,157876,1,0,1:0:0:0:
328,272,158048,1,2,0:0:0:0:
480,196,158221,6,0,L|360:180,1,96,8|0,0:3|0:0,0:0:0:0:
304,192,158479,1,0,0:0:0:0:
304,192,158565,2,0,L|232:184,1,48,0|0,0:0|0:0,0:0:0:0:
216,272,158738,6,0,B|216:220|256:188|256:188|200:168|192:104,1,192,0|0,1:0|1:0,0:0:0:0:
213,31,159255,2,0,P|189:87|197:127,1,96,0|0,1:0|0:0,0:0:0:0:
324,84,159600,6,0,L|236:96,1,48,8|0,0:3|0:0,0:0:0:0:
84,196,159772,6,0,L|172:208,1,57.5999982421876,0|0,0:0|0:0,0:0:0:0:
376,252,159945,6,0,L|288:264,1,67.1999979492188,2|0,0:0|0:0,0:0:0:0:
68,352,160117,5,0,1:0:0:0:
68,352,160203,1,0,0:0:0:0:
68,352,160290,2,0,B|144:343|144:343|171:320|171:320|259:308,1,192,4|0,1:2|1:0,0:0:0:0:
84,196,160807,5,2,0:0:0:0:
152,376,160979,1,8,0:3:0:0:
284,232,161152,1,0,0:0:0:0:
284,232,161238,1,0,0:0:0:0:
284,232,161324,2,0,L|344:240,1,48,0|0,0:0|0:0,0:0:0:0:
249,310,161496,6,0,B|204:256|204:256|212:176,1,144,0|0,1:0|0:0,0:0:0:0:
216,148,161841,1,0,1:0:0:0:
128,36,162014,2,0,L|140:144,1,96,0|0,1:0|0:0,0:0:0:0:
128,268,162358,6,0,L|136:192,1,48,8|0,0:3|0:0,0:0:0:0:
212,60,162531,1,0,0:0:0:0:
11,80,162703,6,0,P|35:83|57:92,1,48,2|0,0:0|0:0,0:0:0:0:
255,184,162876,2,0,P|232:180|210:171,1,48,0|0,1:0|0:0,0:0:0:0:
29,177,163048,6,0,B|104:188|140:132|140:132|124:168|136:200,1,192,0|0,1:0|1:0,0:0:0:0:
200,356,163565,1,2,0:0:0:0:
316,234,163738,2,0,P|335:190|328:144,1,96,8|0,0:3|0:0,0:0:0:0:
264,24,163996,1,0,0:0:0:0:
264,24,164083,2,0,L|256:96,1,48,0|0,0:0|0:0,0:0:0:0:
256,104,164255,6,0,B|288:72|288:72|400:52|400:52|364:100,1,192,0|0,1:0|1:0,0:0:0:0:
208,208,164772,2,0,B|168:184|168:184|152:136,1,96,0|0,1:0|0:0,0:0:0:0:
472,104,165117,6,0,L|447:180,1,48,8|0,0:3|0:0,0:0:0:0:
387,180,165290,2,0,L|404:258,1,48,0|0,0:0|0:0,0:0:0:0:
345,282,165462,2,0,L|371:311,2,24,2|0|2,0:0|0:0|0:0,0:0:0:0:
268,300,165634,6,0,P|260:336|268:364,1,48,2|2,0:0|0:0,0:0:0:0:
336,372,165807,6,0,B|356:318|319:270|315:296|271:252|298:171,1,192,4|0,1:2|1:0,0:0:0:0:
480,60,166324,5,2,0:0:0:0:
376,220,166496,1,8,0:3:0:0:
289,49,166669,1,0,0:0:0:0:
289,49,166755,1,0,0:0:0:0:
289,49,166841,2,0,L|360:40,1,48,0|0,0:0|0:0,0:0:0:0:
496,164,167014,6,0,B|439:155|439:155|411:135|411:135|359:127,1,144,0|0,1:0|0:0,0:0:0:0:
336,124,167358,1,0,1:0:0:0:
216,296,167531,2,0,L|344:280,1,96,0|0,1:0|0:0,0:0:0:0:
136,252,167876,5,8,0:3:0:0:
376,220,168048,1,0,0:0:0:0:
252,204,168221,5,2,0:0:0:0:
272,368,168393,1,0,1:0:0:0:
248,180,168565,6,0,B|152:176|152:176|108:140,1,144,0|0,1:0|0:0,0:0:0:0:
64,88,168910,1,0,1:0:0:0:
32,276,169083,1,2,0:0:0:0:
184,4,169255,6,0,L|180:112,1,96,8|0,0:3|0:0,0:0:0:0:
114,145,169514,1,0,0:0:0:0:
114,145,169600,2,0,L|122:209,1,48,0|0,0:0|0:0,0:0:0:0:
260,308,169772,6,0,B|228:256|152:264|152:264|188:248|196:208,1,192,0|0,1:0|1:0,0:0:0:0:
100,376,170290,2,0,P|136:346|184:343,1,96,0|0,1:0|0:0,0:0:0:0:
56,252,170634,6,0,L|52:324,1,48,8|0,0:3|0:0,0:0:0:0:
194,213,170807,6,0,L|198:132,1,57.5999982421876,0|0,0:0|0:0,0:0:0:0:
312,284,170979,6,0,L|308:356,1,67.1999979492188,2|0,0:0|0:0,0:0:0:0:
452,244,171152,5,0,1:0:0:0:
460,240,171238,1,0,0:0:0:0:
468,236,171324,2,0,B|500:220|500:220|328:208,1,192,4|0,1:2|1:0,0:0:0:0:
216,200,171841,5,2,0:0:0:0:
284,20,172013,1,8,0:3:0:0:
416,164,172186,1,0,0:0:0:0:
416,164,172272,1,0,0:0:0:0:
416,164,172358,2,0,L|428:96,1,48,0|0,0:0|0:0,0:0:0:0:
264,112,172531,6,0,B|316:132|316:132|332:236,1,144,0|0,1:0|0:0,0:0:0:0:
336,252,172876,1,0,1:0:0:0:
180,312,173048,2,0,L|280:316,1,96,0|0,1:0|0:0,0:0:0:0:
504,272,173393,6,0,L|440:280,1,48,8|0,0:3|0:0,0:0:0:0:
256,232,173565,1,0,0:0:0:0:
372,368,173738,6,0,P|384:332|384:304,1,48,2|0,0:0|0:0,0:0:0:0:
396,164,173910,2,0,P|405:186|408:209,1,48,0|0,1:0|0:0,0:0:0:0:
456,277,174083,6,0,B|420:300|372:292|340:256|340:256|324:304|256:316,1,192,0|0,1:0|1:0,0:0:0:0:
184,124,174600,2,0,P|226:100|273:102,1,96,2|8,0:0|0:3,0:0:0:0:
256,232,174945,5,0,0:0:0:0:
252,208,175031,1,0,0:0:0:0:
248,184,175117,1,0,0:0:0:0:
36,164,175290,1,0,1:0:0:0:
184,324,175462,6,0,B|168:332|156:344|156:344|140:276|176:260|172:284|200:224|168:160|72:176|60:272|128:288,1,307.2,0|4,1:0|3:2,0:0:0:0:
16,252,177014,6,0,P|24:288|32:304,1,38.4,2|2,0:0|0:0,0:0:0:0:
112,172,177531,2,0,P|83:173|55:180,2,57.6,2|2|2,0:0|0:0|0:0,0:0:0:0:
120,360,178393,6,0,P|84:352|68:344,1,38.4,2|2,0:0|0:0,0:0:0:0:
200,264,178910,2,0,P|198:292|191:320,2,57.6,2|2|2,0:0|0:0|0:0,0:0:0:0:
500,144,179772,6,0,P|490:100|480:81,1,57.5999982421876,2|2,0:0|0:0,0:0:0:0:
364,216,180290,2,0,P|414:214|462:202,2,86.3999973632813,2|2|2,0:0|0:0|0:0,0:0:0:0:
368,20,181152,6,0,P|411:29|430:39,1,57.5999982421876,2|2,0:0|0:0,0:0:0:0:
296,156,181670,2,0,P|297:105|309:57,2,86.3999973632813,0|0|0,0:0|0:0|0:0,0:0:0:0:
172,120,182531,5,2,0:0:0:0:
172,120,182703,1,2,0:0:0:0:
76,52,183048,2,0,B|80:96|80:96|96:120|96:120|104:184,2,115.2,2|2|2,0:0|0:0|0:0,0:0:0:0:
304,236,183910,5,2,0:0:0:0:
304,236,184082,1,2,0:0:0:0:
400,168,184427,2,0,B|396:212|396:212|380:236|380:236|372:300,2,115.2,2|2|2,0:0|0:0|0:0,0:0:0:0:
460,264,185117,6,0,L|466:340,1,76.8,2|0,0:0|0:0,0:0:0:0:
316,348,185462,5,2,0:0:0:0:
312,368,185548,1,0,0:0:0:0:
240,228,185721,5,0,0:0:0:0:
236,208,185807,1,2,0:0:0:0:
104,96,186065,5,0,0:0:0:0:
38,255,186324,2,0,B|88:244|88:244|136:288|104:352,1,153.6,2|0,0:0|0:0,0:0:0:0:
180,363,186841,2,0,P|140:355|108:335,1,76.8,2|0,0:0|0:0,0:0:0:0:
220,128,187186,5,2,0:0:0:0:
168,280,187358,1,2,0:0:0:0:
38,255,187531,5,2,0:0:0:0:
320,208,187703,1,2,0:0:0:0:
320,208,187790,1,0,0:0:0:0:
320,208,187876,6,0,B|332:100|332:100|352:144,1,144,6|0,0:0|0:0,0:0:0:0:
512,168,188221,2,0,B|464:160|464:160|416:188,1,96,2|0,0:0|0:0,0:0:0:0:
380,16,188565,2,0,B|397:61|397:61|445:89,1,96,2|0,0:0|0:0,0:0:0:0:
346,132,188910,6,0,L|198:144,1,144,2|0,0:0|0:0,0:0:0:0:
92,112,189255,2,0,L|100:0,1,96,2|0,0:0|0:0,0:0:0:0:
184,144,189600,2,0,L|177:239,1,96,2|0,0:0|0:0,0:0:0:0:
40,188,189945,5,2,0:0:0:0:
188,252,190117,1,0,0:0:0:0:
188,252,190203,1,0,0:0:0:0:
188,252,190290,1,2,0:0:0:0:
84,384,190462,1,2,0:0:0:0:
40,312,190634,6,0,B|141:275|125:363|241:327,1,192,2|2,0:0|0:0,0:0:0:0:
112,224,191152,1,0,0:0:0:0:
304,384,191324,2,0,P|306:336|313:288,1,96,2|0,0:0|0:0,0:0:0:0:
240,248,191669,6,0,P|332:240|424:192,1,192,2|2,0:0|0:0,0:0:0:0:
472,36,192186,1,0,0:0:0:0:
488,136,192358,2,0,P|428:108|380:112,1,96,2|0,0:0|0:0,0:0:0:0:
252,164,192703,5,2,0:0:0:0:
316,32,192876,1,0,0:0:0:0:
316,32,192962,1,0,0:0:0:0:
316,32,193048,1,2,0:0:0:0:
336,228,193221,5,2,0:0:0:0:
324,60,193393,2,0,B|320:124|320:124|328:140|328:140|324:240,1,144,2|0,0:0|0:0,0:0:0:0:
164,260,193738,2,0,B|210:271|210:271|254:251,1,96,2|0,0:0|0:0,0:0:0:0:
244,171,194083,2,0,B|197:159|197:159|153:179,1,96,2|0,0:0|0:0,0:0:0:0:
325,201,194427,6,0,B|432:192|432:192|461:217,1,144,2|0,0:0|0:0,0:0:0:0:
408,272,194772,2,0,L|400:384,1,96,2|0,0:0|0:0,0:0:0:0:
476,200,195117,2,0,L|468:88,1,96,2|0,0:0|0:0,0:0:0:0:
324,212,195462,5,2,0:0:0:0:
488,280,195634,1,0,0:0:0:0:
488,280,195721,1,0,0:0:0:0:
488,280,195807,1,2,0:0:0:0:
352,380,195979,1,2,0:0:0:0:
424,340,196152,6,0,B|362:252|451:244|386:141,1,192,2|2,0:0|0:0,0:0:0:0:
316,300,196669,1,0,0:0:0:0:
228,224,196841,2,0,L|360:212,1,96,2|0,0:0|0:0,0:0:0:0:
140,24,197186,6,0,P|176:80|160:192,1,153.6,2|2,0:0|0:0,0:0:0:0:
20,192,197703,1,0,0:0:0:0:
0,108,197876,6,0,L|96:116,1,76.8,2|0,0:0|0:0,0:0:0:0:
206,117,198221,6,0,L|164:176,1,57.5999982421876,2|0,0:0|0:0,0:0:0:0:
95,290,198565,6,0,L|73:245,1,38.4,2|2,0:0|0:0,0:0:0:0:
56,36,198910,5,4,3:2:0:0:
256,56,199255,2,0,L|332:63,1,76.8,2|0,0:1|0:0,0:0:0:0:
64,56,199772,5,0,3:0:0:0:
248,76,199945,2,0,L|294:80,1,38.4,2|0,0:1|0:0,0:0:0:0:
152,108,200290,6,0,L|141:192,2,76.8,0|2|0,3:0|0:1|0:0,0:0:0:0:
132,260,201152,1,0,3:0:0:0:
156,80,201324,2,0,L|160:41,1,38.4,2|0,0:1|0:0,0:0:0:0:
504,124,201669,5,0,3:0:0:0:
307,142,202014,2,0,L|211:151,1,96,2|0,0:1|0:0,0:0:0:0:
496,144,202531,5,0,3:0:0:0:
315,162,202704,2,0,L|268:166,1,48,2|0,0:1|0:0,0:0:0:0:
411,194,203048,6,0,L|423:297,1,96,0|2,3:0|0:1,0:0:0:0:
412,368,203565,1,0,0:0:0:0:
464,308,203738,6,0,P|445:294|421:289,1,48,0|0,0:0|3:0,0:0:0:0:
351,313,204083,2,0,P|337:332|332:356,1,48,2|0,0:1|3:0,0:0:0:0:
52,280,204427,5,0,3:0:0:0:
143,347,204772,2,0,P|200:350|245:316,1,115.199996484375,2|0,0:1|0:0,0:0:0:0:
40,296,205290,5,0,3:0:0:0:
180,276,205462,2,0,P|192:244|192:216,1,57.5999982421876,2|0,0:1|0:0,0:0:0:0:
88,120,205807,6,0,L|104:240,2,115.199996484375,0|2|0,3:0|0:1|0:0,0:0:0:0:
184,208,206669,1,0,3:0:0:0:
36,353,206841,2,0,L|40:285,1,57.5999982421876,2|0,0:1|0:0,0:0:0:0:
160,76,207186,6,0,P|116:44|28:60,1,134.399995898438,0|2,3:0|0:1,0:0:0:0:
204,8,207703,1,0,0:0:0:0:
88,120,207876,2,0,P|90:156|120:197,1,67.1999979492188,0|0,0:0|3:0,0:0:0:0:
39,51,208221,6,0,P|104:40|160:76,1,134.399995898438,2|0,0:1|3:0,0:0:0:0:
40,232,208738,1,0,0:0:0:0:
192,252,208910,2,0,P|144:268|96:260,1,76.8,2|0,0:1|0:0,0:0:0:0:
118,266,209169,1,0,0:0:0:0:
118,266,209255,5,0,0:0:0:0:
160,76,209427,1,0,3:0:0:0:
120,284,209600,1,2,0:1:0:0:
56,152,209772,1,0,0:0:0:0:
216,216,209945,5,4,1:0:0:0:
216,216,210117,1,2,0:0:0:0:
216,216,210290,2,0,B|218:277|218:277|210:293|210:293|214:357,1,144,8|0,0:3|0:0,0:0:0:0:
196,376,210634,2,0,L|308:380,1,96,2|0,0:0|1:0,0:0:0:0:
124,316,210979,5,8,0:3:0:0:
308,232,211152,1,2,0:0:0:0:
308,232,211238,1,0,0:0:0:0:
308,232,211324,2,0,P|324:168|308:120,1,96,0|2,1:0|0:0,0:0:0:0:
80,168,211669,6,0,L|236:180,1,144,8|0,0:3|0:0,0:0:0:0:
240,180,212014,1,2,0:0:0:0:
404,168,212186,1,0,1:0:0:0:
204,304,212358,6,0,L|212:252,1,48,8|0,0:3|0:0,0:0:0:0:
244,52,212531,2,0,L|252:104,1,48,2|0,0:0|0:0,0:0:0:0:
345,241,212703,6,0,B|320:176|320:176|336:104,1,144,0|0,1:0|0:0,0:0:0:0:
344,76,213048,2,0,L|456:64,1,96,8|0,0:3|0:0,0:0:0:0:
345,241,213393,1,2,0:0:0:0:
484,132,213565,5,0,1:0:0:0:
484,132,213652,1,0,0:0:0:0:
484,132,213738,2,0,B|509:197|509:197|493:269,1,144,8|0,0:3|0:0,0:0:0:0:
488,292,214083,1,0,1:0:0:0:
280,316,214255,1,2,0:0:0:0:
417,221,214427,2,0,L|301:233,1,96,8|0,0:3|0:0,0:0:0:0:
148,88,214772,6,0,L|152:136,2,48,2|0|0,0:0|0:0|1:0,0:0:0:0:
100,208,215117,5,8,0:3:0:0:
132,222,215203,1,0,0:0:0:0:
168,223,215289,1,2,0:0:0:0:
201,209,215375,1,0,0:0:0:0:
227,184,215461,5,0,1:0:0:0:
88,28,215634,1,2,0:0:0:0:
20,144,215807,5,8,0:3:0:0:
44,148,215893,1,0,0:0:0:0:
212,44,216065,5,0,0:0:0:0:
236,40,216152,2,0,B|284:32|284:32|328:48,1,96,2|0,0:0|1:0,0:0:0:0:
400,80,216410,1,0,0:0:0:0:
400,80,216496,2,0,L|392:152,1,48,8|0,0:3|0:0,0:0:0:0:
388,288,216669,6,0,P|372:224|336:192,1,96,2|0,0:0|1:0,0:0:0:0:
276,112,217014,2,0,L|288:172,1,48,2|0,0:0|0:0,0:0:0:0:
308,272,217186,1,8,0:3:0:0:
164,176,217358,1,0,0:0:0:0:
152,332,217531,5,2,0:0:0:0:
152,332,217617,1,0,0:0:0:0:
152,332,217703,1,0,1:0:0:0:
36,148,217876,2,0,B|72:116|72:116|56:68,1,96,8|2,0:3|0:0,0:0:0:0:
48,52,218134,1,0,0:0:0:0:
48,52,218221,6,0,B|56:140|56:140|64:156|64:156|72:256,1,192,0|8,1:0|0:3,0:0:0:0:
312,312,218738,1,0,0:0:0:0:
240,232,218910,5,2,0:0:0:0:
244,256,218996,2,0,B|224:300|224:300|236:364,1,96,0|0,0:0|0:0,0:0:0:0:
380,364,219255,2,0,B|400:320|400:320|388:256,1,96,8|2,0:3|0:0,0:0:0:0:
316,284,219514,5,0,0:0:0:0:
316,284,219600,2,0,L|304:368,1,48,0|0,1:0|0:0,0:0:0:0:
152,180,219772,2,0,L|158:227,1,48,2|0,0:0|0:0,0:0:0:0:
388,100,219945,2,0,L|374:197,1,96,8|0,0:3|0:0,0:0:0:0:
164,252,220290,5,2,0:0:0:0:
164,252,220376,1,0,0:0:0:0:
164,252,220462,1,0,1:0:0:0:
304,360,220634,1,8,0:3:0:0:
260,68,220807,1,2,0:0:0:0:
232,200,220979,5,12,0:1:0:0:
232,200,221152,1,0,0:0:0:0:
232,200,221324,1,0,0:0:0:0:
424,264,221496,5,8,0:1:0:0:
424,264,221669,1,0,0:0:0:0:
424,264,221841,1,0,0:0:0:0:
512,80,222014,5,8,0:1:0:0:
512,80,222186,1,0,0:0:0:0:
320,16,222358,5,8,0:1:0:0:
320,16,222531,1,0,0:0:0:0:
320,16,222703,1,0,0:0:0:0:
352,216,222876,5,8,0:1:0:0:
352,216,223048,1,0,0:0:0:0:
352,216,223221,1,0,0:0:0:0:
171,308,223393,5,8,0:1:0:0:
171,308,223565,1,0,0:0:0:0:
27,164,223738,5,8,0:1:0:0:
140,28,223910,1,0,3:0:0:0:
140,28,224083,1,0,3:0:0:0:
0,81,224255,5,8,0:1:0:0:
170,110,224427,1,0,3:0:0:0:
170,110,224600,1,0,3:0:0:0:
52,13,224772,5,8,0:1:0:0:
114,178,224944,1,0,3:0:0:0:
228,44,225117,6,0,L|336:36,1,96,8|0,0:1|3:0,0:0:0:0:
323,36,225462,1,0,3:0:0:0:
292,244,225634,6,0,L|362:161,1,96,8|0,0:1|3:0,0:0:0:0:
354,171,225979,1,0,3:0:0:0:
478,340,226152,6,0,L|470:232,1,96,8|0,0:1|3:0,0:0:0:0:
360,352,226496,5,8,0:1:0:0:
344,348,226669,1,0,3:0:0:0:
216,378,226841,5,8,0:1:0:0:
207,364,227014,1,0,3:0:0:0:
96,296,227186,5,8,0:1:0:0:
100,280,227359,1,0,3:0:0:0:
69,152,227531,5,8,0:1:0:0:
83,143,227704,1,0,3:0:0:0:
152,32,227876,5,8,0:1:0:0:
168,36,228049,1,0,3:0:0:0:
295,5,228221,5,8,0:1:0:0:
304,19,228394,1,0,3:0:0:0:
416,88,228566,5,8,0:1:0:0:
412,104,228739,1,0,0:0:0:0:
442,231,228911,5,8,0:1:0:0:
428,240,229084,1,0,0:0:0:0:
344,348,229255,6,0,L|312:292,1,48,8|0,0:1|0:0,0:0:0:0:
220,318,229427,2,0,L|207:364,1,48,8|0,0:1|0:0,0:0:0:0:
428,240,229600,2,0,L|382:227,1,48,8|0,0:1|0:0,0:0:0:0:
141,256,229772,2,0,L|100:280,1,48,8|0,0:1|0:0,0:0:0:0:
412,104,229945,6,0,L|356:136,1,48,8|0,0:1|0:0,0:0:0:0:
129,156,230117,2,0,L|83:143,1,48,8|0,0:1|0:0,0:0:0:0:
304,19,230290,2,0,L|287:81,1,48,8|0,0:1|0:0,0:0:0:0:
191,77,230462,2,0,L|168:36,1,48,8|0,0:1|0:0,0:0:0:0:
260,230,230634,5,8,0:1:0:0:
233,222,230720,1,8,0:1:0:0:
219,195,230807,1,8,0:1:0:0:
227,169,230893,1,8,0:1:0:0:
253,155,230979,1,8,0:1:0:0:
280,162,231065,1,8,0:1:0:0:
294,188,231151,1,8,0:1:0:0:
286,215,231238,1,8,0:1:0:0:
260,230,231324,6,0,L|264:275,14,24,8|0|0|0|0|0|0|0|0|0|0|0|0|0|0,0:1|0:0|0:0|0:0|0:0|0:0|0:0|0:0|0:0|0:0|0:0|0:0|0:0|0:0|0:0,0:0:0:0:
184,240,232014,6,0,B|240:284|240:284|324:280|324:280|316:284|316:284|324:280|324:280|480:272,1,259.199992089844,4|0,1:0|0:0,0:0:0:0:
512,380,232358,2,0,B|464:352|464:352|328:360,1,172.799994726563,8|0,0:0|0:0,0:0:0:0:
417,228,232703,6,0,B|405:304,1,48,2|0,0:0|0:0,0:0:0:0:
346,358,232876,1,0,1:0:0:0:
324,132,233048,6,0,B|336:156|336:156|328:220,1,72.0000027465821,8|0,0:0|0:0,0:0:0:0:
272,384,233221,2,0,B|260:360|260:360|268:296,1,72.0000027465821,2|0,0:0|0:0,0:0:0:0:
124,152,233393,1,0,1:0:0:0:
104,356,233565,1,2,0:0:0:0:
104,356,233652,1,0,0:0:0:0:
104,356,233738,6,0,B|116:332|116:332|110:287,1,72.0000027465821,8|0,0:0|0:0,0:0:0:0:
52,104,233911,2,0,B|40:128|40:128|45:172,1,72.0000027465821,2|0,0:0|0:0,0:0:0:0:
248,228,234083,6,0,L|152:220,1,72.0000027465821,2|0,0:0|0:0,0:0:0:0:
36,252,234255,1,0,1:0:0:0:
276,40,234427,2,0,B|316:76|316:76|288:200,1,144.000005493164,8|0,0:0|0:0,0:0:0:0:
248,228,234686,1,0,0:0:0:0:
248,228,234772,6,0,P|268:144|144:160,1,244.80000466919,0|0,1:0|0:0,0:0:0:0:
88,344,235117,2,0,B|88:292|52:264|52:264|84:208|84:208|52:172|68:116,1,244.80000466919,8|0,0:0|0:0,0:0:0:0:
20,56,235462,6,0,P|51:45|85:44,1,67.1999979492188,2|0,0:0|0:0,0:0:0:0:
152,256,235634,1,0,1:0:0:0:
144,100,235807,6,0,P|175:89|209:88,1,67.1999979492188,8|0,0:0|0:0,0:0:0:0:
284,296,235979,2,0,P|252:306|218:307,1,67.1999979492188,2|0,0:0|0:0,0:0:0:0:
400,176,236152,1,0,1:0:0:0:
340,16,236324,5,2,0:0:0:0:
340,16,236410,1,0,0:0:0:0:
340,16,236496,2,0,P|340:49|351:81,1,67.1999979492188,8|0,0:0|0:0,0:0:0:0:
420,344,236669,2,0,P|420:310|431:278,1,67.1999979492188,2|0,0:0|0:0,0:0:0:0:
269,197,236841,6,0,B|344:168|328:208|400:176,1,134.399995898438,2|0,0:0|1:0,0:0:0:0:
456,124,237100,1,0,0:0:0:0:
486,195,237186,6,0,B|444:192|428:148|428:148|376:156|356:212|356:212|320:184|269:197,1,273.599992694092,8|0,0:0|0:0,0:0:0:0:
212,284,237531,6,0,P|172:224|228:96,1,172.799994726563,4|0,1:2|0:0,0:0:0:0:
204,112,237790,1,0,0:0:0:0:
280,128,237876,2,0,B|252:180|252:180|36:212,1,259.199992089844,8|0,0:0|0:0,0:0:0:0:
24,296,238221,6,0,L|75:288,1,48,2|0,0:0|0:0,0:0:0:0:
92,284,238393,1,0,1:0:0:0:
54,209,238565,6,0,L|70:97,1,72.0000027465821,8|0,0:0|0:0,0:0:0:0:
204,112,238738,2,0,L|215:41,1,72.0000027465821,2|0,0:0|0:0,0:0:0:0:
352,16,238910,1,0,1:0:0:0:
144,168,239083,5,2,0:0:0:0:
144,168,239169,1,0,0:0:0:0:
144,168,239255,2,0,L|160:280,1,72.0000027465821,8|0,0:0|0:0,0:0:0:0:
300,224,239428,2,0,L|311:296,1,72.0000027465821,2|0,0:0|0:0,0:0:0:0:
452,272,239600,5,2,0:0:0:0:
457,307,239686,1,0,0:0:0:0:
462,343,239772,1,0,1:0:0:0:
144,168,239945,6,0,P|132:100|156:24,1,144.000005493164,8|0,0:0|0:0,0:0:0:0:
342,83,240290,6,0,P|246:55|262:179,1,244.80000466919,0|0,1:0|0:0,0:0:0:0:
398,291,240634,2,0,B|390:231|318:207|318:207|278:275|182:247,1,244.80000466919,8|0,0:0|0:0,0:0:0:0:
244,344,240979,6,0,P|272:340|320:320,1,67.1999979492188,2|0,0:0|0:0,0:0:0:0:
420,120,241152,1,0,1:0:0:0:
214,253,241324,6,0,P|245:240|278:235,1,67.1999979492188,8|0,0:0|0:0,0:0:0:0:
472,192,241496,2,0,P|440:204|407:209,1,67.1999979492188,2|0,0:0|0:0,0:0:0:0:
248,73,241669,6,0,L|244:16,1,57.5999982421876,0|0,3:0|0:0,0:0:0:0:
132,234,241841,2,0,L|128:292,1,57.5999982421876,0|0,3:0|0:0,0:0:0:0:
112,52,242014,1,2,0:1:0:0:
60,164,242186,5,2,0:3:0:0:
91,146,242272,1,2,0:3:0:0:
126,138,242358,1,0,0:0:0:0:
161,142,242444,1,2,0:3:0:0:
195,154,242530,1,2,0:3:0:0:
230,164,242617,1,0,0:0:0:0:
266,163,242703,1,8,0:1:0:0:
300,152,242789,1,0,0:0:0:0:
330,132,242876,6,0,L|412:120,1,57.5999982421876,8|0,0:3|0:0,0:0:0:0:
444,176,243048,6,0,B|492:188|492:188|500:36|500:36|447:60,1,259.199992089844,4|0,1:0|0:0,0:0:0:0:
348,52,243393,2,0,B|360:124|360:124|352:148|352:148|364:224,1,172.799994726563,8|0,0:0|0:0,0:0:0:0:
380,300,243652,1,0,0:0:0:0:
384,320,243738,6,0,L|288:312,1,72.0000027465821,2|0,0:0|0:0,0:0:0:0:
144,220,243910,1,0,1:0:0:0:
232,340,244083,6,0,B|228:304|228:304|239:270,1,72.0000027465821,8|0,0:0|0:0,0:0:0:0:
56,108,244255,2,0,B|60:144|60:144|48:177,1,72.0000027465821,2|0,0:0|0:0,0:0:0:0:
216,136,244427,1,0,1:0:0:0:
80,372,244600,6,0,L|76:260,1,72.0000027465821,2|0,0:0|0:0,0:0:0:0:
219,65,244772,2,0,L|216:136,1,72.0000027465821,8|0,0:0|0:0,0:0:0:0:
288,320,244945,6,0,L|284:208,1,72.0000027465821,2|0,0:0|0:0,0:0:0:0:
408,136,245117,2,0,L|405:207,1,72.0000027465821,2|0,0:0|0:0,0:0:0:0:
508,252,245290,5,0,1:0:0:0:
508,252,245376,1,0,0:0:0:0:
508,252,245462,2,0,B|436:264|436:264|380:216,1,144.000005493164,8|0,0:0|0:0,0:0:0:0:
192,84,245807,6,0,B|232:20|232:20|224:212,1,244.80000466919,0|0,1:0|0:0,0:0:0:0:
32,308,246152,2,0,B|68:288|72:252|72:252|96:212|152:216|152:216|176:284|268:272,1,244.80000466919,8|0,0:0|0:0,0:0:0:0:
352,228,246496,6,0,L|285:238,1,67.1999979492188,2|0,0:0|0:0,0:0:0:0:
0,241,246669,1,0,1:0:0:0:
242,126,246841,6,0,P|226:155|224:189,1,67.1999979492188,8|0,0:0|0:0,0:0:0:0:
152,376,247014,2,0,P|136:346|133:313,1,67.1999979492188,0|0,0:0|0:0,0:0:0:0:
160,48,247186,6,0,B|280:40|280:40|284:32|284:32|280:40|280:40|360:112|360:112|356:120|356:120|360:112|360:112|512:100,2,384,0|8|0,1:0|0:3|3:0,0:0:0:0:
24,284,248048,1,0,1:0:0:0:
24,284,248221,6,0,B|144:276|144:276|148:268|148:268|144:276|144:276|224:348|224:348|220:356|220:356|224:348|224:348|376:336,1,384,2|0,0:1|0:0,0:0:0:0:
360,176,248565,6,0,B|320:132|252:128|252:128|232:208|280:316,1,259.199992089844,4|0,1:2|0:0,0:0:0:0:
412,300,248910,2,0,B|468:276|492:228|492:228|460:204|404:224,1,172.799994726563,8|0,0:0|0:0,0:0:0:0:
260,263,249255,6,0,P|224:239|204:199,1,72.0000027465821,2|0,0:0|0:0,0:0:0:0:
324,28,249427,1,0,1:0:0:0:
128,200,249600,6,0,P|108:161|111:116,1,72.0000027465821,8|0,0:0|0:0,0:0:0:0:
400,16,249772,2,0,P|396:51|379:82,1,72.0000027465821,2|0,0:0|0:0,0:0:0:0:
180,352,249945,1,0,1:0:0:0:
408,160,250117,5,2,0:0:0:0:
408,160,250203,1,0,0:0:0:0:
408,160,250290,2,0,P|387:189|356:207,1,72.0000027465821,8|0,0:0|0:0,0:0:0:0:
104,328,250462,2,0,P|127:290|167:271,1,72.0000027465821,2|0,0:0|0:0,0:0:0:0:
380,284,250634,6,0,P|347:299|311:299,1,72.0000027465821,2|0,0:0|0:0,0:0:0:0:
204,168,250807,1,0,1:0:0:0:
260,372,250979,2,0,P|228:312|264:224,1,144.000005493164,8|0,0:0|0:0,0:0:0:0:
456,344,251324,6,0,B|496:272|468:224|452:236|416:164|460:92,1,244.80000466919,0|0,1:0|0:0,0:0:0:0:
353,151,251669,2,0,B|337:107|381:3|473:27|497:59|481:119|429:111,1,244.80000466919,8|0,0:0|0:0,0:0:0:0:
284,192,252014,6,0,P|273:160|274:126,1,67.1999979492188,2|0,0:0|0:0,0:0:0:0:
472,32,252186,1,0,1:0:0:0:
190,113,252358,2,0,P|194:180|216:244,1,134.399995898438,8|0,0:0|0:0,0:0:0:0:
450,109,252703,6,0,L|442:221,1,72.0000027465821,2|0,0:1|0:0,0:0:0:0:
364,356,252876,1,2,0:3:0:0:
364,356,253048,1,2,0:3:0:0:
292,144,253221,6,0,L|285:236,1,62.3999971435548,2|0,0:1|0:0,0:0:0:0:
221,347,253394,1,2,0:3:0:0:
221,347,253479,1,2,0:3:0:0:
221,347,253566,1,2,0:3:0:0:
136,180,253738,6,0,L|129:272,1,52.8000016113282,2|0,0:1|0:0,0:0:0:0:
80,336,253910,1,8,0:1:0:0:
80,336,253996,1,0,0:0:0:0:
80,336,254083,2,0,B|104:332|104:332|116:320|116:320|144:324|144:324|280:304,1,187.199991430664,4|0,1:0|0:0,0:0:0:0:
312,244,254427,2,0,L|296:384,1,124.79999428711,8|2,0:3|0:0,0:0:0:0:
436,272,254772,1,2,0:0:0:0:
296,160,254945,5,0,1:0:0:0:
296,160,255031,1,0,0:0:0:0:
296,160,255117,2,0,B|272:164|272:164|260:176|260:176|232:172|232:172|96:192,1,187.199991430664,8|0,0:3|0:0,0:0:0:0:
48,148,255462,1,0,1:0:0:0:
372,192,255634,1,2,0:0:0:0:
48,148,255807,2,0,B|28:88|28:88|72:24,1,124.79999428711,8|0,0:3|0:0,0:0:0:0:
115,189,256152,6,0,B|144:201|144:201|178:247,1,62.3999971435548,2|0,0:0|0:0,0:0:0:0:
155,363,256324,2,0,B|150:331|150:331|173:279,1,62.3999971435548,0|0,1:0|0:0,0:0:0:0:
288,239,256496,2,0,B|262:258|262:258|205:264,1,62.3999971435548,8|0,0:3|0:0,0:0:0:0:
232,164,256669,5,2,0:0:0:0:
232,164,256755,1,0,0:0:0:0:
232,164,256841,2,0,B|368:136|368:136|324:108,1,187.199991430664,0|0,1:0|0:0,0:0:0:0:
424,200,257186,2,0,P|452:144|440:80,1,124.79999428711,8|2,0:3|0:0,0:0:0:0:
327,110,257531,1,2,0:0:0:0:
232,40,257704,5,0,1:0:0:0:
232,40,257790,1,0,0:0:0:0:
232,40,257876,2,0,B|96:68|96:68|140:96,1,187.199991430664,8|0,0:3|0:0,0:0:0:0:
64,192,258221,6,0,P|56:144|56:116,1,62.3999971435548,0|0,1:0|0:0,0:0:0:0:
132,120,258393,2,0,P|140:168|140:196,1,62.3999971435548,2|0,0:0|0:0,0:0:0:0:
112,260,258565,1,8,0:3:0:0:
84,52,258738,5,0,0:0:0:0:
84,52,258824,1,0,0:0:0:0:
84,52,258910,2,0,P|124:40|176:48,1,62.3999971435548,2|0,0:0|0:0,0:0:0:0:
256,136,259083,2,0,P|296:148|348:140,1,62.3999971435548,0|0,1:0|0:0,0:0:0:0:
504,48,259255,5,8,0:3:0:0:
473,43,259341,1,0,0:0:0:0:
442,49,259427,1,2,0:0:0:0:
415,63,259513,1,0,0:0:0:0:
393,85,259600,6,0,B|396:120|396:120|400:128|400:128|408:216,1,124.79999428711,4|0,1:2|0:0,0:0:0:0:
407,208,259858,1,0,0:0:0:0:
407,208,259945,1,8,0:3:0:0:
304,52,260117,1,2,0:0:0:0:
340,276,260290,2,0,P|394:303|455:293,1,124.79999428711,2|0,0:0|1:0,0:0:0:0:
268,340,260634,6,0,B|265:305|265:305|261:297|261:297|253:209,1,124.79999428711,8|0,0:3|0:0,0:0:0:0:
254,217,260892,1,0,0:0:0:0:
254,217,260979,1,0,1:0:0:0:
184,360,261151,1,2,0:0:0:0:
321,149,261324,2,0,P|266:121|205:131,1,124.79999428711,8|0,0:3|0:0,0:0:0:0:
99,43,261669,6,0,B|131:43|131:43|155:23,1,62.3999971435548,2|0,0:0|0:0,0:0:0:0:
131,159,261841,2,0,B|115:131|115:131|85:120,1,62.3999971435548,0|0,1:0|0:0,0:0:0:0:
216,74,262014,2,0,B|200:101|200:101|205:132,1,62.3999971435548,8|0,0:3|0:0,0:0:0:0:
200,212,262186,5,2,0:0:0:0:
200,212,262272,1,0,0:0:0:0:
200,212,262358,2,0,B|248:216|280:172|280:172|288:232|348:252,1,187.199991430664,0|0,1:0|0:0,0:0:0:0:
352,248,262703,1,8,0:3:0:0:
492,316,262876,2,0,L|400:328,1,62.3999971435548,2|0,0:0|0:0,0:0:0:0:
404,328,263048,1,2,0:0:0:0:
272,92,263221,5,0,1:0:0:0:
272,92,263307,1,0,0:0:0:0:
272,92,263393,2,0,B|320:88|352:132|352:132|360:72|420:52,1,187.199991430664,8|0,0:3|0:0,0:0:0:0:
480,72,263738,1,0,1:0:0:0:
284,240,263910,6,0,L|277:177,1,62.3999971435548,2|0,0:0|0:0,0:0:0:0:
324,20,264083,1,8,0:3:0:0:
476,248,264255,6,0,B|432:296|432:296|364:292|364:292|356:296|356:296|344:288|344:288|192:276,1,288.000010986329,2|0,0:0|0:0,0:0:0:0:
16,264,265117,6,0,B|136:252|136:252|148:216|192:196,1,187.199991430664,4|0,1:0|0:0,0:0:0:0:
196,196,265462,1,8,0:3:0:0:
300,104,265634,2,0,B|268:160|268:160|288:256,1,124.79999428711,2|2,0:0|0:0,0:0:0:0:
412,292,265979,5,0,1:0:0:0:
412,292,266065,1,0,0:0:0:0:
412,292,266152,2,0,B|292:304|292:304|280:340|236:360,1,187.199991430664,8|0,0:3|0:0,0:0:0:0:
232,360,266497,1,0,1:0:0:0:
424,372,266669,1,2,0:0:0:0:
232,360,266841,2,0,B|160:368|184:332|104:340,1,124.79999428711,8|0,0:3|0:0,0:0:0:0:
80,40,267186,6,0,P|88:88|112:120,1,62.3999971435548,2|0,0:0|0:0,0:0:0:0:
144,184,267358,1,0,1:0:0:0:
40,308,267531,6,0,P|58:283|84:265,1,62.3999971435548,8|0,0:3|0:0,0:0:0:0:
240,200,267703,2,0,P|270:203|298:217,1,62.3999971435548,2|0,0:0|0:0,0:0:0:0:
436,236,267876,6,0,B|456:104|456:104|428:132|380:128,1,187.199991430664,0|0,1:0|0:0,0:0:0:0:
400,48,268221,1,8,0:3:0:0:
444,320,268393,2,0,P|473:311|498:293,2,62.3999971435548,2|0|0,0:0|0:0|0:0,0:0:0:0:
298,217,268738,5,0,1:0:0:0:
298,217,268824,1,0,0:0:0:0:
298,217,268910,2,0,B|318:85|318:85|290:113|242:109,1,187.199991430664,8|0,0:3|0:0,0:0:0:0:
262,29,269255,6,0,P|232:28|192:40,1,62.3999971435548,0|0,1:0|0:0,0:0:0:0:
209,115,269427,2,0,P|239:116|279:104,1,62.3999971435548,2|0,0:0|0:0,0:0:0:0:
400,48,269600,1,8,0:3:0:0:
76,92,269772,5,0,0:0:0:0:
76,92,269858,1,0,0:0:0:0:
76,92,269945,2,0,L|156:80,1,62.3999971435548,2|0,0:0|0:0,0:0:0:0:
400,48,270117,2,0,L|338:57,1,62.3999971435548,0|0,1:0|0:0,0:0:0:0:
240,0,270290,6,0,L|232:104,1,62.3999971435548,8|0,0:3|0:0,0:0:0:0:
228,145,270462,2,0,L|224:208,1,62.3999971435548,2|0,0:0|0:0,0:0:0:0:
168,296,270634,6,0,P|236:228|336:244,1,187.199991430664,4|0,1:2|0:0,0:0:0:0:
440,300,270979,2,0,L|296:324,1,124.79999428711,8|2,0:3|0:0,0:0:0:0:
292,324,271238,1,0,0:0:0:0:
268,328,271324,1,2,0:0:0:0:
44,88,271496,5,0,1:0:0:0:
44,88,271583,1,0,0:0:0:0:
44,88,271669,2,0,P|112:156|212:140,1,187.199991430664,8|0,0:3|0:0,0:0:0:0:
316,84,272014,2,0,L|172:60,1,124.79999428711,0|0,1:0|0:0,0:0:0:0:
168,60,272273,1,0,0:0:0:0:
144,56,272359,1,8,0:3:0:0:
104,252,272531,1,0,0:0:0:0:
196,149,272703,6,0,B|204:176|204:176|204:184|204:184|224:244,1,62.3999971435548,2|0,0:0|0:0,0:0:0:0:
264,364,272876,1,0,1:0:0:0:
59,324,273048,6,0,P|90:332|121:333,1,62.3999971435548,8|0,0:3|0:0,0:0:0:0:
256,280,273221,2,0,P|225:288|194:289,1,62.3999971435548,2|0,0:0|0:0,0:0:0:0:
32,174,273393,6,0,B|115:184|115:184|131:200|131:200|211:208,1,187.199991430664,0|0,1:0|0:0,0:0:0:0:
276,168,273738,1,8,0:3:0:0:
48,260,273910,1,2,0:0:0:0:
48,260,273996,1,0,0:0:0:0:
48,260,274083,1,2,0:0:0:0:
200,132,274255,2,0,B|213:38|213:38|188:12,1,124.79999428711,0|8,1:0|0:3,0:0:0:0:
192,16,274772,6,0,P|156:48|100:56,1,96,0|0,1:0|0:0,0:0:0:0:
280,156,275117,6,0,P|295:201|339:236,1,76.8,2|0,0:0|0:0,0:0:0:0:
152,232,275462,6,0,P|132:264|101:287,1,57.5999982421876,2|2,0:0|0:0,0:0:0:0:
184,328,275807,6,0,P|178:352|189:380,1,38.4,2|0,0:0|0:0,0:0:0:0:
188,372,276065,1,0,0:0:0:0:
196,376,276152,6,0,L|316:368,1,96,4|0,1:0|0:0,0:0:0:0:
384,288,276496,2,0,L|479:294,1,96,8|2,0:3|0:0,0:0:0:0:
316,188,276841,1,2,0:0:0:0:
479,294,277014,1,0,1:0:0:0:
479,294,277100,1,0,0:0:0:0:
479,294,277186,1,8,0:3:0:0:
316,188,277358,1,2,0:0:0:0:
464,60,277531,6,0,P|456:132|412:152,1,96,0|0,1:0|0:0,0:0:0:0:
328,108,277876,2,0,P|336:36|380:16,1,96,8|2,0:3|0:0,0:0:0:0:
161,24,278221,6,0,P|190:61|184:107,1,96,2|0,0:0|1:0,0:0:0:0:
70,143,278566,2,0,P|41:106|48:60,1,96,8|2,0:3|0:0,0:0:0:0:
148,192,278910,6,0,L|140:312,1,96,0|0,1:0|0:0,0:0:0:0:
196,352,279255,1,8,0:3:0:0:
56,296,279427,1,2,0:0:0:0:
232,176,279600,6,0,L|224:296,1,96,2|0,0:0|1:0,0:0:0:0:
225,271,279858,1,0,0:0:0:0:
225,271,279945,1,8,0:3:0:0:
141,287,280117,1,2,0:0:0:0:
316,160,280290,6,0,L|308:280,1,96,0|0,1:0|0:0,0:0:0:0:
444,352,280634,2,0,L|450:256,1,96,8|2,0:3|0:0,0:0:0:0:
300,144,280979,6,0,L|304:204,2,48,2|0|0,0:0|0:0|1:0,0:0:0:0:
452,372,281324,2,0,L|448:324,2,48,8|0|2,0:3|0:0|0:0,0:0:0:0:
484,224,281669,6,0,B|440:244|440:244|372:232,1,96,0|0,1:0|0:0,0:0:0:0:
432,156,282014,1,8,0:3:0:0:
312,220,282186,1,2,0:0:0:0:
312,220,282272,1,0,0:0:0:0:
312,220,282358,5,2,0:0:0:0:
432,156,282531,1,0,1:0:0:0:
324,88,282703,1,8,0:3:0:0:
416,36,282876,1,2,0:0:0:0:
248,52,283048,6,0,P|240:104|264:148,1,96,0|0,1:0|0:0,0:0:0:0:
56,220,283393,2,0,P|64:168|40:124,1,96,8|2,0:3|0:0,0:0:0:0:
150,242,283738,6,0,P|193:223|240:232,1,96,2|0,0:0|1:0,0:0:0:0:
161,29,284083,2,0,P|118:48|72:40,1,96,8|2,0:3|0:0,0:0:0:0:
320,200,284427,6,0,L|329:313,1,96,0|0,1:0|0:0,0:0:0:0:
184,272,284772,1,8,0:3:0:0:
252,328,284945,2,0,L|248:400,2,48,2|0|2,0:0|0:0|0:0,0:0:0:0:
194,186,285290,1,0,1:0:0:0:
80,300,285462,2,0,B|129:304|129:304|169:280,1,96,8|2,0:3|0:0,0:0:0:0:
264,140,285807,6,0,L|272:12,1,96,0|0,1:0|0:0,0:0:0:0:
112,20,286152,2,0,L|106:115,1,96,8|2,0:3|0:0,0:0:0:0:
288,156,286496,6,0,L|348:144,2,48,2|0|0,0:0|0:0|1:0,0:0:0:0:
88,4,286841,2,0,L|28:16,2,48,8|0|2,0:3|0:0|0:0,0:0:0:0:
164,40,287100,1,0,0:0:0:0:
152,52,287186,6,0,B|140:68|140:68|148:164,1,96,4|0,1:2|0:0,0:0:0:0:
212,204,287531,2,0,B|224:220|224:220|216:316,1,96,8|2,0:3|0:0,0:0:0:0:
48,376,287876,1,2,0:0:0:0:
136,244,288048,1,0,1:0:0:0:
136,244,288134,1,0,0:0:0:0:
136,244,288221,1,8,0:3:0:0:
48,376,288393,1,2,0:0:0:0:
280,344,288565,6,0,P|320:364|392:352,1,96,0|0,1:0|0:0,0:0:0:0:
436,268,288910,2,0,P|396:248|324:260,1,96,8|2,0:3|0:0,0:0:0:0:
345,134,289255,6,0,P|393:136|436:116,1,96,2|0,0:0|1:0,0:0:0:0:
370,21,289600,2,0,P|322:19|280:40,1,96,8|2,0:3|0:0,0:0:0:0:
232,112,289945,6,0,L|120:124,1,96,0|0,1:0|0:0,0:0:0:0:
56,132,290290,1,8,0:3:0:0:
280,216,290462,1,2,0:0:0:0:
104,196,290634,2,0,L|216:208,1,96,2|0,0:0|1:0,0:0:0:0:
280,216,290893,1,0,0:0:0:0:
280,216,290979,1,8,0:3:0:0:
52,304,291152,1,2,0:0:0:0:
228,284,291324,6,0,L|116:296,1,96,0|0,1:0|0:0,0:0:0:0:
376,356,291669,2,0,L|471:345,1,96,8|2,0:3|0:0,0:0:0:0:
212,364,292014,6,0,L|156:370,2,48,2|0|0,0:0|0:0|1:0,0:0:0:0:
392,276,292358,2,0,L|439:270,2,48,8|0|2,0:3|0:0|0:0,0:0:0:0:
300,324,292703,6,0,B|312:276|312:276|288:212,1,96,0|0,1:0|0:0,0:0:0:0:
228,284,293048,1,8,0:3:0:0:
308,148,293221,1,2,0:0:0:0:
308,148,293307,1,0,0:0:0:0:
308,148,293393,5,2,0:0:0:0:
228,284,293565,1,0,1:0:0:0:
376,204,293738,1,8,0:3:0:0:
164,232,293910,1,2,0:0:0:0:
240,96,294083,6,0,P|224:152|240:196,1,96,0|0,1:0|0:0,0:0:0:0:
395,55,294427,2,0,P|339:39|295:55,1,96,8|2,0:3|0:0,0:0:0:0:
144,132,294772,6,0,P|154:85|138:41,1,96,2|0,0:0|1:0,0:0:0:0:
0,184,295117,2,0,P|44:200|90:189,1,96,8|2,0:3|0:0,0:0:0:0:
138,41,295462,5,0,1:0:0:0:
220,172,295634,2,0,L|236:108,1,48,0|0,0:0|0:0,0:0:0:0:
264,24,295807,5,8,0:3:0:0:
264,24,295979,2,0,L|292:76,1,48,2|0,0:0|0:0,0:0:0:0:
346,155,296152,5,2,0:0:0:0:
346,155,296324,2,0,L|362:91,1,48,0|0,1:0|0:0,0:0:0:0:
390,7,296497,5,8,0:3:0:0:
390,7,296669,2,0,L|418:59,1,48,2|0,0:0|0:0,0:0:0:0:
472,138,296841,5,0,3:0:0:0:
456,256,297014,1,2,0:0:0:0:
440,374,297186,1,2,0:3:0:0:
472,138,297358,5,2,0:0:0:0:
412,188,297445,2,0,B|392:212|392:212|312:228,1,96,2|0,0:3|0:0,0:0:0:0:
256,208,297703,6,0,L|244:180,2,24,2|0|0,0:0|0:0|0:0,0:0:0:0:
324,248,297876,2,0,L|316:304,1,48,2|0,0:3|0:0,0:0:0:0:
376,340,298048,6,0,L|398:330,2,24,0|0|2,0:0|0:0|0:3,0:0:0:0:
308,372,298221,1,4,3:2:0:0:
256,192,298307,12,0,309255,0:0:0:0:
