osu file format v14

[General]
AudioFilename: audio.mp3
AudioLeadIn: 0
PreviewTime: 131239
Countdown: 0
SampleSet: Soft
StackLeniency: 0.3
Mode: 0
LetterboxInBreaks: 0
WidescreenStoryboard: 0

[Editor]
Bookmarks: 74773,83739,154773,193049
DistanceSpacing: 0.7
BeatDivisor: 4
GridSize: 32
TimelineZoom: 2.8

[Metadata]
Title:Moonbound feat. Yukacco (USAO Remix)
TitleUnicode:Moonbound feat. Yukacco (USAO Remix)
Artist:aran
ArtistUnicode:aran
Creator:Kujinn
Version:Luminescence
Source:
Tags:drum n bass and dnb electro alpha unitone
BeatmapID:1300260
BeatmapSetID:616544

[Difficulty]
HPDrainRate:6
CircleSize:4
OverallDifficulty:8.5
ApproachRate:9.3
SliderMultiplier:1.92
SliderTickRate:1

[Events]
//Background and Video events
0,0,"BG.png",0,0
//Break Periods
//Storyboard Layer 0 (Background)
//Storyboard Layer 1 (Fail)
//Storyboard Layer 2 (Pass)
//Storyboard Layer 3 (Foreground)
//Storyboard Sound Samples

[TimingPoints]
291,344.827586206897,4,2,1,20,1,0
291,-125,4,2,1,20,0,0
5808,-125,4,2,1,25,0,0
8566,-125,4,2,1,30,0,0
11325,-100,4,2,1,50,0,0
32359,-90.9090909090909,4,2,1,50,0,0
32618,-83.3333333333333,4,2,1,50,0,0
32877,-76.9230769230769,4,2,1,50,0,0
33222,-125,4,2,1,50,0,0
33394,-100,4,2,1,50,0,0
55463,-250,4,2,1,45,0,0
77532,-142.857142857143,4,2,1,20,0,0
83049,-142.857142857143,4,2,1,30,0,0
88566,-100,4,2,1,40,0,0
99601,-100,4,2,1,50,0,0
105118,-83.3333333333333,4,2,1,60,0,0
110635,-100,4,2,1,75,0,1
110980,-66.6666666666667,4,2,1,75,0,1
111325,-166.666666666667,4,2,1,75,0,1
111670,-83.3333333333333,4,2,1,75,0,1
112359,-71.4285714285714,4,2,1,75,0,1
112618,-62.5,4,2,1,75,0,1
113049,-100,4,2,1,75,0,1
113394,-90.9090909090909,4,2,1,75,0,1
113739,-66.6666666666667,4,2,1,75,0,1
114084,-142.857142857143,4,2,1,75,0,1
114428,-83.3333333333334,4,2,1,75,0,1
115118,-71.4285714285714,4,2,1,75,0,1
115463,-62.5,4,2,1,75,0,1
116153,-58.8235294117647,4,2,1,75,0,1
116497,-66.6666666666667,4,2,1,75,0,1
116842,-166.666666666667,4,2,1,75,0,1
117187,-83.3333333333334,4,2,1,75,0,1
117877,-71.4285714285714,4,2,1,75,0,1
118222,-62.5,4,2,1,75,0,1
118566,-100,4,2,1,75,0,1
118911,-90.9090909090909,4,2,1,75,0,1
119256,-62.5,4,2,1,75,0,1
119601,-142.857142857143,4,2,1,75,0,1
119946,-71.4285714285714,4,2,1,75,0,1
120291,-100,4,2,1,75,0,0
121670,-58.8235294117647,4,2,1,75,0,1
122187,-66.6666666666667,4,2,1,75,0,1
122704,-133.333333333333,4,2,1,75,0,1
123049,-66.6666666666667,4,2,1,75,0,1
124084,-58.8235294117647,4,2,1,75,0,1
124428,-90.9090909090909,4,2,1,75,0,1
124773,-66.6666666666667,4,2,1,75,0,1
125118,-50,4,2,1,75,0,1
125161,-50,4,2,1,5,0,1
125463,-100,4,2,1,75,0,1
125808,-71.4285714285715,4,2,1,75,0,1
126842,-62.5,4,2,1,75,0,1
127187,-90.9090909090909,4,2,1,75,0,1
127532,-66.6666666666667,4,2,1,75,0,1
127877,-166.666666666667,4,2,1,75,0,1
128222,-83.3333333333333,4,2,1,75,0,1
128566,-55.5555555555556,4,2,1,75,0,1
128739,-71.4285714285714,4,2,1,75,0,1
129084,-55.5555555555556,4,2,1,75,0,1
129256,-71.4285714285714,4,2,1,75,0,1
129859,-90.9090909090909,4,2,1,75,0,1
130291,-66.6666666666667,4,2,1,75,0,1
130635,-50,4,2,1,75,0,1
130678,-50,4,2,1,5,0,1
130980,-125,4,2,1,75,0,1
131325,-90.909090909091,4,2,1,75,0,1
132704,-86.9565217391304,4,2,1,60,0,0
154084,-111.111111111111,4,2,1,60,0,0
154773,-86.9565217391304,4,2,1,60,0,0
174084,-86.9565217391304,4,2,1,45,0,0
174773,-100,4,2,1,40,0,0
175463,-125,4,2,1,35,0,0
175808,-142.857142857143,4,2,1,30,0,0
176153,-166.666666666667,4,2,1,25,0,0
176497,-200,4,2,1,20,0,0
176842,-125,4,2,1,20,0,0
179601,-125,4,2,1,25,0,0
182359,-111.111111111111,4,2,1,30,0,0
185118,-111.111111111111,4,2,1,35,0,0
187877,-100,4,2,1,40,0,0
197187,-100,4,2,1,30,0,0
198222,-100,4,2,1,20,0,0
198394,-100,4,2,1,15,0,0
198566,-100,4,2,1,10,0,0
198739,-100,4,2,1,5,0,0
198911,-125,4,2,1,20,0,0
201670,-125,4,2,1,25,0,0
204428,-125,4,2,1,30,0,0
207187,-125,4,2,1,35,0,0
209946,-100,4,2,1,40,0,0
220980,-100,4,2,1,50,0,0
226497,-100,4,2,1,60,0,0
232015,-90.9090909090909,4,2,1,75,0,1
232359,-66.6666666666667,4,2,1,75,0,1
232704,-100,4,2,1,75,0,1
233049,-71.4285714285714,4,2,1,75,0,1
233566,-62.5,4,2,1,75,0,1
234084,-71.4285714285714,4,2,1,75,0,1
234428,-58.8235294117647,4,2,1,75,0,1
234773,-90.9090909090909,4,2,1,75,0,1
235118,-66.6666666666667,4,2,1,75,0,1
235463,-55.5555555555556,4,2,1,75,0,1
235808,-71.4285714285714,4,2,1,75,0,1
236497,-83.3333333333333,4,2,1,75,0,1
236842,-71.4285714285714,4,2,1,75,0,1
237187,-166.666666666667,4,2,1,75,0,1
237532,-58.8235294117647,4,2,1,75,0,1
237877,-66.6666666666667,4,2,1,75,0,1
238222,-100,4,2,1,75,0,1
238566,-71.4285714285714,4,2,1,75,0,1
238911,-62.5,4,2,1,75,0,1
239601,-71.4285714285714,4,2,1,75,0,1
239946,-50,4,2,1,75,0,1
240291,-90.9090909090909,4,2,1,75,0,1
240635,-66.6666666666667,4,2,1,75,0,1
240980,-55.5555555555556,4,2,1,75,0,1
241325,-71.4285714285714,4,2,1,75,0,1
241670,-71.4285714285714,4,2,1,75,0,0
243049,-90.9090909090909,4,2,1,75,0,1
243394,-66.6666666666667,4,2,1,75,0,1
243739,-100,4,2,1,75,0,1
244084,-71.4285714285714,4,2,1,75,0,1
244601,-62.5,4,2,1,75,0,1
245118,-83.3333333333333,4,2,1,75,0,1
245463,-58.8235294117647,4,2,1,75,0,1
245808,-83.3333333333333,4,2,1,75,0,1
246153,-66.6666666666667,4,2,1,75,0,1
246497,-55.5555555555556,4,2,1,75,0,1
246842,-166.666666666667,4,2,1,75,0,1
247187,-50,4,2,1,75,0,1
247230,-50,4,2,1,5,0,1
247532,-55.5555555555556,4,2,1,75,0,1
247575,-55.5555555555556,4,2,1,5,0,1
247877,-62.5,4,2,1,75,0,1
247920,-62.5,4,2,1,5,0,1
248049,-62.5,4,2,1,75,0,1
248222,-142.857142857143,4,2,1,75,0,1
248566,-76.9230769230769,4,2,1,75,0,1
248911,-66.6666666666667,4,2,1,75,0,1
249256,-100,4,2,1,75,0,1
249601,-71.4285714285714,4,2,1,75,0,1
250118,-62.5,4,2,1,75,0,1
250980,-58.8235294117647,4,2,1,75,0,1
251325,-71.4285714285714,4,2,1,75,0,1
251670,-83.3333333333333,4,2,1,75,0,1
252015,-66.6666666666667,4,2,1,75,0,1
252359,-100,4,2,1,75,0,1
252704,-83.3333333333333,4,2,1,75,0,1
254084,-86.9565217391304,4,2,1,60,0,0
264601,-86.9565217391304,4,2,1,50,0,0
265118,-86.9565217391304,4,2,1,60,0,0
274773,-125,4,2,1,40,0,0
275808,-166.666666666667,4,2,1,20,0,0
276153,-100,4,2,1,50,0,0
297187,-90.9090909090909,4,2,1,60,0,0
297446,-83.3333333333333,4,2,1,60,0,0
297704,-76.9230769230769,4,2,1,60,0,0
298222,-125,4,2,1,30,0,0
303739,-125,4,2,1,25,0,0
306497,-166.666666666667,4,2,1,20,0,0
307877,-200,4,2,1,15,0,0

[Colours]
Combo1 : 253,228,179
Combo2 : 153,10,165
Combo3 : 230,47,111
Combo4 : 248,99,207
Combo5 : 239,36,31
Combo6 : 237,145,41

[HitObjects]
183,63,291,6,0,L|102:72,1,76.8,4|0,0:0|0:0,0:0:0:0:
0,25,635,1,8,0:0:0:0:
53,158,808,1,0,0:0:0:0:
53,158,894,1,0,0:0:0:0:
53,158,980,2,0,L|65:218,1,38.4,0|0,0:0|0:0,0:0:0:0:
139,249,1153,1,0,0:0:0:0:
201,140,1325,2,0,P|249:132|291:158,1,76.8,8|0,0:0|0:0,0:0:0:0:
349,211,1670,6,0,L|457:202,1,76.8,0|0,0:0|0:0,0:0:0:0:
343,322,2015,1,8,0:0:0:0:
239,254,2187,2,0,L|236:216,4,38.4
225,358,2704,2,0,P|176:364|135:336,1,76.8,8|0,0:0|0:0,0:0:0:0:
113,262,3049,6,0,L|11:269,1,76.8
152,353,3394,1,8,0:0:0:0:
236,230,3566,1,0,0:0:0:0:
236,230,3653,1,0,0:0:0:0:
236,230,3739,2,0,L|243:156,1,38.4,0|0,0:0|0:0,0:0:0:0:
145,187,3911,1,0,0:0:0:0:
99,83,4084,2,0,P|97:27|120:-9,1,76.8,8|0,0:0|0:0,0:0:0:0:
252,58,4428,6,0,L|343:50,1,76.8,0|0,0:0|0:0,0:0:0:0:
429,11,4773,1,8,0:0:0:0:
398,129,4946,2,0,L|407:196,4,38.4,0|0|0|0|0,0:0|0:0|0:0|0:0|0:0,0:0:0:0:
314,216,5463,2,0,L|323:292,1,76.8,8|0,0:0|0:0,0:0:0:0:
194,142,5808,6,0,P|142:129|103:142,1,76.8,2|2,0:2|0:2,0:2:0:0:
28,199,6153,1,10,0:2:0:0:
125,281,6325,1,2,0:2:0:0:
125,281,6411,1,0,0:2:0:0:
125,281,6497,2,0,L|136:347,1,38.4,2|0,0:2|0:2,0:2:0:0:
201,374,6670,1,2,0:2:0:0:
324,343,6842,2,0,L|336:255,1,76.8,10|2,0:2|0:2,0:2:0:0:
396,162,7187,6,0,P|447:151|489:162,1,76.8,2|2,0:2|0:2,0:2:0:0:
334,266,7532,1,10,0:2:0:0:
275,164,7704,2,0,L|282:109,4,38.4,2|0|2|0|2,0:2|0:2|0:2|0:2|0:2,0:2:0:0:
188,20,8222,1,10,0:2:0:0:
347,65,8394,1,2,0:2:0:0:
208,106,8566,6,0,P|166:126|117:120,1,76.8,2|2,0:2|0:2,0:2:0:0:
43,81,8911,1,8,0:2:0:0:
158,219,9084,1,2,0:2:0:0:
158,219,9170,1,0,0:2:0:0:
158,219,9256,2,0,L|119:214,1,38.4,2|0,0:2|0:2,0:2:0:0:
23,263,9428,1,2,0:2:0:0:
228,297,9601,1,10,0:2:0:0:
103,351,9773,1,2,0:2:0:0:
257,187,9946,6,0,P|308:191|355:224,1,76.8,2|2,0:2|0:2,0:2:0:0:
384,356,10291,2,0,P|374:304|387:260,1,76.8,10|2,0:2|0:2,0:2:0:0:
474,160,10635,1,2,0:2:0:0:
455,312,10808,1,2,0:2:0:0:
336,169,10980,1,2,0:2:0:0:
479,174,11153,1,2,0:2:0:0:
302,314,11325,6,0,P|234:319|197:294,1,96,4|0,3:0|0:0,0:0:0:0:
378,222,11670,1,8,0:0:0:0:
255,106,11842,1,0,0:0:0:0:
266,135,11928,1,0,0:0:0:0:
270,168,12015,1,0,0:0:0:0:
270,200,12101,1,0,0:0:0:0:
261,231,12187,1,0,3:0:0:0:
173,351,12359,2,0,L|125:345,1,48,8|0,0:0|0:0,0:0:0:0:
31,334,12532,1,0,0:0:0:0:
91,120,12704,6,0,P|98:190|80:230,1,96,0|0,3:0|0:0,0:0:0:0:
0,84,13049,1,8,0:0:0:0:
154,18,13222,1,0,0:0:0:0:
154,18,13308,1,0,0:0:0:0:
154,18,13394,2,0,L|215:26,1,48
311,106,13566,2,0,L|239:114,1,48,0|0,3:0|0:0,0:0:0:0:
153,197,13739,1,8,0:0:0:0:
424,234,13911,1,0,0:0:0:0:
424,234,13997,1,0,0:0:0:0:
424,234,14084,6,0,P|439:180|411:112,1,96,0|0,3:0|0:0,0:0:0:0:
259,250,14428,1,8,0:0:0:0:
331,337,14601,1,0,0:0:0:0:
362,333,14687,1,0,0:0:0:0:
394,330,14773,1,0,0:0:0:0:
427,325,14859,1,0,0:0:0:0:
458,320,14946,1,0,3:0:0:0:
361,189,15118,2,0,L|300:199,1,48,8|0,0:0|0:0,0:0:0:0:
209,277,15291,1,0,0:0:0:0:
65,89,15463,6,0,B|46:136|46:136|63:182,1,96,0|0,3:0|0:0,0:0:0:0:
147,136,15808,1,8,0:0:0:0:
0,242,15980,1,0,0:0:0:0:
0,242,16066,1,0,0:0:0:0:
0,242,16153,2,0,L|11:309,1,48
133,368,16325,2,0,L|144:300,1,48,0|0,3:0|0:0,0:0:0:0:
241,230,16497,1,8,0:0:0:0:
331,336,16670,1,0,0:0:0:0:
437,185,16842,6,0,L|447:90,1,96,0|0,3:0|0:0,0:0:0:0:
320,26,17187,1,8,0:0:0:0:
230,160,17359,1,0,0:0:0:0:
255,181,17446,1,0,0:0:0:0:
286,186,17532,1,0,0:0:0:0:
318,177,17618,1,0,0:0:0:0:
343,158,17704,1,0,3:0:0:0:
197,50,17877,2,0,L|134:47,1,48,8|0,0:0|0:0,0:0:0:0:
49,43,18049,1,0,0:0:0:0:
104,252,18222,6,0,B|125:220|125:220|113:131,1,96,0|0,3:0|0:0,0:0:0:0:
0,160,18566,1,8,0:0:0:0:
39,298,18739,1,0,0:0:0:0:
59,322,18825,1,0,0:0:0:0:
89,335,18911,1,0,0:0:0:0:
120,330,18997,1,0,0:0:0:0:
150,317,19084,1,0,3:0:0:0:
262,238,19256,2,0,L|328:253,1,48,8|0,0:0|0:0,0:0:0:0:
400,343,19428,1,0,0:0:0:0:
470,181,19601,6,0,L|456:63,1,96,0|0,3:0|0:0,0:0:0:0:
329,19,19946,1,8,0:0:0:0:
213,124,20118,1,0,0:0:0:0:
240,142,20204,1,0,0:0:0:0:
272,154,20290,1,0,0:0:0:0:
304,147,20377,1,0,0:0:0:0:
336,137,20463,1,0,3:0:0:0:
409,229,20635,2,0,L|398:316,1,48,8|0,0:0|0:0,0:0:0:0:
270,359,20808,1,0,0:0:0:0:
156,182,20980,6,0,P|107:162|44:173,1,96,0|0,3:0|0:0,0:0:0:0:
90,303,21325,1,8,0:0:0:0:
246,202,21497,1,0,0:0:0:0:
246,202,21584,1,0,0:0:0:0:
246,202,21670,2,0,L|237:136,1,48
320,37,21842,2,0,L|283:67,1,48,0|0,3:0|0:0,0:0:0:0:
140,54,22015,2,0,L|183:76,1,48,8|0,0:0|0:0,0:0:0:0:
336,148,22187,1,0,0:0:0:0:
160,268,22359,6,0,L|47:255,1,96,4|0,3:0|0:0,0:0:0:0:
45,131,22704,1,8,0:0:0:0:
238,204,22877,1,0,0:0:0:0:
245,234,22963,1,0,0:0:0:0:
253,266,23049,1,0,0:0:0:0:
243,296,23135,1,0,0:0:0:0:
231,327,23222,1,0,3:0:0:0:
64,257,23394,2,0,P|61:226|72:191,1,48,8|0,0:0|0:0,0:0:0:0:
126,150,23566,1,0,0:0:0:0:
300,97,23739,6,0,L|425:123,1,96,0|0,3:0|0:0,0:0:0:0:
491,215,24084,1,8,0:0:0:0:
379,314,24256,1,0,0:0:0:0:
379,314,24342,1,0,0:0:0:0:
379,314,24428,1,0,0:0:0:0:
379,314,24515,1,0,0:0:0:0:
379,314,24601,2,0,L|317:327,1,48,0|0,3:0|0:0,0:0:0:0:
226,366,24773,2,0,L|165:354,1,48,8|0,0:0|0:0,0:0:0:0:
54,321,24946,1,0,0:0:0:0:
165,152,25118,6,0,B|182:185|182:185|164:269,1,96,0|0,3:0|0:0,0:0:0:0:
66,106,25463,1,8,0:0:0:0:
253,68,25635,1,0,0:0:0:0:
256,101,25722,1,0,0:0:0:0:
259,133,25808,1,0,0:0:0:0:
261,165,25894,1,0,0:0:0:0:
265,197,25980,1,0,3:0:0:0:
180,317,26153,2,0,P|139:312|120:298,1,48,8|0,0:0|0:0,0:0:0:0:
77,249,26325,1,0,0:0:0:0:
265,197,26497,6,0,L|397:211,1,96,0|0,3:0|0:0,0:0:0:0:
455,300,26842,1,8,0:0:0:0:
404,85,27015,1,0,0:0:0:0:
404,85,27101,1,0,0:0:0:0:
404,85,27187,2,0,L|344:97,1,48
237,23,27359,2,0,L|271:78,1,48,0|0,3:0|0:0,0:0:0:0:
262,198,27532,2,0,L|291:113,1,48,8|0,0:0|0:0,0:0:0:0:
332,14,27704,1,0,0:0:0:0:
109,99,27877,6,0,B|91:148|91:148|118:214,1,96,0|0,3:0|0:0,0:0:0:0:
180,142,28222,1,8,0:0:0:0:
30,196,28394,1,0,0:0:0:0:
25,228,28480,1,0,0:0:0:0:
21,260,28566,1,0,0:0:0:0:
36,289,28653,1,0,0:0:0:0:
54,315,28739,1,0,3:0:0:0:
179,365,28911,2,0,L|255:350,1,48,8|0,0:0|0:0,0:0:0:0:
310,334,29084,1,0,0:0:0:0:
374,160,29256,6,0,B|324:145|324:145|258:166,1,96,0|0,3:0|0:0,0:0:0:0:
412,273,29601,1,8,0:0:0:0:
468,82,29773,1,0,0:0:0:0:
468,82,29859,1,0,0:0:0:0:
468,82,29946,1,0,0:0:0:0:
468,82,30032,1,0,0:0:0:0:
468,82,30118,2,0,L|406:75,1,48,0|0,3:0|0:0,0:0:0:0:
306,24,30291,2,0,L|238:42,1,48,8|0,0:0|0:0,0:0:0:0:
149,76,30463,1,0,0:0:0:0:
73,264,30635,6,0,L|59:132,1,96,0|0,3:0|0:0,0:0:0:0:
194,167,30980,1,8,0:0:0:0:
131,324,31153,1,0,0:0:0:0:
101,337,31239,1,0,0:0:0:0:
68,343,31325,1,0,0:0:0:0:
36,335,31411,1,0,0:0:0:0:
9,316,31497,1,0,3:0:0:0:
160,211,31670,2,0,L|237:225,1,48,8|0,0:0|0:0,0:0:0:0:
298,238,31842,1,0,0:0:0:0:
448,90,32015,6,0,B|376:64|376:64|301:97,1,144,0|0,3:0|0:0,0:0:0:0:
298,238,32359,2,0,L|305:172,1,52.8000016113282,8|0,0:0|0:0,0:0:0:0:
221,128,32532,1,0,0:0:0:0:
221,128,32618,2,0,L|103:117,1,115.199996484375,8|0,0:0|0:0,0:0:0:0:
41,195,32877,2,0,L|54:257,1,62.3999971435548,0|0,3:0|0:0,0:0:0:0:
73,340,33049,1,8,0:0:0:0:
444,279,33222,5,0,0:0:0:0:
444,279,33308,1,0,0:0:0:0:
444,279,33394,2,0,L|454:168,1,96,4|0,3:0|0:0,0:0:0:0:
391,77,33739,2,0,B|344:58|344:58|269:77,1,96,8|0,0:0|0:0,0:0:0:0:
300,69,33997,1,0,0:0:0:0:
300,69,34084,1,0,0:0:0:0:
207,188,34256,2,0,L|138:180,1,48,0|0,3:0|0:0,0:0:0:0:
72,88,34428,2,0,B|121:68|121:68|188:102,1,96,8|0,0:0|0:0,0:0:0:0:
206,300,34773,6,0,L|78:289,1,96,0|0,3:0|0:0,0:0:0:0:
281,373,35118,1,8,0:0:0:0:
227,205,35291,1,0,0:0:0:0:
227,205,35377,1,0,0:0:0:0:
227,205,35463,2,0,L|236:131,1,48
299,93,35635,2,0,L|357:68,1,48,0|0,3:0|0:0,0:0:0:0:
201,78,35808,2,0,P|164:36|73:42,1,144,8|0,0:0|0:0,0:0:0:0:
123,108,36153,6,0,B|103:140|103:140|115:231,1,96,0|0,3:0|0:0,0:0:0:0:
224,359,36497,2,0,L|230:262,1,96,8|0,0:0|0:0,0:0:0:0:
229,263,36756,1,0,0:0:0:0:
229,263,36842,1,0,0:0:0:0:
110,197,37015,2,0,L|62:193,1,48,0|0,3:0|0:0,0:0:0:0:
29,306,37187,2,0,B|77:323|77:323|155:301,1,96,8|0,0:0|0:0,0:0:0:0:
316,126,37532,6,0,B|370:113|370:113|434:142,1,96,0|0,3:0|0:0,0:0:0:0:
333,247,37877,1,8,0:0:0:0:
217,151,38049,1,0,0:0:0:0:
217,151,38135,1,0,0:0:0:0:
217,151,38222,2,0,L|223:81,1,48
140,34,38394,2,0,L|136:82,1,48,0|0,3:0|0:0,0:0:0:0:
82,168,38566,2,0,B|39:185|39:185|7:139|40:81,1,144,8|0,0:0|0:0,0:0:0:0:
82,168,38911,6,0,L|74:284,1,96,0|0,3:0|0:0,0:0:0:0:
174,353,39256,1,8,0:0:0:0:
304,235,39428,1,0,0:0:0:0:
270,216,39515,1,0,0:0:0:0:
234,201,39601,1,0,0:0:0:0:
196,209,39687,1,0,0:0:0:0:
160,223,39773,1,0,3:0:0:0:
325,338,39946,2,0,L|388:344,1,48,8|0,0:0|0:0,0:0:0:0:
470,351,40118,1,0,0:0:0:0:
386,247,40291,6,0,P|379:191|408:136,1,96,0|0,3:0|0:0,0:0:0:0:
450,60,40635,2,0,L|394:49,1,48,8|0,0:0|0:0,0:0:0:0:
274,129,40808,1,0,0:0:0:0:
274,129,40894,1,0,0:0:0:0:
274,129,40980,2,0,L|210:137,1,48
36,155,41153,1,0,3:0:0:0:
111,64,41325,2,0,B|144:101|144:101|136:237,1,144,8|0,0:0|0:0,0:0:0:0:
86,264,41670,6,0,B|133:282|133:282|203:262,1,96,0|0,3:0|0:0,0:0:0:0:
292,225,42015,1,8,0:0:0:0:
397,340,42187,1,0,0:0:0:0:
358,338,42273,1,0,0:0:0:0:
319,338,42359,1,0,0:0:0:0:
280,337,42446,1,0,0:0:0:0:
241,333,42532,1,0,3:0:0:0:
400,260,42704,2,0,P|428:228|437:197,1,48,8|0,0:0|0:0,0:0:0:0:
368,151,42877,2,0,P|377:124|375:89,1,48
230,28,43049,6,0,P|178:19|124:46,1,96,0|0,3:0|0:0,0:0:0:0:
70,124,43394,2,0,L|90:238,1,96,8|0,0:0|0:0,0:0:0:0:
86,218,43653,1,0,0:0:0:0:
86,218,43739,1,0,0:0:0:0:
196,323,43911,2,0,L|204:251,1,48,0|0,3:0|0:0,0:0:0:0:
295,188,44084,2,0,B|344:174|344:174|400:205,1,96,8|0,0:0|0:0,0:0:0:0:
190,340,44428,6,0,L|82:326,1,96,4|0,3:0|0:0,0:0:0:0:
17,191,44773,1,8,0:0:0:0:
132,74,44946,1,0,0:0:0:0:
132,74,45032,1,0,0:0:0:0:
132,74,45118,2,0,L|148:133,1,48
244,222,45291,1,0,3:0:0:0:
255,126,45463,2,0,L|244:222,1,96,8|0,0:0|0:0,0:0:0:0:
347,59,45808,6,0,B|394:74|394:74|438:58,1,96,0|0,3:0|0:0,0:0:0:0:
228,39,46153,1,8,0:0:0:0:
356,216,46325,1,0,0:0:0:0:
356,216,46411,1,0,0:0:0:0:
356,216,46497,2,0,L|366:145,1,48
250,269,46670,2,0,L|240:198,1,48,0|0,3:0|0:0,0:0:0:0:
187,340,46842,2,0,P|123:352|74:326,1,96,8|0,0:0|0:0,0:0:0:0:
243,221,47187,6,0,B|293:206|293:206|364:236,1,96,0|0,3:0|0:0,0:0:0:0:
140,274,47532,2,0,L|131:160,1,96,8|0,0:0|0:0,0:0:0:0:
132,178,47791,1,0,0:0:0:0:
132,178,47877,1,0,0:0:0:0:
53,18,48049,2,0,L|132:29,1,48,0|0,3:0|0:0,0:0:0:0:
184,129,48222,2,0,L|66:146,1,96,8|0,0:0|0:0,0:0:0:0:
270,175,48566,6,0,P|281:121|260:67,1,96,0|0,3:0|0:0,0:0:0:0:
185,91,48911,1,8,0:0:0:0:
356,231,49084,1,0,0:0:0:0:
359,192,49170,1,0,0:0:0:0:
360,153,49256,1,0,0:0:0:0:
364,114,49342,1,0,0:0:0:0:
368,75,49428,1,0,3:0:0:0:
313,315,49601,2,0,P|389:322|450:257,1,144,8|0,0:0|0:0,0:0:0:0:
356,231,49946,6,0,L|249:227,1,96,0|0,3:0|0:0,0:0:0:0:
168,318,50291,1,8,0:0:0:0:
69,223,50463,1,0,0:0:0:0:
69,223,50549,1,0,0:0:0:0:
69,223,50635,2,0,L|77:156,1,48
163,72,50808,2,0,L|171:139,1,48,0|0,3:0|0:0,0:0:0:0:
263,231,50980,2,0,P|278:167|259:124,1,96,8|0,0:0|0:0,0:0:0:0:
168,318,51325,6,0,L|289:322,1,96,0|0,3:0|0:0,0:0:0:0:
364,269,51670,1,8,0:0:0:0:
196,179,51842,1,0,0:0:0:0:
160,165,51928,1,0,0:0:0:0:
123,152,52015,1,0,0:0:0:0:
86,164,52101,1,0,0:0:0:0:
51,179,52187,1,0,3:0:0:0:
126,296,52359,2,0,B|123:152,1,144,8|0,0:0|0:0,0:0:0:0:
88,78,52704,6,0,P|136:73|192:104,1,96,0|0,3:0|0:0,0:0:0:0:
255,263,53049,2,0,L|260:150,1,96,8|0,0:0|0:0,0:0:0:0:
259,167,53308,1,0,0:0:0:0:
259,167,53394,1,0,0:0:0:0:
357,54,53566,1,0,3:0:0:0:
452,219,53739,2,0,P|388:216|352:185,1,96,8|0,0:0|0:0,0:0:0:0:
438,47,54084,6,0,L|424:142,1,96,0|0,3:0|0:0,0:0:0:0:
395,316,54428,1,8,0:0:0:0:
149,219,54601,5,0,0:0:0:0:
161,189,54687,1,0,0:0:0:0:
183,166,54773,1,0,0:0:0:0:
212,154,54859,1,0,0:0:0:0:
244,152,54945,1,0,0:0:0:0:
274,163,55032,1,0,0:0:0:0:
298,184,55118,1,0,0:0:0:0:
217,291,55291,1,0,0:0:0:0:
217,291,55463,6,0,B|240:229|206:169|206:169|248:128|230:57,1,230.4,4|0,0:2|0:2,0:2:0:0:
154,102,56670,6,0,B|86:10|-29:40|-53:129|16:184|74:155|75:132,1,307.2,2|0,0:2|0:2,0:2:0:0:
154,102,58222,6,0,B|212:94|257:147|257:147|266:80|324:60,1,230.4,0|0,0:2|0:2,0:2:0:0:
343,142,59428,6,0,P|372:175|360:288,1,153.6,2|0,0:2|0:2,0:2:0:0:
297,331,60291,2,0,L|252:326,1,38.4,0|0,0:2|0:2,0:2:0:0:
189,264,60635,2,0,L|151:262,1,38.4,0|0,0:2|0:2,0:2:0:0:
90,328,60980,6,0,B|45:252|95:197|95:197|36:193|19:141,1,230.4,0|0,0:2|0:2,0:2:0:0:
97,115,62187,6,0,B|96:74|138:32|205:45|231:126|169:162|169:162|199:195|199:244,1,307.2,2|0,0:2|0:2,0:2:0:0:
114,323,63739,6,0,B|7:282|50:134|146:205|123:255,1,230.4,0|0,0:2|0:2,0:2:0:0:
114,323,64946,6,0,P|166:311|197:221,1,153.6,2|0,0:2|0:2,0:2:0:0:
194,147,65808,2,0,L|248:158,1,38.4,0|0,0:2|0:2,0:2:0:0:
309,203,66153,2,0,L|357:195,1,38.4,0|0,0:2|0:2,0:2:0:0:
386,130,66497,6,0,B|414:122|400:59|330:32|260:126|359:208,1,230.4,4|0,0:2|0:2,0:2:0:0:
404,256,67704,6,0,B|354:227|278:235|229:314|229:314|293:343|293:343|329:316,1,307.2,2|0,0:2|0:2,0:2:0:0:
230,314,69256,6,0,B|151:356|71:294|71:294|106:305|140:286,1,230.4,0|0,0:2|0:2,0:2:0:0:
96,216,70463,6,0,P|76:169|131:73,1,153.6,2|0,0:2|0:2,0:2:0:0:
192,35,71325,2,0,L|248:43,1,38.4,0|0,0:2|0:2,0:2:0:0:
292,96,71670,2,0,L|343:104,1,38.4,0|0,0:2|0:2,0:2:0:0:
256,192,72015,12,0,74773,0:0:0:0:
256,192,74816,12,0,77187,0:0:0:0:
152,178,77532,6,0,P|90:187|27:138,1,134.399995898438,6|10,3:2|0:2,0:2:0:0:
111,90,78049,1,2,0:2:0:0:
111,90,78222,2,0,L|188:98,1,67.1999979492188,2|0,0:2|3:2,0:2:0:0:
265,177,78566,6,0,P|240:234|275:324,1,134.399995898438,10|2,0:2|3:2,0:2:0:0:
354,243,79084,1,2,0:2:0:0:
354,243,79256,2,0,L|366:148,1,67.1999979492188,10|0,0:2|0:2,0:2:0:0:
236,43,79601,1,2,0:2:0:0:
338,78,79773,1,2,3:2:0:0:
256,143,79946,1,10,0:2:0:0:
250,40,80118,1,2,0:2:0:0:
300,220,80291,6,0,P|235:228|173:168,1,134.399995898438,2|10,3:2|0:2,0:2:0:0:
106,68,80808,1,2,0:2:0:0:
106,68,80980,2,0,L|97:151,1,67.1999979492188,2|0,0:2|3:2,0:2:0:0:
18,319,81325,6,0,L|8:160,1,134.399995898438,10|2,0:2|3:2,0:2:0:0:
106,68,81842,1,2,0:2:0:0:
106,68,82014,2,0,L|115:151,1,67.1999979492188,10|0,0:2|0:2,0:2:0:0:
176,332,82359,5,2,0:2:0:0:
232,188,82532,1,2,3:2:0:0:
268,336,82704,1,10,0:2:0:0:
149,243,82877,1,2,0:2:0:0:
291,82,83049,6,0,P|352:66|435:112,1,134.399995898438,2|10,3:2|0:2,0:2:0:0:
481,169,83566,1,2,0:2:0:0:
481,169,83739,2,0,L|471:264,1,67.1999979492188,2|0,0:2|3:2,0:2:0:0:
331,289,84084,6,0,B|268:270|272:322|191:300,1,134.399995898438,10|2,0:2|3:2,0:2:0:0:
88,327,84601,1,2,0:2:0:0:
88,327,84773,2,0,L|98:237,1,67.1999979492188,10|0,0:2|0:2,0:2:0:0:
27,109,85118,5,2,0:2:0:0:
51,199,85291,1,2,3:2:0:0:
104,22,85463,1,10,0:2:0:0:
134,120,85636,1,2,0:2:0:0:
226,58,85808,6,0,B|299:32|284:100|380:65,1,134.399995898438,2|10,3:2|0:2,0:2:0:0:
451,36,86325,1,2,0:2:0:0:
451,36,86497,2,0,L|433:133,1,67.1999979492188,2|0,0:2|3:2,0:2:0:0:
485,197,86842,6,0,B|430:185|430:185|402:203|402:203|341:192,1,134.399995898438,10|2,0:2|3:2,0:2:0:0:
255,151,87359,1,2,0:2:0:0:
255,151,87532,2,0,L|264:218,1,67.1999979492188,10|0,0:2|0:2,0:2:0:0:
178,318,87877,5,2,0:2:0:0:
12,261,88049,1,2,3:2:0:0:
141,164,88222,1,10,0:2:0:0:
85,358,88394,1,2,0:2:0:0:
261,231,88566,6,0,B|338:200|329:277|417:242,1,144,4|0,3:0|0:0,0:0:0:0:
430,236,88911,2,0,L|441:131,1,96,8|0,0:0|0:0,0:0:0:0:
346,22,89256,1,0,0:0:0:0:
346,22,89342,1,0,0:0:0:0:
346,22,89428,2,0,L|291:31,1,48,0|0,3:0|0:0,0:0:0:0:
167,83,89601,6,0,P|224:85|268:130,1,96,8|0,0:0|0:0,0:0:0:0:
187,216,89946,1,0,3:0:0:0:
187,216,90032,1,0,0:0:0:0:
187,216,90118,2,0,L|190:143,1,48
133,278,90291,2,0,B|85:290|85:290|29:266,1,96,8|0,0:0|0:0,0:0:0:0:
94,184,90635,5,0,0:0:0:0:
306,255,90808,1,0,3:0:0:0:
147,353,90980,1,8,0:0:0:0:
191,137,91153,1,0,0:0:0:0:
442,269,91325,6,0,B|380:284|380:284|298:252,1,144,0|0,3:0|0:0,0:0:0:0:
305,254,91670,2,0,P|290:196|317:142,1,96,8|0,0:0|0:0,0:0:0:0:
408,48,92015,1,0,0:0:0:0:
408,48,92101,1,0,0:0:0:0:
408,48,92187,2,0,L|356:38,1,48,0|0,3:0|0:0,0:0:0:0:
247,81,92359,6,0,L|146:95,1,96,8|0,0:0|0:0,0:0:0:0:
118,263,92704,2,0,P|136:208|112:148,1,96,0|0,3:0|0:0,0:0:0:0:
77,111,92963,1,0,0:0:0:0:
77,111,93049,1,8,0:0:0:0:
117,338,93222,1,0,0:0:0:0:
261,157,93394,5,0,0:0:0:0:
53,208,93566,1,0,3:0:0:0:
198,98,93739,1,8,0:0:0:0:
331,259,93911,1,0,0:0:0:0:
225,319,94084,6,0,P|205:259|244:170,1,144,0|0,3:0|0:0,0:0:0:0:
260,156,94428,2,0,L|384:169,1,96,8|0,0:0|0:0,0:0:0:0:
457,94,94773,1,0,0:0:0:0:
457,94,94859,1,0,0:0:0:0:
457,94,94946,2,0,L|444:171,1,48,0|0,3:0|0:0,0:0:0:0:
379,287,95118,6,0,L|369:164,1,96,8|0,0:0|0:0,0:0:0:0:
283,69,95463,2,0,P|233:50|181:57,1,96,0|0,3:0|0:0,0:0:0:0:
199,61,95722,1,0,0:0:0:0:
199,61,95808,2,0,L|193:131,1,48,8|0,0:0|0:0,0:0:0:0:
103,273,95980,2,0,L|95:192,1,48
16,87,96153,5,0,0:0:0:0:
233,186,96325,1,0,3:0:0:0:
6,245,96497,1,8,0:0:0:0:
156,118,96670,1,0,0:0:0:0:
231,372,96842,6,0,B|152:385|181:313|86:331,1,144,0|0,3:0|0:0,0:0:0:0:
101,329,97187,2,0,L|83:233,1,96,8|0,0:0|0:0,0:0:0:0:
165,124,97532,1,0,0:0:0:0:
165,124,97618,1,0,0:0:0:0:
165,124,97704,2,0,L|160:195,1,48,0|0,3:0|0:0,0:0:0:0:
246,92,97877,6,0,B|296:77|296:77|370:112,1,96,8|0,0:0|0:0,0:0:0:0:
400,285,98222,2,0,L|406:176,1,96,0|0,3:0|0:0,0:0:0:0:
410,114,98480,1,0,0:0:0:0:
410,114,98566,1,8,0:0:0:0:
306,205,98739,1,0,0:0:0:0:
441,99,98911,5,0,0:0:0:0:
208,82,99084,1,0,3:0:0:0:
324,229,99256,1,8,0:0:0:0:
341,25,99428,1,0,0:0:0:0:
49,239,99601,6,0,L|33:123,1,96,12|0,0:0|0:0,0:0:0:0:
35,143,99946,1,0,3:0:0:0:
183,48,100118,2,0,L|167:164,1,96,8|0,0:0|0:0,0:0:0:0:
170,143,100463,1,0,3:0:0:0:
324,229,100635,2,0,L|311:134,1,96,8|0,0:0|0:0,0:0:0:0:
485,97,100980,6,0,L|378:83,1,96,8|0,0:0|0:0,0:0:0:0:
389,84,101325,1,0,3:0:0:0:
228,241,101497,2,0,L|335:227,1,96,8|0,0:0|0:0,0:0:0:0:
323,228,101842,1,0,3:0:0:0:
431,372,102015,2,0,L|324:358,1,96,8|0,0:0|0:0,0:0:0:0:
127,354,102359,6,0,P|104:300|68:261,1,96,8|0,0:0|0:0,0:0:0:0:
7,193,102704,1,0,3:0:0:0:
172,214,102877,2,0,P|158:158|131:110,1,96,8|0,0:0|0:0,0:0:0:0:
82,56,103222,1,0,3:0:0:0:
281,171,103394,2,0,P|337:131|370:85,1,96,8|0,0:0|0:0,0:0:0:0:
487,44,103739,6,0,L|476:139,1,96,8|0,0:0|0:0,0:0:0:0:
438,245,104084,1,0,3:0:0:0:
281,171,104256,2,0,B|249:129|249:129|260:59,1,96,8|0,0:0|0:0,0:0:0:0:
350,16,104601,1,0,3:0:0:0:
343,238,104773,2,0,L|463:248,1,96,8|0,0:0|0:0,0:0:0:0:
363,334,105118,5,8,0:0:0:0:
366,342,105291,1,0,0:0:0:0:
343,238,105463,1,8,0:0:0:0:
340,229,105635,1,0,0:0:0:0:
254,331,105808,5,8,0:0:0:0:
255,345,105980,1,0,0:0:0:0:
244,191,106153,1,8,0:0:0:0:
243,177,106325,1,0,0:0:0:0:
111,320,106497,5,8,0:0:0:0:
105,343,106670,1,0,0:0:0:0:
132,160,106842,1,8,0:0:0:0:
135,137,107015,1,0,0:0:0:0:
9,265,107187,5,8,0:0:0:0:
0,302,107359,1,0,0:0:0:0:
42,69,107532,1,8,0:0:0:0:
52,32,107704,1,0,0:0:0:0:
257,269,107877,5,8,0:0:0:0:
14,185,108049,1,8,0:0:0:0:
393,97,108222,5,8,0:0:0:0:
150,181,108394,1,8,0:0:0:0:
431,277,108566,5,8,0:0:0:0:
208,121,108738,1,8,0:0:0:0:
480,113,108911,5,8,0:0:0:0:
257,269,109083,1,8,0:0:0:0:
209,30,109256,5,8,0:0:0:0:
254,35,109342,1,8,0:0:0:0:
289,64,109428,1,8,0:0:0:0:
299,109,109515,1,8,0:0:0:0:
291,155,109601,5,8,0:0:0:0:
348,160,109687,1,8,0:0:0:0:
395,198,109773,1,8,0:0:0:0:
408,257,109860,1,8,0:0:0:0:
93,151,110635,6,0,B|172:138|143:210|242:191,1,144,4|0,3:0|0:0,0:0:0:0:
243,69,110980,6,0,B|195:38|195:38|235:251,1,216.000008239746,0|0,3:0|0:0,0:0:0:0:
345,337,111325,6,0,L|355:245,1,86.3999973632813,8|0,0:0|0:0,0:0:0:0:
345,146,111670,6,0,P|373:142|402:146,1,57.5999982421876
252,266,111842,2,0,P|224:270|196:267,1,57.5999982421876,0|0,3:0|0:0,0:0:0:0:
89,223,112015,2,0,L|69:308,1,57.5999982421876
43,89,112187,2,0,L|11:136,1,57.5999982421876,0|0,3:0|0:0,0:0:0:0:
158,28,112359,6,0,B|239:38|239:38|277:75|277:75|369:85,1,201.599993847656,0|0,3:0|0:0,0:0:0:0:
273,197,112704,2,0,P|252:164|220:143,1,76.8,8|0,0:0|0:0,0:0:0:0:
483,116,112877,2,0,P|461:147|453:185,1,76.8
369,254,113049,6,0,L|357:169,1,48
343,82,113222,1,0,3:0:0:0:
277,279,113394,6,0,B|187:258|220:351|96:313,1,158.400004833985,0|0,3:0|0:0,0:0:0:0:
48,320,113739,6,0,B|95:371|95:371|77:184,1,216.000008239746,0|0,3:0|0:0,0:0:0:0:
134,160,114084,6,0,B|86:141|86:141|20:168,1,100.799996923828,8|0,0:0|0:0,0:0:0:0:
230,187,114428,6,0,L|221:101,1,57.5999982421876
311,55,114601,1,0,3:0:0:0:
338,259,114773,2,0,L|359:197,1,57.5999982421876
463,173,114946,1,0,3:0:0:0:
276,334,115118,6,0,B|208:319|208:319|155:344|155:344|63:321,1,201.599993847656,0|0,3:0|0:0,0:0:0:0:
20,165,115463,6,0,B|58:174|100:154|100:154|149:196|149:196|205:175|249:194,1,230.4,8|0,0:0|0:0,0:0:0:0:
230,187,115808,2,0,P|237:135|226:95,1,76.8
20,165,115980,2,0,P|13:217|24:257,1,76.8,0|0,3:0|0:0,0:0:0:0:
165,44,116153,6,0,B|81:21|81:21|123:188,1,244.80000466919,4|0,3:0|0:0,0:0:0:0:
277,318,116497,6,0,B|299:287|339:269|339:269|261:294|198:262,1,216.000008239746,0|0,3:0|0:0,0:0:0:0:
353,348,116842,6,0,P|406:360|450:343,1,86.3999973632813,8|0,0:0|0:0,0:0:0:0:
477,246,117187,6,0,P|483:201|477:150,1,57.5999982421876
308,83,117359,2,0,P|302:128|308:179,1,57.5999982421876,0|0,3:0|0:0,0:0:0:0:
300,247,117532,2,0,P|345:253|396:247,1,57.5999982421876
463,77,117704,2,0,P|418:71|367:77,1,57.5999982421876,0|0,3:0|0:0,0:0:0:0:
241,193,117877,6,0,B|177:219|177:219|149:196|149:196|113:208|113:208|66:165,1,201.599993847656,0|0,3:0|0:0,0:0:0:0:
129,106,118222,6,0,P|167:106|224:136,1,76.8,8|0,0:0|0:0,0:0:0:0:
327,232,118394,2,0,P|365:231|422:201,1,76.8
463,77,118566,6,0,L|345:68,1,96,0|0,0:0|3:0,0:0:0:0:
212,15,118911,6,0,B|172:63|172:63|193:203,1,158.400004833985,0|0,3:0|0:0,0:0:0:0:
77,253,119256,6,0,B|112:245|138:227|138:227|182:259|182:259|224:236|224:236|253:266|289:276,1,230.4,0|0,3:0|0:0,0:0:0:0:
307,103,119601,6,0,P|289:134|308:216,1,100.799996923828,8|0,0:0|0:0,0:0:0:0:
429,153,119946,6,0,L|362:161,1,67.1999979492188
223,339,120118,2,0,L|289:347,1,67.1999979492188,0|0,3:0|0:0,0:0:0:0:
394,306,120291,5,2,0:2:0:0:
485,86,120463,1,2,0:2:0:0:
294,196,120635,1,2,0:2:0:0:
495,273,120808,1,0,0:2:0:0:
495,273,120894,1,0,0:2:0:0:
495,273,120980,2,0,L|501:189,1,48,2|0,0:2|0:2,0:2:0:0:
361,60,121153,2,0,L|355:146,1,48,2|0,0:2|0:2,0:2:0:0:
284,242,121325,5,2,0:2:0:0:
233,268,121411,1,0,0:2:0:0:
174,259,121497,1,2,0:2:0:0:
134,222,121584,1,0,0:2:0:0:
76,168,121670,6,0,B|52:109|52:109|186:161,1,163.200003112793,4|0,3:0|0:0,0:0:0:0:
104,297,121928,6,0,B|128:356|128:356|-16:298,1,163.200003112793,0|0,3:0|0:0,0:0:0:0:
224,124,122187,6,0,P|264:119|327:143,1,72.0000027465821,0|0,3:0|0:0,0:0:0:0:
362,246,122359,2,0,P|421:229|384:180,1,144.000005493164,8|0,0:0|0:0,0:0:0:0:
260,276,122704,6,0,L|258:349,1,72.0000027465821,0|0,0:0|3:0,0:0:0:0:
175,254,123049,6,0,P|147:280|113:318,1,72.0000027465821
352,256,123222,2,0,P|378:280|402:306,1,72.0000027465821,0|0,3:0|0:0,0:0:0:0:
258,347,123394,2,0,L|261:261,1,72.0000027465821,0|0,3:0|0:0,0:0:0:0:
178,176,123566,6,0,P|128:181|84:178,1,72.0000027465821
360,177,123739,2,0,P|426:191|452:192,1,72.0000027465821,8|0,0:0|0:0,0:0:0:0:
195,97,123911,2,0,P|174:41|174:25,1,72.0000027465821
349,93,124084,6,0,B|372:61|370:27|370:27|372:91|440:147,1,163.200003112793,0|0,0:0|3:0,0:0:0:0:
337,280,124342,1,0,0:0:0:0:
337,280,124428,6,0,B|262:246|261:322|174:284,1,158.400004833985,0|0,3:0|0:0,0:0:0:0:
141,224,124773,6,0,B|114:84|114:84|185:128,1,216.000008239746,0|0,3:0|0:0,0:0:0:0:
185,288,125118,6,0,P|127:300|104:291,1,48,8|0,0:0|0:0,0:0:0:0:
445,158,125463,6,0,L|452:109,1,48
245,126,125635,2,0,L|259:175,1,48,0|0,3:0|0:0,0:0:0:0:
354,212,125808,6,0,L|342:60,1,134.399995898438,0|0,0:0|3:0,0:0:0:0:
186,19,126153,6,0,P|152:21|121:34,1,67.1999979492188,0|0,3:0|0:0,0:0:0:0:
106,151,126325,2,0,P|85:177|75:209,1,67.1999979492188
189,278,126497,2,0,P|198:326|224:360,1,67.1999979492188,8|0,0:0|0:0,0:0:0:0:
354,212,126670,2,0,P|345:164|319:130,1,67.1999979492188
206,341,126842,6,0,B|280:374|280:374|365:341,1,153.6,0|0,0:0|3:0,0:0:0:0:
438,259,127187,6,0,B|443:192|443:192|460:167|460:167|465:78,1,158.400004833985,4|0,3:0|0:0,0:0:0:0:
338,77,127532,6,0,B|254:59|254:59|211:89|211:89|133:71,1,216.000008239746,0|0,3:0|0:0,0:0:0:0:
135,71,127877,6,0,P|149:111|148:154,1,86.3999973632813,8|0,0:0|0:0,0:0:0:0:
56,343,128222,6,0,L|48:273,1,57.5999982421876
32,132,128394,1,0,3:0:0:0:
195,295,128566,6,0,L|320:311,1,86.3999973632813
429,183,128739,5,0,3:0:0:0:
221,158,128911,1,0,3:0:0:0:
210,277,129084,6,0,L|337:293,1,86.3999973632813
439,165,129256,6,0,P|454:127|456:84,1,67.1999979492188,8|0,0:0|0:0,0:0:0:0:
206,79,129428,2,0,P|209:117|231:165,1,67.1999979492188
326,281,129601,2,0,L|329:189,1,67.1999979492188
329,129,129773,2,0,L|332:37,1,67.1999979492188,0|0,3:0|0:0,0:0:0:0:
121,57,129946,6,0,B|73:83|73:83|93:212,1,158.400004833985,0|0,3:0|0:0,0:0:0:0:
185,224,130291,6,0,P|85:226|57:323,1,216.000008239746,0|0,3:0|0:0,0:0:0:0:
334,294,130635,6,0,L|330:213,1,48,8|0,0:0|0:0,0:0:0:0:
328,169,130980,6,0,L|332:262,1,76.8,0|0,0:0|3:0,0:0:0:0:
448,149,131325,5,2,0:2:0:0:
330,57,131497,1,2,3:2:0:0:
209,126,131670,2,0,P|183:179|201:257,1,105.600003222656,2|0,3:2|0:2,0:2:0:0:
448,149,132015,5,10,0:2:0:0:
210,126,132187,1,2,0:2:0:0:
323,329,132359,1,2,0:2:0:0:
324,275,132446,1,0,0:2:0:0:
326,222,132532,1,2,0:2:0:0:
328,169,132618,1,0,0:2:0:0:
324,90,132704,6,0,P|268:116|249:179,1,110.400002105713,4|0,3:0|0:0,0:0:0:0:
397,347,133049,2,0,P|446:311|458:247,1,110.400002105713,0|0,3:0|0:0,0:0:0:0:
363,258,133394,2,0,B|238:211|272:319|150:281,1,220.800004211426,8|0,0:0|0:0,0:0:0:0:
66,225,133911,6,0,P|54:151|79:104,1,110.400002105713,0|0,3:0|0:0,0:0:0:0:
96,37,134256,2,0,L|11:35,1,55.2000010528565,0|0,3:0|0:0,0:0:0:0:
197,64,134428,2,0,P|259:53|324:92,1,110.400002105713,0|0,3:0|0:0,0:0:0:0:
255,252,134773,2,0,L|242:127,1,110.400002105713,8|0,0:0|0:0,0:0:0:0:
152,340,135118,1,0,0:0:0:0:
89,183,135291,1,0,3:0:0:0:
329,315,135463,6,0,B|383:333|383:333|456:313,1,110.400002105713,0|0,3:0|0:0,0:0:0:0:
488,233,135808,2,0,L|465:101,1,110.400002105713,0|0,3:0|0:0,0:0:0:0:
251,55,136153,2,0,B|304:9|304:9|280:180,1,220.800004211426,8|0,0:0|0:0,0:0:0:0:
94,150,136670,6,0,P|83:89|117:22,1,110.400002105713,0|0,3:0|0:0,0:0:0:0:
109,241,137015,2,0,L|29:238,1,55.2000010528565,0|0,3:0|0:0,0:0:0:0:
167,320,137187,2,0,P|230:325|290:282,1,110.400002105713,0|0,3:0|0:0,0:0:0:0:
431,221,137532,2,0,B|365:168|283:215|283:215|331:221|367:264,1,220.800004211426,8|0,0:0|0:0,0:0:0:0:
418,106,138049,1,0,3:0:0:0:
270,304,138222,6,0,B|214:320|214:320|161:300,1,110.400002105713,0|0,3:0|0:0,0:0:0:0:
60,237,138566,2,0,L|75:361,1,110.400002105713,0|0,3:0|0:0,0:0:0:0:
216,234,138911,2,0,B|159:103|260:137|187:-1,1,220.800004211426,8|0,0:0|0:0,0:0:0:0:
292,163,139428,6,0,P|349:181|421:149,1,110.400002105713,0|0,3:0|0:0,0:0:0:0:
216,234,139773,2,0,L|213:322,1,55.2000010528565,0|0,3:0|0:0,0:0:0:0:
123,356,139946,2,0,B|99:297|99:297|123:242,1,110.400002105713,0|0,3:0|0:0,0:0:0:0:
225,134,140291,2,0,B|141:125|141:125|98:158|98:158|3:147,1,220.800004211426,8|0,0:0|0:0,0:0:0:0:
176,45,140808,2,0,L|261:56,1,55.2000010528565,0|0,3:0|0:0,0:0:0:0:
370,74,140980,6,0,L|369:220,1,110.400002105713,0|0,3:0|0:0,0:0:0:0:
320,259,141325,2,0,B|373:281|373:281|423:262,1,110.400002105713,0|0,3:0|0:0,0:0:0:0:
286,125,141670,2,0,B|220:133|220:133|194:159|194:159|99:170,1,165.600003158569,8|0,0:0|0:0,0:0:0:0:
43,129,142015,2,0,L|38:66,1,55.2000010528565
132,166,142187,6,0,L|120:297,1,110.400002105713,0|0,3:0|0:0,0:0:0:0:
242,336,142532,2,0,L|300:337,1,55.2000010528565,0|0,3:0|0:0,0:0:0:0:
326,263,142704,2,0,B|274:240|274:240|215:262,1,110.400002105713,0|0,3:0|0:0,0:0:0:0:
297,337,143049,6,0,B|447:234|365:82|237:191|328:265,1,331.200006317139,8|0,0:0|0:0,0:0:0:0:
461,303,143739,6,0,L|466:160,1,110.400002105713,4|0,3:0|0:0,0:0:0:0:
391,116,144084,2,0,P|327:100|262:131,1,110.400002105713,0|0,3:0|0:0,0:0:0:0:
181,220,144428,2,0,B|261:257|261:257|334:231,1,165.600003158569,8|0,0:0|0:0,0:0:0:0:
334,231,144773,2,0,L|328:322,1,55.2000010528565
202,356,144946,6,0,L|88:344,1,110.400002105713,0|0,3:0|0:0,0:0:0:0:
55,260,145291,2,0,L|63:191,1,55.2000010528565,0|0,3:0|0:0,0:0:0:0:
170,110,145463,2,0,L|184:261,1,110.400002105713,0|0,3:0|0:0,0:0:0:0:
101,40,145808,2,0,B|172:-13|246:42|246:42|280:21|333:27,1,220.800004211426,8|0,0:0|0:0,0:0:0:0:
406,80,146325,1,0,3:0:0:0:
311,219,146497,6,0,P|293:152|313:93,1,110.400002105713,0|0,3:0|0:0,0:0:0:0:
366,300,146842,2,0,P|305:316|241:288,1,110.400002105713,0|0,3:0|0:0,0:0:0:0:
208,210,147187,2,0,B|84:168|128:289|-33:229,1,220.800004211426,8|0,0:0|0:0,0:0:0:0:
48,36,147704,6,0,L|39:147,1,110.400002105713,0|0,3:0|0:0,0:0:0:0:
190,64,148049,2,0,L|125:60,1,55.2000010528565,0|0,3:0|0:0,0:0:0:0:
255,111,148222,2,0,B|273:55|273:55|247:0,1,110.400002105713,0|0,3:0|0:0,0:0:0:0:
287,230,148566,2,0,B|353:266|425:228|425:228|382:264|375:310,1,220.800004211426,8|0,0:0|0:0,0:0:0:0:
477,313,149084,2,0,L|545:320,1,55.2000010528565,0|0,3:0|0:0,0:0:0:0:
299,349,149256,6,0,L|172:335,1,110.400002105713,0|0,3:0|0:0,0:0:0:0:
58,332,149601,2,0,P|117:293|127:237,1,110.400002105713,0|0,3:0|0:0,0:0:0:0:
74,124,149946,2,0,B|9:87|9:87|33:230,1,220.800004211426,8|0,0:0|0:0,0:0:0:0:
259,187,150463,6,0,L|276:69,1,110.400002105713,0|0,3:0|0:0,0:0:0:0:
147,20,150808,2,0,L|157:101,1,55.2000010528565,0|0,3:0|0:0,0:0:0:0:
259,187,150980,2,0,B|314:210|314:210|405:171,1,110.400002105713,0|0,3:0|0:0,0:0:0:0:
453,349,151325,2,0,B|402:305|402:305|220:302,1,220.800004211426,8|0,0:0|0:0,0:0:0:0:
138,365,151842,1,0,3:0:0:0:
36,237,152015,6,0,P|19:172|41:110,1,110.400002105713,0|0,3:0|0:0,0:0:0:0:
213,187,152359,2,0,L|98:180,1,110.400002105713,0|0,3:0|0:0,0:0:0:0:
178,81,152704,2,0,B|141:39|141:39|244:13|283:87,1,220.800004211426,8|0,0:0|0:0,0:0:0:0:
491,98,153222,6,0,P|426:101|383:148,1,110.400002105713,0|0,3:0|0:0,0:0:0:0:
309,273,153566,2,0,L|392:267,1,55.2000010528565,0|0,3:0|0:0,3:0:0:0:
236,336,153739,2,0,P|214:273|245:202,1,110.400002105713,0|0,3:0|0:0,0:0:0:0:
182,100,154084,6,0,B|144:50|85:73|53:116|95:198|181:193|190:142|240:125|295:169,1,302.399990771485,8|0,0:0|0:0,0:0:0:0:
264,151,154773,6,0,P|255:89|280:41,1,110.400002105713,4|0,3:0|0:0,0:0:0:0:
223,232,155118,2,0,L|103:231,1,110.400002105713,0|0,3:0|0:0,0:0:0:0:
350,110,155463,2,0,B|387:158|387:158|365:307,1,165.600003158569,8|0,0:0|0:0,0:0:0:0:
431,336,155808,1,0,0:0:0:0:
278,207,155980,6,0,L|160:194,1,110.400002105713,0|0,3:0|0:0,0:0:0:0:
71,203,156325,2,0,L|84:301,1,55.2000010528565,0|0,3:0|0:0,0:0:0:0:
99,88,156497,2,0,P|173:80|222:115,1,110.400002105713,0|0,3:0|0:0,0:0:0:0:
366,227,156842,1,8,0:0:0:0:
303,30,157015,1,0,0:0:0:0:
221,243,157187,1,0,0:0:0:0:
302,62,157359,1,0,3:0:0:0:
404,335,157532,6,0,P|343:346|275:314,1,110.400002105713,0|0,3:0|0:0,0:0:0:0:
221,243,157877,2,0,P|160:232|92:264,1,110.400002105713,0|0,3:0|0:0,0:0:0:0:
354,263,158222,2,0,B|385:218|385:218|370:66,1,165.600003158569,8|0,0:0|0:0,0:0:0:0:
295,40,158566,1,0,0:0:0:0:
493,237,158739,6,0,P|511:171|469:104,1,110.400002105713,0|0,3:0|0:0,0:0:0:0:
354,263,159084,2,0,P|393:269|435:250,1,55.2000010528565,0|0,3:0|0:0,0:0:0:0:
418,180,159256,2,0,L|295:174,1,110.400002105713,0|0,3:0|0:0,0:0:0:0:
87,78,159601,1,8,0:0:0:0:
194,246,159773,1,0,0:0:0:0:
241,49,159946,1,0,0:0:0:0:
90,175,160118,1,0,3:0:0:0:
320,349,160291,6,0,P|384:356|439:309,1,110.400002105713,0|0,3:0|0:0,0:0:0:0:
399,185,160635,2,0,P|360:236|374:308,1,110.400002105713,0|0,3:0|0:0,0:0:0:0:
447,103,160980,2,0,B|382:93|382:93|347:116|347:116|271:102,1,165.600003158569,8|0,0:0|0:0,0:0:0:0:
194,88,161325,1,0,0:0:0:0:
53,156,161497,6,0,P|128:145|189:203,1,165.600003158569,0|0,3:0|0:0,0:0:0:0:
93,290,161842,2,0,L|101:236,1,55.2000010528565,0|0,3:0|0:0,0:0:0:0:
189,203,162015,2,0,L|207:364,1,110.400002105713,0|0,3:0|0:0,0:0:0:0:
368,347,162359,1,8,0:0:0:0:
317,192,162532,1,0,0:0:0:0:
190,334,162704,1,0,0:0:0:0:
373,379,162877,1,0,3:0:0:0:
434,152,163049,6,0,P|441:81|416:28,1,110.400002105713,0|0,3:0|0:0,0:0:0:0:
381,233,163394,2,0,P|443:249|499:224,1,110.400002105713,0|0,3:0|0:0,0:0:0:0:
345,103,163739,2,0,B|277:96|277:96|248:119|248:119|160:110,1,165.600003158569,8|0,0:0|0:0,0:0:0:0:
120,44,164084,1,0,0:0:0:0:
191,208,164256,6,0,L|63:198,1,110.400002105713,0|0,3:0|0:0,0:0:0:0:
266,186,164601,2,0,P|269:228|264:245,1,55.2000010528565,0|0,3:0|0:0,0:0:0:0:
182,318,164773,2,0,L|194:171,1,110.400002105713,0|0,3:0|0:0,0:0:0:0:
151,42,165118,1,8,0:0:0:0:
329,154,165291,1,0,0:0:0:0:
101,218,165463,1,0,0:0:0:0:
235,84,165635,1,0,3:0:0:0:
183,302,165808,6,0,L|42:306,1,110.400002105713,0|0,3:0|0:0,0:0:0:0:
268,248,166153,2,0,P|281:312|260:363,1,110.400002105713,0|0,3:0|0:0,0:0:0:0:
243,155,166497,2,0,B|341:135|311:205|401:182,1,165.600003158569,8|0,0:0|0:0,0:0:0:0:
374,88,166842,1,0,0:0:0:0:
268,248,167015,6,0,L|281:378,1,110.400002105713,0|0,3:0|0:0,0:0:0:0:
394,238,167359,2,0,L|400:173,1,55.2000010528565,0|0,3:0|0:0,0:0:0:0:
243,155,167532,2,0,P|178:167|116:124,1,110.400002105713,0|0,3:0|0:0,0:0:0:0:
15,36,167877,1,8,0:0:0:0:
194,70,168049,1,0,0:0:0:0:
28,228,168222,1,0,0:0:0:0:
42,42,168394,1,0,3:0:0:0:
199,274,168566,6,0,B|255:291|255:291|326:270,1,110.400002105713,0|0,3:0|0:0,0:0:0:0:
410,210,168911,2,0,L|399:335,1,110.400002105713,0|0,3:0|0:0,0:0:0:0:
257,197,169256,2,0,B|215:105|299:124|248:14,1,165.600003158569,8|0,0:0|0:0,0:0:0:0:
183,76,169601,1,0,0:0:0:0:
327,155,169773,6,0,P|382:171|443:140,1,110.400002105713,0|0,3:0|0:0,0:0:0:0:
257,197,170118,2,0,L|265:273,1,55.2000010528565,0|0,3:0|0:0,0:0:0:0:
368,360,170291,2,0,L|375:234,1,110.400002105713,0|0,3:0|0:0,0:0:0:0:
375,89,170635,1,8,0:0:0:0:
257,196,170808,1,0,0:0:0:0:
467,227,170980,1,0,0:0:0:0:
374,48,171153,1,0,3:0:0:0:
257,196,171325,6,0,P|203:209|152:190,1,110.400002105713,0|0,3:0|0:0,0:0:0:0:
60,124,171670,2,0,P|39:186|68:242,1,110.400002105713,0|0,3:0|0:0,0:0:0:0:
191,302,172015,2,0,B|135:298|135:298|106:324|106:324|19:317,1,165.600003158569,8|0,0:0|0:0,0:0:0:0:
54,227,172359,1,0,0:0:0:0:
191,302,172532,6,0,P|175:236|207:175,1,110.400002105713,0|0,3:0|0:0,0:0:0:0:
326,240,172877,2,0,L|272:246,1,55.2000010528565,0|0,3:0|0:0,0:0:0:0:
348,135,173049,2,0,L|483:158,1,110.400002105713,0|0,3:0|0:0,0:0:0:0:
409,48,173394,5,8,0:0:0:0:
425,262,173566,1,0,0:0:0:0:
270,95,173739,1,0,0:0:0:0:
296,311,173911,1,0,3:0:0:0:
110,100,174084,6,0,P|98:154|112:207,1,110.400002105713,0|0,3:0|0:0,0:0:0:0:
166,293,174428,2,0,L|28:282,1,110.400002105713,0|0,3:0|0:0,0:0:0:0:
196,154,174773,6,0,B|308:121|263:217|400:177,1,192,8|0,0:0|0:0,0:0:0:0:
349,101,175291,1,0,3:0:0:0:
341,110,175463,6,0,P|336:151|352:188,1,76.8,0|0,3:0|0:0,0:0:0:0:
278,230,175808,6,0,P|312:258|346:266,1,67.1999979492188
416,272,176153,5,0,0:0:0:0:
445,246,176325,1,0,0:0:0:0:
454,213,176497,6,0,P|456:176|442:130,1,72
425,106,176842,6,0,L|322:98,1,76.8,4|0,0:2|0:2,0:2:0:0:
246,32,177187,2,0,L|169:38,1,76.8,2|0,0:2|0:2,0:2:0:0:
81,113,177532,2,0,P|76:158|90:205,1,76.8,2|0,0:2|0:2,0:2:0:0:
161,227,177791,2,0,P|166:182|152:135,1,76.8,2|0,0:2|0:2,0:2:0:0:
99,280,178049,6,0,P|148:307|237:258,1,153.6,2|0,0:2|0:2,0:2:0:0:
302,145,178566,2,0,L|407:156,1,76.8,2|0,0:2|0:2,0:2:0:0:
480,295,178911,2,0,P|436:303|388:284,1,76.8,2|0,0:2|0:2,0:2:0:0:
333,244,179170,2,0,P|295:235|258:243,1,76.8,2|0,0:2|0:2,0:2:0:0:
187,336,179428,6,0,B|112:361|112:361|39:329,1,153.6,2|0,0:2|0:2,0:2:0:0:
0,223,179946,2,0,L|10:119,1,76.8,2|0,0:2|0:2,0:2:0:0:
115,43,180291,2,0,P|160:36|211:51,1,76.8,2|0,0:2|0:2,0:2:0:0:
262,113,180549,2,0,P|307:120|358:105,1,76.8,2|0,0:2|0:2,0:2:0:0:
395,50,180808,6,0,P|362:102|420:199,1,153.6,2|0,0:2|0:2,0:2:0:0:
494,272,181325,2,0,L|502:174,1,76.8,2|0,0:2|0:2,0:2:0:0:
337,114,181670,5,2,0:2:0:0:
336,137,181756,1,0,0:2:0:0:
230,262,181928,5,2,0:2:0:0:
229,239,182014,1,0,0:2:0:0:
166,97,182187,6,0,B|92:70|92:70|-4:114,1,153.6,2|0,0:2|0:2,0:2:0:0:
5,213,182704,2,0,L|34:322,1,86.3999973632813,2|0,0:2|0:2,0:2:0:0:
140,353,183049,5,2,0:2:0:0:
173,345,183135,1,0,0:2:0:0:
258,258,183308,5,2,0:2:0:0:
291,266,183394,1,0,0:2:0:0:
415,336,183566,6,0,B|457:371|457:371|434:235,1,172.799994726563,2|0,0:2|0:2,0:2:0:0:
310,178,184084,2,0,L|316:59,1,86.3999973632813,2|0,0:2|0:2,0:2:0:0:
426,37,184428,5,2,0:2:0:0:
431,71,184515,1,0,0:2:0:0:
211,140,184687,5,2,0:2:0:0:
216,106,184774,1,0,0:2:0:0:
377,242,184946,6,0,B|286:220|310:291|194:262,1,172.799994726563,2|0,0:2|0:2,0:2:0:0:
91,209,185463,2,0,L|78:113,1,86.3999973632813,2|0,0:2|0:2,0:2:0:0:
181,48,185808,5,2,0:2:0:0:
214,54,185894,1,0,0:2:0:0:
275,183,186066,5,2,0:2:0:0:
242,189,186152,1,0,0:2:0:0:
385,95,186325,6,0,B|436:76|436:76|411:216,1,172.799994726563,2|0,0:2|0:2,0:2:0:0:
257,348,186842,2,0,L|243:226,1,86.3999973632813,2|0,0:2|0:2,0:2:0:0:
74,112,187187,1,2,0:2:0:0:
258,178,187359,1,2,0:2:0:0:
100,274,187532,1,2,0:2:0:0:
162,55,187704,1,2,0:2:0:0:
258,178,187877,6,0,B|342:156|318:229|429:194,1,144,4|0,0:2|0:2,0:2:0:0:
395,202,188222,2,0,L|408:90,1,96,2|0,0:2|0:2,0:2:0:0:
406,106,188566,1,2,0:2:0:0:
216,271,188911,6,0,B|132:249|156:322|45:287,1,144,2|0,0:2|0:2,0:2:0:0:
79,295,189256,2,0,L|66:183,1,96,2|0,0:2|0:2,0:2:0:0:
67,199,189600,1,2,0:2:0:0:
102,35,189946,5,2,0:2:0:0:
203,32,190118,1,2,0:2:0:0:
271,126,190291,1,2,0:2:0:0:
170,129,190463,1,2,0:2:0:0:
333,30,190635,6,0,B|383:55|383:55|401:171,1,144,2|0,0:2|0:2,0:2:0:0:
355,216,190980,2,0,P|406:228|466:194,1,96,2|0,0:2|0:2,0:2:0:0:
512,163,191325,1,2,0:2:0:0:
246,283,191670,6,0,B|188:275|188:275|159:293|159:293|79:280,1,144,2|0,0:2|0:2,0:2:0:0:
53,230,192015,2,0,P|32:274|61:344,1,96,2|0,0:2|0:2,0:2:0:0:
118,384,192359,1,2,0:2:0:0:
335,273,192704,5,2,0:2:0:0:
326,172,192877,1,2,0:2:0:0:
219,121,193049,1,2,0:2:0:0:
228,222,193222,1,2,0:2:0:0:
437,181,193394,6,0,L|451:25,1,144,2|0,0:2|0:2,0:2:0:0:
449,37,193739,2,0,P|401:47|342:22,1,96,2|0,0:2|0:2,0:2:0:0:
357,33,194084,1,2,0:2:0:0:
93,151,194428,6,0,L|80:294,1,144,2|0,0:2|0:2,0:2:0:0:
79,294,194773,2,0,P|125:283|170:297,1,96,2|0,0:2|0:2,0:2:0:0:
170,297,195118,1,2,0:2:0:0:
460,345,195463,5,2,0:2:0:0:
333,318,195635,1,2,0:2:0:0:
447,249,195808,1,2,0:2:0:0:
320,221,195980,1,2,0:2:0:0:
413,127,196153,6,0,P|468:127|514:39,1,144,2|0,0:2|0:2,0:2:0:0:
436,51,196497,2,0,L|332:33,1,96,2|0,0:2|0:2,0:2:0:0:
235,76,196842,1,2,0:2:0:0:
114,274,197187,6,0,P|59:274|13:186,1,144,2|0,0:2|0:2,0:2:0:0:
91,198,197531,2,0,L|195:180,1,96,2|0,0:2|0:2,0:2:0:0:
292,222,197876,1,2,0:2:0:0:
193,342,198222,5,2,0:2:0:0:
121,300,198394,1,2,0:2:0:0:
95,226,198566,1,2,0:2:0:0:
122,169,198739,1,2,0:2:0:0:
166,146,198911,6,0,P|221:160|254:186,1,76.8,4|0,3:0|0:0,0:0:0:0:
305,240,199256,2,0,L|319:329,1,76.8,8|0,0:0|0:0,0:0:0:0:
348,158,199601,2,0,P|378:134|414:122,1,76.8,0|0,0:0|3:0,0:0:0:0:
237,170,199946,1,8,0:0:0:0:
200,51,200118,1,0,0:0:0:0:
76,84,200291,6,0,B|52:139|52:139|84:230,1,153.6,0|8,3:0|0:0,0:0:0:0:
34,335,200808,1,0,0:0:0:0:
34,335,200980,2,0,L|1:249,1,76.8,0|0,0:0|3:0,0:0:0:0:
134,145,201325,2,0,P|188:144|244:198,1,115.2,8|0,0:0|0:0,0:0:0:0:
234,179,201670,6,0,P|227:229|216:276,1,76.8,0|0,3:0|0:0,0:0:0:0:
315,349,202015,2,0,L|320:263,1,76.8,8|0,0:0|0:0,0:0:0:0:
414,191,202359,2,0,P|419:228|427:269,1,76.8,0|0,0:0|3:0,0:0:0:0:
346,94,202704,1,8,0:0:0:0:
475,114,202877,1,0,0:0:0:0:
279,155,203049,6,0,P|258:82|306:13,1,153.6,0|8,3:0|0:0,0:0:0:0:
346,94,203566,1,0,0:0:0:0:
195,192,203739,2,0,P|155:180|107:170,1,76.8,0|0,0:0|3:0,0:0:0:0:
27,89,204084,1,8,0:0:0:0:
137,51,204256,1,0,0:0:0:0:
25,186,204428,6,0,L|41:292,1,76.8,0|0,3:0|0:0,0:0:0:0:
127,356,204773,2,0,L|144:267,1,76.8,8|0,0:0|0:0,0:0:0:0:
227,210,205118,2,0,P|270:197|310:193,1,76.8,0|0,0:0|3:0,0:0:0:0:
381,101,205463,2,0,P|342:95|306:84,1,76.8,8|0,0:0|0:0,0:0:0:0:
170,10,205808,6,0,B|135:62|135:62|158:169,1,153.6,0|8,3:0|0:0,0:0:0:0:
67,253,206325,1,0,0:0:0:0:
67,253,206497,2,0,L|64:171,1,76.8,0|0,0:0|3:0,0:0:0:0:
234,83,206842,2,0,P|252:135|218:204,1,115.2,8|0,0:0|0:0,0:0:0:0:
232,189,207187,6,0,P|274:187|319:178,1,76.8,0|0,3:0|0:0,0:0:0:0:
446,298,207532,2,0,P|403:288|360:286,1,76.8,8|0,0:0|0:0,0:0:0:0:
250,348,207877,2,0,P|211:345|174:335,1,76.8,0|0,0:0|3:0,0:0:0:0:
80,204,208222,1,8,0:0:0:0:
201,235,208394,1,0,0:0:0:0:
14,276,208566,6,0,B|-13:216|-13:216|12:100,1,153.6,0|8,3:0|0:0,0:0:0:0:
135,52,209084,1,0,0:0:0:0:
135,52,209256,2,0,P|94:46|43:33,1,76.8,0|0,0:0|3:0,0:0:0:0:
80,204,209601,2,0,P|130:189|186:186,1,76.8,8|0,0:0|0:0,0:0:0:0:
286,96,209946,6,0,B|254:140|254:140|271:253,1,144,4|0,3:0|0:0,0:0:0:0:
319,288,210291,2,0,P|263:278|218:308,1,96,8|0,0:0|0:0,0:0:0:0:
399,357,210635,1,0,0:0:0:0:
399,357,210722,1,0,0:0:0:0:
399,357,210808,2,0,P|410:331|413:298,1,48,0|0,3:0|0:0,0:0:0:0:
485,272,210980,2,0,P|467:225|471:163,1,96,8|0,0:0|0:0,0:0:0:0:
345,33,211325,5,0,3:0:0:0:
345,33,211411,1,0,0:0:0:0:
345,33,211497,2,0,L|288:47,1,48
218,112,211670,2,0,L|94:86,1,96,8|0,0:0|0:0,0:0:0:0:
18,25,212015,5,0,0:0:0:0:
88,225,212187,1,0,3:0:0:0:
154,63,212359,1,8,0:0:0:0:
2,138,212532,1,0,0:0:0:0:
107,236,212704,6,0,B|180:262|180:262|276:228,1,144,0|0,3:0|0:0,0:0:0:0:
242,239,213049,2,0,P|225:294|243:343,1,96,8|0,0:0|0:0,0:0:0:0:
372,255,213394,1,0,0:0:0:0:
372,255,213480,1,0,0:0:0:0:
372,255,213566,2,0,P|360:213|357:179,1,48,0|0,3:0|0:0,0:0:0:0:
260,145,213739,2,0,P|250:218|230:260,1,96,8|0,0:0|0:0,0:0:0:0:
218,46,214084,6,0,P|279:35|337:65,1,96,0|0,3:0|0:0,0:0:0:0:
379,80,214342,1,0,0:0:0:0:
379,80,214428,1,8,0:0:0:0:
115,111,214601,1,0,0:0:0:0:
255,38,214773,5,0,0:0:0:0:
193,282,214946,1,0,3:0:0:0:
115,111,215118,1,8,0:0:0:0:
315,187,215291,1,0,0:0:0:0:
84,356,215463,6,0,B|55:278|55:278|86:205,1,144,0|0,3:0|0:0,0:0:0:0:
78,222,215808,2,0,L|197:248,1,96,8|0,0:0|0:0,0:0:0:0:
315,187,216153,1,0,0:0:0:0:
315,187,216239,1,0,0:0:0:0:
315,187,216325,2,0,L|329:107,1,48,0|0,3:0|0:0,0:0:0:0:
425,95,216497,2,0,P|427:149|445:227,1,96,8|0,0:0|0:0,0:0:0:0:
342,334,216842,6,0,L|213:347,1,96,0|0,3:0|0:0,0:0:0:0:
253,347,217101,1,0,0:0:0:0:
253,347,217187,2,0,L|244:279,1,48,8|0,0:0|0:0,0:0:0:0:
94,184,217359,2,0,L|89:236,1,48
1,298,217532,5,0,0:0:0:0:
218,203,217704,1,0,3:0:0:0:
25,133,217877,1,8,0:0:0:0:
127,329,218049,1,0,0:0:0:0:
218,203,218222,6,0,B|189:153|189:153|212:59,1,144,0|0,3:0|0:0,0:0:0:0:
209,69,218566,2,0,L|315:62,1,96,8|0,0:0|0:0,0:0:0:0:
418,224,218911,1,0,0:0:0:0:
418,224,218997,1,0,0:0:0:0:
418,224,219084,2,0,L|410:307,1,48,0|0,3:0|0:0,0:0:0:0:
347,335,219256,2,0,B|298:315|298:315|231:333,1,96,8|0,0:0|0:0,0:0:0:0:
113,249,219601,6,0,P|97:190|118:129,1,96,0|0,3:0|0:0,0:0:0:0:
104,157,219859,1,0,0:0:0:0:
104,157,219946,1,8,0:0:0:0:
144,43,220118,1,0,0:0:0:0:
195,191,220291,5,0,0:0:0:0:
20,39,220463,1,0,3:0:0:0:
250,91,220635,1,8,0:0:0:0:
26,201,220808,1,0,0:0:0:0:
154,101,220980,6,0,L|259:89,1,96,12|0,0:0|0:0,0:0:0:0:
249,90,221325,1,0,3:0:0:0:
121,211,221497,2,0,L|16:199,1,96,8|0,0:0|0:0,0:0:0:0:
25,200,221842,1,0,3:0:0:0:
129,340,222015,2,0,L|234:328,1,96,8|0,0:0|0:0,0:0:0:0:
351,164,222359,6,0,L|340:277,1,96,8|0,0:0|0:0,0:0:0:0:
341,259,222704,1,0,3:0:0:0:
224,329,222877,2,0,L|214:233,1,96,8|0,0:0|0:0,0:0:0:0:
214,233,223222,1,0,3:0:0:0:
59,168,223394,2,0,L|83:267,1,96,8|0,0:0|0:0,0:0:0:0:
197,75,223739,6,0,P|255:66|311:35,1,96,8|0,0:0|0:0,0:0:0:0:
362,8,224084,1,0,3:0:0:0:
237,171,224256,2,0,P|305:169|349:149,1,96,8|0,0:0|0:0,0:0:0:0:
409,127,224601,1,0,3:0:0:0:
283,267,224773,2,0,P|337:281|385:278,1,96,8|0,0:0|0:0,0:0:0:0:
136,342,225118,6,0,P|130:284|122:221,1,96,8|0,0:0|0:0,0:0:0:0:
107,83,225463,1,0,3:0:0:0:
237,171,225635,2,0,B|256:218|256:218|235:276,1,96,8|0,0:0|0:0,0:0:0:0:
18,272,225980,1,0,3:0:0:0:
107,83,226153,2,0,L|219:90,1,96,8|0,0:0|0:0,0:0:0:0:
269,31,226497,5,8,0:0:0:0:
272,19,226670,1,0,0:0:0:0:
239,160,226842,1,8,0:0:0:0:
237,171,227015,1,0,0:0:0:0:
397,155,227187,5,8,0:0:0:0:
416,159,227359,1,0,0:0:0:0:
202,88,227532,1,8,0:0:0:0:
184,83,227704,1,0,0:0:0:0:
418,37,227877,5,8,0:0:0:0:
411,13,228049,1,0,0:0:0:0:
468,259,228222,1,8,0:0:0:0:
474,284,228394,1,0,0:0:0:0:
204,225,228566,5,8,0:0:0:0:
177,238,228739,1,0,0:0:0:0:
443,128,228911,1,8,0:0:0:0:
476,113,229084,1,0,0:0:0:0:
272,352,229256,5,8,0:0:0:0:
147,98,229428,1,8,0:0:0:0:
380,221,229601,5,8,0:0:0:0:
59,245,229773,1,8,0:0:0:0:
272,42,229946,5,8,0:0:0:0:
153,330,230118,1,8,0:0:0:0:
73,96,230291,5,8,0:0:0:0:
341,263,230463,1,8,0:0:0:0:
54,243,230635,5,8,0:0:0:0:
86,206,230722,1,8,0:0:0:0:
133,195,230808,1,8,0:0:0:0:
181,205,230894,1,8,0:0:0:0:
226,235,230980,5,8,0:0:0:0:
250,179,231066,1,8,0:0:0:0:
304,150,231153,1,8,0:0:0:0:
363,159,231239,1,8,0:0:0:0:
69,250,232015,6,0,B|109:283|109:283|85:149,1,158.400004833985,4|0,3:0|0:0,0:0:0:0:
5,113,232359,6,0,B|135:78|62:206|239:159,1,216.000008239746,8|0,0:0|0:0,0:0:0:0:
264,70,232704,6,0,P|220:55|176:71,1,96,0|0,0:0|3:0,0:0:0:0:
340,260,233049,6,0,P|340:295|345:329,1,67.1999979492188,8|0,0:0|0:0,0:0:0:0:
348,117,233222,2,0,P|356:71|345:13,1,67.1999979492188,0|0,0:0|0:0,0:0:0:0:
441,188,233394,1,0,3:0:0:0:
248,308,233566,6,0,L|123:296,1,76.8,0|0,0:0|0:0,0:0:0:0:
110,152,233739,2,0,L|228:141,1,76.8,8|0,0:0|0:0,0:0:0:0:
49,340,233911,2,0,L|41:240,1,76.8,0|0,0:0|0:0,0:0:0:0:
0,54,234084,6,0,B|69:80|69:80|143:46,1,134.399995898438,0|0,0:0|3:0,0:0:0:0:
206,4,234342,1,0,0:0:0:0:
206,4,234428,6,0,B|198:89|198:89|223:147|223:147|216:243,1,244.80000466919,8|0,0:0|0:0,0:0:0:0:
173,330,234773,6,0,P|123:279|142:183,1,158.400004833985,0|0,3:0|0:0,0:0:0:0:
216,243,235118,6,0,B|105:198|117:322|-29:248,1,216.000008239746,8|0,0:0|0:0,0:0:0:0:
321,111,235463,6,0,B|336:158|336:158|314:237,1,86.3999973632813
274,339,235635,1,0,3:0:0:0:
50,159,235808,6,0,L|55:51,1,67.1999979492188,8|0,0:0|0:0,0:0:0:0:
212,175,235980,2,0,L|215:242,1,67.1999979492188
81,316,236153,1,0,3:0:0:0:
176,58,236325,6,0,P|223:53|253:60,1,67.1999979492188
326,193,236497,2,0,B|322:268|322:268|329:295|329:295|323:380,1,172.799994726563,8|0,0:0|0:0,0:0:0:0:
179,276,236842,6,0,L|185:174,1,67.1999979492188
219,356,237015,1,0,3:0:0:0:
219,356,237101,1,0,0:0:0:0:
219,356,237187,6,0,P|164:365|123:343,1,86.3999973632813,8|0,0:0|0:0,0:0:0:0:
183,209,237532,6,0,B|225:218|270:201|270:201|290:249|321:265|321:265|368:247|416:256,1,244.80000466919,4|0,3:0|0:0,0:0:0:0:
391,74,237877,6,0,B|321:37|321:37|355:208,1,216.000008239746,8|0,0:0|0:0,0:0:0:0:
466,307,238222,6,0,L|477:205,1,96,0|0,0:0|3:0,0:0:0:0:
214,111,238566,6,0,P|165:118|122:122,1,67.1999979492188,8|0,0:0|0:0,0:0:0:0:
50,247,238739,2,0,L|153:267,1,67.1999979492188
250,345,238911,1,0,3:0:0:0:
422,237,239084,6,0,L|432:138,1,76.8
239,268,239256,2,0,L|253:371,1,76.8,8|0,0:0|0:0,0:0:0:0:
321,177,239428,2,0,L|218:168,1,76.8
118,40,239601,6,0,B|89:97|89:97|113:164,1,134.399995898438,0|0,0:0|3:0,0:0:0:0:
250,175,239859,1,0,0:0:0:0:
250,175,239946,6,0,B|314:148|314:148|277:308|277:308|236:265,1,288,8|0,0:0|0:0,0:0:0:0:
256,71,240291,6,0,B|336:41|336:41|417:75,1,158.400004833985,0|0,3:0|0:0,0:0:0:0:
449,162,240635,6,0,B|432:217|432:217|371:145|410:49,1,216.000008239746,8|0,0:0|0:0,0:0:0:0:
363,322,240980,6,0,L|249:302,1,86.3999973632813
153,349,241153,1,0,3:0:0:0:
199,146,241325,6,0,L|205:242,1,67.1999979492188,8|0,0:0|0:0,0:0:0:0:
48,358,241497,2,0,L|41:260,1,67.1999979492188
14,86,241670,5,2,0:2:0:0:
292,123,241842,1,2,0:2:0:0:
106,235,242015,1,2,0:2:0:0:
141,27,242187,1,0,0:2:0:0:
141,27,242273,1,0,0:2:0:0:
141,27,242359,2,0,L|156:103,1,67.1999979492188,2|0,0:2|0:2,0:2:0:0:
277,307,242532,2,0,L|302:223,1,67.1999979492188,2|0,0:2|0:2,0:2:0:0:
384,62,242704,1,2,0:2:0:0:
163,125,242877,1,2,0:2:0:0:
301,329,243049,6,0,B|390:298|365:371|465:338,1,158.400004833985,4|0,3:0|0:0,0:0:0:0:
450,170,243394,6,0,B|388:128|388:128|423:265,1,216.000008239746,8|0,0:0|0:0,0:0:0:0:
442,41,243739,6,0,L|331:50,1,96,0|0,0:0|3:0,0:0:0:0:
106,107,244084,6,0,P|106:47|116:18,1,67.1999979492188,8|0,0:0|0:0,0:0:0:0:
172,254,244256,2,0,P|171:314|161:342,1,67.1999979492188
60,207,244428,1,0,3:0:0:0:
215,79,244601,6,0,L|315:88,1,76.8
313,286,244773,2,0,P|308:247|304:209,1,76.8,8|0,0:0|0:0,0:0:0:0:
459,58,244946,2,0,P|454:101|449:148,1,76.8
378,340,245118,6,0,L|226:322,1,115.199996484375,0|0,0:0|3:0,0:0:0:0:
118,352,245377,1,0,0:0:0:0:
118,352,245463,6,0,B|152:350|188:367|188:367|138:263|192:206,1,244.80000466919,8|0,0:0|0:0,0:0:0:0:
168,114,245808,6,0,P|247:127|289:218,1,172.799994726563,0|0,3:0|0:0,0:0:0:0:
67,288,246153,6,0,B|71:211|71:211|41:156|41:156|46:39,1,216.000008239746,8|0,0:0|0:0,0:0:0:0:
168,114,246497,6,0,P|215:100|252:54,1,86.3999973632813
160,26,246670,1,0,3:0:0:0:
283,206,246842,6,0,L|387:198,1,86.3999973632813,8|0,0:0|0:0,0:0:0:0:
430,184,247187,6,0,L|360:189,1,48,0|0,3:0|0:0,0:0:0:0:
74,244,247532,6,0,L|128:249,1,43.1999986816407,8|0,0:0|0:0,0:0:0:0:
305,52,247877,6,0,L|259:50,1,38.4
124,99,248049,1,0,0:0:0:0:
72,34,248222,6,0,P|42:82|51:137,1,100.799996923828,8|0,0:0|0:0,0:0:0:0:
124,99,248566,6,0,B|230:71|188:154|307:123,1,187.199991430664,4|0,3:0|0:0,0:0:0:0:
362,92,248911,6,0,B|305:52|305:52|356:248,1,216.000008239746,8|0,0:0|0:0,0:0:0:0:
491,327,249256,6,0,L|505:196,1,96,0|0,0:0|3:0,0:0:0:0:
324,333,249601,6,0,P|290:337|257:343,1,67.1999979492188,8|0,0:0|0:0,0:0:0:0:
158,141,249773,2,0,P|193:148|224:151,1,67.1999979492188
340,190,249946,1,0,3:0:0:0:
26,153,250118,6,0,L|37:18,1,76.8
136,269,250291,2,0,L|146:400,1,76.8,8|0,0:0|0:0,0:0:0:0:
8,311,250463,1,0,0:0:0:0:
158,141,250635,6,0,P|222:161|306:114,1,153.6,0|0,0:0|3:0,0:0:0:0:
372,96,250894,1,0,0:0:0:0:
372,96,250980,6,0,B|301:41|301:41|344:206,1,244.80000466919,8|0,0:0|0:0,0:0:0:0:
258,253,251325,6,0,B|294:275|308:296|308:296|340:280|340:280|373:300|373:300|391:276|437:251,1,201.599993847656,0|0,3:0|0:0,0:0:0:0:
236,152,251670,6,0,B|183:129|183:129|121:151,1,115.199996484375,8|0,0:0|0:0,0:0:0:0:
45,286,252015,6,0,L|36:194,1,72.0000027465821
23,62,252187,1,0,3:0:0:0:
179,215,252359,6,0,B|215:258|215:258|186:364,1,144,8|0,0:0|0:0,0:0:0:0:
191,342,252704,5,2,0:2:0:0:
366,224,252877,1,0,0:2:0:0:
126,279,253049,1,2,0:2:0:0:
310,351,253222,1,0,0:2:0:0:
259,87,253394,5,2,0:2:0:0:
204,67,253480,1,0,0:2:0:0:
148,80,253566,1,2,0:2:0:0:
123,132,253653,1,0,0:2:0:0:
145,184,253739,1,2,0:2:0:0:
200,198,253825,1,0,0:2:0:0:
253,176,253911,1,2,0:2:0:0:
310,172,253997,1,0,0:2:0:0:
362,195,254084,6,0,B|410:165|410:165|369:302,1,165.600003158569,4|0,3:0|0:0,0:0:0:0:
281,344,254428,2,0,L|128:318,1,110.400002105713,8|0,0:0|0:0,0:0:0:0:
172,325,254687,1,0,0:0:0:0:
172,325,254773,1,0,0:0:0:0:
79,191,254946,2,0,L|148:186,1,55.2000010528565,0|0,3:0|0:0,0:0:0:0:
236,89,255118,2,0,P|176:71|110:118,1,110.400002105713,8|0,0:0|0:0,0:0:0:0:
289,160,255463,6,0,B|323:127|323:127|328:25,1,110.400002105713,0|0,3:0|0:0,0:0:0:0:
183,151,255808,1,8,0:0:0:0:
400,242,255980,1,0,0:3:0:0:
401,208,256066,1,0,0:0:0:0:
403,174,256153,1,0,0:0:0:0:
402,140,256239,1,0,0:0:0:0:
403,107,256325,1,0,3:0:0:0:
249,27,256497,2,0,L|175:35,1,55.2000010528565,8|0,0:0|0:0,0:0:0:0:
95,94,256670,2,0,L|40:88,1,55.2000010528565
116,222,256842,6,0,B|170:199|170:199|235:229,1,110.400002105713,0|0,3:0|0:0,0:0:0:0:
315,346,257187,2,0,L|326:210,1,110.400002105713,8|0,0:0|0:0,0:0:0:0:
323,235,257446,1,0,0:0:0:0:
323,235,257532,1,0,0:0:0:0:
449,126,257704,2,0,L|455:196,1,55.2000010528565,0|0,3:0|0:0,0:0:0:0:
322,129,257877,2,0,P|306:59|339:5,1,110.400002105713,8|0,0:0|0:0,0:0:0:0:
322,235,258222,6,0,L|177:225,1,110.400002105713,0|0,3:0|0:0,0:0:0:0:
85,113,258566,1,8,0:0:0:0:
208,34,258739,1,0,0:0:0:0:
208,34,258825,1,0,0:0:0:0:
208,34,258911,2,0,L|199:134,1,55.2000010528565
89,274,259084,2,0,L|74:178,1,55.2000010528565,0|0,3:0|0:0,0:0:0:0:
37,65,259256,1,8,0:0:0:0:
222,162,259428,1,0,0:0:0:0:
146,337,259601,6,0,B|89:354|89:354|29:332,1,110.400002105713,0|0,3:0|0:0,0:0:0:0:
80,219,259946,2,0,L|213:232,1,110.400002105713,8|0,0:0|0:0,0:0:0:0:
189,229,260204,1,0,0:0:0:0:
189,229,260291,1,0,0:0:0:0:
319,343,260463,2,0,L|328:278,1,55.2000010528565,0|0,3:0|0:0,0:0:0:0:
417,162,260635,2,0,L|429:301,1,110.400002105713,8|0,0:0|0:0,0:0:0:0:
358,86,260980,6,0,B|411:63|411:63|480:87,1,110.400002105713,0|0,3:0|0:0,0:0:0:0:
272,11,261325,1,8,0:0:0:0:
310,169,261497,1,0,0:0:0:0:
275,185,261584,1,0,0:0:0:0:
238,198,261670,1,0,0:0:0:0:
202,182,261756,1,0,0:0:0:0:
167,167,261842,1,0,3:0:0:0:
58,121,262015,2,0,L|70:44,1,55.2000010528565,8|0,0:0|0:0,0:0:0:0:
181,13,262187,2,0,L|183:70,1,55.2000010528565
210,234,262359,6,0,L|78:219,1,110.400002105713,0|0,3:0|0:0,0:0:0:0:
285,295,262704,2,0,B|312:243|312:243|294:183,1,110.400002105713,8|0,0:0|0:0,0:0:0:0:
297,193,262963,1,0,0:0:0:0:
297,193,263049,1,0,0:0:0:0:
420,339,263222,2,0,L|348:329,1,55.2000010528565,0|0,3:0|0:0,0:0:0:0:
402,239,263394,2,0,L|542:229,1,110.400002105713,8|0,0:0|0:0,0:0:0:0:
426,90,263739,6,0,B|373:69|373:69|290:99,1,110.400002105713,0|0,3:0|0:0,0:0:0:0:
212,190,264084,2,0,P|201:131|187:64,1,110.400002105713,8|0,0:0|0:0,0:0:0:0:
190,81,264342,1,0,0:0:0:0:
190,81,264428,1,0,0:0:0:0:
72,333,264601,5,0,0:0:0:0:
40,250,264773,1,0,0:0:0:0:
105,190,264946,1,0,0:0:0:0:
191,226,265118,6,0,B|245:247|245:247|328:218,1,110.400002105713,4|0,3:0|0:0,0:0:0:0:
445,168,265463,2,0,L|421:295,1,110.400002105713,8|0,0:0|0:0,0:0:0:0:
425,277,265722,1,0,0:0:0:0:
425,277,265808,1,0,0:0:0:0:
308,367,265980,2,0,L|294:271,1,55.2000010528565,0|0,3:0|0:0,0:0:0:0:
256,161,266153,2,0,L|384:176,1,110.400002105713,8|0,0:0|0:0,0:0:0:0:
176,105,266497,6,0,B|153:153|153:153|166:255,1,110.400002105713,0|0,3:0|0:0,0:0:0:0:
59,296,266842,2,0,L|44:173,1,110.400002105713,8|0,0:0|0:0,0:0:0:0:
45,186,267101,1,0,0:0:0:0:
45,186,267187,1,0,0:0:0:0:
160,209,267359,2,0,L|167:264,1,55.2000010528565,0|0,3:0|0:0,0:0:0:0:
255,93,267532,2,0,L|364:108,1,110.400002105713,8|0,0:0|0:0,0:0:0:0:
445,174,267877,6,0,P|466:108|434:42,1,110.400002105713,0|0,3:0|0:0,0:0:0:0:
321,9,268222,1,8,0:0:0:0:
215,109,268394,1,0,0:0:0:0:
220,147,268480,1,0,0:0:0:0:
222,185,268566,1,0,0:0:0:0:
225,223,268653,1,0,0:0:0:0:
228,261,268739,1,0,3:0:0:0:
107,358,268911,2,0,L|94:279,1,55.2000010528565,8|0,0:0|0:0,0:0:0:0:
0,229,269084,2,0,L|13:144,1,55.2000010528565
135,47,269256,6,0,B|81:28|81:28|5:55,1,110.400002105713,0|0,3:0|0:0,0:0:0:0:
85,181,269601,1,8,0:0:0:0:
225,109,269773,1,0,0:0:0:0:
225,109,269859,1,0,0:0:0:0:
225,109,269946,2,0,L|235:37,1,55.2000010528565
399,132,270118,2,0,L|410:196,1,55.2000010528565,0|0,3:0|0:0,0:0:0:0:
223,286,270291,1,8,0:0:0:0:
300,140,270463,1,0,0:0:0:0:
423,318,270635,6,0,L|293:306,1,110.400002105713,0|0,3:0|0:0,0:0:0:0:
102,328,270980,1,8,0:0:0:0:
229,137,271153,1,0,0:0:0:0:
229,137,271240,1,0,0:0:0:0:
229,137,271325,2,0,L|221:212,1,55.2000010528565
205,346,271497,1,0,3:0:0:0:
66,205,271670,2,0,B|45:150|45:150|71:93,1,110.400002105713,8|0,0:0|0:0,0:0:0:0:
201,21,272015,6,0,L|342:53,1,110.400002105713,0|0,3:0|0:0,0:0:0:0:
451,11,272359,1,8,0:0:0:0:
401,123,272532,1,0,0:0:0:0:
402,161,272618,1,0,0:0:0:0:
405,198,272704,1,0,0:0:0:0:
409,237,272791,1,0,0:0:0:0:
413,275,272877,1,0,3:0:0:0:
308,357,273049,2,0,L|246:326,1,55.2000010528565,8|0,0:0|0:0,0:0:0:0:
129,335,273222,2,0,L|116:279,1,55.2000010528565
19,159,273394,6,0,B|74:137|74:137|138:164,1,110.400002105713,0|0,3:0|0:0,0:0:0:0:
244,259,273739,2,0,L|231:133,1,110.400002105713,8|0,0:0|0:0,0:0:0:0:
232,149,273997,1,0,0:0:0:0:
232,149,274084,1,0,0:0:0:0:
340,29,274256,2,0,L|428:43,1,55.2000010528565,0|0,3:0|0:0,0:0:0:0:
484,107,274428,2,0,P|424:109|359:144,1,110.400002105713,8|0,0:0|0:0,0:0:0:0:
282,245,274773,6,0,L|294:344,2,76.8,0|0|0,3:0|0:0|0:0,0:0:0:0:
263,102,275291,1,0,0:0:0:0:
161,231,275463,2,0,P|113:238|72:218,1,76.8
103,76,275808,6,0,P|104:118|124:157,1,86.3999973632813
183,100,276153,6,0,L|300:117,1,96,4|0,3:0|0:0,0:0:0:0:
448,76,276497,1,8,0:0:0:0:
379,211,276670,1,0,0:0:0:0:
374,172,276756,1,0,0:0:0:0:
365,134,276842,1,0,0:0:0:0:
360,95,276928,1,0,0:0:0:0:
356,56,277015,1,0,3:0:0:0:
471,189,277187,2,0,L|460:264,1,48,8|0,0:0|0:0,0:0:0:0:
370,336,277359,1,0,0:0:0:0:
191,238,277532,6,0,P|248:218|312:245,1,96,0|0,3:0|0:0,0:0:0:0:
153,349,277877,1,8,0:0:0:0:
56,213,278049,1,0,0:0:0:0:
56,213,278135,1,0,0:0:0:0:
56,213,278222,1,0,0:0:0:0:
56,213,278308,1,0,0:0:0:0:
56,213,278394,2,0,L|63:140,1,48,0|0,3:0|0:0,0:0:0:0:
171,44,278566,2,0,L|180:114,1,48,8|0,0:0|0:0,0:0:0:0:
281,224,278739,1,0,0:0:0:0:
333,110,278911,6,0,B|380:96|380:96|437:116,1,96,0|0,3:0|0:0,0:0:0:0:
478,236,279256,1,8,0:0:0:0:
365,333,279428,1,0,0:0:0:0:
327,327,279515,1,0,0:0:0:0:
291,324,279601,1,0,0:0:0:0:
254,321,279687,1,0,0:0:0:0:
217,318,279773,1,0,3:0:0:0:
122,210,279946,2,0,L|191:196,1,48,8|0,0:0|0:0,0:0:0:0:
241,79,280118,1,0,0:0:0:0:
16,156,280291,6,0,L|30:283,1,96,0|0,3:0|0:0,0:0:0:0:
152,362,280635,1,8,0:0:0:0:
280,240,280808,1,0,0:0:0:0:
280,240,280894,1,0,0:0:0:0:
280,240,280980,2,0,L|289:153,1,48
389,94,281153,2,0,L|309:129,1,48,0|0,3:0|0:0,0:0:0:0:
206,76,281325,2,0,L|276:127,1,48,8|0,0:0|0:0,0:0:0:0:
381,200,281497,1,0,0:0:0:0:
206,76,281670,6,0,B|82:69,1,96,0|0,3:0|0:0,0:0:0:0:
0,167,282015,1,8,0:0:0:0:
164,283,282187,1,0,0:0:0:0:
178,252,282273,1,0,0:0:0:0:
191,221,282359,1,0,0:0:0:0:
182,188,282445,1,0,0:0:0:0:
171,155,282531,1,0,3:0:0:0:
59,217,282704,2,0,L|69:279,1,48,8|0,0:0|0:0,0:0:0:0:
236,327,282877,1,0,0:0:0:0:
358,188,283049,6,0,B|402:164|402:164|483:184,1,96,0|0,3:0|0:0,0:0:0:0:
450,342,283394,1,8,0:0:0:0:
263,288,283566,1,0,0:0:0:0:
263,288,283653,1,0,0:0:0:0:
263,288,283739,1,0,0:0:0:0:
263,288,283825,1,0,0:0:0:0:
263,288,283911,2,0,L|270:215,1,48,0|0,3:0|0:0,0:0:0:0:
196,123,284084,2,0,L|122:107,1,48,8|0,0:0|0:0,0:0:0:0:
39,218,284256,1,0,0:0:0:0:
171,351,284428,6,0,P|158:297|181:235,1,96,0|0,3:0|0:0,0:0:0:0:
310,155,284773,1,8,0:0:0:0:
403,312,284946,1,0,0:0:0:0:
369,308,285032,1,0,0:0:0:0:
335,306,285118,1,0,0:0:0:0:
301,304,285204,1,0,0:0:0:0:
267,301,285291,1,0,3:0:0:0:
97,184,285463,2,0,L|108:110,1,48,8|0,0:0|0:0,0:0:0:0:
203,34,285635,1,0,0:0:0:0:
310,155,285808,6,0,B|359:173|359:173|415:152,1,96,0|0,3:0|0:0,0:0:0:0:
357,65,286153,1,8,0:0:0:0:
226,252,286325,1,0,0:0:0:0:
226,252,286411,1,0,0:0:0:0:
226,252,286497,2,0,L|299:244,1,48
429,322,286670,2,0,L|356:314,1,48,0|0,3:0|0:0,0:0:0:0:
252,365,286842,1,8,0:0:0:0:
397,218,287015,1,0,0:0:0:0:
188,76,287187,6,0,L|198:189,1,96,4|0,3:0|0:0,0:0:0:0:
289,261,287532,1,8,0:0:0:0:
114,305,287704,1,0,0:0:0:0:
111,270,287791,1,0,0:0:0:0:
109,236,287877,1,0,0:0:0:0:
107,202,287963,1,0,0:0:0:0:
105,168,288049,1,0,3:0:0:0:
235,81,288222,2,0,L|161:72,1,48,8|0,0:0|0:0,0:0:0:0:
90,66,288394,1,0,0:0:0:0:
325,161,288566,6,0,L|341:30,1,96,0|0,3:0|0:0,0:0:0:0:
448,159,288911,1,8,0:0:0:0:
345,286,289084,1,0,0:0:0:0:
345,286,289170,1,0,0:0:0:0:
345,286,289256,1,0,0:0:0:0:
345,286,289342,1,0,0:0:0:0:
345,286,289428,2,0,L|259:270,1,48,0|0,3:0|0:0,0:0:0:0:
192,343,289601,2,0,L|137:350,1,48,8|0,0:0|0:0,0:0:0:0:
42,286,289773,1,0,0:0:0:0:
141,111,289946,6,0,L|156:233,1,96,0|0,3:0|0:0,0:0:0:0:
239,90,290291,1,8,0:0:0:0:
66,174,290463,1,0,0:0:0:0:
49,144,290549,1,0,0:0:0:0:
42,111,290635,1,0,0:0:0:0:
48,77,290722,1,0,0:0:0:0:
64,47,290808,1,0,3:0:0:0:
239,90,290980,2,0,L|306:81,1,48,8|0,0:0|0:0,0:0:0:0:
401,67,291153,1,0,0:0:0:0:
358,175,291325,6,0,P|371:224|350:288,1,96,0|0,3:0|0:0,0:0:0:0:
235,353,291670,1,8,0:0:0:0:
108,281,291842,1,0,0:0:0:0:
108,281,291928,1,0,0:0:0:0:
108,281,292015,2,0,L|112:214,1,48
37,117,292187,2,0,L|73:147,1,48,0|0,3:0|0:0,0:0:0:0:
206,130,292359,2,0,L|165:155,1,48,8|0,0:0|0:0,0:0:0:0:
26,238,292532,1,0,0:0:0:0:
208,241,292704,6,0,L|316:258,1,96,0|0,3:0|0:0,0:0:0:0:
397,147,293049,1,8,0:0:0:0:
289,75,293222,1,0,0:0:0:0:
272,104,293308,1,0,0:0:0:0:
265,136,293394,1,0,0:0:0:0:
271,168,293480,1,0,0:0:0:0:
287,197,293566,1,0,3:0:0:0:
384,322,293739,2,0,L|388:265,1,48,8|0,0:0|0:0,0:0:0:0:
397,147,293911,1,0,0:0:0:0:
262,331,294084,6,0,L|145:316,1,96,0|0,3:0|0:0,0:0:0:0:
53,212,294428,1,8,0:0:0:0:
164,100,294601,1,0,0:0:0:0:
164,100,294687,1,0,0:0:0:0:
164,100,294773,1,0,0:0:0:0:
164,100,294859,1,0,0:0:0:0:
164,100,294946,2,0,L|174:184,1,48,0|0,3:0|0:0,0:0:0:0:
295,265,295118,2,0,L|301:199,1,48,8|0,0:0|0:0,0:0:0:0:
319,48,295291,1,0,0:0:0:0:
460,150,295463,6,0,L|438:276,1,96,0|0,3:0|0:0,0:0:0:0:
307,348,295808,1,8,0:0:0:0:
206,205,295980,1,0,0:0:0:0:
206,205,296066,1,0,0:0:0:0:
206,205,296153,1,0,0:0:0:0:
206,205,296239,1,0,0:0:0:0:
206,205,296325,2,0,L|193:126,1,48,0|0,3:0|0:0,0:0:0:0:
59,44,296497,2,0,L|55:131,1,48,8|0,0:0|0:0,0:0:0:0:
47,301,296670,1,0,0:0:0:0:
206,205,296842,6,0,L|351:193,1,144,0|0,3:0|0:0,0:0:0:0:
429,137,297187,2,0,P|436:73|428:38,1,52.8000016113282,8|0,0:0|0:0,0:0:0:0:
352,199,297359,1,0,0:0:0:0:
352,199,297446,2,0,P|403:237|460:235,1,115.199996484375,8|0,0:0|0:0,0:0:0:0:
324,115,297704,2,0,L|256:121,1,62.3999971435548,0|0,3:0|0:0,0:0:0:0:
54,141,297877,1,8,0:0:0:0:
179,108,298049,1,0,0:0:0:0:
179,108,298135,1,0,0:0:0:0:
179,108,298222,6,0,L|175:207,1,76.8,6|0,0:0|0:0,0:0:0:0:
213,269,298566,2,0,P|172:279|131:266,1,76.8,8|0,0:0|0:0,0:0:0:0:
261,155,298911,1,0,0:0:0:0:
299,250,299084,1,0,0:0:0:0:
394,212,299256,1,8,0:0:0:0:
356,117,299428,1,0,0:0:0:0:
265,324,299601,6,0,P|313:330|350:317,1,76.8
428,253,299946,2,0,L|435:146,1,76.8,8|0,0:0|0:0,0:0:0:0:
351,77,300291,1,0,0:0:0:0:
260,149,300463,1,0,0:0:0:0:
163,91,300635,2,0,L|152:-1,1,76.8,8|0,0:0|0:0,0:0:0:0:
112,164,300980,6,0,P|62:158|16:175,1,76.8
72,242,301325,2,0,P|63:285|85:349,1,76.8,8|0,0:0|0:0,0:0:0:0:
164,369,301670,1,0,0:0:0:0:
256,323,301842,1,0,0:0:0:0:
361,366,302015,2,0,L|461:375,1,76.8,8|0,0:0|0:0,0:0:0:0:
505,279,302359,6,0,P|514:233|499:185,1,76.8
420,120,302704,2,0,L|323:131,1,76.8,8|0,0:0|0:0,0:0:0:0:
249,217,303049,1,0,0:0:0:0:
199,79,303222,1,0,0:0:0:0:
343,128,303394,1,8,0:0:0:0:
249,217,303566,1,0,0:0:0:0:
117,102,303739,6,0,P|118:48|146:6,1,76.8
51,231,304084,2,0,L|25:130,1,76.8,8|0,0:0|0:0,0:0:0:0:
13,308,304428,1,0,0:0:0:0:
108,319,304601,1,0,0:0:0:0:
180,255,304773,1,8,0:0:0:0:
275,266,304946,1,0,0:0:0:0:
392,348,305118,6,0,L|404:238,1,76.8
346,167,305463,1,8,0:0:0:0:
476,184,305635,1,0,0:0:0:0:
401,270,305808,2,0,P|358:271|311:248,1,76.8
271,156,306153,2,0,P|314:155|361:178,1,76.8,8|0,0:0|0:0,0:0:0:0:
400,271,306497,6,0,L|333:263,1,57.5999982421876
266,320,306842,2,0,L|194:310,1,57.5999982421876,8|0,0:0|0:0,0:0:0:0:
41,285,307187,1,0,0:0:0:0:
121,362,307359,1,0,0:0:0:0:
121,251,307532,2,0,P|116:206|100:171,1,57.5999982421876,8|0,0:0|0:0,0:0:0:0:
201,146,307877,6,0,L|195:93,1,48
264,47,308222,1,8,0:0:0:0:
330,85,308394,1,0,0:0:0:0:
256,192,308566,12,0,309256,0:0:0:0:
