osu file format v14

[General]
AudioFilename: audio.mp3
AudioLeadIn: 0
PreviewTime: 132703
Countdown: 0
SampleSet: Soft
StackLeniency: 0.7
Mode: 0
LetterboxInBreaks: 0
WidescreenStoryboard: 0

[Editor]
DistanceSpacing: 1
BeatDivisor: 4
GridSize: 4
TimelineZoom: 0.9

[Metadata]
Title:Moonbound feat. Yukacco (USAO Remix)
TitleUnicode:Moonbound feat. Yukacco (USAO Remix)
Artist:aran
ArtistUnicode:aran
Creator:Gloria Guard
Version:Moonbound
Source:
Tags:electro dnb drum and bass
BeatmapID:1288429
BeatmapSetID:610208

[Difficulty]
HPDrainRate:6
CircleSize:4
OverallDifficulty:8.5
ApproachRate:9.5
SliderMultiplier:1.9
SliderTickRate:1

[Events]
//Background and Video events
0,0,"nice.jpg",0,0
//Break Periods
//Storyboard Layer 0 (Background)
//Storyboard Layer 1 (Fail)
//Storyboard Layer 2 (Pass)
//Storyboard Layer 3 (Foreground)
//Storyboard Sound Samples

[TimingPoints]
290,344.827586206897,4,2,1,30,1,0
290,-133.333333333333,4,2,1,30,0,0
7186,-133.333333333333,4,2,1,40,0,0
8565,-133.333333333333,4,2,1,50,0,0
9255,-133.333333333333,4,2,1,55,0,0
9945,-133.333333333333,4,2,1,65,0,0
10634,-200,4,2,2,40,0,0
11324,-100,4,2,5,65,0,0
20893,-100,4,2,5,5,0,0
20979,-100,4,2,5,65,0,0
23652,-100,4,2,5,5,0,0
23738,-100,4,2,5,65,0,0
25031,-100,4,2,5,5,0,0
25117,-100,4,2,5,65,0,0
29169,-100,4,2,5,5,0,0
29255,-100,4,2,5,65,0,0
30548,-100,4,2,5,5,0,0
30634,-100,4,2,5,65,0,0
32272,-100,4,2,5,5,0,0
32358,-76.9230769230769,4,2,2,65,0,0
33393,-100,4,2,5,55,0,0
33996,-100,4,2,5,5,0,0
34083,-100,4,2,5,55,0,0
35031,-100,4,2,5,5,0,0
35117,-100,4,2,5,55,0,0
36065,-100,4,2,5,5,0,0
36152,-100,4,2,5,55,0,0
36410,-100,4,2,5,5,0,0
36496,-100,4,2,5,55,0,0
37790,-100,4,2,5,5,0,0
37876,-100,4,2,5,55,0,0
38824,-100,4,2,5,5,0,0
38910,-100,4,2,5,55,0,0
40548,-100,4,2,5,5,0,0
40634,-100,4,2,5,55,0,0
42272,-100,4,2,5,5,0,0
42358,-100,4,2,5,55,0,0
44341,-100,4,2,5,5,0,0
44427,-100,4,2,5,55,0,0
44686,-100,4,2,5,5,0,0
44772,-100,4,2,5,55,0,0
46065,-100,4,2,5,5,0,0
46152,-100,4,2,5,55,0,0
47100,-100,4,2,5,5,0,0
47186,-100,4,2,5,55,0,0
48824,-100,4,2,5,5,0,0
48910,-100,4,2,5,55,0,0
50203,-100,4,2,5,5,0,0
50290,-100,4,2,5,55,0,0
51583,-100,4,2,5,5,0,0
51669,-100,4,2,5,55,0,0
52617,-100,4,2,5,5,0,0
52703,-100,4,2,5,55,0,0
53307,-100,4,2,5,5,0,0
53393,-100,4,2,5,55,0,0
54341,-100,4,2,5,5,0,0
54427,-100,4,2,5,55,0,0
55462,-400,4,2,1,30,0,0
56583,-400,4,2,1,5,0,0
56669,-400,4,2,1,30,0,0
58134,-400,4,2,1,5,0,0
58221,-400,4,2,1,30,0,0
60117,-133.333333333333,4,2,1,30,0,0
60979,-400,4,2,1,30,0,0
62100,-400,4,2,1,5,0,0
62186,-400,4,2,1,30,0,0
63652,-400,4,2,1,5,0,0
63738,-400,4,2,1,30,0,0
65634,-133.333333333333,4,2,1,30,0,0
66496,-400,4,2,1,30,0,0
67617,-400,4,2,1,5,0,0
67703,-400,4,2,1,30,0,0
69169,-400,4,2,1,5,0,0
69255,-400,4,2,1,30,0,0
71152,-100,4,2,1,30,0,0
77531,-133.333333333333,4,2,6,30,0,0
77790,-133.333333333333,4,2,6,5,0,0
77876,-133.333333333333,4,2,6,30,0,0
78824,-133.333333333333,4,2,6,5,0,0
78910,-133.333333333333,4,2,6,30,0,0
80548,-133.333333333333,4,2,6,5,0,0
80634,-133.333333333333,4,2,6,30,0,0
81583,-133.333333333333,4,2,6,5,0,0
81669,-133.333333333333,4,2,6,30,0,0
82272,-133.333333333333,4,2,6,5,0,0
82358,-133.333333333333,4,2,6,30,0,0
83307,-133.333333333333,4,2,6,5,0,0
83393,-133.333333333333,4,2,6,30,0,0
84341,-133.333333333333,4,2,6,5,0,0
84427,-133.333333333333,4,2,6,30,0,0
85807,-133.333333333333,4,2,6,40,0,0
86065,-133.333333333333,4,2,6,5,0,0
86152,-133.333333333333,4,2,6,40,0,0
86669,-133.333333333333,4,2,6,55,0,0
87100,-133.333333333333,4,2,6,5,0,0
87186,-133.333333333333,4,2,6,55,0,0
87876,-100,4,2,5,55,0,0
88824,-100,4,2,5,5,0,0
88910,-100,4,2,5,55,0,0
89858,-100,4,2,5,5,0,0
89945,-100,4,2,5,55,0,0
90548,-100,4,2,5,5,0,0
90634,-100,4,2,5,55,0,0
91583,-100,4,2,5,5,0,0
91669,-100,4,2,5,55,0,0
92617,-100,4,2,5,5,0,0
92703,-100,4,2,5,55,0,0
93307,-100,4,2,5,5,0,0
93393,-100,4,2,5,55,0,0
94341,-100,4,2,5,5,0,0
94427,-100,4,2,5,55,0,0
95376,-100,4,2,5,5,0,0
95462,-100,4,2,5,55,0,0
96065,-100,4,2,5,5,0,0
96152,-100,4,2,5,55,0,0
97100,-100,4,2,5,5,0,0
97186,-100,4,2,5,55,0,0
99600,-100,4,2,6,55,0,0
110634,-76.9230769230769,4,2,5,55,0,1
110893,-76.9230769230769,4,2,5,5,0,1
110979,-66.6666666666667,4,2,5,55,0,1
111238,-66.6666666666667,4,2,5,5,0,1
111324,-200,4,2,5,55,0,1
111583,-200,4,2,5,5,0,1
111669,-76.9230769230769,4,2,5,55,0,1
112962,-76.9230769230769,4,2,5,5,0,1
113048,-76.9230769230769,4,2,5,55,0,1
113652,-76.9230769230769,4,2,5,5,0,1
113738,-66.6666666666667,4,2,5,55,0,1
113996,-66.6666666666667,4,2,5,5,0,1
114083,-200,4,2,5,55,0,1
114341,-200,4,2,5,5,0,1
114427,-76.9230769230769,4,2,5,55,0,1
115721,-76.9230769230769,4,2,5,5,0,1
115807,-76.9230769230769,4,2,5,55,0,1
116410,-76.9230769230769,4,2,5,5,0,1
116496,-66.6666666666667,4,2,5,55,0,1
116755,-66.6666666666667,4,2,5,5,0,1
116841,-200,4,2,5,55,0,1
117100,-200,4,2,5,5,0,1
117186,-76.9230769230769,4,2,5,55,0,1
118479,-76.9230769230769,4,2,5,5,0,1
118565,-76.9230769230769,4,2,5,55,0,1
119169,-76.9230769230769,4,2,5,5,0,1
119255,-66.6666666666667,4,2,5,55,0,1
119514,-66.6666666666667,4,2,5,5,0,1
119600,-200,4,2,5,55,0,1
119858,-200,4,2,5,5,0,1
119945,-76.9230769230769,4,2,5,55,0,1
120979,-133.333333333333,4,2,5,55,0,1
121152,-100,4,2,5,55,0,1
121324,-86.9565217391304,4,2,5,55,0,1
121496,-76.9230769230769,4,2,5,55,0,1
122358,-200,4,2,5,55,0,1
122617,-200,4,2,5,5,0,1
122703,-76.9230769230769,4,2,5,55,0,1
124341,-76.9230769230769,4,2,5,5,0,1
124427,-76.9230769230769,4,2,5,55,0,1
124686,-76.9230769230769,4,2,5,5,0,1
124772,-66.6666666666667,4,2,5,55,0,1
125031,-66.6666666666667,4,2,5,5,0,1
125117,-200,4,2,5,55,0,1
125376,-200,4,2,5,5,0,1
125462,-76.9230769230769,4,2,5,55,0,1
127445,-76.9230769230769,4,2,5,5,0,1
127531,-66.6666666666667,4,2,5,55,0,1
127790,-66.6666666666667,4,2,5,5,0,1
127876,-200,4,2,5,55,0,1
128134,-200,4,2,5,5,0,1
128221,-76.9230769230769,4,2,5,55,0,1
130203,-76.9230769230769,4,2,5,5,0,1
130290,-66.6666666666667,4,2,5,55,0,1
130548,-66.6666666666667,4,2,5,5,0,1
130634,-200,4,2,5,55,0,1
130893,-200,4,2,5,5,0,1
130979,-76.9230769230769,4,2,5,55,0,1
131324,-76.9230769230769,4,2,5,55,0,0
132703,-76.9230769230769,4,2,5,55,0,1
132962,-76.9230769230769,4,2,5,5,0,1
133048,-76.9230769230769,4,2,5,55,0,1
133307,-76.9230769230769,4,2,5,5,0,1
133393,-200,4,2,5,55,0,1
133652,-200,4,2,5,5,0,1
133738,-76.9230769230769,4,2,5,55,0,1
135031,-76.9230769230769,4,2,5,5,0,1
135117,-76.9230769230769,4,2,5,55,0,1
136065,-76.9230769230769,4,2,5,5,0,1
136152,-200,4,2,5,55,0,1
136410,-200,4,2,5,5,0,1
136496,-76.9230769230769,4,2,5,55,0,1
137790,-76.9230769230769,4,2,5,5,0,1
137876,-76.9230769230769,4,2,5,55,0,1
138479,-76.9230769230769,4,2,5,5,0,1
138565,-76.9230769230769,4,2,5,55,0,1
138824,-76.9230769230769,4,2,5,5,0,1
138910,-200,4,2,5,55,0,1
139169,-200,4,2,5,5,0,1
139255,-76.9230769230769,4,2,5,55,0,1
140548,-76.9230769230769,4,2,5,5,0,1
140634,-76.9230769230769,4,2,5,55,0,1
141583,-76.9230769230769,4,2,5,5,0,1
141669,-76.9230769230769,4,2,5,55,0,1
143996,-76.9230769230769,4,2,5,5,0,1
144083,-76.9230769230769,4,2,5,55,0,1
144341,-76.9230769230769,4,2,5,5,0,1
144427,-200,4,2,5,55,0,1
144686,-200,4,2,5,5,0,1
144772,-76.9230769230769,4,2,5,55,0,1
145721,-76.9230769230769,4,2,5,5,0,1
145807,-200,4,2,5,55,0,1
146065,-200,4,2,5,5,0,1
146152,-76.9230769230769,4,2,5,55,0,1
146755,-76.9230769230769,4,2,5,5,0,1
146841,-76.9230769230769,4,2,5,55,0,1
147100,-76.9230769230769,4,2,5,5,0,1
147186,-200,4,2,5,55,0,1
147445,-200,4,2,5,5,0,1
147531,-76.9230769230769,4,2,5,55,0,1
148824,-76.9230769230769,4,2,5,5,0,1
148910,-76.9230769230769,4,2,5,55,0,1
149514,-76.9230769230769,4,2,5,5,0,1
149600,-76.9230769230769,4,2,5,55,0,1
149858,-76.9230769230769,4,2,5,5,0,1
149945,-200,4,2,5,55,0,1
150203,-200,4,2,5,5,0,1
150290,-76.9230769230769,4,2,5,55,0,1
151583,-76.9230769230769,4,2,5,5,0,1
151669,-76.9230769230769,4,2,5,55,0,1
152272,-76.9230769230769,4,2,5,5,0,1
152358,-76.9230769230769,4,2,5,55,0,1
152617,-76.9230769230769,4,2,5,5,0,1
152703,-76.9230769230769,4,2,5,55,0,1
153738,-200,4,2,5,55,0,1
153996,-200,4,2,5,5,0,1
154083,-76.9230769230769,4,2,5,55,0,1
155031,-76.9230769230769,4,2,5,5,0,1
155117,-76.9230769230769,4,2,5,55,0,1
155721,-76.9230769230769,4,2,5,5,0,1
155807,-76.9230769230769,4,2,5,55,0,1
157790,-76.9230769230769,4,2,5,5,0,1
157876,-76.9230769230769,4,2,5,55,0,1
158479,-76.9230769230769,4,2,5,5,0,1
158565,-76.9230769230769,4,2,5,55,0,1
160548,-76.9230769230769,4,2,5,5,0,1
160634,-76.9230769230769,4,2,5,55,0,1
163307,-76.9230769230769,4,2,5,5,0,1
163393,-76.9230769230769,4,2,5,55,0,1
166065,-76.9230769230769,4,2,5,5,0,1
166152,-76.9230769230769,4,2,5,55,0,1
167790,-76.9230769230769,4,2,5,5,0,1
167876,-76.9230769230769,4,2,5,55,0,1
168824,-76.9230769230769,4,2,5,5,0,1
168910,-76.9230769230769,4,2,5,55,0,1
170548,-76.9230769230769,4,2,5,5,0,1
170634,-76.9230769230769,4,2,5,55,0,1
171583,-76.9230769230769,4,2,5,5,0,1
171669,-76.9230769230769,4,2,5,55,0,1
173307,-76.9230769230769,4,2,5,5,0,1
173393,-76.9230769230769,4,2,5,55,0,1
174341,-76.9230769230769,4,2,5,5,0,1
174427,-76.9230769230769,4,2,5,55,0,1
175462,-76.9230769230769,4,2,5,55,0,0
176841,-133.333333333333,4,2,2,35,0,0
180807,-133.333333333333,4,2,2,45,0,0
185807,-133.333333333333,4,2,2,55,0,0
187100,-133.333333333333,4,2,2,5,0,0
187186,-133.333333333333,4,2,2,55,0,0
188134,-133.333333333333,4,2,2,5,0,0
188221,-133.333333333333,4,2,2,55,0,0
189169,-133.333333333333,4,2,2,5,0,0
189255,-133.333333333333,4,2,2,55,0,0
190893,-133.333333333333,4,2,2,5,0,0
190979,-133.333333333333,4,2,2,55,0,0
191927,-133.333333333333,4,2,2,5,0,0
192014,-133.333333333333,4,2,2,55,0,0
193652,-133.333333333333,4,2,2,5,0,0
193738,-133.333333333333,4,2,2,55,0,0
194686,-133.333333333333,4,2,2,5,0,0
194772,-133.333333333333,4,2,2,55,0,0
196410,-133.333333333333,4,2,2,5,0,0
196496,-133.333333333333,4,2,2,55,0,0
197445,-133.333333333333,4,2,2,5,0,0
197531,-133.333333333333,4,2,2,55,0,0
198393,-133.333333333333,4,2,2,45,0,0
198565,-133.333333333333,4,2,2,35,0,0
198738,-133.333333333333,4,2,2,30,0,0
199255,-133.333333333333,4,2,6,30,0,0
201583,-133.333333333333,4,2,6,5,0,0
201669,-133.333333333333,4,2,6,30,0,0
203307,-133.333333333333,4,2,6,5,0,0
203393,-133.333333333333,4,2,6,30,0,0
204686,-133.333333333333,4,2,6,5,0,0
204772,-133.333333333333,4,2,6,30,0,0
206065,-133.333333333333,4,2,6,5,0,0
206152,-133.333333333333,4,2,6,30,0,0
207100,-133.333333333333,4,2,6,5,0,0
207186,-133.333333333333,4,2,6,30,0,0
209255,-133.333333333333,4,2,6,35,0,0
209427,-133.333333333333,4,2,6,45,0,0
209600,-133.333333333333,4,2,6,55,0,0
209945,-100,4,2,8,55,0,0
210203,-100,4,2,8,5,0,0
210290,-100,4,2,8,55,0,0
212962,-100,4,2,8,5,0,0
213048,-100,4,2,8,55,0,0
215721,-100,4,2,8,5,0,0
215807,-100,4,2,8,55,0,0
216755,-100,4,2,8,5,0,0
216841,-100,4,2,8,55,0,0
219514,-100,4,2,8,5,0,0
219600,-100,4,2,8,55,0,0
222703,-100,4,2,8,55,0,0
232014,-76.9230769230769,4,2,5,55,0,1
232272,-76.9230769230769,4,2,5,5,0,1
232358,-66.6666666666667,4,2,5,55,0,1
233048,-76.9230769230769,4,2,5,55,0,1
234686,-76.9230769230769,4,2,5,5,0,1
234772,-76.9230769230769,4,2,5,55,0,1
235031,-76.9230769230769,4,2,5,5,0,1
235117,-66.6666666666667,4,2,5,55,0,1
235462,-76.9230769230769,4,2,5,55,0,1
237790,-76.9230769230769,4,2,5,5,0,1
237876,-66.6666666666667,4,2,5,55,0,1
238565,-76.9230769230769,4,2,5,55,0,1
240548,-76.9230769230769,4,2,5,5,0,1
240634,-66.6666666666667,4,2,5,55,0,1
240979,-76.9230769230769,4,2,5,55,0,1
243307,-76.9230769230769,4,2,5,5,0,1
243393,-66.6666666666667,4,2,5,55,0,1
243652,-66.6666666666667,4,2,5,5,0,1
243738,-76.9230769230769,4,2,5,55,0,1
245721,-76.9230769230769,4,2,5,5,0,1
245807,-76.9230769230769,4,2,5,55,0,1
246065,-76.9230769230769,4,2,5,5,0,1
246152,-66.6666666666667,4,2,5,55,0,1
246496,-76.9230769230769,4,2,5,55,0,1
247100,-76.9230769230769,4,2,5,5,0,1
247186,-66.6666666666667,4,2,5,55,0,1
248479,-66.6666666666667,4,2,5,5,0,1
248565,-76.9230769230769,4,2,5,55,0,1
248824,-76.9230769230769,4,2,5,5,0,1
248910,-66.6666666666667,4,2,5,55,0,1
249169,-66.6666666666667,4,2,5,5,0,1
249255,-76.9230769230769,4,2,5,55,0,1
251238,-76.9230769230769,4,2,5,5,0,1
251324,-76.9230769230769,4,2,5,55,0,1
251583,-76.9230769230769,4,2,5,5,0,1
251669,-66.6666666666667,4,2,5,55,0,1
252014,-76.9230769230769,4,2,5,55,0,1
252617,-76.9230769230769,4,2,5,5,0,1
252703,-133.333333333333,4,2,6,55,0,0
253221,-100,4,2,6,60,0,0
253738,-76.9230769230769,4,2,6,60,0,0
254083,-76.9230769230769,4,2,5,60,0,1
255376,-76.9230769230769,4,2,5,5,0,1
255462,-76.9230769230769,4,2,5,60,0,1
256065,-76.9230769230769,4,2,5,5,0,1
256152,-76.9230769230769,4,2,5,60,0,1
257100,-76.9230769230769,4,2,5,5,0,1
257186,-76.9230769230769,4,2,5,60,0,1
258134,-76.9230769230769,4,2,5,5,0,1
258221,-76.9230769230769,4,2,5,60,0,1
259858,-76.9230769230769,4,2,5,5,0,1
259945,-76.9230769230769,4,2,5,60,0,1
261583,-76.9230769230769,4,2,5,5,0,1
261669,-76.9230769230769,4,2,5,60,0,1
265376,-76.9230769230769,4,2,5,5,0,1
265462,-76.9230769230769,4,2,5,60,0,1
266410,-76.9230769230769,4,2,5,5,0,1
266496,-76.9230769230769,4,2,5,60,0,1
268134,-76.9230769230769,4,2,5,5,0,1
268221,-76.9230769230769,4,2,5,60,0,1
269858,-76.9230769230769,4,2,5,5,0,1
269945,-76.9230769230769,4,2,5,60,0,1
270893,-76.9230769230769,4,2,5,5,0,1
270979,-76.9230769230769,4,2,5,60,0,1
271927,-76.9230769230769,4,2,5,5,0,1
272014,-76.9230769230769,4,2,5,60,0,1
273652,-76.9230769230769,4,2,5,5,0,1
273738,-76.9230769230769,4,2,5,60,0,1
274772,-76.9230769230769,4,2,5,60,0,0
276152,-100,4,2,5,60,0,0
297186,-76.9230769230769,4,2,5,60,0,0
298221,-133.333333333333,4,2,6,45,0,0
305117,-133.333333333333,4,2,6,35,0,0
305807,-133.333333333333,4,2,6,25,0,0
309255,-133.333333333333,4,2,6,5,0,0

[Colours]
Combo1 : 218,92,152
Combo2 : 168,0,0
Combo3 : 253,112,108
Combo4 : 183,111,255
Combo5 : 255,181,255
Combo6 : 255,72,72

[HitObjects]
220,128,290,6,0,L|212:40,1,71.2500027179719,4|0,0:0|0:0,0:0:0:0:
213,57,634,1,8,0:0:0:0:
340,156,806,1,0,0:0:0:0:
364,140,893,1,0,0:0:0:0:
392,136,979,1,0,0:0:0:0:
420,140,1065,1,0,0:0:0:0:
444,152,1151,1,0,0:0:0:0:
256,224,1324,2,0,P|220:232|176:224,1,71.2500027179719,8|0,0:0|0:0,0:0:0:0:
48,110,1669,6,0,P|79:127|100:156,1,71.2500027179719
80,268,2014,1,8,0:0:0:0:
208,116,2186,1,0,0:0:0:0:
206,98,2272,1,0,0:0:0:0:
205,80,2358,1,0,0:0:0:0:
204,62,2444,1,0,0:0:0:0:
203,44,2530,1,0,0:0:0:0:
216,216,2703,1,8,0:0:0:0:
308,108,2876,1,0,0:0:0:0:
416,200,3048,6,0,L|488:196,1,71.2500027179719
276,344,3393,2,0,L|204:348,1,71.2500027179719,8|0,0:0|0:0,0:0:0:0:
176,352,3652,1,0,0:0:0:0:
148,344,3738,1,0,0:0:0:0:
128,324,3824,1,0,0:0:0:0:
120,296,3910,1,0,0:0:0:0:
224,248,4083,1,8,0:0:0:0:
28,220,4255,6,0,L|-32:208,2,35.625001358986
244,144,4600,1,0,0:0:0:0:
128,228,4772,2,0,L|140:136,1,71.2500027179719,8|0,0:0|0:0,0:0:0:0:
144,128,5031,1,0,0:0:0:0:
116,132,5117,1,0,0:0:0:0:
88,124,5203,1,0,0:0:0:0:
68,104,5290,1,0,0:0:0:0:
244,144,5462,1,8,0:0:0:0:
262,24,5634,2,0,L|260:60,1,35.625001358986
232,228,5807,5,0,0:0:0:0:
356,156,5979,1,0,0:0:0:0:
468,244,6152,2,0,L|460:332,1,71.2500027179719,8|0,0:0|0:0,0:0:0:0:
460,344,6410,1,0,0:0:0:0:
436,332,6496,1,0,0:0:0:0:
408,336,6583,1,0,0:0:0:0:
388,356,6669,1,0,0:0:0:0:
380,184,6841,2,0,L|386:113,1,71.2500027179719,8|0,0:0|0:0,0:0:0:0:
396,28,7186,5,0,0:0:0:0:
396,28,7359,1,0,0:0:0:0:
476,148,7531,1,8,0:0:0:0:
304,132,7704,1,0,0:0:0:0:
280,116,7790,1,0,0:0:0:0:
252,112,7877,1,0,0:0:0:0:
224,116,7963,1,0,0:0:0:0:
204,136,8049,1,0,0:0:0:0:
37,69,8221,2,0,L|108:76,1,71.2500027179719,8|0,0:0|0:0,0:0:0:0:
264,200,8565,5,0,0:0:0:0:
264,200,8738,1,0,0:0:0:0:
256,284,8910,2,0,L|252:364,1,71.2500027179719,8|0,0:0|0:0,0:0:0:0:
348,180,9255,5,0,0:0:0:0:
348,180,9427,1,0,0:0:0:0:
180,220,9600,2,0,L|104:240,1,71.2500027179719,8|0,0:0|0:0,0:0:0:0:
424,216,9945,5,0,0:0:0:0:
424,216,10117,1,0,0:0:0:0:
216,124,10290,2,0,L|144:88,1,71.2500027179719,8|0,0:0|0:0,0:0:0:0:
380,88,10634,6,0,L|440:68,1,47.5,0|2,0:0|0:0,0:0:0:0:
168,192,10979,2,0,L|116:168,1,47.5,0|2,0:0|0:0,0:0:0:0:
359,364,11324,6,0,B|380:324|380:324|368:276,1,95,2|0,0:0|0:0,0:0:0:0:
148,184,11669,2,0,L|44:192,1,95,8|0,0:0|0:0,0:0:0:0:
16,104,11927,1,0,0:0:0:0:
16,104,12014,2,0,L|76:100,1,47.5
240,172,12186,1,2,0:0:0:0:
206,9,12358,2,0,P|173:42|164:88,1,95,8|0,0:0|0:0,0:0:0:0:
340,164,12703,6,0,L|452:156,1,95
152,272,13048,2,0,L|57:278,1,95,8|0,0:0|0:0,0:0:0:0:
28,368,13307,1,0,0:0:0:0:
28,368,13393,2,0,L|80:364,1,47.5
236,260,13565,1,2,0:0:0:0:
88,76,13738,2,0,L|96:176,1,95,8|0,0:0|0:0,0:0:0:0:
372,356,14083,6,0,P|368:304|336:264,1,95,2|0,0:0|0:0,0:0:0:0:
60,304,14427,2,0,L|172:292,1,95,8|0,0:0|0:0,0:0:0:0:
248,284,14686,1,0,0:0:0:0:
248,284,14772,2,0,P|248:248|268:220,1,47.5
444,244,14945,1,2,0:0:0:0:
372,68,15117,2,0,P|352:124|356:168,1,95,8|0,0:0|0:0,0:0:0:0:
444,128,15462,5,2,0:0:0:0:
260,76,15634,1,0,0:0:0:0:
332,345,15807,2,0,P|336:298|316:256,1,95,8|0,0:0|0:0,0:0:0:0:
224,232,16065,1,0,0:0:0:0:
224,232,16152,2,0,L|172:240,1,47.5
16,256,16324,1,2,0:0:0:0:
208,328,16496,1,8,0:0:0:0:
168,140,16669,1,0,0:0:0:0:
16,256,16841,6,0,L|24:360,1,95,2|0,0:0|0:0,0:0:0:0:
168,140,17186,2,0,L|160:45,1,95,8|0,0:0|0:0,0:0:0:0:
156,8,17445,1,0,0:0:0:0:
128,32,17531,1,0,0:0:0:0:
92,40,17617,1,0,0:0:0:0:
56,32,17703,1,2,0:0:0:0:
280,80,17876,2,0,L|380:72,1,95,8|0,0:0|0:0,0:0:0:0:
128,248,18221,6,0,L|33:255,1,95,2|0,0:0|0:0,0:0:0:0:
296,224,18565,2,0,P|316:268|308:324,1,95,8|0,0:0|0:0,0:0:0:0:
300,352,18824,1,0,0:0:0:0:
336,340,18910,1,0,0:0:0:0:
372,348,18996,1,0,0:0:0:0:
400,376,19083,1,2,0:0:0:0:
232,284,19255,1,8,0:0:0:0:
416,240,19427,1,0,0:0:0:0:
300,92,19600,6,0,P|300:40|324:0,1,95,2|0,0:0|0:0,0:0:0:0:
510,79,19945,2,0,L|416:68,1,95,8|0,0:0|0:0,0:0:0:0:
188,76,20290,2,0,L|128:68,2,47.5,0|0|2,0:0|0:0|0:0,0:0:0:0:
396,168,20634,2,0,P|328:208|240:196,1,142.5,8|0,0:0|0:0,0:0:0:0:
266,206,20979,6,0,L|260:312,1,95,2|0,0:0|0:0,0:0:0:0:
344,344,21324,1,8,0:0:0:0:
180,244,21496,1,0,0:0:0:0:
352,164,21669,1,0,0:0:0:0:
196,56,21841,2,0,L|192:104,1,47.5,2|0,0:0|0:0,0:0:0:0:
180,244,22014,1,12,0:0:0:0:
352,164,22186,1,0,0:0:0:0:
100,28,22358,6,0,L|88:128,1,95,2|0,0:0|0:0,0:0:0:0:
24,352,22703,2,0,P|64:320|112:320,1,95,8|0,0:0|0:0,0:0:0:0:
132,348,22962,1,0,0:0:0:0:
168,360,23048,1,0,0:0:0:0:
204,360,23134,1,0,0:0:0:0:
240,348,23221,1,2,0:0:0:0:
207,101,23393,2,0,L|196:244,1,142.5,8|0,0:0|0:0,0:0:0:0:
196,244,23738,5,2,0:0:0:0:
104,124,23910,1,0,0:0:0:0:
324,184,24083,2,0,P|384:180|424:160,1,95,8|0,0:0|0:0,0:0:0:0:
448,144,24341,1,0,0:0:0:0:
446,167,24427,1,0,0:0:0:0:
445,191,24513,1,0,0:0:0:0:
443,215,24599,1,2,0:0:0:0:
480,364,24772,2,0,B|500:312|500:312|460:340|408:328,1,142.5,8|0,0:0|0:0,0:0:0:0:
417,329,25117,5,2,0:0:0:0:
252,172,25290,1,0,0:0:0:0:
236,378,25462,2,0,L|244:284,1,95,8|0,0:0|0:0,0:0:0:0:
212,304,25721,1,0,0:0:0:0:
176,308,25807,1,0,0:0:0:0:
140,296,25893,1,0,0:0:0:0:
116,268,25979,1,2,0:0:0:0:
380,228,26152,2,0,L|484:236,1,95,8|0,0:0|0:0,0:0:0:0:
408,328,26496,5,2,0:0:0:0:
300,172,26669,1,0,0:0:0:0:
487,13,26841,2,0,L|480:108,1,95,8|0,0:0|0:0,0:0:0:0:
408,328,27186,1,0,0:0:0:0:
300,172,27358,2,0,L|236:168,1,47.5,2|0,0:0|0:0,0:0:0:0:
156,160,27531,1,8,0:0:0:0:
328,80,27703,1,0,0:0:0:0:
376,264,27876,6,0,L|368:364,1,95,2|0,0:0|0:0,0:0:0:0:
468,196,28221,1,8,0:0:0:0:
256,304,28393,2,0,L|252:356,2,47.5
260,264,28652,1,0,0:0:0:0:
264,228,28738,1,2,0:0:0:0:
0,313,28910,2,0,P|49:271|120:272,1,142.5,8|0,0:0|0:0,0:0:0:0:
123,273,29255,5,2,0:0:0:0:
80,360,29427,1,0,0:0:0:0:
164,188,29600,1,8,0:0:0:0:
348,240,29772,1,0,0:0:0:0:
384,240,29858,1,0,0:0:0:0:
420,228,29944,1,0,0:0:0:0:
448,204,30031,1,0,0:0:0:0:
460,168,30117,1,2,0:0:0:0:
364,40,30290,2,0,B|332:24|332:24|352:128,1,142.5,8|0,0:0|0:0,0:0:0:0:
352,127,30634,5,2,0:0:0:0:
452,72,30807,1,0,0:0:0:0:
224,68,30979,2,0,L|120:56,1,95,8|0,0:0|0:0,0:0:0:0:
384,132,31324,5,0,0:0:0:0:
384,132,31496,1,2,0:0:0:0:
232,152,31669,2,0,L|128:140,1,95,8|0,0:0|0:0,0:0:0:0:
32,356,32014,2,0,B|72:320|72:320|184:340,1,142.5,2|0,0:0|0:0,0:0:0:0:
244,372,32358,6,0,P|248:312|204:256,1,123.499994346619,2|0,3:0|0:0,0:0:0:0:
92,240,32617,2,0,L|213:261,1,123.499994346619,2|0,3:0|0:0,0:0:0:0:
356,212,32876,2,0,L|295:203,1,61.7499971733095
212,148,33048,2,0,L|220:100,5,30.8749985866547,2|0|0|0|0|0,3:0|0:0|0:0|0:0|0:0|0:0,0:0:0:0:
5,104,33393,6,0,L|100:116,1,95,2|0,0:0|0:0,0:0:0:0:
464,50,33738,2,0,P|400:36|332:68,1,142.5,8|0,0:0|0:0,0:0:0:0:
332,67,34083,2,0,L|276:64,1,47.5
192,56,34255,1,2,0:0:0:0:
409,226,34427,2,0,P|424:176|408:128,1,95,8|0,0:0|0:0,0:0:0:0:
100,28,34772,6,0,B|76:56|84:128|84:128|116:84,1,142.5,2|0,0:0|0:0,0:0:0:0:
106,96,35117,1,8,0:0:0:0:
244,228,35290,1,0,0:0:0:0:
260,84,35462,2,0,L|256:132,1,47.5
232,320,35634,1,2,0:0:0:0:
136,216,35807,2,0,B|24:204|24:204|48:244,1,142.5,8|0,0:0|0:0,0:0:0:0:
64,320,36152,6,0,P|120:328|92:300,1,142.5,2|0,0:0|0:0,0:0:0:0:
92,300,36496,1,8,0:0:0:0:
184,136,36669,1,0,0:0:0:0:
0,116,36841,2,0,L|88:124,1,95,0|2,0:0|0:0,0:0:0:0:
276,148,37186,1,8,0:0:0:0:
258,287,37358,2,0,L|264:240,1,47.5
309,66,37531,6,0,B|288:40|288:40|276:148,1,142.5,2|0,0:0|0:0,0:0:0:0:
276,148,37876,1,8,0:0:0:0:
196,28,38048,1,0,0:0:0:0:
396,156,38221,1,0,0:0:0:0:
176,244,38393,2,0,L|172:308,1,47.5,2|0,0:0|0:0,0:0:0:0:
124,372,38565,2,0,P|180:332|260:356,1,142.5,8|0,0:0|0:0,0:0:0:0:
248,346,38910,5,2,0:0:0:0:
472,272,39083,1,0,0:0:0:0:
360,360,39255,2,0,L|367:265,1,95,8|0,0:0|0:0,0:0:0:0:
144,188,39600,2,0,L|80:180,1,47.5
4,172,39772,1,2,0:0:0:0:
236,128,39945,2,0,P|256:80|252:32,1,95,8|0,0:0|0:0,0:0:0:0:
20,272,40290,6,0,B|68:256|104:304|160:292,1,142.5,2|0,0:0|0:0,0:0:0:0:
228,360,40634,2,0,P|252:312|248:268,1,95,8|0,0:0|0:0,0:0:0:0:
216,84,40979,1,0,0:0:0:0:
219,60,41065,1,0,0:0:0:0:
222,36,41152,2,0,L|288:48,1,47.5,2|0,0:0|0:0,0:0:0:0:
364,56,41324,1,8,0:0:0:0:
128,20,41496,1,0,0:0:0:0:
112,210,41669,6,0,L|120:116,1,95,2|0,0:0|0:0,0:0:0:0:
44,292,42014,2,0,P|96:260|196:284,1,142.5,8|0,0:0|0:0,0:0:0:0:
268,248,42358,2,0,P|272:280|260:312,1,47.5
200,360,42531,1,2,0:0:0:0:
208,172,42703,2,0,L|216:68,1,95,8|0,0:0|0:0,0:0:0:0:
148,8,43048,5,2,0:0:0:0:
148,8,43221,1,0,0:0:0:0:
300,120,43393,1,8,0:0:0:0:
136,216,43565,1,0,0:0:0:0:
356,32,43738,1,0,0:0:0:0:
396,56,43824,1,0,0:0:0:0:
412,100,43910,1,2,0:0:0:0:
472,280,44083,2,0,B|496:180|496:180|464:200|440:204,1,142.5,8|0,0:0|0:0,0:0:0:0:
321,203,44427,6,0,B|364:208|364:208|408:192|408:192|460:198,1,142.5,6|0,0:0|0:0,0:0:0:0:
460,198,44772,1,8,0:0:0:0:
336,108,44945,1,0,0:0:0:0:
240,272,45117,2,0,L|232:366,1,95,0|2,0:0|0:0,0:0:0:0:
336,108,45462,2,0,L|340:48,1,47.5,8|0,0:0|0:0,0:0:0:0:
428,24,45634,1,0,0:0:0:0:
248,80,45807,6,0,B|196:72|196:72|152:88|152:88|88:80,1,142.5,2|0,0:0|0:0,0:0:0:0:
109,82,46152,2,0,L|100:144,1,47.5,8|0,0:0|0:0,0:0:0:0:
16,88,46324,1,0,0:0:0:0:
176,258,46496,2,0,P|193:214|188:168,1,95,0|2,0:0|0:0,0:0:0:0:
120,344,46841,2,0,P|184:300|264:324,1,142.5,8|0,0:0|0:0,0:0:0:0:
244,309,47186,5,2,0:0:0:0:
92,200,47358,1,0,0:0:0:0:
336,52,47531,2,0,L|340:172,1,95,8|0,0:0|0:0,0:0:0:0:
208,103,47876,2,0,L|256:100,1,47.5
432,28,48048,1,2,0:0:0:0:
439,218,48221,2,0,L|436:124,1,95,8|0,0:0|0:0,0:0:0:0:
212,196,48565,6,0,B|156:200|156:200|120:224|120:224|68:228,1,142.5,2|0,0:0|0:0,0:0:0:0:
24,148,48910,2,0,L|84:144,1,47.5,8|0,0:0|0:0,0:0:0:0:
200,284,49083,1,0,0:0:0:0:
28,360,49255,2,0,P|0:312|4:264,1,95,0|2,0:0|0:0,0:0:0:0:
292,112,49600,2,0,P|320:160|316:208,1,95,8|0,0:0|0:0,0:0:0:0:
462,297,49945,6,0,B|416:300|384:264|384:264|368:284|336:292,1,142.5,2|0,0:0|0:0,0:0:0:0:
201,268,50290,2,0,L|248:260,1,47.5,8|0,0:0|0:0,0:0:0:0:
472,188,50462,1,0,0:0:0:0:
324,50,50634,2,0,B|308:88|308:88|327:138,1,95,0|2,0:0|0:0,0:0:0:0:
362,271,50893,1,0,0:0:0:0:
362,271,50979,2,0,L|368:224,1,47.5,8|0,0:0|0:0,0:0:0:0:
404,84,51152,1,0,0:0:0:0:
236,172,51324,6,0,B|184:176|184:176|152:200|152:200|80:208,1,142.5,2|0,0:0|0:0,0:0:0:0:
101,205,51669,1,8,0:0:0:0:
232,264,51841,1,0,0:0:0:0:
18,97,52014,2,0,L|112:116,1,95,0|2,0:0|0:0,0:0:0:0:
373,249,52358,2,0,L|232:264,1,142.5,8|0,0:0|0:0,0:0:0:0:
232,264,52703,6,0,L|224:316,1,47.5,2|0,0:0|0:0,0:0:0:0:
40,352,52876,1,0,0:0:0:0:
124,236,53048,2,0,B|136:144|136:144|88:176,1,142.5,8|0,0:0|0:0,0:0:0:0:
28,240,53393,1,0,0:0:0:0:
216,204,53565,1,2,0:0:0:0:
0,60,53738,2,0,L|80:72,1,95,8|0,0:0|0:0,0:0:0:0:
268,28,54083,6,0,P|332:32|380:92,1,142.5,2|0,0:0|0:0,0:0:0:0:
379,89,54427,1,8,0:0:0:0:
288,116,54600,1,0,0:0:0:0:
468,60,54772,2,0,P|472:96|456:128,1,47.5
310,205,54945,2,0,P|329:190|352:184,1,47.5
476,256,55117,1,0,0:0:0:0:
379,89,55290,1,0,0:0:0:0:
379,89,55462,6,0,B|328:88|296:48|296:48|264:52|244:84,1,154.375,4|0,0:0|0:0,0:0:0:0:
267,160,56669,2,0,P|304:232|208:260,1,201.875,2|0,0:0|0:0,0:0:0:0:
212,263,58221,5,2,0:0:0:0:
80,164,59427,1,0,0:0:0:0:
328,304,60117,1,0,0:0:0:0:
472,192,60290,5,2,0:0:0:0:
436,292,60462,1,2,0:0:0:0:
368,208,60634,1,0,0:0:0:0:
328,304,60807,1,2,0:0:0:0:
264,220,60979,6,0,B|204:216|184:268|116:256,1,154.375,2|0,0:0|0:0,0:0:0:0:
60,332,62186,2,0,P|20:288|76:176,1,201.875,2|0,0:0|0:0,0:0:0:0:
92,84,63738,6,0,B|136:96|160:136|160:136|200:128|208:80,1,166.25,2|0,0:0|0:0,0:0:0:0:
472,192,65634,1,0,0:0:0:0:
388,124,65807,5,2,0:0:0:0:
388,124,65979,1,0,0:0:0:0:
372,228,66152,1,2,0:0:0:0:
288,164,66324,1,2,0:0:0:0:
472,192,66496,6,0,P|476:264|424:324,1,154.375,2|0,0:0|0:0,0:0:0:0:
336,356,67703,2,0,B|324:312|344:280|344:280|284:248|220:296,1,201.875,2|0,0:0|0:0,0:0:0:0:
227,290,69255,5,2,0:0:0:0:
328,156,70462,1,0,0:0:0:0:
328,156,71152,1,0,0:0:0:0:
268,80,71324,5,2,0:0:0:0:
360,64,71496,1,0,0:0:0:0:
292,240,71669,1,2,0:0:0:0:
172,92,71841,1,2,0:0:0:0:
328,156,72014,5,2,0:0:0:0:
256,192,72100,12,0,76841,0:0:0:0:
296,204,77531,6,0,B|336:208|336:208|360:224|360:224|416:228,1,106.875004076958,2|0,0:0|0:0,0:0:0:0:
397,226,77876,1,8,0:0:0:0:
304,292,78048,1,0,0:0:0:0:
408,124,78221,2,0,L|416:52,1,71.2500027179719,0|2,0:0|0:0,0:0:0:0:
304,292,78565,2,0,P|256:284|188:308,1,106.875004076958,8|0,0:0|0:0,0:0:0:0:
132,348,78910,6,0,P|120:324|124:304,1,35.625001358986,2|0,0:0|0:0,0:0:0:0:
160,148,79083,1,0,0:0:0:0:
9,235,79255,2,0,L|80:228,1,71.2500027179719,8|0,0:0|0:0,0:0:0:0:
272,132,79600,1,0,0:0:0:0:
160,148,79772,1,2,0:0:0:0:
200,44,79945,1,8,0:0:0:0:
340,224,80117,1,0,0:0:0:0:
464,32,80290,6,0,L|344:40,1,106.875004076958,2|0,0:0|0:0,0:0:0:0:
357,39,80634,1,8,0:0:0:0:
160,148,80807,1,0,0:0:0:0:
279,202,80979,2,0,P|272:164|288:124,1,71.2500027179719,0|2,0:0|0:0,0:0:0:0:
466,175,81324,2,0,L|360:168,1,106.875004076958,8|0,0:0|0:0,0:0:0:0:
360,168,81669,5,2,0:0:0:0:
208,248,81841,1,0,0:0:0:0:
336,360,82014,2,0,B|360:312|360:312|340:248,1,106.875004076958,8|0,0:0|0:0,0:0:0:0:
344,261,82358,1,0,0:0:0:0:
436,84,82531,1,2,0:0:0:0:
253,68,82703,2,0,L|324:76,1,71.2500027179719,8|0,0:0|0:0,0:0:0:0:
468,168,83048,6,0,B|436:164|436:164|396:184|396:184|352:176,1,106.875004076958,2|0,0:0|0:0,0:0:0:0:
244,165,83393,2,0,L|280:168,1,35.625001358986,8|0,0:0|0:0,0:0:0:0:
456,264,83565,1,0,0:0:0:0:
364,88,83738,2,0,L|368:16,1,71.2500027179719,0|2,0:0|0:0,0:0:0:0:
456,264,84083,2,0,P|472:304|444:368,1,106.875004076958,8|0,0:0|0:0,0:0:0:0:
451,361,84427,6,0,L|384:352,1,35.625001358986,2|0,0:0|0:0,0:0:0:0:
220,328,84600,1,0,0:0:0:0:
335,217,84772,2,0,L|328:288,1,71.2500027179719,8|0,0:0|0:0,0:0:0:0:
108,316,85117,1,0,0:0:0:0:
220,328,85290,1,2,0:0:0:0:
436,252,85462,1,8,0:0:0:0:
280,132,85634,1,0,0:0:0:0:
92,196,85807,6,0,B|48:200|16:168|16:168|56:148,1,106.875004076958,2|0,0:0|0:0,0:0:0:0:
110,76,86152,2,0,L|108:112,1,35.625001358986,8|0,0:0|0:0,0:0:0:0:
80,280,86324,1,0,0:0:0:0:
267,199,86496,2,0,L|196:196,1,71.2500027179719,0|2,0:0|0:0,0:0:0:0:
340,104,86841,2,0,B|344:32|344:32|368:64,1,106.875004076958,8|0,0:0|0:0,0:0:0:0:
463,122,87186,6,0,L|428:120,1,35.625001358986,2|0,0:0|0:0,0:0:0:0:
248,32,87358,1,0,0:0:0:0:
328,184,87531,2,0,L|324:264,1,71.2500027179719,8|0,0:0|0:0,0:0:0:0:
132,132,87876,1,0,0:0:0:0:
0,112,88048,2,0,L|40:120,1,47.5,2|0,0:0|0:0,0:0:0:0:
274,151,88221,2,0,L|228:144,1,47.5,12|0,0:0|0:0,0:0:0:0:
152,24,88393,1,0,0:0:0:0:
140,227,88565,6,0,B|116:244|116:244|132:132,1,142.5,2|0,0:0|0:0,0:0:0:0:
132,132,88910,1,8,0:0:0:0:
32,232,89083,1,0,0:0:0:0:
212,292,89255,2,0,L|268:296,1,47.5
428,204,89427,1,2,0:0:0:0:
496,380,89600,2,0,B|508:288|508:288|480:312|444:312,1,142.5,8|0,0:0|0:0,0:0:0:0:
336,356,89945,6,0,L|384:360,1,47.5,2|0,0:0|0:0,0:0:0:0:
428,204,90117,1,0,0:0:0:0:
358,140,90290,2,0,P|331:204|360:268,1,142.5,8|0,0:0|0:0,0:0:0:0:
360,268,90634,1,0,0:0:0:0:
452,100,90807,1,2,0:0:0:0:
232,188,90979,2,0,L|132:184,1,95,8|0,0:0|0:0,0:0:0:0:
32,24,91324,6,0,B|84:4|84:4|72:128,1,142.5,2|0,0:0|0:0,0:0:0:0:
54,225,91669,2,0,P|45:203|44:180,1,47.5,8|0,0:0|0:0,0:0:0:0:
75,90,91841,1,0,0:0:0:0:
36,324,92014,2,0,P|88:320|128:288,1,95,0|2,0:0|0:0,0:0:0:0:
477,250,92358,2,0,P|428:208|336:200,1,142.5,8|0,0:0|0:0,0:0:0:0:
264,164,92703,6,0,P|260:196|272:224,1,47.5,2|0,0:0|0:0,0:0:0:0:
356,376,92876,1,0,0:0:0:0:
199,311,93048,2,0,B|208:316|216:284|216:284|272:304|324:288,1,142.5,8|0,0:0|0:0,0:0:0:0:
321,288,93393,1,0,0:0:0:0:
502,65,93565,6,0,L|492:112,1,47.5,2|0,0:0|0:0,0:0:0:0:
392,160,93738,2,0,L|382:113,1,47.5,8|0,0:0|0:0,0:0:0:0:
293,200,93910,2,0,L|320:240,1,47.5
292,344,94083,6,0,B|184:304|184:304|192:352,1,142.5,2|0,0:0|0:0,0:0:0:0:
97,358,94427,2,0,L|188:330,1,95,8|0,0:0|0:0,0:0:0:0:
9,184,94772,2,0,L|56:192,1,47.5
284,124,94945,1,2,0:0:0:0:
192,100,95117,2,0,B|160:68|160:68|144:188,1,142.5,8|0,0:0|0:0,0:0:0:0:
225,255,95462,6,0,L|232:208,1,47.5,2|0,0:0|0:0,0:0:0:0:
68,44,95634,1,0,0:0:0:0:
300,88,95807,2,0,P|352:92|440:36,1,142.5,8|0,0:0|0:0,0:0:0:0:
429,50,96152,2,0,L|420:116,1,47.5
507,205,96324,2,0,L|468:180,1,47.5,2|0,0:0|0:0,0:0:0:0:
328,196,96496,2,0,L|372:176,1,47.5,8|0,0:0|0:0,0:0:0:0:
408,364,96669,1,0,0:0:0:0:
480,304,96841,6,0,B|420:264|420:264|344:300,1,142.5,2|0,0:0|0:0,0:0:0:0:
356,294,97186,2,0,P|288:288|248:252,1,95,8|0,0:0|0:0,0:0:0:0:
156,184,97531,1,0,0:0:0:0:
17,211,97703,2,0,L|64:200,1,47.5,2|0,0:0|0:0,0:0:0:0:
248,156,97876,2,0,L|260:48,1,95,8|0,0:0|0:0,0:0:0:0:
188,0,98221,5,2,0:0:0:0:
332,116,98393,1,0,0:0:0:0:
156,184,98565,1,8,0:0:0:0:
138,327,98738,1,0,0:0:0:0:
141,303,98824,1,0,0:0:0:0:
144,280,98910,1,0,0:0:0:0:
64,164,99083,1,2,0:0:0:0:
346,202,99255,2,0,L|252:192,1,95,8|0,0:0|0:0,0:0:0:0:
25,45,99600,6,0,L|120:56,1,95,8|0,0:0|0:0,0:0:0:0:
120,56,99945,1,0,0:0:0:0:
394,48,100117,2,0,L|308:88,1,95,8|0,0:0|0:0,0:0:0:0:
308,88,100462,1,0,0:0:0:0:
68,186,100634,2,0,L|163:197,1,95,8|0,0:0|0:0,0:0:0:0:
163,197,100979,6,0,L|184:296,1,95,8|0,0:0|0:0,0:0:0:0:
182,290,101324,1,0,0:0:0:0:
351,86,101496,2,0,L|336:180,1,95,8|2,0:0|0:0,0:0:0:0:
336,180,101841,1,2,0:0:0:0:
476,381,102014,2,0,L|492:288,1,95,8|2,0:0|0:0,0:0:0:0:
492,287,102358,6,0,L|397:275,1,95,8|2,0:0|0:0,0:0:0:0:
397,275,102703,1,0,0:0:0:0:
129,332,102876,2,0,L|224:344,1,95,8|2,0:0|0:0,0:0:0:0:
224,344,103221,1,2,0:0:0:0:
445,172,103393,2,0,B|432:148|432:148|366:136,1,95,8|0,0:0|0:0,0:0:0:0:
366,136,103738,6,0,L|376:80,1,47.5,8|0,0:0|0:0,0:0:0:0:
392,0,103910,1,2,0:0:0:0:
157,139,104083,2,0,L|252:128,1,95,2|8,0:0|0:0,0:0:0:0:
252,128,104427,2,0,L|244:176,1,47.5,2|0,0:0|0:0,0:0:0:0:
224,268,104600,1,2,0:0:0:0:
328,362,104772,2,0,L|292:332,1,47.5,8|0,0:0|0:0,0:0:0:0:
224,268,104945,1,2,0:0:0:0:
43,330,105117,6,0,L|132:296,1,95,8|2,0:0|0:0,0:0:0:0:
308,228,105462,1,8,0:0:0:0:
308,228,105634,1,2,0:0:0:0:
491,277,105807,2,0,L|400:252,1,95,8|2,0:0|0:0,0:0:0:0:
220,192,106152,1,8,0:0:0:0:
220,192,106324,1,2,0:0:0:0:
32,224,106496,6,0,L|121:190,1,95,8|2,0:0|0:0,0:0:0:0:
304,136,106841,1,8,0:0:0:0:
304,136,107013,1,2,0:0:0:0:
492,164,107186,2,0,L|400:138,1,95,8|2,0:0|0:0,0:0:0:0:
220,80,107531,1,8,0:0:0:0:
220,80,107704,1,2,0:0:0:0:
260,312,107876,5,8,0:0:0:0:
40,220,108048,1,2,0:0:0:0:
320,176,108221,1,8,0:0:0:0:
76,84,108393,1,2,0:0:0:0:
128,316,108565,5,8,0:0:0:0:
220,80,108738,1,2,0:0:0:0:
40,220,108910,1,8,0:0:0:0:
260,312,109083,1,2,0:0:0:0:
440,172,109255,5,8,0:0:0:0:
416,144,109341,1,8,0:0:0:0:
380,136,109427,1,8,0:0:0:0:
344,140,109513,1,8,0:0:0:0:
316,168,109600,1,8,0:0:0:0:
292,196,109686,1,8,0:0:0:0:
256,208,109772,1,8,0:0:0:0:
220,208,109858,1,8,0:0:0:0:
188,184,109945,1,0,0:0:0:0:
236,148,110634,6,0,B|280:108|280:108|340:152|296:236,1,185.249991519928,2|0,0:0|0:0,0:0:0:0:
422,341,110979,2,0,B|419:303|379:283|379:283|320:332|248:296,1,213.750008153916,2|0,0:0|0:0,0:0:0:0:
96,345,111324,6,0,P|127:332|156:352,1,71.25,8|0,0:0|0:0,0:0:0:0:
156,352,111669,6,0,L|148:272,1,61.7499971733095
121,54,111841,2,0,L|128:116,1,61.7499971733095,2|0,0:0|0:0,0:0:0:0:
140,204,112014,5,0,0:0:0:0:
0,223,112186,2,0,L|56:216,1,61.7499971733095,2|0,0:0|0:0,0:0:0:0:
228,188,112358,2,0,L|289:180,1,61.7499971733095,2|0,0:0|0:0,0:0:0:0:
428,76,112531,2,0,L|404:148,1,61.7499971733095
401,369,112703,2,0,B|432:236|432:236|392:264,1,185.249991519928,8|0,0:0|0:0,0:0:0:0:
242,319,113048,2,0,L|304:312,1,61.7499971733095
496,352,113221,1,2,0:0:0:0:
496,104,113393,6,0,B|432:88|384:128|384:128|372:88|324:80,1,185.249991519928,2|0,0:0|0:0,0:0:0:0:
252,8,113738,2,0,B|280:64|340:84|340:84|320:132|252:116,1,213.750008153916,2|0,0:0|0:0,0:0:0:0:
180,168,114083,6,0,P|164:132|172:96,1,71.25,8|0,0:0|0:0,0:0:0:0:
261,117,114427,6,0,P|280:144|280:172,1,61.7499971733095
88,212,114600,2,0,P|69:185|69:157,1,61.7499971733095,2|0,0:0|0:0,0:0:0:0:
180,168,114772,6,0,L|204:260,1,61.7499971733095
133,357,114945,2,0,L|188:328,1,61.7499971733095,2|0,0:0|0:0,0:0:0:0:
333,307,115117,2,0,L|276:284,1,61.7499971733095,2|0,0:0|0:0,0:0:0:0:
362,224,115290,2,0,L|420:248,1,61.7499971733095
504,184,115462,2,0,B|392:132|392:132|456:108,1,185.249991519928,8|0,0:0|0:0,0:0:0:0:
460,49,115807,2,0,L|449:110,1,61.7499971733095
493,244,115979,2,0,L|504:184,1,61.7499971733095,2|0,0:0|0:0,0:0:0:0:
348,64,116152,6,0,B|304:40|224:52|224:52|280:96,1,185.249991519928,2|0,0:0|0:0,0:0:0:0:
286,269,116496,2,0,B|288:212|236:184|236:184|288:148|270:88,1,213.750008153916
133,275,116841,6,0,L|204:268,1,71.25
204,268,117186,6,0,P|200:304|224:336,1,61.7499971733095
368,208,117358,2,0,P|372:172|348:140,1,61.7499971733095,2|0,0:0|0:0,0:0:0:0:
168,104,117531,5,0,0:0:0:0:
47,202,117703,2,0,L|108:192,1,61.7499971733095,2|0,0:0|0:0,0:0:0:0:
300,36,117876,2,0,L|280:94,1,61.7499971733095,2|0,0:0|0:0,0:0:0:0:
325,315,118048,2,0,L|288:264,1,61.7499971733095
168,104,118221,2,0,B|40:116|40:116|80:68,1,185.249991519928,8|0,0:0|0:0,0:0:0:0:
68,11,118565,2,0,L|76:72,1,61.7499971733095
32,216,118738,2,0,L|112:208,1,61.7499971733095,2|0,0:0|0:0,0:0:0:0:
331,150,118910,6,0,B|296:152|264:116|264:116|248:168|192:192,1,185.249991519928,2|0,0:0|0:0,0:0:0:0:
340,56,119255,2,0,B|400:68|416:124|416:124|464:100|516:136,1,213.750008153916,2|0,0:0|0:0,0:0:0:0:
465,266,119600,6,0,P|440:245|456:216,1,71.25,8|0,0:0|0:0,0:0:0:0:
456,215,119945,6,0,P|412:228|384:220,1,61.7499971733095
296,308,120117,2,0,P|264:288|244:252,1,61.7499971733095,2|0,0:0|0:0,0:0:0:0:
120,272,120290,2,0,P|108:228|124:192,1,61.7499971733095
196,12,120462,1,2,0:0:0:0:
196,140,120634,2,0,P|144:100|80:104,1,123.499994346619,2|0,0:0|0:0,0:0:0:0:
16,144,120893,1,0,0:0:0:0:
16,144,120979,6,0,L|20:192,1,35.625001358986,8|0,0:0|0:0,0:0:0:0:
126,311,121152,6,0,L|120:264,1,47.5,2|0,1:0|0:0,0:0:0:0:
187,86,121324,6,0,L|195:139,1,54.6250010418892,2|0,1:0|0:0,0:0:0:0:
303,284,121496,6,0,L|292:224,1,61.7499971733095,2|0,1:0|0:0,0:0:0:0:
352,108,121669,6,0,B|380:24|380:24|396:54,1,123.499994346619,2|0,0:0|0:0,0:0:0:0:
368,196,121927,2,0,B|284:208|284:208|307:177,1,123.499994346619,2|0,0:0|0:0,0:0:0:0:
428,136,122186,2,0,P|452:168|452:200,1,61.7499971733095,2|0,0:0|0:0,0:0:0:0:
391,326,122358,6,0,P|393:291|416:264,1,71.25,8|0,0:0|0:0,0:0:0:0:
416,263,122703,6,0,P|456:276|488:268,1,61.7499971733095
340,164,122876,2,0,P|332:132|292:100,1,61.7499971733095,2|0,0:0|0:0,0:0:0:0:
288,280,123048,6,0,P|260:300|248:328,1,61.7499971733095
62,348,123221,2,0,L|124:356,1,61.7499971733095,2|0,0:0|0:0,0:0:0:0:
401,363,123393,2,0,L|340:356,1,61.7499971733095,2|0,0:0|0:0,0:0:0:0:
148,260,123565,2,0,L|156:184,1,61.7499971733095
264,132,123738,6,0,L|252:212,1,61.7499971733095,8|0,0:0|0:0,0:0:0:0:
230,341,123910,2,0,L|240:280,1,61.7499971733095
340,88,124083,2,0,B|300:92|264:132|264:132|240:84|196:68,1,185.249991519928
356,188,124427,6,0,B|412:172|436:136|436:136|476:180|456:232,1,185.249991519928,2|0,0:0|0:0,0:0:0:0:
492,312,124772,2,0,B|432:324|392:280|392:280|344:304|288:268,1,213.750008153916,2|0,0:0|0:0,0:0:0:0:
205,166,125117,6,0,P|237:155|260:180,1,71.25,8|0,0:0|0:0,0:0:0:0:
260,180,125462,6,0,L|280:116,1,61.7499971733095
158,5,125634,2,0,L|140:64,1,61.7499971733095,2|0,0:0|0:0,0:0:0:0:
76,252,125807,5,0,0:0:0:0:
28,60,125979,2,0,L|44:124,1,61.7499971733095,2|0,0:0|0:0,0:0:0:0:
237,141,126152,2,0,L|184:172,1,61.7499971733095,2|0,0:0|0:0,0:0:0:0:
15,239,126324,2,0,L|76:252,1,61.7499971733095
219,369,126496,2,0,L|204:308,1,61.7499971733095,8|0,0:0|0:0,0:0:0:0:
320,316,126669,2,0,L|336:376,1,61.7499971733095
456,380,126841,2,0,L|440:318,1,61.7499971733095
488,128,127014,2,0,L|432:168,1,61.7499971733095,2|0,0:0|0:0,0:0:0:0:
182,229,127186,6,0,B|176:184|220:164|220:164|240:212|300:224,1,185.249991519928,2|0,0:0|0:0,0:0:0:0:
384,60,127531,2,0,P|297:47|332:128,1,213.750008153916,2|0,0:0|0:0,0:0:0:0:
400,239,127876,6,0,B|388:208|388:208|416:184,1,71.25,8|0,0:0|0:0,0:0:0:0:
416,184,128221,6,0,L|480:196,1,61.7499971733095
372,332,128393,2,0,L|311:320,1,61.7499971733095,2|0,0:0|0:0,0:0:0:0:
132,284,128565,5,0,0:0:0:0:
255,159,128738,2,0,L|244:220,1,61.7499971733095,2|0,0:0|0:0,0:0:0:0:
120,344,128910,2,0,L|131:283,1,61.7499971733095,2|0,0:0|0:0,0:0:0:0:
336,212,129083,2,0,L|416:224,1,61.7499971733095
164,104,129255,2,0,L|102:94,1,61.7499971733095,8|0,0:0|0:0,0:0:0:0:
8,184,129427,2,0,L|69:193,1,61.7499971733095
255,159,129600,6,0,P|268:120|260:80,1,61.7499971733095
412,8,129772,2,0,P|399:47|407:87,1,61.7499971733095,2|0,0:0|0:0,0:0:0:0:
476,172,129945,6,0,B|420:200|360:180|360:180|360:220|324:244,1,185.249991519928,2|0,0:0|0:0,0:0:0:0:
283,310,130290,2,0,B|280:352|316:372|316:372|356:288|332:237,1,213.750008153916,2|0,0:0|0:0,0:0:0:0:
236,224,130634,6,0,L|152:228,1,71.25,8|0,0:0|0:0,0:0:0:0:
164,227,130979,6,0,L|132:152,1,61.7499971733095
39,40,131152,2,0,L|100:56,1,61.7499971733095,2|0,0:0|0:0,0:0:0:0:
254,20,131324,6,0,L|228:76,1,61.7499971733095,2|0,0:0|0:0,0:0:0:0:
24,148,131496,1,2,0:0:0:0:
188,284,131669,2,0,L|140:170,1,123.499994346619,2|0,0:0|0:0,0:0:0:0:
232,168,131927,1,0,0:0:0:0:
232,168,132014,6,0,P|272:160|296:136,1,61.7499971733095,8|0,0:0|0:0,0:0:0:0:
372,48,132186,2,0,P|416:68|432:92,1,61.7499971733095,2|0,1:0|0:0,0:0:0:0:
460,248,132358,2,0,P|420:248|380:224,1,61.7499971733095,2|0,1:0|0:0,0:0:0:0:
244,339,132531,2,0,P|269:322|299:319,1,61.7499971733095,2|0,1:0|0:0,0:0:0:0:
448,160,132703,6,0,B|480:44|480:44|416:84,1,185.249991519928,2|0,0:0|0:0,0:0:0:0:
249,69,133048,2,0,B|320:88|320:88|364:64|364:64|424:78,1,185.249991519928,2|0,0:0|0:0,0:0:0:0:
176,12,133393,6,0,P|152:48|156:88,1,71.25,8|0,0:0|0:0,0:0:0:0:
151,74,133738,1,0,0:0:0:0:
232,228,133910,1,2,0:0:0:0:
20,196,134083,5,0,0:0:0:0:
228,136,134255,2,0,P|268:144|288:168,1,61.7499971733095,2|0,0:0|0:0,0:0:0:0:
234,340,134427,2,0,B|208:284|208:284|232:228,1,123.499994346619,2|0,0:0|0:0,0:0:0:0:
495,313,134772,2,0,B|433:328|393:264|316:284,1,185.249991519928,8|0,0:0|0:0,0:0:0:0:
316,283,135117,1,0,0:0:0:0:
500,120,135290,2,0,L|492:196,1,61.7499971733095,2|0,0:0|0:0,0:0:0:0:
396,192,135462,6,0,P|384:132|424:84,1,123.499994346619,2|0,0:0|0:0,0:0:0:0:
420,86,135807,2,0,B|352:64|312:128|236:112,1,185.249991519928,2|0,0:0|0:0,0:0:0:0:
156,160,136152,6,0,P|144:124|152:88,1,71.25,8|0,0:0|0:0,0:0:0:0:
150,92,136496,6,0,P|104:112|64:100,1,61.7499971733095
268,204,136669,2,0,P|296:220|344:224,1,61.7499971733095,2|0,0:0|0:0,0:0:0:0:
424,224,136841,6,0,P|432:276|400:348,1,123.499994346619,0|2,0:0|0:0,0:0:0:0:
160,344,137186,2,0,L|68:328,1,61.7499971733095,2|0,0:0|0:0,0:0:0:0:
196,316,137358,2,0,L|104:300,1,61.7499971733095
48,256,137531,2,0,B|16:212|40:128|40:128|80:184,1,185.249991519928,8|0,0:0|0:0,0:0:0:0:
131,178,137876,2,0,L|70:170,1,61.7499971733095
18,16,138048,2,0,L|80:24,1,61.7499971733095,2|0,0:0|0:0,0:0:0:0:
268,88,138221,6,0,B|300:48|300:48|364:88|332:184,1,185.249991519928,2|0,0:0|0:0,0:0:0:0:
292,256,138565,2,0,B|360:288|408:224|472:276,1,185.249991519928,2|0,0:0|0:0,0:0:0:0:
244,176,138910,6,0,P|216:200|208:248,1,71.25,8|0,0:0|0:0,0:0:0:0:
206,232,139255,6,0,L|136:224,1,61.7499971733095
337,166,139427,2,0,L|398:173,1,61.7499971733095,2|0,0:0|0:0,0:0:0:0:
480,352,139600,5,0,0:0:0:0:
294,264,139772,2,0,L|356:272,1,61.7499971733095,2|0,0:0|0:0,0:0:0:0:
456,256,139945,2,0,P|500:208|500:148,1,123.499994346619,2|0,0:0|0:0,0:0:0:0:
232,24,140290,2,0,B|216:84|216:84|232:128|232:128|208:208,1,185.249991519928,8|0,0:0|0:0,0:0:0:0:
210,201,140634,2,0,L|136:220,1,61.7499971733095
20,144,140807,1,2,0:0:0:0:
51,330,140979,6,0,B|72:328|88:296|88:296|56:272|52:236,1,123.499994346619,2|0,0:0|0:0,0:0:0:0:
52,236,141324,2,0,B|120:244|120:244|160:284|160:284|248:292,1,185.249991519928,2|0,0:0|0:0,0:0:0:0:
220,289,141669,2,0,L|200:360,1,61.7499971733095,8|0,0:0|0:0,0:0:0:0:
344,208,141841,2,0,L|361:267,1,61.7499971733095
212,136,142014,2,0,L|76:100,1,123.499994346619,0|2,0:0|0:0,0:0:0:0:
92,104,142358,5,0,0:0:0:0:
328,28,142531,2,0,P|352:56|364:96,1,61.7499971733095,2|0,0:0|0:0,0:0:0:0:
512,208,142703,2,0,L|432:196,1,61.7499971733095,2|0,0:0|0:0,0:0:0:0:
242,210,142876,2,0,L|304:220,1,61.7499971733095
450,198,143048,2,0,B|464:260|464:260|424:324,1,123.499994346619,8|0,0:0|0:0,0:0:0:0:
340,348,143307,1,0,0:0:0:0:
340,348,143393,2,0,L|280:340,6,30.8749985866547
280,340,143738,6,0,B|300:224|300:224|240:264,1,185.249991519928,2|0,0:0|0:0,0:0:0:0:
66,265,144083,2,0,B|128:276|128:276|168:252|168:252|243:261,1,185.249991519928,2|0,0:0|0:0,0:0:0:0:
104,176,144427,6,0,L|28:164,1,71.25,8|0,0:0|0:0,0:0:0:0:
33,164,144772,6,0,L|24:96,1,61.7499971733095
196,16,144945,2,0,L|204:88,1,61.7499971733095,2|0,0:0|0:0,0:0:0:0:
244,272,145117,5,0,0:0:0:0:
320,88,145290,2,0,L|300:148,1,61.7499971733095,2|0,0:0|0:0,0:0:0:0:
344,236,145462,2,0,B|476:228|476:228|416:192,1,185.249991519928,2|0,0:0|0:0,0:0:0:0:
244,272,145807,6,0,L|164:276,1,71.25,8|0,0:0|0:0,0:0:0:0:
172,275,146152,6,0,L|152:348,1,61.7499971733095
228,152,146324,2,0,L|304:144,1,61.7499971733095,2|0,0:0|0:0,0:0:0:0:
96,176,146496,6,0,B|52:192|52:192|-4:136|52:60,1,185.249991519928,2|0,0:0|0:0,0:0:0:0:
47,66,146841,2,0,B|124:80|124:80|152:32|220:32,1,185.249991519928,2|0,0:0|0:0,0:0:0:0:
257,151,147186,6,0,P|241:127|200:140,1,71.25,8|0,0:0|0:0,0:0:0:0:
203,134,147531,6,0,L|212:212,1,61.7499971733095
168,340,147703,2,0,L|240:308,1,61.7499971733095,2|0,0:0|0:0,0:0:0:0:
404,232,147876,5,0,0:0:0:0:
388,372,148048,2,0,L|328:360,1,61.7499971733095,2|0,0:0|0:0,0:0:0:0:
312,264,148221,2,0,P|312:200|360:148,1,123.499994346619,2|0,0:0|0:0,0:0:0:0:
347,155,148565,2,0,B|404:128|464:164|464:164|464:128|436:104,1,185.249991519928,8|0,0:0|0:0,0:0:0:0:
440,107,148910,1,0,0:0:0:0:
404,232,149083,1,2,0:0:0:0:
260,264,149255,6,0,B|192:256|192:256|144:296|80:280,1,185.249991519928,2|0,0:0|0:0,0:0:0:0:
34,113,149600,2,0,P|114:104|104:184,1,185.249991519928,2|0,0:0|0:0,0:0:0:0:
55,341,149945,6,0,P|59:306|82:280,1,71.25,8|0,0:0|0:0,0:0:0:0:
82,280,150290,1,0,0:0:0:0:
282,325,150462,6,0,L|160:340,1,123.499994346619,2|0,0:0|0:0,0:0:0:0:
328,236,150807,2,0,L|344:156,1,61.7499971733095,2|0,0:0|0:0,0:0:0:0:
436,156,150979,2,0,P|456:224|404:276,1,123.499994346619,2|0,0:0|0:0,0:0:0:0:
429,264,151324,2,0,B|328:236|328:236|252:280,1,185.249991519928,8|0,0:0|0:0,0:0:0:0:
258,276,151669,2,0,L|240:344,1,61.7499971733095
204,140,151841,2,0,L|192:60,1,61.7499971733095,2|0,0:0|0:0,0:0:0:0:
120,260,152014,6,0,B|0:276|0:276|44:228,1,185.249991519928,2|0,0:0|0:0,0:0:0:0:
53,62,152358,2,0,B|100:32|100:32|112:160,1,185.249991519928,2|0,0:0|0:0,0:0:0:0:
112,160,152703,1,8,0:0:0:0:
288,68,152876,2,0,L|368:60,1,61.7499971733095
260,108,153048,2,0,L|340:100,1,61.7499971733095
420,112,153221,6,0,P|444:48|412:-4,1,123.499994346619,2|0,0:0|0:0,0:0:0:0:
420,2,153565,1,2,0:0:0:0:
364,192,153738,6,0,P|408:212|452:208,1,71.25,2|0,0:0|0:0,0:0:0:0:
430,212,154083,6,0,L|420:280,1,61.7499971733095,8|0,0:0|0:0,0:0:0:0:
240,348,154255,1,0,0:0:0:0:
284,89,154427,2,0,L|300:212,1,123.499994346619
300,212,154772,6,0,B|232:192|184:248|120:236,1,185.249991519928,2|0,0:0|0:0,0:0:0:0:
119,235,155117,2,0,L|132:164,1,61.7499971733095,2|0,0:0|0:0,0:0:0:0:
252,20,155290,1,0,0:0:0:0:
8,90,155462,2,0,B|64:104|64:104|124:76|124:76|184:88,1,185.249991519928,8|0,0:0|0:0,0:0:0:0:
184,88,155807,1,0,0:0:0:0:
432,135,155979,2,0,L|372:148,1,61.7499971733095,2|0,0:0|0:0,0:0:0:0:
128,196,156152,6,0,L|196:212,1,61.7499971733095
340,340,156324,1,2,0:0:0:0:
477,222,156496,2,0,L|356:244,1,123.499994346619,2|0,0:0|0:0,0:0:0:0:
356,244,156841,1,8,0:0:0:0:
188,344,157014,2,0,L|180:280,1,61.7499971733095
52,204,157186,2,0,L|44:140,1,61.7499971733095
212,36,157358,1,2,0:0:0:0:
16,56,157531,6,0,B|112:44|112:44|120:100|168:128,1,185.249991519928,2|0,0:0|0:0,0:0:0:0:
154,118,157876,1,2,0:0:0:0:
272,25,158048,2,0,L|212:36,1,61.7499971733095
348,96,158221,2,0,B|400:124|488:104|488:104|432:72,1,185.249991519928,8|0,0:0|0:0,0:0:0:0:
451,83,158565,1,0,0:0:0:0:
268,160,158738,2,0,L|260:240,1,61.7499971733095,2|0,0:0|0:0,0:0:0:0:
248,320,158910,5,0,0:0:0:0:
114,182,159083,2,0,L|176:192,1,61.7499971733095,2|0,0:0|0:0,0:0:0:0:
368,140,159255,1,2,0:0:0:0:
353,301,159427,1,0,0:0:0:0:
356,270,159513,1,0,0:0:0:0:
360,240,159599,1,8,0:0:0:0:
168,292,159772,2,0,L|96:280,1,61.7499971733095
16,244,159945,2,0,P|0:180|28:112,1,123.499994346619,0|2,0:0|0:0,0:0:0:0:
348,28,160290,6,0,B|376:76|328:148|328:148|300:92,1,185.249991519928,2|0,0:0|0:0,0:0:0:0:
302,97,160634,1,2,0:0:0:0:
444,48,160807,1,0,0:0:0:0:
252,92,160979,2,0,L|124:84,1,123.499994346619,8|0,0:0|0:0,0:0:0:0:
128,84,161324,1,0,0:0:0:0:
340,212,161496,2,0,L|236:208,1,61.7499971733095,2|0,0:0|0:0,0:0:0:0:
180,200,161669,5,0,0:0:0:0:
420,136,161841,2,0,P|444:168|444:212,1,61.7499971733095,2|0,0:0|0:0,0:0:0:0:
420,388,162014,2,0,B|384:312|384:312|408:280,1,123.499994346619,2|0,0:0|0:0,0:0:0:0:
407,280,162358,1,8,0:0:0:0:
180,200,162531,1,0,0:0:0:0:
340,212,162703,2,0,L|236:208,1,61.7499971733095
84,248,162876,1,2,0:0:0:0:
180,200,163048,6,0,B|192:76|192:76|136:112,1,185.249991519928,2|0,0:0|0:0,0:0:0:0:
27,127,163393,2,0,B|64:132|64:132|100:104|100:104|140:108,1,123.499994346619,2|0,0:0|0:0,0:0:0:0:
240,280,163738,2,0,P|172:296|96:236,1,123.499994346619,8|0,0:0|0:0,0:0:0:0:
124,275,164083,1,0,0:0:0:0:
308,204,164255,2,0,P|336:236|340:272,1,61.7499971733095,2|0,0:0|0:0,0:0:0:0:
312,348,164427,5,0,0:0:0:0:
212,180,164600,2,0,P|228:144|252:128,1,61.7499971733095,2|0,0:0|0:0,0:0:0:0:
344,116,164772,2,0,L|468:124,1,123.499994346619,2|0,0:0|0:0,0:0:0:0:
467,123,165117,1,8,0:0:0:0:
288,44,165290,1,0,0:0:0:0:
380,220,165462,2,0,L|368:352,1,123.499994346619,0|2,0:0|0:0,0:0:0:0:
324,368,165807,6,0,L|344:168,1,185.249991519928,2|0,0:0|0:0,0:0:0:0:
342,183,166152,2,0,L|280:196,1,61.7499971733095,2|0,0:0|0:0,0:0:0:0:
184,216,166324,1,0,0:0:0:0:
284,104,166496,2,0,L|152:80,1,123.499994346619,8|0,0:0|0:0,0:0:0:0:
162,81,166841,1,0,0:0:0:0:
13,274,167014,2,0,L|72:256,1,61.7499971733095,2|0,0:0|0:0,0:0:0:0:
164,224,167186,6,0,B|196:280|196:280|182:337,1,123.499994346619,0|2,0:0|0:0,0:0:0:0:
8,152,167531,2,0,B|0:24|0:24|56:80,1,185.249991519928,2|0,0:0|0:0,0:0:0:0:
40,64,167876,1,8,0:0:0:0:
232,112,168048,2,0,L|300:108,1,61.7499971733095
208,156,168221,2,0,L|276:152,1,61.7499971733095
348,28,168393,1,2,0:0:0:0:
484,172,168565,6,0,B|472:108|428:76|428:76|412:108|372:116,1,185.249991519928,2|0,0:0|0:0,0:0:0:0:
372,115,168910,2,0,P|360:152|344:172,1,61.7499971733095,2|0,0:0|0:0,0:0:0:0:
214,246,169083,2,0,L|276:240,1,61.7499971733095
491,261,169255,2,0,L|368:272,1,123.499994346619,8|0,0:0|0:0,0:0:0:0:
224,136,169600,1,0,0:0:0:0:
100,348,169772,2,0,L|161:341,1,61.7499971733095,2|0,0:0|0:0,0:0:0:0:
260,348,169945,6,0,P|248:284|196:248,1,123.499994346619,0|2,0:0|0:0,0:0:0:0:
89,222,170203,1,0,0:0:0:0:
89,222,170290,2,0,B|64:260|64:260|203:250,1,185.249991519928,2|0,0:0|0:0,0:0:0:0:
203,250,170634,1,8,0:0:0:0:
36,144,170807,2,0,L|28:72,1,61.7499971733095
121,10,170979,2,0,L|128:72,1,61.7499971733095
203,250,171152,1,2,0:0:0:0:
192,152,171324,6,0,B|256:132|300:192|372:172,1,185.249991519928,2|0,0:0|0:0,0:0:0:0:
372,171,171669,2,0,L|388:240,1,61.7499971733095,2|0,0:0|0:0,0:0:0:0:
408,328,171841,1,0,0:0:0:0:
464,140,172014,2,0,L|484:8,1,123.499994346619,8|0,0:0|0:0,0:0:0:0:
482,17,172358,2,0,L|416:36,1,61.7499971733095
176,78,172531,2,0,L|236:96,1,61.7499971733095,2|0,0:0|0:0,0:0:0:0:
325,227,172703,6,0,L|340:104,1,123.499994346619,0|2,0:0|0:0,0:0:0:0:
204,248,173048,2,0,B|140:240|140:240|104:264|104:264|20:256,1,185.249991519928,2|0,0:0|0:0,0:0:0:0:
26,256,173393,1,8,0:0:0:0:
192,340,173565,2,0,L|256:348,1,61.7499971733095
252,164,173738,2,0,L|190:156,1,61.7499971733095
300,260,173910,2,0,L|361:267,1,61.7499971733095,2|0,0:0|0:0,0:0:0:0:
460,272,174083,6,0,B|484:224|464:140|464:140|428:196,1,185.249991519928,2|0,0:0|0:0,0:0:0:0:
375,174,174427,2,0,L|436:182,1,61.7499971733095,2|0,0:0|0:0,0:0:0:0:
496,48,174600,1,0,0:0:0:0:
348,68,174772,2,0,L|216:80,1,123.499994346619,8|0,0:0|0:0,0:0:0:0:
28,52,175117,2,0,L|48:116,1,61.7499971733095
136,152,175290,2,0,L|124:224,1,61.7499971733095,2|0,0:0|0:0,0:0:0:0:
224,324,175462,5,2,0:0:0:0:
256,192,175548,12,0,176669,0:0:0:0:
312,264,176841,5,2,0:0:0:0:
466,283,177014,2,0,L|396:272,1,71.2500027179719,0|2,0:0|0:0,0:0:0:0:
228,244,177358,1,0,0:0:0:0:
384,172,177531,1,2,0:0:0:0:
408,160,177617,1,0,0:0:0:0:
312,264,177790,1,2,0:0:0:0:
304,292,177876,1,0,0:0:0:0:
268,156,178048,6,0,B|176:128|176:128|128:164,1,142.500005435944,2|2,0:0|0:0,0:0:0:0:
1,259,178565,2,0,L|72:248,1,71.2500027179719,2|0,0:0|0:0,0:0:0:0:
92,80,178910,1,2,0:0:0:0:
76,56,178996,1,0,0:0:0:0:
184,224,179169,1,2,0:0:0:0:
172,252,179255,1,0,0:0:0:0:
272,80,179427,6,0,B|316:104|316:104|432:72,1,142.500005435944,2|2,0:0|0:0,0:0:0:0:
405,79,179945,2,0,L|392:160,1,71.2500027179719,2|0,0:0|0:0,0:0:0:0:
480,296,180290,2,0,P|440:268|404:272,1,71.2500027179719,2|0,0:0|0:0,0:0:0:0:
345,364,180548,2,0,L|416:352,1,71.2500027179719,2|0,0:0|0:0,0:0:0:0:
332,272,180807,6,0,L|184:256,1,142.500005435944,2|2,0:0|0:0,0:0:0:0:
190,256,181324,2,0,L|176:180,1,71.2500027179719,2|0,0:0|0:0,0:0:0:0:
7,294,181669,2,0,P|42:298|76:288,1,71.2500027179719,2|0,0:0|0:0,0:0:0:0:
88,148,181927,2,0,P|56:172|40:216,1,71.2500027179719,2|0,0:0|0:0,0:0:0:0:
160,347,182186,6,0,B|184:248|184:248|160:216,1,142.500005435944,2|2,0:0|0:0,0:0:0:0:
24,32,182703,2,0,L|96:40,1,71.2500027179719,2|0,0:0|0:0,0:0:0:0:
296,36,183048,1,2,0:0:0:0:
292,64,183134,1,0,0:0:0:0:
464,188,183307,1,2,0:0:0:0:
468,160,183393,1,0,0:0:0:0:
400,36,183565,6,0,L|368:176,1,142.500005435944,2|2,0:0|0:0,0:0:0:0:
298,186,184083,2,0,L|368:174,1,71.2500027179719,2|0,0:0|0:0,0:0:0:0:
228,272,184428,1,2,0:0:0:0:
224,300,184514,1,0,0:0:0:0:
204,128,184686,1,2,0:0:0:0:
188,104,184772,1,0,0:0:0:0:
104,220,184945,1,2,0:0:0:0:
328,172,185117,5,0,0:0:0:0:
482,190,185290,2,0,L|412:184,1,71.2500027179719,2|2,0:0|0:0,0:0:0:0:
244,156,185634,1,0,0:0:0:0:
348,60,185806,1,2,0:0:0:0:
344,88,185893,1,0,0:0:0:0:
308,284,186065,1,2,0:0:0:0:
312,256,186152,1,0,0:0:0:0:
256,64,186324,1,2,0:0:0:0:
168,212,186496,6,0,L|160:284,1,71.2500027179719,0|2,0:0|0:0,0:0:0:0:
108,120,186841,2,0,L|120:8,1,106.875004076958,2|0,0:0|0:0,0:0:0:0:
119,13,187186,1,0,0:0:0:0:
20,152,187358,1,2,0:0:0:0:
204,76,187531,1,2,0:0:0:0:
184,188,187703,1,2,0:0:0:0:
292,152,187876,6,0,P|332:132|416:152,1,106.875004076958,4|0,1:0|0:0,0:0:0:0:
392,137,188221,2,0,L|384:208,2,71.2500027179719,2|0|0,0:0|0:0|0:0,0:0:0:0:
465,361,188910,2,0,P|480:312|460:264,1,106.875004076958,2|0,0:0|0:0,0:0:0:0:
459,263,189255,6,0,P|432:296|396:308,2,71.2500027179719,2|0|0,0:0|0:0|0:0,0:0:0:0:
320,364,189945,1,0,0:0:0:0:
300,280,190117,1,2,0:0:0:0:
224,240,190290,1,2,0:0:0:0:
144,268,190462,1,2,0:0:0:0:
100,340,190634,6,0,P|64:312|56:248,1,106.875004076958,2|0,0:0|0:0,0:0:0:0:
54,254,190979,2,0,L|-16:240,2,71.2500027179719,2|0|0,0:0|0:0|0:0,0:0:0:0:
278,162,191669,2,0,L|172:172,1,106.875004076958,2|0,0:0|0:0,0:0:0:0:
172,172,192014,6,0,L|140:108,2,71.2500027179719,2|0|0,0:0|0:0|0:0,0:0:0:0:
332,236,192703,1,0,0:0:0:0:
404,284,192876,1,2,0:0:0:0:
480,248,193048,1,2,0:0:0:0:
412,196,193221,1,2,0:0:0:0:
332,236,193393,6,0,P|320:176|348:132,1,106.875004076958,2|0,0:0|0:0,0:0:0:0:
341,138,193738,2,0,L|268:120,2,71.2500027179719,2|0|0,0:0|0:0|0:0,0:0:0:0:
94,58,194427,2,0,L|200:40,1,106.875004076958,2|0,0:0|0:0,0:0:0:0:
200,40,194772,5,2,0:0:0:0:
284,24,194945,1,0,0:0:0:0:
184,128,195117,1,0,0:0:0:0:
184,128,195462,5,0,0:0:0:0:
236,196,195634,1,2,0:0:0:0:
152,208,195807,1,2,0:0:0:0:
100,140,195979,1,2,0:0:0:0:
60,216,196152,6,0,L|68:332,1,106.875004076958,2|0,0:0|0:0,0:0:0:0:
67,322,196496,2,0,L|0:368,2,71.2500027179719,2|0|0,0:0|0:0|0:0,0:0:0:0:
180,308,197186,2,0,L|316:336,1,106.875004076958,2|0,0:0|0:0,0:0:0:0:
284,329,197531,5,2,0:0:0:0:
368,344,197703,1,0,0:0:0:0:
340,264,197876,1,0,0:0:0:0:
476,160,198221,1,0,0:0:0:0:
452,172,198393,1,2,0:0:0:0:
428,184,198565,1,2,0:0:0:0:
404,200,198738,1,2,0:0:0:0:
380,212,198910,6,0,L|304:196,1,71.2500027179719,4|0,1:0|0:0,0:0:0:0:
129,305,199255,2,0,P|171:273|224:272,1,106.875004076958
223,271,199600,2,0,L|232:224,1,35.625001358986
236,152,199772,1,2,0:0:0:0:
304,308,199945,2,0,L|388:320,1,71.2500027179719,8|0,0:0|0:0,0:0:0:0:
152,192,200290,6,0,B|48:204|48:204|72:172,1,142.500005435944,2|8,0:0|0:0,0:0:0:0:
152,24,200807,1,0,0:0:0:0:
300,112,200979,2,0,L|296:188,1,71.2500027179719,0|2,0:0|0:0,0:0:0:0:
167,347,201324,2,0,P|185:298|232:276,1,106.875004076958,8|0,0:0|0:0,0:0:0:0:
231,276,201669,6,0,P|272:300|304:300,1,71.2500027179719,2|0,0:0|0:0,0:0:0:0:
460,188,202014,2,0,P|412:188|376:216,1,71.2500027179719,8|0,0:0|0:0,0:0:0:0:
440,375,202358,2,0,B|464:324|436:284|436:284|392:320,1,142.500005435944,0|8,0:0|0:0,0:0:0:0:
304,208,202876,1,0,0:0:0:0:
192,296,203048,6,0,L|84:288,1,106.875004076958,2|0,0:0|0:0,0:0:0:0:
85,288,203393,2,0,L|68:240,1,35.625001358986,8|0,0:0|0:0,0:0:0:0:
174,149,203565,2,0,L|164:184,1,35.625001358986
24,160,203738,2,0,P|24:128|44:88,1,71.2500027179719,0|2,0:0|0:0,0:0:0:0:
168,28,204083,2,0,L|268:40,1,71.2500027179719,8|0,0:0|0:0,0:0:0:0:
472,144,204427,6,0,P|444:112|356:112,1,106.875004076958,2|0,0:0|0:0,0:0:0:0:
382,100,204772,2,0,P|356:132|304:156,1,71.2500027179719,8|0,0:0|0:0,0:0:0:0:
145,131,205117,2,0,L|216:140,1,71.2500027179719,0|2,0:0|0:0,0:0:0:0:
48,176,205462,2,0,L|52:232,1,35.625001358986,8|0,0:0|0:0,0:0:0:0:
68,376,205634,1,0,0:0:0:0:
0,324,205807,6,0,P|44:288|104:296,1,106.875004076958,2|0,0:0|0:0,0:0:0:0:
91,289,206152,1,8,0:0:0:0:
288,324,206324,1,0,0:0:0:0:
200,252,206496,2,0,L|184:332,1,71.2500027179719,0|2,0:0|0:0,0:0:0:0:
287,103,206841,2,0,L|312:208,1,106.875004076958,8|0,0:0|0:0,0:0:0:0:
312,208,207186,5,2,0:0:0:0:
388,88,207358,1,0,0:0:0:0:
122,42,207531,2,0,L|192:56,1,71.2500027179719,8|0,0:0|0:0,0:0:0:0:
388,88,207876,1,0,0:0:0:0:
388,88,208048,1,2,0:0:0:0:
456,140,208221,2,0,P|476:100|468:60,1,71.2500027179719,8|0,0:0|0:0,0:0:0:0:
312,28,208565,6,0,P|292:68|300:108,1,71.2500027179719,2|0,0:0|0:0,0:0:0:0:
487,239,208910,2,0,P|455:252|420:248,1,71.2500027179719,8|0,0:0|0:0,0:0:0:0:
280,228,209255,1,0,0:0:0:0:
280,228,209427,1,2,0:0:0:0:
120,164,209600,1,8,0:0:0:0:
228,296,209772,1,0,0:0:0:0:
284,116,209945,6,0,B|308:76|300:20|300:20|264:56,1,142.5,2|0,0:0|0:0,0:0:0:0:
269,50,210290,1,8,0:0:0:0:
44,128,210462,1,0,0:0:0:0:
187,144,210634,2,0,L|140:140,1,47.5
44,128,210807,2,0,P|24:176|48:236,1,95,2|8,0:0|0:0,0:0:0:0:
188,324,211152,6,0,P|208:300|212:264,2,47.5,0|0|2,0:0|0:0|0:0,0:0:0:0:
120,256,211496,1,0,0:0:0:0:
308,236,211669,2,0,P|320:292|304:336,1,95,8|0,0:0|0:0,0:0:0:0:
204,168,212014,1,0,0:0:0:0:
220,76,212186,1,2,0:0:0:0:
128,104,212358,1,8,0:0:0:0:
296,140,212531,1,0,0:0:0:0:
440,16,212703,6,0,B|472:56|460:116|460:116|433:89,1,142.5,2|0,0:0|0:0,0:0:0:0:
300,46,213048,2,0,L|348:52,1,47.5,8|0,0:0|0:0,0:0:0:0:
472,196,213221,1,0,0:0:0:0:
284,160,213393,2,0,L|172:184,1,95,0|2,0:0|0:0,0:0:0:0:
191,179,213738,1,8,0:0:0:0:
376,224,213910,6,0,P|388:252|412:276,2,47.5,0|0|2,0:0|0:0|0:0,0:0:0:0:
472,196,214255,1,0,0:0:0:0:
460,340,214427,2,0,P|404:360|352:348,1,95,8|0,0:0|0:0,0:0:0:0:
191,179,214772,1,0,0:0:0:0:
164,272,214945,1,2,0:0:0:0:
140,364,215117,1,8,0:0:0:0:
72,244,215290,1,0,0:0:0:0:
256,296,215462,6,0,B|316:296|348:264|348:264|296:240,1,142.5,2|0,0:0|0:0,0:0:0:0:
309,246,215807,1,8,0:0:0:0:
140,160,215979,1,0,0:0:0:0:
290,18,216152,2,0,L|276:112,1,95,0|2,0:0|0:0,0:0:0:0:
32,260,216496,2,0,P|-4:184|16:112,1,142.5,8|0,0:0|0:0,0:0:0:0:
6,129,216841,6,0,L|68:140,1,47.5,2|0,0:0|0:0,0:0:0:0:
232,200,217014,1,0,0:0:0:0:
132,360,217186,2,0,L|144:252,1,95,8|0,0:0|0:0,0:0:0:0:
328,220,217531,2,0,L|388:232,1,47.5
468,248,217703,1,2,0:0:0:0:
232,200,217876,1,8,0:0:0:0:
460,128,218048,1,0,0:0:0:0:
374,229,218221,6,0,L|359:339,1,95,2|0,0:0|0:0,0:0:0:0:
348,132,218565,2,0,L|356:72,1,47.5,8|0,0:0|0:0,0:0:0:0:
428,24,218738,1,0,0:0:0:0:
252,96,218910,2,0,L|136:80,1,95,0|2,0:0|0:0,0:0:0:0:
12,272,219255,2,0,P|52:232|148:232,1,142.5,8|0,0:0|0:0,0:0:0:0:
134,225,219600,5,2,0:0:0:0:
276,248,219772,1,0,0:0:0:0:
184,356,219945,1,8,0:0:0:0:
216,168,220117,2,0,L|224:112,2,47.5
236,28,220462,1,2,0:0:0:0:
19,66,220634,2,0,P|60:88|108:92,1,95,8|0,0:0|0:0,0:0:0:0:
340,144,220979,6,0,B|412:148|456:104|456:104|484:144|456:180,1,190,12|0,0:0|0:0,0:0:0:0:
280,204,221496,2,0,P|252:160|264:108,1,95,8|0,0:0|0:0,0:0:0:0:
257,119,222014,2,0,L|156:108,1,95,8|0,0:0|0:0,0:0:0:0:
374,275,222358,6,0,L|469:265,1,95,8|0,0:0|0:0,0:0:0:0:
469,265,222617,1,0,0:0:0:0:
469,265,222703,2,0,L|488:164,1,95,0|8,0:0|0:0,0:0:0:0:
228,292,223048,1,0,0:0:0:0:
228,292,223220,1,0,0:0:0:0:
37,273,223393,2,0,L|132:284,1,95,8|0,0:0|0:0,0:0:0:0:
312,348,223738,6,0,P|332:300|316:252,1,95
321,260,223996,1,0,0:0:0:0:
321,260,224083,1,0,0:0:0:0:
53,137,224255,2,0,L|148:148,1,95,8|0,0:0|0:0,0:0:0:0:
148,148,224772,2,0,P|192:108|200:68,1,95,8|0,0:0|0:0,0:0:0:0:
200,75,225117,6,0,L|267:83,1,47.5,8|0,0:0|0:0,0:0:0:0:
436,96,225290,1,2,0:0:0:0:
346,44,225462,2,0,L|340:92,1,47.5
320,280,225634,1,10,0:0:0:0:
379,194,225807,2,0,L|332:188,1,47.5
144,160,225979,1,2,0:0:0:0:
233,223,226152,2,0,L|240:176,1,47.5,8|0,0:0|0:0,0:0:0:0:
252,80,226324,1,2,0:0:0:0:
216,316,226496,5,8,0:0:0:0:
216,316,226669,1,2,0:0:0:0:
120,304,226841,2,0,L|16:296,1,95,8|2,0:0|0:0,0:0:0:0:
308,256,227186,1,8,0:0:0:0:
308,256,227358,1,2,0:0:0:0:
404,244,227531,2,0,L|504:236,1,95,8|2,0:0|0:0,0:0:0:0:
212,216,227876,5,8,0:0:0:0:
212,216,228048,1,2,0:0:0:0:
116,208,228221,2,0,L|12:200,1,95,8|2,0:0|0:0,0:0:0:0:
304,156,228565,1,8,0:0:0:0:
304,156,228738,1,2,0:0:0:0:
396,144,228910,2,0,L|496:136,1,95,8|2,0:0|0:0,0:0:0:0:
324,48,229255,5,8,0:0:0:0:
284,232,229427,1,8,0:0:0:0:
144,104,229600,1,8,0:0:0:0:
376,152,229772,1,8,0:0:0:0:
224,40,229945,5,8,0:0:0:0:
164,220,230117,1,8,0:0:0:0:
324,48,230290,1,8,0:0:0:0:
432,260,230462,1,8,0:0:0:0:
488,184,230634,5,8,0:0:0:0:
456,164,230721,1,8,0:0:0:0:
420,160,230807,1,8,0:0:0:0:
384,172,230893,1,8,0:0:0:0:
360,200,230979,1,8,0:0:0:0:
324,184,231065,1,8,0:0:0:0:
284,188,231152,1,8,0:0:0:0:
256,212,231238,1,8,0:0:0:0:
248,248,231324,1,0,0:0:0:0:
152,120,232014,6,0,B|128:72|128:72|56:112|96:192,1,185.249991519928,2|0,0:0|0:0,0:0:0:0:
188,212,232358,2,0,P|224:192|244:144,1,71.2500027179719,8|0,0:0|0:0,0:0:0:0:
240,68,232531,1,0,0:0:0:0:
466,131,232703,2,0,L|324:120,1,142.500005435944,0|2,0:0|0:0,0:0:0:0:
324,120,233048,6,0,L|340:180,1,61.7499971733095,8|0,0:0|0:0,0:0:0:0:
484,316,233221,2,0,L|424:304,1,61.7499971733095
188,232,233393,5,2,0:0:0:0:
280,348,233565,2,0,L|304:276,1,61.7499971733095
487,194,233738,2,0,L|428:212,1,61.7499971733095,8|0,0:0|0:0,0:0:0:0:
276,83,233910,2,0,L|300:140,1,61.7499971733095
172,215,234083,6,0,P|128:196|80:204,1,61.7499971733095
16,304,234255,1,0,0:0:0:0:
122,371,234427,2,0,B|168:356|192:304|192:304|148:316|108:284,1,185.249991519928,8|0,0:0|0:0,0:0:0:0:
150,110,234772,6,0,B|188:80|188:80|172:216,1,185.249991519928,2|0,0:0|0:0,0:0:0:0:
172,216,235117,2,0,B|220:212|244:236|244:236|272:220|328:244,1,142.500005435944,8|0,0:0|0:0,0:0:0:0:
307,236,235462,2,0,P|332:200|336:168,1,61.7499971733095
487,180,235634,2,0,P|458:172|432:156,1,61.7499971733095,2|0,0:0|0:0,0:0:0:0:
313,28,235807,2,0,B|336:4|336:4|356:92,1,123.499994346619,8|0,0:0|0:0,0:0:0:0:
420,280,236152,5,2,0:0:0:0:
252,176,236324,2,0,L|180:184,1,61.7499971733095
92,196,236496,2,0,L|20:204,1,61.7499971733095,8|0,0:0|0:0,0:0:0:0:
41,42,236669,2,0,L|48:104,1,61.7499971733095
32,300,236841,2,0,L|112:292,1,61.7499971733095
288,268,237014,1,2,0:0:0:0:
232,348,237186,2,0,P|192:296|200:232,1,123.499994346619,8|0,0:0|0:0,0:0:0:0:
412,40,237531,6,0,B|404:104|404:104|432:140|432:140|416:228,1,185.249991519928,6|0,0:0|0:0,0:0:0:0:
492,318,237876,2,0,P|477:250|418:213,1,142.500005435944,8|0,0:0|0:0,0:0:0:0:
209,284,238221,2,0,L|280:292,1,71.2500027179719
380,304,238393,1,2,0:0:0:0:
136,340,238565,2,0,P|120:300|124:264,1,61.7499971733095,8|0,0:0|0:0,0:0:0:0:
267,73,238738,2,0,P|262:103|244:128,1,61.7499971733095
176,200,238910,5,2,0:0:0:0:
34,147,239083,2,0,L|96:144,1,61.7499971733095
341,212,239255,2,0,L|280:216,1,61.7499971733095,8|0,0:0|0:0,0:0:0:0:
96,52,239427,2,0,L|157:48,1,61.7499971733095
396,120,239600,2,0,L|334:123,1,61.7499971733095
236,124,239772,1,2,0:0:0:0:
472,48,239945,2,0,P|504:108|492:164,1,123.499994346619,8|0,0:0|0:0,0:0:0:0:
433,336,240290,6,0,B|401:296|409:212|409:212|421:236|452:248,1,185.249991519928,2|0,0:0|0:0,0:0:0:0:
451,247,240634,2,0,L|304:232,1,142.500005435944,8|0,0:0|0:0,0:0:0:0:
309,232,240979,2,0,L|280:156,1,61.7499971733095
184,8,241152,1,2,0:0:0:0:
240,92,241324,2,0,L|184:116,1,61.7499971733095,8|0,0:0|0:0,0:0:0:0:
36,116,241496,2,0,L|88:168,1,61.7499971733095
163,328,241669,6,0,B|184:248|184:248|152:216,1,123.499994346619,2|0,0:0|0:0,0:0:0:0:
155,219,242014,1,8,0:0:0:0:
10,275,242186,2,0,L|72:268,1,61.7499971733095,2|0,3:0|0:0,0:0:0:0:
244,168,242358,1,2,3:0:0:0:
256,68,242531,1,0,0:0:0:0:
164,104,242703,1,8,0:0:0:0:
316,232,242876,1,0,0:0:0:0:
496,152,243048,6,0,P|492:88|408:136,1,185.249991519928,2|0,0:0|0:0,0:0:0:0:
224,205,243393,2,0,B|296:160|356:244|432:216,1,213.750008153916,8|0,0:0|0:0,0:0:0:0:
431,216,243738,2,0,P|456:276|432:332,1,123.499994346619,0|2,0:0|0:0,0:0:0:0:
406,119,244083,2,0,L|413:57,1,61.7499971733095,8|0,0:0|0:0,0:0:0:0:
364,128,244255,2,0,L|371:66,1,61.7499971733095
176,28,244427,5,2,0:0:0:0:
244,160,244600,2,0,L|236:221,1,61.7499971733095
220,320,244772,2,0,L|212:381,1,61.7499971733095,8|0,0:0|0:0,0:0:0:0:
63,324,244945,2,0,L|124:336,1,61.7499971733095
376,307,245117,2,0,L|316:296,1,61.7499971733095
132,224,245290,1,2,0:0:0:0:
328,204,245462,2,0,B|348:72|348:72|296:108,1,185.249991519928,8|0,0:0|0:0,0:0:0:0:
129,109,245807,6,0,B|192:120|192:120|240:92|240:92|305:101,1,185.249991519928
68,28,246152,2,0,P|32:72|40:160,1,142.500005435944,8|0,0:0|0:0,0:0:0:0:
340,206,246496,2,0,L|280:196,1,61.7499971733095
84,232,246669,1,2,0:0:0:0:
192,368,246841,2,0,P|260:320|192:292,1,185.249991519928,8|0,0:0|0:0,0:0:0:0:
198,288,247186,6,0,L|180:208,1,71.2500027179719,2|0,0:0|0:0,0:0:0:0:
356,120,247531,6,0,L|371:50,1,71.2500027179719,8|0,0:0|0:0,0:0:0:0:
172,40,247876,6,0,L|103:21,1,71.2500027179719
24,84,248048,1,2,0:0:0:0:
220,124,248221,2,0,B|264:100|268:56|268:56|316:104|388:96,1,213.750008153916,8|0,0:0|0:0,0:0:0:0:
472,70,248565,6,0,P|409:21|383:96,1,185.249991519928,6|0,0:0|0:0,0:0:0:0:
456,168,248910,2,0,B|448:236|448:236|476:284|476:284|460:388,1,213.750008153916,8|0,0:0|0:0,0:0:0:0:
462,372,249255,6,0,L|332:356,1,123.499994346619,0|2,0:0|0:0,0:0:0:0:
103,278,249600,2,0,L|164:268,1,61.7499971733095,8|0,0:0|0:0,0:0:0:0:
384,141,249772,2,0,L|324:152,1,61.7499971733095
244,212,249945,5,2,0:0:0:0:
220,54,250117,2,0,L|228:116,1,61.7499971733095
267,369,250290,2,0,L|260:308,1,61.7499971733095,8|0,0:0|0:0,0:0:0:0:
354,66,250462,2,0,L|332:124,1,61.7499971733095
145,365,250634,2,0,L|168:308,1,61.7499971733095
280,212,250807,1,2,0:0:0:0:
180,208,250979,2,0,B|120:216|52:180|52:180|104:160,1,185.249991519928,8|0,0:0|0:0,0:0:0:0:
55,70,251324,6,0,B|84:28|84:28|100:161,1,185.249991519928,2|0,0:0|0:0,0:0:0:0:
16,253,251669,2,0,P|36:187|100:161,1,142.500005435944,8|0,0:0|0:0,0:0:0:0:
329,62,252014,2,0,L|268:56,1,61.7499971733095
176,92,252186,1,2,0:0:0:0:
464,24,252358,2,0,B|444:56|444:56|464:84|464:84|424:112|440:192,1,185.249991519928,8|0,0:0|0:0,0:0:0:0:
439,187,252703,6,0,L|356:180,1,71.2500027179719,8|0,0:0|0:0,0:0:0:0:
368,181,253048,1,0,0:0:0:0:
216,29,253221,6,0,L|240:124,1,95,8|0,0:0|0:0,0:0:0:0:
239,121,253565,1,0,0:0:0:0:
486,287,253738,6,0,L|364:276,1,123.499994346619,8|0,0:0|0:0,0:0:0:0:
24,208,254083,6,0,P|80:176|152:192,1,123.499994346619,2|0,0:0|0:0,0:0:0:0:
212,248,254427,1,8,0:0:0:0:
200,100,254600,2,0,L|196:24,2,61.7499971733095
100,272,254945,1,2,0:0:0:0:
288,212,255117,2,0,B|360:208|360:208|396:232|396:232|480:224,1,185.249991519928,8|0,0:0|0:0,0:0:0:0:
465,225,255462,5,2,0:0:0:0:
336,296,255634,1,0,0:0:0:0:
444,132,255807,2,0,B|480:12|480:12|416:48,1,185.249991519928,8|0,0:0|0:0,0:0:0:0:
427,41,256152,1,0,0:0:0:0:
184,88,256324,1,2,0:0:0:0:
308,4,256496,2,0,L|296:128,1,123.499994346619,8|0,0:0|0:0,0:0:0:0:
496,350,256841,6,0,P|479:263|396:236,1,185.249991519928,2|0,0:0|0:0,0:0:0:0:
396,235,257186,1,8,0:0:0:0:
335,347,257358,2,0,L|396:336,2,61.7499971733095
420,116,257703,1,2,0:0:0:0:
300,200,257876,2,0,B|224:176|204:232|120:220,1,185.249991519928,8|0,0:0|0:0,0:0:0:0:
119,219,258221,5,2,0:0:0:0:
156,128,258393,1,0,0:0:0:0:
268,292,258565,1,8,0:0:0:0:
72,304,258738,1,0,0:0:0:0:
32,276,258824,1,0,0:0:0:0:
20,228,258910,2,0,P|28:180|60:148,1,61.7499971733095
36,25,259083,2,0,P|45:54|68:76,1,61.7499971733095,2|0,0:0|0:0,0:0:0:0:
249,148,259255,2,0,P|200:168|132:152,1,123.499994346619,8|0,0:0|0:0,0:0:0:0:
372,104,259600,6,0,B|368:64|408:0|408:0|432:40|424:80,1,185.249991519928,2|0,0:0|0:0,0:0:0:0:
425,69,259945,1,8,0:0:0:0:
280,104,260117,1,0,0:0:0:0:
504,204,260290,1,0,0:0:0:0:
246,208,260462,2,0,L|308:212,1,61.7499971733095,2|0,0:0|0:0,0:0:0:0:
404,236,260634,2,0,P|424:292|396:364,1,123.499994346619,8|0,0:0|0:0,0:0:0:0:
376,140,260979,6,0,L|384:64,1,61.7499971733095,2|0,0:0|0:0,0:0:0:0:
472,120,261152,1,0,0:0:0:0:
296,32,261324,2,0,P|236:68|104:56,1,185.249991519928,8|0,0:0|0:0,0:0:0:0:
123,65,261669,2,0,L|100:128,1,61.7499971733095
20,248,261841,2,0,L|104:212,1,61.7499971733095,2|0,0:0|0:0,0:0:0:0:
215,243,262014,2,0,L|172:200,1,61.7499971733095,8|0,0:0|0:0,0:0:0:0:
28,64,262186,1,0,0:0:0:0:
220,108,262358,6,0,L|372:92,1,123.499994346619,2|0,0:0|0:0,0:0:0:0:
504,284,262703,2,0,P|448:248|392:256,1,123.499994346619,8|0,0:0|0:0,0:0:0:0:
394,255,262962,1,0,0:0:0:0:
394,255,263048,1,0,0:0:0:0:
316,192,263221,1,2,0:0:0:0:
92,210,263393,2,0,L|216:200,1,123.499994346619,8|0,0:0|0:0,0:0:0:0:
412,184,263738,5,2,0:0:0:0:
232,108,263910,1,0,0:0:0:0:
192,300,264083,1,8,0:0:0:0:
34,319,264255,1,0,0:0:0:0:
34,319,264341,1,0,0:0:0:0:
34,319,264427,2,0,L|96:312,1,61.7499971733095
349,276,264600,2,0,L|288:284,1,61.7499971733095
177,177,264772,2,0,L|192:300,1,123.499994346619
192,300,265117,6,0,B|256:272|256:272|384:320,1,185.249991519928,2|0,0:0|0:0,0:0:0:0:
364,312,265462,2,0,L|396:244,1,61.7499971733095,8|0,0:0|0:0,0:0:0:0:
320,72,265634,1,0,0:0:0:0:
482,148,265807,2,0,L|360:164,1,123.499994346619,0|2,0:0|0:0,0:0:0:0:
31,36,266152,2,0,B|108:48|108:48|136:28|136:28|208:40,1,185.249991519928,8|0,0:0|0:0,0:0:0:0:
208,40,266496,6,0,L|192:116,1,61.7499971733095,2|0,0:0|0:0,0:0:0:0:
20,192,266669,1,0,0:0:0:0:
138,289,266841,2,0,L|116:168,1,123.499994346619,8|0,0:0|0:0,0:0:0:0:
116,168,267186,1,0,0:0:0:0:
4,344,267358,2,0,L|44:296,1,61.7499971733095,2|0,0:0|0:0,0:0:0:0:
228,248,267531,2,0,P|296:264|368:240,1,123.499994346619,8|0,0:0|0:0,0:0:0:0:
500,56,267876,6,0,P|420:40|428:128,1,185.249991519928,2|0,0:0|0:0,0:0:0:0:
418,121,268221,1,8,0:0:0:0:
480,256,268393,1,0,0:0:0:0:
260,144,268565,1,0,0:0:0:0:
267,305,268738,2,0,L|264:244,1,61.7499971733095,2|0,0:0|0:0,0:0:0:0:
252,20,268910,2,0,L|260:144,1,123.499994346619,8|0,0:0|0:0,0:0:0:0:
260,144,269169,1,0,0:0:0:0:
260,144,269255,5,2,0:0:0:0:
356,32,269427,1,0,0:0:0:0:
128,128,269600,2,0,B|84:112|8:144|8:144|72:176,1,185.249991519928,8|0,0:0|0:0,0:0:0:0:
70,232,269945,2,0,L|63:171,1,61.7499971733095
224,10,270117,2,0,L|232:72,1,61.7499971733095,2|0,0:0|0:0,0:0:0:0:
248,168,270290,2,0,L|380:156,1,123.499994346619,8|0,0:0|0:0,0:0:0:0:
504,364,270634,6,0,B|488:240|488:240|472:264|440:276,1,185.249991519928,2|0,0:0|0:0,0:0:0:0:
440,275,270979,2,0,P|396:288|360:272,1,61.7499971733095,8|0,0:0|0:0,0:0:0:0:
196,220,271152,1,0,0:0:0:0:
272,160,271324,2,0,P|296:240|260:288,1,123.499994346619,0|2,0:0|0:0,0:0:0:0:
22,213,271669,2,0,B|144:188|144:188|196:220,1,185.249991519928,8|0,0:0|0:0,0:0:0:0:
196,220,272014,5,2,0:0:0:0:
348,96,272186,1,0,0:0:0:0:
474,229,272358,2,0,L|352:244,1,123.499994346619,8|0,0:0|0:0,0:0:0:0:
268,296,272617,1,0,0:0:0:0:
268,296,272703,2,0,L|260:364,1,61.7499971733095
252,108,272876,2,0,L|259:46,1,61.7499971733095,2|0,0:0|0:0,0:0:0:0:
117,215,273048,2,0,L|240:204,1,123.499994346619,8|0,0:0|0:0,0:0:0:0:
36,64,273393,6,0,B|76:140|76:140|28:168|31:223,1,185.249991519928,2|0,0:0|0:0,0:0:0:0:
24,320,273738,2,0,P|68:312|104:288,1,61.7499971733095,8|0,0:0|0:0,0:0:0:0:
168,128,273910,1,0,0:0:0:0:
372,279,274083,2,0,P|346:263|316:260,1,61.7499971733095
212,364,274255,1,2,0:0:0:0:
168,128,274427,2,0,L|196:264,1,123.499994346619,8|0,0:0|0:0,0:0:0:0:
192,248,274772,5,2,0:0:0:0:
256,192,274858,12,0,275979,0:0:0:0:
76,160,276152,6,0,L|196:152,1,95,2|0,0:0|0:0,0:0:0:0:
420,60,276496,2,0,P|456:96|464:152,1,95,8|0,0:0|0:0,0:0:0:0:
460,176,276755,1,0,0:0:0:0:
424,164,276841,1,0,0:0:0:0:
388,168,276927,1,0,0:0:0:0:
360,192,277014,1,2,0:0:0:0:
425,350,277186,2,0,B|448:312|448:312|432:264,1,95,8|0,0:0|0:0,0:0:0:0:
260,100,277531,6,0,L|144:108,1,95,2|0,0:0|0:0,0:0:0:0:
40,308,277876,2,0,P|80:280|152:288,1,95,8|0,0:0|0:0,0:0:0:0:
152,304,278134,1,0,0:0:0:0:
188,320,278221,1,0,0:0:0:0:
224,320,278307,1,0,0:0:0:0:
260,304,278393,1,2,0:0:0:0:
244,116,278565,1,8,0:0:0:0:
20,172,278738,1,0,0:0:0:0:
116,29,278910,6,0,L|124:124,1,95,2|0,0:0|0:0,0:0:0:0:
340,200,279255,2,0,P|392:196|440:168,1,95,8|0,0:0|0:0,0:0:0:0:
460,152,279514,1,0,0:0:0:0:
492,172,279600,1,0,0:0:0:0:
500,208,279686,1,0,0:0:0:0:
484,244,279772,1,2,0:0:0:0:
356,104,279945,1,8,0:0:0:0:
312,288,280117,1,0,0:0:0:0:
172,160,280290,6,0,L|64:152,1,95,2|0,0:0|0:0,0:0:0:0:
256,88,280634,2,0,L|264:16,2,47.5,8|0|0,0:0|0:0|0:0,0:0:0:0:
164,68,280979,1,0,0:0:0:0:
352,36,281152,1,2,0:0:0:0:
320,224,281324,2,0,L|309:319,1,95,8|0,0:0|0:0,0:0:0:0:
480,357,281669,6,0,P|482:310|456:272,1,95,2|0,0:0|0:0,0:0:0:0:
172,256,282014,2,0,P|120:280|68:280,1,95,8|0,0:0|0:0,0:0:0:0:
44,276,282272,1,0,0:0:0:0:
16,304,282358,1,0,0:0:0:0:
20,344,282445,1,0,0:0:0:0:
48,368,282531,1,2,0:0:0:0:
260,284,282703,2,0,P|264:228|232:180,1,95,8|0,0:0|0:0,0:0:0:0:
8,54,283048,6,0,P|45:82|92:88,1,95,2|0,0:0|0:0,0:0:0:0:
272,24,283393,1,8,0:0:0:0:
256,230,283565,1,0,0:0:0:0:
258,207,283651,1,0,0:0:0:0:
260,183,283737,1,0,0:0:0:0:
262,159,283823,1,0,0:0:0:0:
264,136,283909,1,2,0:0:0:0:
136,220,284083,1,8,0:0:0:0:
344,272,284255,1,0,0:0:0:0:
367,65,284427,6,0,L|360:160,1,95,2|0,0:0|0:0,0:0:0:0:
117,336,284772,2,0,P|162:322|208:332,1,95,8|0,0:0|0:0,0:0:0:0:
240,356,285031,1,0,0:0:0:0:
276,364,285117,1,0,0:0:0:0:
312,360,285203,1,0,0:0:0:0:
340,336,285290,1,2,0:0:0:0:
272,200,285462,1,8,0:0:0:0:
460,296,285634,1,0,0:0:0:0:
412,112,285807,5,2,0:0:0:0:
412,112,285980,1,0,0:0:0:0:
312,228,286152,2,0,L|260:224,2,47.5,8|0|0,0:0|0:0|0:0,0:0:0:0:
496,176,286496,1,0,0:0:0:0:
352,48,286669,1,2,0:0:0:0:
401,214,286841,2,0,L|412:120,1,95,12|0,0:0|0:0,0:0:0:0:
280,248,287186,6,0,P|228:240|160:264,1,95,2|0,0:0|0:0,0:0:0:0:
0,85,287531,2,0,P|45:93|92:84,1,95,8|0,0:0|0:0,0:0:0:0:
168,28,287790,1,0,0:0:0:0:
168,28,287876,2,0,P|184:56|184:88,1,47.5
148,156,288048,1,2,0:0:0:0:
338,154,288221,2,0,L|244:144,1,95,8|0,0:0|0:0,0:0:0:0:
1,317,288565,6,0,L|96:328,1,95,2|0,0:0|0:0,0:0:0:0:
332,352,288910,2,0,P|368:316|368:256,1,95,8|0,0:0|0:0,0:0:0:0:
280,276,289169,1,0,0:0:0:0:
280,276,289255,2,0,L|224:280,1,47.5
52,224,289427,1,2,0:0:0:0:
240,184,289600,2,0,L|348:176,1,95,8|0,0:0|0:0,0:0:0:0:
128,60,289945,6,0,L|136:164,1,95,2|0,0:0|0:0,0:0:0:0:
155,342,290290,2,0,L|148:248,1,95,8|0,0:0|0:0,0:0:0:0:
52,248,290548,1,0,0:0:0:0:
52,248,290634,2,0,L|56:308,1,47.5
244,284,290807,1,2,0:0:0:0:
368,140,290979,2,0,P|420:112|468:112,1,95,8|0,0:0|0:0,0:0:0:0:
468,272,291324,5,2,0:0:0:0:
468,272,291496,1,0,0:0:0:0:
220,132,291669,2,0,L|208:24,1,95,8|0,0:0|0:0,0:0:0:0:
81,95,292014,2,0,L|128:88,1,47.5
308,28,292186,1,2,0:0:0:0:
136,192,292358,1,8,0:0:0:0:
316,132,292531,1,0,0:0:0:0:
316,132,292617,1,0,0:0:0:0:
316,132,292703,6,0,L|440:144,1,95,2|0,0:0|0:0,0:0:0:0:
506,341,293048,2,0,L|412:332,1,95,8|0,0:0|0:0,0:0:0:0:
372,328,293307,1,0,0:0:0:0:
344,356,293393,1,0,0:0:0:0:
308,364,293479,1,0,0:0:0:0:
272,356,293565,1,2,0:0:0:0:
308,149,293738,2,0,L|300:244,1,95,8|0,0:0|0:0,0:0:0:0:
116,112,294083,6,0,L|124:17,1,95,2|0,0:0|0:0,0:0:0:0:
28,264,294427,2,0,P|72:240|128:252,1,95,8|0,0:0|0:0,0:0:0:0:
136,276,294686,1,0,0:0:0:0:
168,296,294772,1,0,0:0:0:0:
204,296,294858,1,0,0:0:0:0:
240,284,294945,1,2,0:0:0:0:
442,168,295117,2,0,L|348:176,1,95,8|0,0:0|0:0,0:0:0:0:
196,188,295462,5,2,0:0:0:0:
364,272,295634,1,0,0:0:0:0:
344,84,295807,1,8,0:0:0:0:
168,16,295979,1,0,0:0:0:0:
140,40,296065,1,0,0:0:0:0:
104,52,296151,1,0,0:0:0:0:
68,52,296237,1,0,0:0:0:0:
32,40,296324,1,2,0:0:0:0:
204,116,296496,2,0,P|256:120|304:156,1,95,8|0,0:0|0:0,0:0:0:0:
500,256,296841,6,0,P|453:261|416:289,1,95,2|0,0:0|0:0,0:0:0:0:
216,370,297186,6,0,P|236:312|216:252,1,123.499994346619,2|0,3:0|0:0,0:0:0:0:
137,196,297445,2,0,P|117:253|136:312,1,123.499994346619,2|0,3:0|0:0,0:0:0:0:
316,228,297703,2,0,P|296:192|268:172,1,61.7499971733095
204,116,297876,2,0,L|208:64,6,30.8749985866547,2|0|0|0|0|0|0,3:0|0:0|0:0|0:0|0:0|0:0|0:0,0:0:0:0:
49,88,298221,6,0,L|120:96,1,71.2500027179719,6|0,0:0|0:0,0:0:0:0:
292,108,298565,1,8,0:0:0:0:
292,108,298738,1,0,0:0:0:0:
277,262,298910,2,0,L|284:192,1,71.2500027179719
180,288,299255,2,0,L|173:358,1,71.2500027179719,8|0,0:0|0:0,0:0:0:0:
188,188,299600,5,0,0:0:0:0:
188,188,299772,1,0,0:0:0:0:
380,240,299945,2,0,P|424:244|472:228,1,71.2500027179719,8|0,0:0|0:0,0:0:0:0:
304,72,300290,2,0,L|308:144,1,71.2500027179719
200,12,300634,2,0,L|203:83,1,71.2500027179719,8|0,0:0|0:0,0:0:0:0:
208,196,300979,6,0,P|160:220|120:216,1,71.2500027179719
40,172,301324,1,8,0:0:0:0:
40,172,301496,1,0,0:0:0:0:
264,104,301669,2,0,P|292:128|308:164,1,71.2500027179719
172,108,302014,1,8,0:0:0:0:
172,108,302186,1,0,0:0:0:0:
88,100,302358,6,0,L|12:96,1,71.2500027179719
188,248,302703,2,0,L|259:251,1,71.2500027179719,8|0,0:0|0:0,0:0:0:0:
428,260,303048,1,0,0:0:0:0:
352,172,303221,1,0,0:0:0:0:
336,326,303393,2,0,L|344:256,1,71.2500027179719,8|0,0:0|0:0,0:0:0:0:
360,84,303738,5,0,0:0:0:0:
360,84,303910,1,0,0:0:0:0:
192,60,304083,2,0,L|92:48,1,71.2500027179719,8|0,0:0|0:0,0:0:0:0:
348,172,304427,5,0,0:0:0:0:
348,172,304599,1,0,0:0:0:0:
204,156,304772,2,0,L|133:147,1,71.2500027179719,8|0,0:0|0:0,0:0:0:0:
336,260,305117,5,0,0:0:0:0:
336,260,305289,1,0,0:0:0:0:
220,252,305462,2,0,L|149:243,1,71.2500027179719,8|0,0:0|0:0,0:0:0:0:
284,144,305807,6,0,L|338:97,1,71.2500027179719
336,260,306152,2,0,L|356:328,1,71.2500027179719,8|0,0:0|0:0,0:0:0:0:
256,192,306496,12,0,309255,0:0:0:0:
