osu file format v14

[General]
AudioFilename: audio.mp3
AudioLeadIn: 0
PreviewTime: 75252
Countdown: 0
SampleSet: Soft
StackLeniency: 0.5
Mode: 0
LetterboxInBreaks: 0
WidescreenStoryboard: 1

[Editor]
Bookmarks: 1535,7728,10825,13922,26696,31631,37147,38696,44889,47986,51083,63470,69664,74309,75857,88244,94438,95986,97534,99083,100631,106825,109922,111470,113018,119212,125405
DistanceSpacing: 0.5
BeatDivisor: 4
GridSize: 32
TimelineZoom: 1

[Metadata]
Title:Mazy Metroplex
TitleUnicode:Mazy Metroplex
Artist:aran
ArtistUnicode:aran
Creator:VoiceCore
Version:Hard
Source:WACCA S
Tags:dahkjdas electronic instrumental ARTFCT HARDCORE TANO*C techno j-core jcore arcaea
BeatmapID:3210647
BeatmapSetID:1382603

[Difficulty]
HPDrainRate:4
CircleSize:4.2
OverallDifficulty:6.5
ApproachRate:7.5
SliderMultiplier:1.5
SliderTickRate:1

[Events]
//Background and Video events
0,0,"bg.jpg",0,0
//Break Periods
2,51075,56443
2,100823,105992
//Storyboard Layer 0 (Background)
//Storyboard Layer 1 (Fail)
//Storyboard Layer 2 (Pass)
//Storyboard Layer 3 (Foreground)
//Storyboard Layer 4 (Overlay)
//Storyboard Sound Samples

[TimingPoints]
1527,387.096774193548,4,2,1,80,1,0
1527,-166.666666666667,4,2,1,80,0,0
1817,-166.666666666667,4,2,1,5,0,0
1914,-166.666666666667,4,2,1,80,0,0
2591,-166.666666666667,4,2,1,5,0,0
2688,-166.666666666667,4,2,1,80,0,0
3365,-166.666666666667,4,2,1,5,0,0
3462,-166.666666666667,4,2,1,80,0,0
4914,-166.666666666667,4,2,1,5,0,0
5010,-166.666666666667,4,2,1,80,0,0
7043,-166.666666666667,4,2,1,5,0,0
7139,-166.666666666667,4,2,1,80,0,0
7720,-125,4,2,1,80,0,0
13914,-100,4,2,1,80,0,0
16672,-100,4,2,1,30,0,0
16720,-100,4,2,1,80,0,0
16768,-100,4,2,1,30,0,0
16817,-100,4,2,1,80,0,0
16865,-100,4,2,1,30,0,0
16914,-100,4,2,1,80,0,0
16962,-100,4,2,1,30,0,0
17010,-100,4,2,1,80,0,0
22865,-100,4,2,1,30,0,0
22914,-100,4,2,1,80,0,0
22962,-100,4,2,1,30,0,0
23010,-100,4,2,1,80,0,0
23059,-100,4,2,1,30,0,0
23107,-100,4,2,1,80,0,0
23156,-100,4,2,1,30,0,0
23204,-100,4,2,1,80,0,0
35252,-100,4,2,1,30,0,0
35301,-100,4,2,1,80,0,0
35349,-100,4,2,1,30,0,0
35397,-100,4,2,1,80,0,0
35446,-100,4,2,1,30,0,0
35494,-100,4,2,1,80,0,0
35543,-100,4,2,1,30,0,0
35591,-100,4,2,1,80,0,0
37817,-125,4,2,1,80,0,0
38688,-100,4,2,1,80,0,0
57268,-125,4,2,1,80,0,0
69656,-100,4,2,1,80,0,0
74301,-125,4,2,1,80,0,0
75849,-83.3333333333333,4,2,1,80,0,0
106817,-100,4,2,1,80,0,0
113010,-83.3333333333333,4,2,1,80,0,1
119204,-83.3333333333333,4,2,1,80,0,0

[Colours]
Combo1 : 245,216,75
Combo2 : 255,75,255
Combo3 : 37,185,239
Combo4 : 23,209,116
Combo5 : 0,128,255

[HitObjects]
319,229,1527,6,0,P|402:242|488:252,1,157.499995193482,0|0,1:0|0:0,0:0:0:0:
475,251,3075,2,0,P|488:310|399:346,1,157.499995193482,0|0,0:0|0:0,0:0:0:0:
413,351,4623,2,0,B|367:311|367:311|271:334,1,157.499995193482,0|0,0:0|0:0,0:0:0:0:
273,333,6172,2,0,B|224:282|159:308|159:308|166:353,1,157.499995193482,0|0,0:0|0:0,0:0:0:0:
210,248,7139,6,0,P|202:224|188:207,2,44.999998626709,0|2|0,0:0|0:0|0:0,0:0:0:0:
159,309,7720,2,0,L|61:314,1,90,0|0,1:0|3:0,0:0:0:0:
34,219,8301,2,0,B|10:193|10:193|28:140,2,90,0|0|0,1:0|3:0|3:0,0:0:0:0:
2,375,9268,1,0,3:0:0:0:
69,290,9559,5,0,1:0:0:0:
175,304,9849,1,0,1:0:0:0:
114,215,10139,5,0,1:0:0:0:
220,201,10429,1,0,1:0:0:0:
61,143,10817,6,0,P|66:106|97:80,1,60,0|0,1:0|1:0,0:0:0:0:
7,50,11204,2,0,L|75:56,1,60,0|0,1:0|1:0,0:0:0:0:
211,33,11591,2,0,L|219:-2,2,30,0|0|0,1:0|1:0|1:0,0:0:0:0:
145,139,11978,2,0,P|182:122|263:114,1,120,0|0,1:0|1:0,0:0:0:0:
260,113,13914,6,0,B|234:146|234:146|263:205,1,75,4|2,1:0|0:0,0:0:0:0:
326,214,14301,2,0,P|372:177|449:194,2,112.5,8|2|0,0:1|0:0|1:0,0:0:0:0:
399,259,15075,2,0,L|386:348,1,75,8|0,3:1|1:2,0:0:0:0:
465,383,15462,6,0,L|488:221,1,150,0|8,0:0|0:1,0:0:0:0:
468,104,16139,2,0,B|495:133|495:133|404:152,1,112.5,2|0,0:0|1:0,0:0:0:0:
342,112,16623,2,0,L|294:121,2,37.5,8|2|2,3:1|0:0|0:0,0:0:0:0:
399,51,17010,5,0,3:0:0:0:
399,51,17107,1,0,3:0:0:0:
399,51,17204,2,0,L|491:60,1,75,0|8,1:0|0:1,0:0:0:0:
342,112,17688,2,0,P|300:68|231:91,1,112.5,2|2,0:0|0:0,0:0:0:0:
231,159,18172,2,0,L|242:65,1,75,8|2,3:1|1:2,0:0:0:0:
82,82,18559,6,0,B|42:89|42:89|-2:60,1,75,2|2,0:0|1:2,0:0:0:0:
123,158,18946,2,0,B|156:134|156:134|165:62,2,112.5,8|0|0,3:1|1:0|1:0,0:0:0:0:
40,184,19720,2,0,B|126:169|89:237|187:215,1,150,8|0,3:1|1:0,0:0:0:0:
179,216,20301,5,0,0:0:0:0:
55,261,20494,2,0,P|18:304|-2:362,2,112.5,8|2|0,0:1|0:0|0:0,0:0:0:0:
135,291,21268,1,8,3:1:0:0:
36,184,21559,5,0,1:0:0:0:
199,236,21849,2,0,L|288:226,1,75,0|8,1:0|3:1,0:0:0:0:
403,138,22333,5,0,1:0:0:0:
329,286,22623,1,0,1:0:0:0:
329,286,22817,2,0,L|333:345,2,37.5,8|2|2,3:1|0:0|0:0,0:0:0:0:
396,238,23204,5,0,1:0:0:0:
396,238,23301,1,2,0:0:0:0:
396,238,23397,2,0,P|438:257|482:257,1,75,2|8,0:0|0:1,0:0:0:0:
371,361,23881,2,0,L|382:238,1,112.5,0|0,3:0|1:2,0:0:0:0:
451,169,24365,1,8,3:1:0:0:
451,169,24559,6,0,P|455:111|398:70,2,112.5,2|4|12,1:2|1:0|1:0,0:0:0:0:
311,205,25430,2,0,B|275:201|275:201|272:204|272:204|193:194,1,112.5,4|0,1:0|1:0,0:0:0:0:
317,217,25914,2,0,L|267:212,2,37.5,8|4|4,1:0|0:3|0:3,0:0:0:0:
258,120,26301,6,0,B|240:85|240:85|272:48,2,75,0|0|12,1:0|0:0|0:1,0:0:0:0:
267,133,26817,5,0,1:0:0:0:
267,133,27075,2,0,B|232:88|175:99|175:99|172:100|172:100|155:121|104:124,1,150,0|8,1:0|3:1,0:0:0:0:
86,56,27591,1,0,1:0:0:0:
86,56,27849,2,0,B|104:80|104:80|92:130|92:130|84:135|84:135|65:218,1,150,0|8,1:0|0:1,0:0:0:0:
19,260,28365,1,0,1:0:0:0:
19,260,28623,6,0,B|23:321|23:321|42:304|28:269,2,100,0|2|0,1:0|0:0|1:0,0:0:0:0:
131,186,29397,1,2,1:2:0:0:
206,290,29656,2,0,B|222:272|255:286|255:286|281:329|281:329|305:347|351:324,1,150,0|0,1:0|0:0,0:0:0:0:
396,282,30172,1,0,1:0:0:0:
396,282,30430,2,0,B|486:294|486:294|510:322|502:345|502:345|478:370,1,150,0|0,1:0|3:0,0:0:0:0:
426,378,30946,1,0,1:0:0:0:
426,378,31204,1,0,1:0:0:0:
487,205,31623,6,0,B|474:228|474:228|457:111,1,112.5,4|4,1:0|1:0,0:0:0:0:
383,187,32107,2,0,P|332:164|304:177,1,75,8|0,0:1|0:0,0:0:0:0:
258,256,32494,6,0,L|359:242,1,75,4|2,1:0|0:0,0:0:0:0:
248,335,32881,2,0,B|212:382|212:382|155:342,2,112.5,8|2|0,0:1|0:0|1:0,0:0:0:0:
196,274,33656,1,8,3:1:0:0:
316,372,33946,5,2,1:2:0:0:
463,313,34236,2,0,L|461:222,1,75,0|8,1:0|0:1,0:0:0:0:
353,109,34720,5,2,1:2:0:0:
473,233,35010,1,0,1:0:0:0:
473,233,35204,2,0,L|472:179,2,37.5,8|2|2,3:1|0:0|1:2,0:0:0:0:
412,291,35591,5,4,1:0:0:0:
334,253,35785,1,0,1:0:0:0:
276,314,35978,2,0,L|278:393,1,75,8|0,1:0|1:0,0:0:0:0:
197,283,36365,2,0,L|195:204,1,75,4|0,1:0|1:0,0:0:0:0:
138,142,36752,5,8,1:0:0:0:
174,64,36946,1,0,1:0:0:0:
260,70,37139,2,0,P|327:109|412:86,1,150,4|0,1:0|0:0,0:0:0:0:
401,78,37817,2,0,P|444:68|498:99,1,90,2|2,0:0|0:0,0:0:0:0:
438,151,38301,2,0,P|455:190|446:222,1,60,2|2,0:0|0:0,0:0:0:0:
386,262,38688,6,0,P|332:194|363:128,1,150,4|8,1:0|1:0,0:0:0:0:
300,214,39268,1,0,0:0:0:0:
300,214,39462,2,0,B|257:211|257:211|240:236|240:236|174:232,2,112.5,2|2|2,1:2|1:2|1:2,0:0:0:0:
349,140,40236,6,0,P|325:69|279:4,1,150,0|8,1:0|1:0,0:0:0:0:
223,59,40817,1,0,0:0:0:0:
223,59,41010,2,0,P|254:105|274:170,2,112.5,2|2|2,1:2|1:2|1:2,0:0:0:0:
140,80,41785,6,0,B|62:105|23:54|23:54|42:64|59:64,1,150,0|8,1:0|1:0,0:0:0:0:
133,92,42365,1,0,0:0:0:0:
133,92,42559,2,0,P|98:141|129:203,2,112.5,2|2|2,1:2|1:2|1:2,0:0:0:0:
191,155,43333,5,4,1:0:0:0:
368,119,43720,1,12,1:0:0:0:
404,296,44107,1,4,1:0:0:0:
227,332,44494,1,12,1:0:0:0:
191,155,44881,6,0,L|266:163,1,75,4|0,1:0|3:0,0:0:0:0:
246,248,45268,2,0,L|171:240,1,75,8|0,1:0|3:0,0:0:0:0:
152,324,45656,1,0,1:0:0:0:
152,324,45752,1,4,3:0:0:0:
152,324,45849,2,0,L|227:332,1,75,4|8,3:0|1:0,0:0:0:0:
367,229,46430,6,0,P|405:197|441:203,1,75,0|0,1:0|3:0,0:0:0:0:
500,245,46817,2,0,P|453:227|440:193,1,75,8|4,1:0|3:0,0:0:0:0:
447,122,47204,1,0,1:0:0:0:
447,122,47301,1,4,3:0:0:0:
447,122,47397,2,0,P|455:170|431:199,1,75,4|8,3:0|1:0,0:0:0:0:
324,63,47978,6,0,B|298:58|298:58|264:76,3,50,4|4|4|8,3:0|3:0|3:0|0:1,0:0:0:0:
437,29,48752,6,0,B|463:24|463:24|497:42,3,50,4|4|4|8,3:0|3:0|3:0|0:1,0:0:0:0:
415,235,49526,6,0,L|421:297,2,50,4|4|4,3:0|3:0|3:0,0:0:0:0:
401,228,49914,2,0,L|407:166,2,50,8|4|4,3:1|3:0|3:0,0:0:0:0:
387,221,50301,2,0,B|364:234|364:234|316:220,3,50,4|4|4|8,3:0|3:0|3:0|0:1,0:0:0:0:
213,64,57268,6,0,P|130:48|92:163,1,210,2|0,0:0|0:0,0:0:0:0:
84,147,58817,2,0,B|203:121|146:189|287:161,1,210,2|0,0:0|0:0,0:0:0:0:
287,160,60365,2,0,P|277:91|294:159,1,210,2|0,0:0|0:0,0:0:0:0:
269,250,61623,1,0,0:0:0:0:
269,250,61817,2,0,B|260:287|260:287|251:298|251:298|255:311|255:311|248:346|248:346|332:373|371:291,1,240,0|0,0:0|0:0,0:0:0:0:
365,301,63462,6,0,P|390:357|460:362,1,120,2|0,1:2|0:0,0:0:0:0:
477,232,64043,1,2,0:0:0:0:
477,232,64236,2,0,L|411:238,1,60,0|0,0:0|0:0,0:0:0:0:
365,301,64623,2,0,L|299:307,1,60,2|0,0:0|0:0,0:0:0:0:
373,164,65010,6,0,L|500:153,1,120,0|0,0:0|0:0,0:0:0:0:
426,46,65591,1,0,0:0:0:0:
426,46,65785,2,0,B|412:84|412:84|389:86,1,60,2|0,0:0|0:0,0:0:0:0:
275,120,66172,2,0,B|289:82|289:82|312:80,1,60,0|2,0:0|0:0,0:0:0:0:
373,164,66559,6,0,P|330:147|312:71,1,120,0|0,0:0|0:0,0:0:0:0:
232,190,67139,1,0,0:0:0:0:
232,190,67333,2,0,P|205:228|195:234,1,60,2|0,0:0|0:0,0:0:0:0:
144,151,67720,2,0,P|117:113|107:107,1,60,0|2,0:0|0:0,0:0:0:0:
144,40,68107,6,0,P|69:37|37:75,1,120,0|2,0:0|0:0,0:0:0:0:
230,46,68688,1,0,0:0:0:0:
230,46,68881,2,0,B|323:35|323:35|294:62,1,120,0|0,0:0|0:0,0:0:0:0:
178,119,69656,6,0,L|169:165,2,37.5,4|0|0,3:1|3:0|3:0,0:0:0:0:
85,128,70043,2,0,L|76:174,2,37.5,8|0|0,3:1|3:0|3:0,0:0:0:0:
129,232,70430,2,0,L|120:278,2,37.5,0|0|0,3:0|3:0|3:0,0:0:0:0:
36,241,70817,2,0,L|27:287,2,37.5,8|0|0,3:1|3:0|3:0,0:0:0:0:
85,353,71204,6,0,P|116:351|144:338,2,37.5,4|0|0,3:1|3:0|3:0,0:0:0:0:
214,331,71591,2,0,P|245:329|273:316,2,37.5,8|0|0,3:1|3:0|3:0,0:0:0:0:
140,257,71978,6,0,P|158:253|177:253,2,37.5,0|0|0,3:0|3:0|3:0,0:0:0:0:
269,235,72365,2,0,P|287:231|306:231,2,37.5,8|0|0,3:1|3:0|3:0,0:0:0:0:
208,168,72752,5,4,3:1:0:0:
208,168,72849,1,0,3:0:0:0:
208,168,72946,2,0,P|228:121|224:82,2,75,0|0|0,3:0|3:0|3:0,0:0:0:0:
135,77,73526,5,4,3:1:0:0:
135,77,73623,1,0,3:0:0:0:
135,77,73720,2,0,P|115:124|119:163,2,75,0|0|0,3:0|3:0|3:0,0:0:0:0:
224,76,74301,6,0,B|319:129|419:42|323:-49|306:68,1,240,0|0,3:0|3:0,0:0:0:0:
274,110,75849,6,0,B|383:91|383:91|393:146,1,134.999995880127,0|0,1:0|1:0,0:0:0:0:
310,305,76430,2,0,B|291:196|291:196|347:186,1,134.999995880127,0|0,1:0|1:0,0:0:0:0:
505,269,77010,2,0,B|397:288|397:288|387:232,1,134.999995880127,0|0,1:0|1:0,0:0:0:0:
469,74,77591,2,0,B|489:182|489:182|433:192,1,134.999995880127,0|0,1:0|1:0,0:0:0:0:
310,305,78172,2,0,B|290:197|290:197|346:187,1,134.999995880127,0|0,1:0|1:0,0:0:0:0:
464,186,78752,5,2,1:2:0:0:
464,186,78849,1,6,0:3:0:0:
464,186,78946,1,2,0:0:0:0:
392,263,79139,6,0,B|327:280|327:280|271:228,1,134.999995880127,0|0,1:0|1:0,0:0:0:0:
107,263,79720,2,0,B|172:246|172:246|228:298,1,134.999995880127,0|0,1:0|1:0,0:0:0:0:
308,145,80301,2,0,B|243:162|243:162|187:110,1,134.999995880127,0|0,1:0|1:0,0:0:0:0:
23,145,80882,2,0,B|88:128|88:128|144:180,1,134.999995880127,0|0,1:0|1:0,0:0:0:0:
236,67,81462,5,2,1:2:0:0:
255,153,81656,1,2,1:2:0:0:
276,239,81849,1,2,1:2:0:0:
276,239,82043,6,0,B|297:172|350:157|350:157|325:176,1,134.999995880127,8|0,0:1|1:0,0:0:0:0:
207,293,82623,2,0,B|169:233|114:232|114:232|143:244,1,134.999995880127,0|0,1:0|1:0,0:0:0:0:
351,277,83204,2,0,B|388:217|443:216|443:216|414:228,1,134.999995880127,0|0,1:0|1:0,0:0:0:0:
174,369,83785,2,0,B|122:321|68:334|68:334|100:338,1,134.999995880127,0|0,1:0|1:0,0:0:0:0:
405,338,84365,2,0,B|456:290|510:303|510:303|478:307,1,134.999995880127,0|0,1:0|1:0,0:0:0:0:
292,379,84946,5,2,1:2:0:0:
292,379,85043,1,6,0:3:0:0:
292,379,85139,1,2,0:0:0:0:
256,273,85333,6,0,B|242:205|288:217|270:133,1,134.999995880127,4|0,0:3|1:0,0:0:0:0:
489,154,85914,2,0,B|421:168|433:122|349:140,1,134.999995880127,4|0,0:3|1:0,0:0:0:0:
287,10,86494,2,0,B|301:78|255:66|273:150,1,134.999995880127,2|6,0:0|0:3,0:0:0:0:
54,129,87075,2,0,B|122:115|110:161|194:143,1,134.999995880127,6|6,0:3|0:3,0:0:0:0:
352,137,87656,5,2,1:2:0:0:
277,100,87849,1,4,0:3:0:0:
210,148,88043,1,4,0:3:0:0:
285,187,88236,6,0,B|320:173|320:173|334:231|288:274,1,134.999995880127,4|8,1:0|1:0,0:0:0:0:
163,286,88817,1,0,1:0:0:0:
310,342,89107,2,0,B|304:379|304:379|247:362|233:301,1,134.999995880127,0|8,1:0|1:0,0:0:0:0:
285,187,89688,1,0,1:0:0:0:
163,286,89978,2,0,B|133:262|133:262|176:221|236:239,1,134.999995880127,0|8,1:0|1:0,0:0:0:0:
447,300,90559,2,0,B|477:324|477:324|434:365|374:347,2,134.999995880127,0|8|0,1:0|1:0|0:0,0:0:0:0:
310,170,91623,6,0,B|278:135|278:135|300:20,1,134.999995880127,0|8,1:0|1:0,0:0:0:0:
232,211,92204,2,0,B|200:246|200:246|222:361,1,134.999995880127,0|8,1:0|1:0,0:0:0:0:
159,131,92785,2,0,B|127:96|127:96|149:-19,1,134.999995880127,0|0,1:0|1:0,0:0:0:0:
62,229,93366,2,0,B|30:264|30:264|52:379,1,134.999995880127,0|8,1:0|1:0,0:0:0:0:
58,110,93946,5,0,1:0:0:0:
88,205,94139,1,0,1:0:0:0:
159,131,94333,1,0,1:0:0:0:
159,131,94623,6,0,L|269:122,1,89.9999972534181,0|4,1:0|0:3,0:0:0:0:
255,110,94914,2,0,L|297:211,1,89.9999972534181,8|0,1:0|0:0,0:0:0:0:
304,194,95204,2,0,L|220:265,1,89.9999972534181,0|4,1:0|0:3,0:0:0:0:
238,267,95494,2,0,L|143:209,1,89.9999972534181,8|4,1:0|0:3,0:0:0:0:
147,227,95785,2,0,L|172:119,1,89.9999972534181,0|0,1:0|0:0,0:0:0:0:
375,103,96236,6,0,P|400:133|478:129,1,119.999996337891,0|8,1:0|1:0,0:0:0:0:
291,90,96752,2,0,P|287:128|345:181,1,119.999996337891,0|8,1:0|1:0,0:0:0:0:
240,21,97268,1,0,1:0:0:0:
440,56,97526,1,4,1:0:0:0:
480,347,99268,6,0,B|441:368|441:368|385:350,1,89.9999972534181,0|0,1:0|0:0,0:0:0:0:
396,340,99559,2,0,B|357:319|357:319|301:337,1,89.9999972534181,0|0,1:0|0:0,0:0:0:0:
305,349,99849,2,0,B|266:370|266:370|210:352,1,89.9999972534181,0|0,1:0|0:0,0:0:0:0:
213,335,100140,2,0,B|174:314|174:314|118:332,1,89.9999972534181,0|0,1:0|0:0,0:0:0:0:
122,343,100430,1,0,1:0:0:0:
1,289,100623,5,4,1:0:0:0:
418,320,106817,5,4,3:0:0:0:
337,244,107107,1,4,3:0:0:0:
256,320,107397,1,4,3:0:0:0:
175,244,107688,1,4,3:0:0:0:
94,320,107978,1,4,3:0:0:0:
61,132,108365,5,4,3:0:0:0:
158,41,108655,1,4,3:0:0:0:
256,132,108945,1,4,3:0:0:0:
353,41,109236,1,4,3:0:0:0:
450,132,109526,1,4,3:0:0:0:
432,251,109914,6,0,L|502:243,2,37.5,4|0|4,3:0|3:0|3:0,0:0:0:0:
442,331,110301,2,0,L|450:401,2,37.5,4|0|4,3:0|3:0|3:0,0:0:0:0:
362,341,110688,2,0,L|292:349,2,37.5,4|0|4,3:0|3:0|3:0,0:0:0:0:
352,261,111075,2,0,L|344:191,2,37.5,4|0|4,3:0|3:0|3:0,0:0:0:0:
432,251,111462,6,0,P|474:180|356:24,1,300,4|2,3:0|0:0,0:0:0:0:
342,54,113010,6,0,P|315:96|274:99,1,89.9999972534181,0|2,1:2|0:0,0:0:0:0:
149,61,113397,2,0,B|120:30|120:30|24:51,1,134.999995880127,8|0,1:0|0:0,0:0:0:0:
34,34,113785,2,0,B|85:23|85:23|64:94,1,89.9999972534181,2|2,1:2|0:0,0:0:0:0:
38,190,114172,2,0,P|70:181|128:228,1,89.9999972534181,8|0,1:0|0:0,0:0:0:0:
71,352,114559,5,2,1:2:0:0:
71,352,114656,1,0,0:0:0:0:
71,352,114752,2,0,L|63:261,2,89.9999972534181,2|8|0,0:0|1:0|0:0,0:0:0:0:
38,190,115333,2,0,P|58:233|149:242,1,134.999995880127,0|2,1:0|0:0,0:0:0:0:
147,258,115720,2,0,B|196:245|196:245|232:266,1,89.9999972534181,8|2,1:0|0:0,0:0:0:0:
112,174,116107,6,0,P|114:130|147:101,1,89.9999972534181,0|2,1:0|0:0,0:0:0:0:
261,173,116494,2,0,B|272:257|272:257|233:288,1,134.999995880127,8|0,1:0|0:0,0:0:0:0:
195,367,116881,5,2,1:2:0:0:
195,367,116978,1,2,0:0:0:0:
195,367,117075,1,2,0:0:0:0:
195,367,117172,1,0,0:0:0:0:
195,367,117268,2,0,L|249:376,3,44.999998626709,8|0|2|0,1:0|0:0|0:0|0:0,0:0:0:0:
320,341,117656,6,0,P|342:361|348:375,2,44.999998626709,0|2|2,1:0|0:0|0:0,0:0:0:0:
323,216,118043,2,0,B|415:245|415:245|445:217,1,134.999995880127,8|2,1:0|0:0,0:0:0:0:
447,204,118430,2,0,L|436:114,1,89.9999972534181,0|4,1:0|3:0,0:0:0:0:
338,22,118817,1,4,3:0:0:0:
320,34,118914,1,4,3:0:0:0:
298,34,119010,1,0,1:0:0:0:
277,25,119107,1,4,3:0:0:0:
264,6,119204,6,0,B|195:-10|183:43|173:82|97:72,1,179.999994506836,4|0,1:0|0:0,0:0:0:0:
252,85,119785,2,0,B|487:55|487:55|464:94|464:94|371:105,1,359.999989013672,4|0,1:0|0:0,0:0:0:0:
201,151,120752,5,0,0:0:0:0:
201,151,120849,1,0,0:0:0:0:
201,151,120946,2,0,L|190:252,1,89.9999972534181,4|0,1:0|0:0,0:0:0:0:
23,363,121333,2,0,B|0:275|122:209|191:292|191:292|229:280|229:280|270:324|328:295,1,359.999989013672,4|0,1:0|0:0,0:0:0:0:
116,348,122301,5,4,1:0:0:0:
256,192,122494,12,0,125397,1:0:0:0:
