osu file format v14

[General]
AudioFilename: audio.mp3
AudioLeadIn: 0
PreviewTime: 77040
Countdown: 0
SampleSet: Soft
StackLeniency: 0.7
Mode: 0
LetterboxInBreaks: 0
EpilepsyWarning: 1
WidescreenStoryboard: 1

[Editor]
DistanceSpacing: 1.2
BeatDivisor: 2
GridSize: 4
TimelineZoom: 1.3

[Metadata]
Title:L.F.O
TitleUnicode:L.F.O
Artist:aran
ArtistUnicode:aran
Creator:Pipuuko
Version:Runigh's Normal
Source:beatmania IIDX 26 Rootage
Tags:uk hardcore ln konami bemani low frequency oscillator video game electronic instrumental Feiri Runigh Orange_ Orange lfo rhythm megafan
BeatmapID:2905275
BeatmapSetID:1377112

[Difficulty]
HPDrainRate:3
CircleSize:3
OverallDifficulty:3
ApproachRate:6
SliderMultiplier:1.1
SliderTickRate:1

[Events]
//Background and Video events
0,0,"bg.jpg",0,0
Video,0,"video.mp4" S,0,0,,1
//Break Periods
//Storyboard Layer 0 (Background)
//Storyboard Layer 1 (Fail)
//Storyboard Layer 2 (Pass)
//Storyboard Layer 3 (Foreground)
//Storyboard Layer 4 (Overlay)
//Storyboard Sound Samples

[TimingPoints]
1374,333.333333333333,4,2,1,5,1,0
1533,-100,4,2,1,5,0,0
1540,-100,4,2,1,10,0,0
1707,-100,4,2,1,15,0,0
1873,-100,4,2,1,20,0,0
2040,-100,4,2,1,30,0,0
2207,-100,4,2,1,45,0,0
2373,-100,4,2,1,60,0,0
2707,-111.111111111111,4,2,1,60,0,0
3040,-111.111111111111,4,2,1,60,0,0
4040,-111.111111111111,4,2,1,60,0,0
4373,-111.111111111111,4,2,1,60,0,0
5040,-111.111111111111,4,2,1,60,0,0
5707,-111.111111111111,4,2,1,60,0,0
6707,-111.111111111111,4,2,1,60,0,0
8373,-111.111111111111,4,2,1,60,0,0
9373,-111.111111111111,4,2,1,60,0,0
9706,-111.111111111111,4,2,1,60,0,0
10373,-111.111111111111,4,2,1,60,0,0
11706,-111.111111111111,4,2,1,60,0,0
11873,-111.111111111111,4,2,1,60,0,0
13373,-111.111111111111,4,2,1,70,0,0
22707,-111.111111111111,4,3,2,70,0,0
23040,-111.111111111111,4,2,1,70,0,0
23707,-111.111111111111,4,2,2,70,0,0
24040,-111.111111111111,4,2,1,70,0,0
33373,-111.111111111111,4,2,1,70,0,0
33457,-111.111111111111,4,2,1,70,0,0
34707,-111.111111111111,4,2,1,70,0,0
35540,-111.111111111111,4,2,1,70,0,0
36040,-111.111111111111,4,2,1,70,0,0
36873,-111.111111111111,4,2,1,70,0,0
45373,-111.111111111111,4,2,1,60,0,0
45707,-111.111111111111,4,2,1,60,0,0
46207,-111.111111111111,4,2,1,60,0,0
52040,-111.111111111111,4,2,1,55,0,0
53707,-111.111111111111,4,2,1,50,0,0
55373,-111.111111111111,4,2,1,50,0,0
56040,-111.111111111111,4,2,1,55,0,0
61373,-111.111111111111,4,2,1,60,0,0
66707,-111.111111111111,4,2,1,70,0,0
76040,-111.111111111111,4,3,2,70,0,0
77040,-100,4,2,1,70,0,0
77373,-100,4,2,1,80,0,0
77540,-100,4,2,1,80,0,0
81582,-100,4,2,1,80,0,0
81707,-100,4,2,1,80,0,0
82707,-100,4,2,1,80,0,0
82873,-100,4,2,1,80,0,0
85915,-100,4,2,1,80,0,0
86040,-100,4,2,1,80,0,0
86748,-100,4,2,1,80,0,0
86873,-100,4,2,1,80,0,0
88373,-100,4,2,1,80,0,0
88540,-100,4,2,1,80,0,0
91248,-100,4,2,1,80,0,0
91373,-100,4,2,1,80,0,0
92248,-100,4,2,1,80,0,0
92373,-100,4,2,1,80,0,0
93373,-100,4,2,1,80,0,0
93540,-100,4,2,1,80,0,0
94707,-100,4,2,1,80,0,0
94873,-100,4,2,1,80,0,0
96040,-100,4,2,1,80,0,0
96207,-100,4,2,1,80,0,0
96707,-100,4,2,1,80,0,0
96873,-100,4,2,1,80,0,0
97373,-100,4,2,1,80,0,0
97540,-100,4,2,1,80,0,0
97707,-100,4,2,1,70,0,0
98707,-111.111111111111,4,2,1,70,0,0
109373,-100,4,2,1,80,0,0
118707,-100,4,2,1,70,0,0
122707,-100,4,2,1,70,0,0

[Colours]
Combo1 : 128,64,64
Combo2 : 128,128,128
Combo3 : 0,64,128

[HitObjects]
58,22,2707,6,0,L|182:33,1,98.9999969787599,4|0,3:2|0:0,0:0:0:0:
217,108,3373,2,0,L|93:119,1,98.9999969787599
20,130,4040,1,2,0:3:0:0:
73,213,4373,6,0,L|197:224,1,98.9999969787599
270,233,5040,1,2,0:3:0:0:
270,233,5373,1,2,0:3:0:0:
209,311,5707,6,0,L|85:322,1,98.9999969787599
16,335,6373,1,0,0:0:0:0:
16,335,6707,1,2,0:3:0:0:
73,213,7207,6,0,L|132:218,1,49.4999984893799,8|2,0:1|0:3,0:0:0:0:
225,228,7707,1,2,0:3:0:0:
225,228,8040,1,2,0:3:0:0:
323,232,8373,5,0,0:0:0:0:
422,237,8707,2,0,B|443:117,1,98.9999969787599
509,69,9373,2,0,P|465:43|399:50,1,98.9999969787599,2|0,0:3|0:0,0:0:0:0:
345,110,10040,1,0,0:0:0:0:
264,168,10373,1,8,0:1:0:0:
244,70,10707,1,2,0:3:0:0:
130,164,11207,53,8,0:1:0:0:
130,164,11373,2,0,L|138:268,1,98.9999969787599,2|0,0:3|0:0,0:0:0:0:
151,315,11873,1,8,0:1:0:0:
151,315,12039,2,0,L|255:306,1,98.9999969787599,2|2,0:3|0:1,0:0:0:0:
283,213,12707,2,0,L|387:221,1,98.9999969787599,2|2,0:1|0:1,0:0:0:0:
461,279,13373,6,0,P|475:233|471:180,1,98.9999969787599,6|8,3:2|0:0,0:0:0:0:
385,134,14040,2,0,P|381:84|396:38,1,98.9999969787599,8|8,0:0|0:0,0:0:0:0:
488,0,14707,2,0,P|491:49|476:95,1,98.9999969787599,10|8,0:2|0:0,0:0:0:0:
385,134,15373,1,10,0:0:0:0:
292,170,15707,1,10,0:0:0:0:
200,208,16040,6,0,B|81:211,1,98.9999969787599,14|8,0:0|0:0,0:0:0:0:
40,288,16707,2,0,B|159:291,1,98.9999969787599,10|8,0:0|0:0,0:0:0:0:
194,372,17373,2,0,B|75:375,1,98.9999969787599,8|10,0:0|0:0,0:0:0:0:
40,288,18040,1,8,0:0:0:0:
0,197,18373,1,10,0:0:0:0:
98,204,18707,6,0,B|201:207,1,98.9999969787599,10|8,0:0|0:0,0:0:0:0:
244,293,19373,2,0,B|347:290,1,98.9999969787599,8|8,0:0|0:0,0:0:0:0:
430,336,20040,2,0,P|437:285|424:233,1,98.9999969787599,10|8,0:0|0:0,0:0:0:0:
339,192,20707,1,10,0:0:0:0:
342,290,21040,1,10,0:0:0:0:
256,192,21373,12,4,22707,0:0:0:0:
400,95,24040,6,0,L|280:102,1,98.9999969787599,4|8,3:2|3:2,0:0:0:0:
243,19,24707,2,0,L|123:12,1,98.9999969787599,0|8,3:0|3:2,0:0:0:0:
98,17,25207,1,2,0:0:0:0:
98,17,25373,2,0,P|91:68|103:129,1,98.9999969787599,0|8,3:0|3:2,0:0:0:0:
151,198,26040,6,0,L|271:191,1,98.9999969787599,0|8,3:0|3:2,0:0:0:0:
302,188,26540,1,2,0:0:0:0:
302,188,26706,2,0,P|309:239|297:300,1,98.9999969787599,0|8,3:0|3:2,0:0:0:0:
259,375,27373,6,0,L|139:368,1,98.9999969787599,0|8,3:0|3:2,0:0:0:0:
114,367,27874,1,2,0:0:0:0:
114,367,28040,2,0,P|107:316|119:255,1,98.9999969787599,0|8,3:0|3:2,0:0:0:0:
179,196,28707,1,0,3:0:0:0:
179,196,28873,1,2,0:0:0:0:
179,196,29040,1,8,3:2:0:0:
276,181,29373,5,4,3:2:0:0:
374,169,29707,1,8,3:2:0:0:
471,155,30040,2,0,L|482:32,1,98.9999969787599,0|8,3:0|3:2,0:0:0:0:
456,18,30540,1,2,0:0:0:0:
456,18,30707,2,0,L|333:7,1,98.9999969787599,0|8,3:0|3:2,0:0:0:0:
284,82,31373,6,0,L|273:205,1,98.9999969787599,0|8,3:0|3:2,0:0:0:0:
271,233,31873,1,2,0:0:0:0:
271,233,32040,2,0,L|148:222,1,98.9999969787599,0|8,3:0|3:2,0:0:0:0:
89,169,32707,2,0,L|100:46,1,98.9999969787599,0|8,3:0|3:2,0:0:0:0:
185,25,33373,5,0,3:0:0:0:
177,123,33707,1,2,0:1:0:0:
168,223,34040,1,2,0:1:0:0:
161,321,34373,1,2,0:1:0:0:
252,282,34707,6,0,L|353:291,1,98.9999969787599,4|8,3:2|3:2,0:0:0:0:
434,343,35373,2,0,P|447:298|432:234,1,98.9999969787599,0|8,3:0|3:2,0:0:0:0:
353,189,36040,2,0,P|340:144|355:80,1,98.9999969787599,0|8,3:0|3:2,0:0:0:0:
425,31,36707,2,0,P|438:76|423:140,1,98.9999969787599,0|8,3:0|3:2,0:0:0:0:
353,189,37373,2,0,L|251:197,1,98.9999969787599,0|8,3:0|3:2,0:0:0:0:
186,269,38040,2,0,L|84:261,1,98.9999969787599,0|8,3:0|3:2,0:0:0:0:
29,180,38707,5,0,3:0:0:0:
127,186,39040,1,8,3:2:0:0:
194,273,39373,1,0,3:0:0:0:
194,273,39540,1,2,1:2:0:0:
194,273,39706,1,0,0:0:0:0:
259,347,40040,5,4,3:2:0:0:
357,357,40373,2,0,B|476:360,1,98.9999969787599,2|0,3:1|3:2,0:0:0:0:
501,271,41040,2,0,B|382:274,1,98.9999969787599,2|0,3:1|3:2,0:0:0:0:
363,182,41707,2,0,B|482:185,1,98.9999969787599,2|0,3:1|3:2,0:0:0:0:
501,271,42373,1,2,0:1:0:0:
256,192,42707,12,0,44040,3:2:0:0:
255,179,44873,5,2,0:0:0:0:
255,179,45040,1,0,0:0:0:0:
153,117,45373,5,4,3:2:0:0:
58,46,45707,2,0,L|58:137,1,74.2499977340699,4|4,0:3|0:3,0:0:0:0:
58,201,46207,2,0,L|58:305,1,98.9999969787599,4|4,0:3|0:3,0:0:0:0:
57,349,46707,1,4,0:3:0:0:
149,380,47040,6,0,L|149:285,1,74.2499977340699,4|4,0:3|0:3,0:0:0:0:
150,224,47540,2,0,L|150:126,1,98.9999969787599,4|4,0:3|0:3,0:0:0:0:
151,75,48040,1,4,0:3:0:0:
243,39,48373,6,0,L|243:113,1,74.2499977340699,4|4,0:3|0:3,0:0:0:0:
243,194,48873,2,0,L|243:293,1,98.9999969787599,4|4,0:3|0:3,0:0:0:0:
243,342,49373,1,8,0:3:0:0:
337,371,49707,6,0,L|337:296,1,74.2499977340699,8|8,0:3|0:3,0:0:0:0:
336,215,50207,2,0,L|336:116,1,98.9999969787599,8|8,0:3|0:3,0:0:0:0:
336,66,50707,1,4,0:3:0:0:
427,29,51040,6,0,L|427:103,1,74.2499977340699,4|4,0:3|0:3,0:0:0:0:
427,184,51540,2,0,L|427:283,1,98.9999969787599,4|4,0:3|0:3,0:0:0:0:
426,332,52040,1,4,0:3:0:0:
337,371,52373,6,0,L|262:371,1,74.2499977340699,4|4,0:3|0:3,0:0:0:0:
181,371,52873,2,0,L|82:371,1,98.9999969787599,4|4,0:3|0:3,0:0:0:0:
32,371,53373,1,4,0:3:0:0:
90,290,53707,6,0,L|164:290,1,74.2499977340699,4|4,0:3|0:3,0:0:0:0:
245,290,54207,2,0,L|343:290,1,98.9999969787599,4|4,0:3|0:3,0:0:0:0:
393,288,54707,5,8,0:3:0:0:
508,127,55373,1,0,0:0:0:0:
357,6,56040,5,4,3:2:0:0:
367,104,56373,1,4,0:3:0:0:
274,61,56707,6,0,L|178:61,1,74.2499977340699,4|4,0:3|0:3,0:0:0:0:
129,61,57207,1,4,0:3:0:0:
129,61,57373,2,0,L|24:61,1,98.9999969787599,8|8,0:3|0:3,0:0:0:0:
30,160,58040,2,0,L|30:256,1,74.2499977340699,8|8,0:3|0:3,0:0:0:0:
57,311,58540,2,0,L|116:311,1,49.4999984893799,8|4,0:3|0:3,0:0:0:0:
156,310,58873,2,0,L|215:310,1,49.4999984893799,4|4,0:3|0:3,0:0:0:0:
297,346,59373,6,0,L|297:271,1,74.2499977340699,4|4,0:3|0:3,0:0:0:0:
298,194,59873,1,4,0:3:0:0:
298,194,60040,2,0,L|298:95,1,98.9999969787599,8|8,0:3|0:3,0:0:0:0:
401,97,60707,1,8,0:3:0:0:
401,97,60873,2,0,L|401:200,1,98.9999969787599,8|8,0:3|0:3,0:0:0:0:
403,245,61373,2,0,B|403:357,1,98.9999969787599,4|4,3:2|0:3,0:0:0:0:
500,328,62040,6,0,L|500:251,1,74.2499977340699,4|4,0:3|0:3,0:0:0:0:
502,176,62540,1,4,0:3:0:0:
502,176,62707,2,0,L|502:74,1,98.9999969787599,8|8,0:3|0:3,0:0:0:0:
389,90,63373,6,0,L|389:164,1,74.2499977340699,8|8,0:3|0:3,0:0:0:0:
389,249,63873,1,8,0:3:0:0:
389,249,64040,2,0,B|389:351,1,98.9999969787599,4|4,0:3|0:3,0:0:0:0:
290,338,64707,6,0,L|290:264,1,74.2499977340699,4|4,0:3|0:3,0:0:0:0:
291,186,65207,1,4,0:3:0:0:
291,186,65373,2,0,B|291:87,1,98.9999969787599,2|0,0:1|0:0,0:0:0:0:
191,87,66040,2,0,B|191:186,1,98.9999969787599,2|0,0:1|0:0,0:0:0:0:
191,285,66707,6,0,L|191:341,2,49.4999984893799,2|8|8,3:1|0:1|0:0,0:0:0:0:
105,235,67373,2,0,P|90:192|105:121,1,98.9999969787599,8|8,0:0|0:0,0:0:0:0:
184,95,68040,2,0,P|199:52|184:-19,1,98.9999969787599,8|8,0:0|0:0,0:0:0:0:
102,41,68707,1,8,0:0:0:0:
184,95,69040,6,0,L|290:108,1,98.9999969787599,8|8,0:0|0:0,0:0:0:0:
314,200,69707,2,0,L|420:187,1,98.9999969787599,8|8,0:0|0:0,0:0:0:0:
490,126,70373,2,0,P|508:171|505:220,1,98.9999969787599,8|8,0:0|0:0,0:0:0:0:
431,286,71040,2,0,P|428:335|446:380,1,98.9999969787599,8|8,0:0|0:0,0:0:0:0:
256,192,72040,12,4,76040,3:0:0:0:
41,298,77040,5,0,1:0:0:0:
41,298,77373,2,0,L|39:236,1,55,6|0,3:2|0:0,0:0:0:0:
72,198,77707,2,0,L|70:75,1,110,8|0,3:2|3:0,0:0:0:0:
152,14,78373,1,8,3:2:0:0:
236,85,78707,2,0,L|234:147,1,55,2|0,3:2|0:0,0:0:0:0:
267,185,79041,2,0,L|265:308,1,110,8|2,3:2|3:2,0:0:0:0:
266,353,79540,1,2,0:0:0:0:
266,353,79707,1,10,3:2:0:0:
375,344,80040,54,0,L|380:228,1,110,2|8,3:2|3:2,0:0:0:0:
446,143,80707,2,0,P|395:124|341:132,1,110,2|8,3:2|3:2,0:0:0:0:
252,196,81373,2,0,P|201:215|147:207,1,110,0|10,3:0|3:2,0:0:0:0:
63,134,82040,1,0,3:0:0:0:
105,37,82373,5,10,3:2:0:0:
105,37,82540,1,2,1:2:0:0:
105,37,82707,2,0,L|164:38,1,55,6|0,3:2|0:0,0:0:0:0:
199,3,83040,2,0,L|328:4,1,110,8|0,3:2|3:0,0:0:0:0:
393,71,83707,1,8,3:2:0:0:
351,172,84040,2,0,L|292:172,1,55,2|0,3:2|0:0,0:0:0:0:
259,214,84373,2,0,L|129:217,1,110,8|2,3:2|3:2,0:0:0:0:
97,226,84873,1,2,0:0:0:0:
97,226,85040,1,10,3:2:0:0:
2,282,85373,54,0,P|-13:228|3:168,1,110,2|8,3:2|3:2,0:0:0:0:
95,124,86040,2,0,P|107:70|91:18,1,110,2|8,3:2|3:2,0:0:0:0:
0,74,86707,1,2,3:2:0:0:
95,124,87040,6,0,B|220:135,2,110,10|0|8,3:2|3:1|3:2,0:0:0:0:
216,245,88207,5,0,3:0:0:0:
216,245,88373,2,0,L|277:251,1,55,10|0,3:2|0:0,0:0:0:0:
319,220,88707,2,0,L|441:230,1,110,0|8,3:0|3:2,0:0:0:0:
508,154,89373,1,2,3:2:0:0:
441,67,89707,2,0,L|379:60,1,55,8|2,3:2|0:0,0:0:0:0:
346,23,90041,2,0,L|224:8,1,110,2|10,3:2|3:2,0:0:0:0:
187,5,90540,5,2,0:0:0:0:
187,5,90707,2,0,P|167:58|182:117,1,110,2|8,3:2|3:2,0:0:0:0:
243,196,91373,2,0,P|253:249|233:299,1,110,2|8,3:2|3:2,0:0:0:0:
131,341,92040,2,0,P|120:287|140:237,1,110,0|10,3:0|3:2,0:0:0:0:
243,196,92707,2,0,L|379:189,1,110,0|10,3:0|3:2,0:0:0:0:
411,186,93207,5,2,1:2:0:0:
411,186,93373,2,0,P|421:132|401:82,1,110,6|8,3:2|3:2,0:0:0:0:
313,15,94040,2,0,L|177:22,1,110,0|8,3:0|3:2,0:0:0:0:
152,22,94540,5,2,3:2:0:0:
152,22,94706,2,0,P|141:75|161:125,1,110,6|8,3:2|3:2,0:0:0:0:
243,196,95373,2,0,L|235:270,1,55,2|2,3:2|3:2,0:0:0:0:
188,277,95707,2,0,L|196:351,1,55,2|2,3:2|3:2,0:0:0:0:
256,192,96040,12,2,98040,0:1:0:0:
58,31,98707,38,0,L|79:151,1,98.9999969787599,4|8,3:2|0:1,0:0:0:0:
173,133,99373,2,0,L|194:13,1,98.9999969787599,8|0,0:1|0:0,0:0:0:0:
289,34,100040,21,8,0:1:0:0:
274,131,100373,1,10,0:1:0:0:
258,229,100707,1,10,0:1:0:0:
241,326,101040,1,2,0:1:0:0:
335,296,101373,6,0,L|446:292,1,98.9999969787599,8|8,0:1|0:1,0:0:0:0:
450,197,102040,2,0,L|339:193,1,98.9999969787599,8|0,0:1|0:0,0:0:0:0:
258,229,102707,21,8,0:1:0:0:
274,131,103040,1,10,0:1:0:0:
289,34,103373,1,10,0:1:0:0:
363,98,103707,1,2,0:1:0:0:
351,193,104040,6,0,L|339:303,1,98.9999969787599,8|8,3:1|3:1,0:0:0:0:
273,364,104707,2,0,L|187:370,1,74.2499977340699,8|8,3:1|3:1,0:0:0:0:
75,376,105373,53,8,3:1:0:0:
6,304,105707,1,10,3:1:0:0:
72,231,106040,1,10,3:1:0:0:
140,302,106373,1,2,0:1:0:0:
256,192,106707,12,8,108040,3:1:0:0:
503,11,109373,5,8,0:0:0:0:
503,11,109707,2,0,L|402:20,1,55,14|0,3:2|0:0,0:0:0:0:
416,60,110040,2,0,L|288:70,1,110,0|8,3:0|3:2,0:0:0:0:
272,173,110707,1,2,3:2:0:0:
385,163,111040,1,8,3:2:0:0:
494,151,111373,1,0,3:0:0:0:
447,250,111707,1,8,3:2:0:0:
339,270,112040,6,0,L|260:277,1,55,2|0,3:2|0:0,0:0:0:0:
249,318,112373,2,0,L|125:329,1,110,8|2,3:2|3:2,0:0:0:0:
136,218,113040,2,0,L|259:206,1,110,8|2,3:2|3:2,0:0:0:0:
339,270,113707,1,2,3:2:0:0:
423,340,114040,1,0,3:0:0:0:
508,271,114373,1,10,3:2:0:0:
430,192,114707,6,0,L|438:62,1,110,2|2,3:2|3:1,0:0:0:0:
346,19,115373,2,0,L|354:149,1,110,0|2,3:0|0:1,0:0:0:0:
263,193,116040,2,0,L|271:63,1,110,0|2,3:0|3:1,0:0:0:0:
176,24,116707,2,0,L|184:154,1,110,0|2,3:0|3:1,0:0:0:0:
256,192,117373,12,4,120040,3:2:0:0:
