osu file format v14

[General]
AudioFilename: audio.mp3
AudioLeadIn: 0
PreviewTime: 77040
Countdown: 0
SampleSet: None
StackLeniency: 0.7
Mode: 0
LetterboxInBreaks: 0
EpilepsyWarning: 1
WidescreenStoryboard: 1

[Editor]
Bookmarks: 16199,16866,17533,22533,33533,45373,56040,66533,74366,98707,104040,109373,120040
DistanceSpacing: 1.2
BeatDivisor: 4
GridSize: 32
TimelineZoom: 5.699996

[Metadata]
Title:L.F.O
TitleUnicode:L.F.O
Artist:aran
ArtistUnicode:aran
Creator:Pipuuko
Version:Orange's Extra
Source:beatmania IIDX 26 Rootage
Tags:uk hardcore ln konami bemani low frequency oscillator video game electronic instrumental Feiri Runigh Orange_ Orange lfo rhythm megafan
BeatmapID:3206318
BeatmapSetID:1377112

[Difficulty]
HPDrainRate:4.5
CircleSize:4
OverallDifficulty:8
ApproachRate:9.1
SliderMultiplier:1.6
SliderTickRate:1

[Events]
//Background and Video events
0,0,"bg.jpg",0,0
Video,0,"video.mp4" S,0,0,,1
//Break Periods
2,48240,55456
//Storyboard Layer 0 (Background)
//Storyboard Layer 1 (Fail)
//Storyboard Layer 2 (Pass)
//Storyboard Layer 3 (Foreground)
//Storyboard Layer 4 (Overlay)
//Storyboard Sound Samples

[TimingPoints]
1374,333.333333333333,4,2,1,5,1,0
1533,-100,4,2,1,5,0,0
1540,-100,4,2,1,10,0,0
1707,-100,4,2,1,15,0,0
1866,-100,4,2,1,15,0,0
1873,-100,4,2,1,20,0,0
2040,-100,4,2,1,30,0,0
2199,-100,4,2,1,30,0,0
2207,-100,4,2,1,45,0,0
2373,-100,4,2,1,60,0,0
2707,-153.846153846153,4,2,1,60,0,0
3873,-153.846153846153,4,2,1,60,0,0
4207,-153.846153846153,4,2,1,60,0,0
5040,-153.846153846153,4,2,1,60,0,0
5540,-153.846153846153,4,2,1,60,0,0
6540,-153.846153846153,4,2,1,60,0,0
6873,-153.846153846153,4,2,1,60,0,0
7207,-153.846153846153,4,2,1,60,0,0
8123,-153.846153846153,4,2,1,60,0,0
9207,-153.846153846153,4,2,1,60,0,0
9457,-153.846153846153,4,2,1,60,0,0
10373,-153.846153846153,4,2,1,60,0,0
10790,-153.846153846153,4,2,1,60,0,0
11207,-153.846153846153,4,2,1,60,0,0
11457,-153.846153846153,4,2,1,60,0,0
11873,-153.846153846153,4,2,1,60,0,0
12040,-153.846153846153,4,2,1,60,0,0
12082,-153.846153846153,4,2,1,60,0,0
12373,-117.647058823529,4,2,1,60,0,0
12540,-117.647058823529,4,2,1,60,0,0
12707,-117.647058823529,4,2,1,60,0,0
12873,-117.647058823529,4,2,1,60,0,0
13040,-100,4,2,1,60,0,0
13373,-117.647058823529,4,2,1,70,0,0
21373,-117.647058823529,4,2,1,70,0,0
22707,-117.647058823529,4,3,2,70,0,0
23040,-66.6666666666667,4,2,1,70,0,0
23707,-66.6666666666667,4,2,2,70,0,0
24040,-76.9230769230769,4,2,1,70,0,0
33373,-76.9230769230769,4,2,1,70,0,0
33457,-76.9230769230769,4,2,1,70,0,0
33533,-76.9230769230769,4,2,1,70,0,0
33707,-66.6666666666667,4,2,1,70,0,0
34707,-66.6666666666667,4,2,1,70,0,0
35540,-66.6666666666667,4,2,1,70,0,0
36040,-66.6666666666667,4,2,1,70,0,0
36873,-66.6666666666667,4,2,1,70,0,0
39040,-66.6666666666667,4,2,1,70,0,0
40040,-66.6666666666667,4,2,1,70,0,0
40373,-66.6666666666667,4,2,1,70,0,0
40707,-66.6666666666667,4,2,1,70,0,0
41040,-66.6666666666667,4,2,1,70,0,0
41373,-66.6666666666667,4,2,1,70,0,0
41707,-66.6666666666667,4,2,1,70,0,0
42040,-66.6666666666667,4,2,1,70,0,0
42373,-66.6666666666667,4,2,1,70,0,0
42707,-66.6666666666667,4,2,1,70,0,0
45041,-66.6666666666667,4,2,1,70,0,0
45373,-66.6666666666667,4,2,1,60,0,0
45457,-66.6666666666667,4,2,1,60,0,0
46707,-66.6666666666667,4,2,1,60,0,0
52040,-66.6666666666667,4,2,1,55,0,0
53707,-66.6666666666667,4,2,1,50,0,0
56040,-111.111111111111,4,2,1,55,0,0
56123,-111.111111111111,4,2,1,55,0,0
61373,-111.111111111111,4,2,1,60,0,0
66040,-66.6666666666667,4,2,1,60,0,0
66283,-66.6666666666667,4,2,1,60,0,0
66449,-66.6666666666667,4,2,1,60,0,0
66707,-83.3333333333333,4,2,1,70,0,0
72040,-166.666666666667,4,2,1,70,0,0
72707,-125,4,2,1,70,0,0
73373,-100,4,2,1,70,0,0
74373,-83.3333333333333,4,2,1,70,0,0
74707,-66.6666666666667,4,2,1,70,0,0
76040,-66.6666666666667,4,3,2,70,0,0
76207,-66.6666666666667,4,3,2,70,0,0
76290,-66.6666666666667,4,3,2,70,0,0
76373,-66.6666666666667,4,3,2,70,0,0
76457,-66.6666666666667,4,3,2,70,0,0
76540,-66.6666666666667,4,3,2,70,0,0
76623,-66.6666666666667,4,3,2,70,0,0
76707,-66.6666666666667,4,3,2,70,0,0
77040,-66.6666666666667,4,2,1,70,0,0
77373,-66.6666666666667,4,2,1,80,0,1
77540,-66.6666666666667,4,2,1,80,0,1
81582,-66.6666666666667,4,2,1,80,0,1
81707,-66.6666666666667,4,2,1,80,0,1
82707,-66.6666666666667,4,2,1,80,0,1
82873,-66.6666666666667,4,2,1,80,0,1
85915,-66.6666666666667,4,2,1,80,0,1
86040,-66.6666666666667,4,2,1,80,0,1
86748,-66.6666666666667,4,2,1,80,0,1
86790,-66.6666666666667,4,2,1,5,0,1
86873,-66.6666666666667,4,2,1,80,0,1
88373,-66.6666666666667,4,2,1,80,0,1
88540,-66.6666666666667,4,2,1,80,0,1
91248,-66.6666666666667,4,2,1,80,0,1
91373,-66.6666666666667,4,2,1,80,0,1
92248,-66.6666666666667,4,2,1,80,0,1
92373,-66.6666666666667,4,2,1,80,0,1
93373,-66.6666666666667,4,2,1,80,0,1
93540,-66.6666666666667,4,2,1,80,0,1
94707,-66.6666666666667,4,2,1,80,0,1
94873,-66.6666666666667,4,2,1,80,0,1
96040,-90.9090909090909,4,2,1,80,0,1
96207,-90.9090909090909,4,2,1,80,0,1
96707,-90.9090909090909,4,2,1,80,0,1
96873,-90.9090909090909,4,2,1,80,0,1
97373,-90.9090909090909,4,2,1,80,0,1
97540,-90.9090909090909,4,2,1,80,0,1
97707,-90.9090909090909,4,2,1,70,0,1
98707,-100,4,2,1,70,0,0
104040,-142.857142857143,4,2,1,70,0,0
106707,-111.111111111111,4,2,1,70,0,0
109373,-71.4285714285714,4,2,1,80,0,1
118707,-71.4285714285714,4,2,1,70,0,0
119866,-71.4285714285714,4,2,1,70,0,0
120040,-71.4285714285714,4,2,1,70,0,0
120199,-71.4285714285714,4,2,1,70,0,0
120533,-71.4285714285714,4,2,1,70,0,0
120866,-71.4285714285714,4,2,1,70,0,0
121199,-71.4285714285714,4,2,1,70,0,0
121533,-71.4285714285714,4,2,1,70,0,0
121866,-71.4285714285714,4,2,1,70,0,0
122199,-71.4285714285714,4,2,1,70,0,0
122707,-71.4285714285714,4,2,1,5,0,0

[Colours]
Combo1 : 133,133,133
Combo2 : 0,0,210
Combo3 : 0,64,128
Combo4 : 128,64,64

[HitObjects]
256,192,1374,12,0,2540,0:0:0:0:
184,212,2707,6,0,B|146:204|138:138|138:138|135:187|81:191|59:258|87:318|135:332,1,311.999985717774,4|0,3:2|0:0,0:0:0:0:
299,243,3873,1,8,0:1:0:0:
299,243,3957,1,8,0:1:0:0:
299,243,4040,1,2,0:3:0:0:
214,115,5040,6,0,L|165:119,1,25.9999988098145,2|0,0:3|0:0,0:0:0:0:
113,123,5207,1,8,0:1:0:0:
113,123,5290,1,8,0:1:0:0:
113,123,5373,1,2,0:3:0:0:
194,328,6540,5,8,0:1:0:0:
194,328,6624,1,8,0:1:0:0:
194,328,6707,1,2,0:3:0:0:
289,205,7207,1,8,0:1:0:0:
289,205,7290,1,8,0:1:0:0:
289,205,7373,6,0,L|296:164,1,25.9999988098145,2|0,0:3|0:0,0:0:0:0:
215,112,7540,2,0,L|219:137,1,25.9999988098145,8|0,0:1|0:0,0:0:0:0:
308,188,7707,2,0,L|315:147,1,25.9999988098145,2|0,0:3|0:0,0:0:0:0:
190,96,7873,2,0,L|194:121,1,25.9999988098145,8|8,0:1|0:1,0:0:0:0:
158,221,8040,6,0,P|171:223|189:220,3,25.9999988098145,2|0|0|0,0:3|0:0|0:0|0:0,0:0:0:0:
70,275,8373,2,0,L|62:232,1,25.9999988098145
70,275,8540,2,0,L|62:232,1,25.9999988098145
126,334,8707,6,0,P|148:328|162:328,3,25.9999988098145
221,283,9040,2,0,L|221:325,1,25.9999988098145
279,370,9207,1,8,0:1:0:0:
279,370,9290,1,8,0:1:0:0:
279,370,9373,6,0,P|296:359|305:345,3,25.9999988098145,2|0|0|0,0:3|0:0|0:0|0:0,0:0:0:0:
353,293,9707,2,0,L|335:262,1,25.9999988098145
353,293,9873,2,0,L|335:262,1,25.9999988098145
280,215,10040,6,0,P|261:220|245:220,3,25.9999988098145
330,159,10373,1,8,0:1:0:0:
331,131,10457,1,8,0:1:0:0:
331,105,10540,1,8,0:1:0:0:
332,79,10623,1,8,0:1:0:0:
332,53,10707,6,0,L|332:17,3,25.9999988098145,2|0|0|0,0:3|0:0|0:0|0:0,0:0:0:0:
260,84,11040,2,0,P|239:80|226:80,1,25.9999988098145
168,138,11207,1,8,0:1:0:0:
168,138,11290,1,8,0:1:0:0:
168,138,11373,6,0,P|161:159|161:172,3,25.9999988098145,2|0|0|0,0:3|0:0|0:0|0:0,0:0:0:0:
201,232,11707,2,0,L|229:234,1,25.9999988098145
297,198,11873,1,8,0:1:0:0:
297,198,11957,1,8,0:1:0:0:
297,198,12040,6,0,P|316:192|330:192,3,25.9999988098145,2|0|8|0,0:3|0:0|0:1|0:0,0:0:0:0:
331,283,12373,6,0,L|331:313,1,17.0000003242493,2|8,0:1|0:1,0:0:0:0:
316,296,12457,6,0,L|316:326,1,17.0000003242493,8|8,0:1|0:1,0:0:0:0:
297,308,12540,6,0,L|297:338,1,17.0000003242493,8|8,0:1|0:1,0:0:0:0:
283,314,12623,6,0,L|283:344,1,17.0000003242493,8|8,0:1|0:1,0:0:0:0:
263,322,12707,6,0,L|257:338,6,17.0000003242493,2|8|8|8|8|8|8,0:1|0:1|0:1|0:1|0:1|0:1|0:1,0:0:0:0:
211,272,13040,6,0,P|156:255|94:289,1,120,2|0,0:1|0:0,0:0:0:0:
73,367,13373,6,0,P|104:371|141:353,1,68.0000012969971,6|0,3:2|0:0,0:0:0:0:
274,261,13707,2,0,P|243:257|206:275,1,68.0000012969971,8|0,0:0|0:0,0:0:0:0:
233,355,13957,1,0,0:0:0:0:
233,355,14040,6,0,L|301:351,1,68.0000012969971,8|0,0:0|0:0,0:0:0:0:
372,315,14290,1,0,0:0:0:0:
372,315,14373,2,0,P|381:273|373:239,1,68.0000012969971,8|2,0:0|0:0,0:0:0:0:
325,185,14623,1,0,0:0:0:0:
325,185,14707,6,0,L|247:176,1,68.0000012969971,10|0,0:2|0:0,0:0:0:0:
176,174,14957,1,0,0:0:0:0:
176,174,15040,2,0,P|133:201|109:201,1,68.0000012969971,8|2,0:0|0:0,0:0:0:0:
46,167,15290,1,0,0:0:0:0:
46,167,15373,1,10,0:0:0:0:
144,70,15540,6,0,L|194:71,1,34.0000006484985,2|0,0:0|0:0,0:0:0:0:
252,136,15707,2,0,L|302:137,1,34.0000006484985,10|0,0:0|0:0,0:0:0:0:
352,201,15873,2,0,L|402:202,1,34.0000006484985,2|0,0:0|0:0,0:0:0:0:
458,152,16040,6,0,P|474:113|453:62,1,68.0000012969971,14|0,0:0|0:0,0:0:0:0:
421,28,16290,1,0,0:0:0:0:
421,28,16373,2,0,L|346:31,1,68.0000012969971,8|2,0:0|0:0,0:0:0:0:
303,98,16623,1,0,0:0:0:0:
303,98,16707,6,0,L|226:94,1,68.0000012969971,10|0,0:0|0:0,0:0:0:0:
163,55,16957,1,0,0:0:0:0:
163,55,17040,2,0,P|158:109|146:144,1,68.0000012969971,8|0,0:0|0:0,0:0:0:0:
100,185,17290,1,0,0:0:0:0:
100,185,17373,6,0,B|129:214|129:214|182:219,1,68.0000012969971,8|2,0:0|0:0,0:0:0:0:
237,203,17623,1,0,0:0:0:0:
237,203,17707,2,0,B|282:194|282:194|309:206,1,68.0000012969971,10|0,0:0|0:0,0:0:0:0:
365,248,17957,1,0,0:0:0:0:
365,248,18040,6,0,P|351:287|318:305,1,68.0000012969971,8|2,0:0|0:0,0:0:0:0:
251,305,18290,1,0,0:0:0:0:
251,305,18373,2,0,L|206:309,1,34.0000006484985,10|0,0:0|0:0,0:0:0:0:
175,279,18540,2,0,L|130:283,1,34.0000006484985,2|0,0:0|0:0,0:0:0:0:
120,337,18707,6,0,L|110:265,1,68.0000012969971,10|8,0:0|0:1,0:0:0:0:
142,187,18957,1,0,0:0:0:0:
142,187,19040,2,0,L|150:114,1,68.0000012969971,8|8,0:0|0:1,0:0:0:0:
98,45,19290,1,0,0:0:0:0:
98,45,19373,6,0,P|108:88|141:107,1,68.0000012969971,8|8,0:0|0:1,0:0:0:0:
214,114,19623,1,0,0:0:0:0:
214,114,19707,1,8,0:0:0:0:
25,238,19873,6,0,L|22:190,1,34.0000006484985,8|0,0:1|0:0,0:0:0:0:
82,288,20040,6,0,P|126:274|161:273,1,68.0000012969971,10|8,0:0|0:1,0:0:0:0:
218,310,20290,1,0,0:0:0:0:
218,310,20373,2,0,P|268:320|304:312,1,68.0000012969971,8|8,0:0|0:1,0:0:0:0:
356,294,20623,1,0,0:0:0:0:
356,294,20707,1,10,0:0:0:0:
245,67,20873,22,0,L|217:113,1,34.0000006484985,8|0,0:1|0:0,0:0:0:0:
394,165,21040,2,0,L|422:211,1,34.0000006484985,10|0,0:0|0:0,0:0:0:0:
235,280,21207,2,0,L|207:326,1,34.0000006484985,8|0,0:1|0:0,0:0:0:0:
286,180,21373,6,0,P|303:158|309:138,3,34.0000006484985,10|8|8|8,0:0|0:1|0:1|0:1,0:0:0:0:
215,202,21707,1,8,0:0:0:0:
185,186,21790,1,8,0:1:0:0:
152,178,21873,1,8,0:1:0:0:
118,180,21956,1,8,0:1:0:0:
66,232,22040,6,0,L|70:271,3,34.0000006484985,10|8|8|8,0:0|0:1|0:1|0:1,0:0:0:0:
9,175,22373,1,8,0:0:0:0:
24,144,22456,1,8,0:1:0:0:
40,114,22539,1,8,0:1:0:0:
55,84,22622,1,8,0:1:0:0:
69,62,22707,5,4,0:0:0:0:
292,206,23040,6,0,P|330:147|230:148,1,180.000006866455,2|0,0:1|0:0,0:0:0:0:
212,205,23373,2,0,P|168:213|202:185,1,120.000004577637,2|0,0:1|0:0,0:0:0:0:
252,326,23707,2,0,L|253:294,9,20.0000007629395,2|0|0|0|0|0|0|0|0|0,0:2|0:0|0:0|0:0|0:0|0:0|0:0|0:0|0:0|0:0,0:0:0:0:
273,353,24040,6,0,B|331:336|331:336|363:348|391:342,1,103.999995239258,4|0,3:2|0:0,0:0:0:0:
196,234,24373,2,0,B|138:251|138:251|106:239|78:245,1,103.999995239258,8|0,3:2|0:0,0:0:0:0:
52,311,24623,1,0,0:0:0:0:
52,311,24707,1,0,3:0:0:0:
53,76,24873,6,0,L|102:82,1,25.9999988098145,2|0,0:0|0:0,0:0:0:0:
65,89,24957,2,0,L|114:95,1,25.9999988098145,2|0,0:0|0:0,0:0:0:0:
76,98,25040,1,8,3:2:0:0:
196,234,25207,2,0,B|182:237|182:237|177:167,1,51.999997619629,2|0,0:0|0:0,0:0:0:0:
183,96,25373,6,0,P|220:137|328:118,1,155.999992858887,0|0,3:0|0:0,0:0:0:0:
351,62,25707,2,0,L|347:177,1,103.999995239258,8|0,3:2|0:0,0:0:0:0:
344,254,25957,1,0,0:0:0:0:
344,254,26040,1,0,3:0:0:0:
129,298,26207,6,0,L|92:283,1,25.9999988098145,2|0,0:0|0:0,0:0:0:0:
124,279,26290,2,0,L|87:264,1,25.9999988098145,2|0,0:0|0:0,0:0:0:0:
120,259,26373,1,8,3:2:0:0:
183,96,26540,2,0,P|209:102|242:101,1,51.999997619629,2|0,0:0|0:0,0:0:0:0:
351,62,26707,6,0,B|328:52|316:28|316:28|309:170,1,155.999992858887,0|0,3:0|0:0,0:0:0:0:
316,234,27040,2,0,P|378:214|426:222,1,103.999995239258,8|0,3:2|0:0,0:0:0:0:
481,266,27290,1,0,0:0:0:0:
481,266,27373,1,0,3:0:0:0:
389,40,27540,6,0,L|386:76,1,25.9999988098145,2|0,0:0|0:0,0:0:0:0:
368,50,27623,2,0,L|365:86,1,25.9999988098145,2|0,0:0|0:0,0:0:0:0:
351,62,27707,1,8,3:2:0:0:
155,106,27873,2,0,L|92:95,1,51.999997619629,2|0,0:0|0:0,0:0:0:0:
197,171,28040,6,0,B|231:145|233:100|233:100|238:145|276:169,1,155.999992858887,0|0,3:0|0:0,0:0:0:0:
343,191,28373,1,8,3:2:0:0:
170,314,28540,6,0,L|176:284,1,25.9999988098145,2|0,0:0|0:0,0:0:0:0:
162,293,28623,2,0,L|168:263,1,25.9999988098145,2|0,0:0|0:0,0:0:0:0:
156,275,28707,1,0,3:0:0:0:
366,313,28873,6,0,L|360:283,1,25.9999988098145,2|0,0:0|0:0,0:0:0:0:
374,292,28956,2,0,L|368:262,1,25.9999988098145,2|0,0:0|0:0,0:0:0:0:
380,274,29040,1,8,3:2:0:0:
258,113,29207,6,0,B|253:131|253:131|257:151|257:151|253:167,1,51.999997619629,2|0,3:2|0:0,0:0:0:0:
259,310,29373,6,0,P|287:260|234:242,1,103.999995239258,4|0,3:2|0:0,0:0:0:0:
72,318,29707,2,0,P|132:307|160:254,1,103.999995239258,8|0,3:2|0:0,0:0:0:0:
152,198,29957,1,0,0:0:0:0:
152,198,30040,1,0,3:0:0:0:
298,70,30207,6,0,L|258:61,1,25.9999988098145,2|0,0:0|0:0,0:0:0:0:
307,89,30290,2,0,L|267:80,1,25.9999988098145,2|0,0:0|0:0,0:0:0:0:
316,105,30373,1,8,3:2:0:0:
96,36,30540,2,0,B|86:47|86:47|94:85,1,51.999997619629,2|0,0:0|0:0,0:0:0:0:
152,198,30707,6,0,P|79:183|39:244,1,155.999992858887,0|0,3:0|0:0,0:0:0:0:
50,318,31040,1,8,3:2:0:0:
205,360,31207,1,0,0:0:0:0:
205,360,31290,1,0,0:0:0:0:
205,360,31373,1,0,3:0:0:0:
285,139,31540,6,0,L|246:137,1,25.9999988098145,2|0,0:0|0:0,0:0:0:0:
269,153,31623,2,0,L|230:151,1,25.9999988098145,2|0,0:0|0:0,0:0:0:0:
257,170,31707,1,8,3:2:0:0:
141,38,31873,2,0,P|166:39|205:31,1,51.999997619629,2|0,0:0|0:0,0:0:0:0:
365,54,32040,6,0,B|347:46|332:28|332:28|271:54|271:54|248:37|224:33,1,155.999992858887,0|0,3:0|0:0,0:0:0:0:
141,38,32373,1,8,3:2:0:0:
93,186,32540,1,0,0:0:0:0:
93,186,32623,1,0,0:0:0:0:
93,186,32707,1,0,3:0:0:0:
238,293,32873,6,0,L|237:262,1,25.9999988098145,2|0,0:0|0:0,0:0:0:0:
253,275,32957,2,0,L|252:244,1,25.9999988098145,2|0,0:0|0:0,0:0:0:0:
266,261,33040,1,8,3:2:0:0:
94,357,33207,2,0,B|62:356|62:356|38:344,1,51.999997619629,2|0,0:0|0:0,0:0:0:0:
15,263,33373,2,0,B|94:278|94:278|98:283|98:283|171:297,1,155.999992858887,0|0,3:0|0:0,0:0:0:0:
266,261,33707,6,0,P|311:220|220:202,1,180.000006866455,2|0,0:1|0:0,0:0:0:0:
165,296,34040,2,0,P|139:282|179:286,1,120.000004577637,2|0,0:1|0:0,0:0:0:0:
304,335,34373,2,0,L|329:336,9,20.0000007629395,2|0|0|8|0|0|8|0|0|8,0:1|0:0|0:0|0:1|0:0|0:0|0:1|0:0|0:0|0:1,0:0:0:0:
409,275,34707,6,0,B|440:225|440:225|402:202|392:161,1,120.000004577637,4|0,3:2|0:0,0:0:0:0:
401,101,34957,1,0,0:0:0:0:
401,101,35040,2,0,P|358:98|330:108,1,60.0000022888184,8|0,3:2|0:0,0:0:0:0:
283,172,35207,2,0,P|253:177|224:173,1,60.0000022888184
147,142,35373,1,0,3:0:0:0:
209,337,35540,6,0,L|211:293,1,30.0000011444092,2|0,0:0|0:0,0:0:0:0:
227,323,35623,2,0,L|229:279,1,30.0000011444092,2|0,0:0|0:0,0:0:0:0:
243,310,35707,1,8,3:2:0:0:
87,348,35873,2,0,B|46:355|46:355|15:335,1,60.0000022888184,2|0,0:0|0:0,0:0:0:0:
2,242,36040,6,0,P|0:208|14:171,3,60.0000022888184,0|0|0|0,3:0|0:0|0:0|0:0,0:0:0:0:
77,270,36373,2,0,P|116:267|165:240,1,60.0000022888184,8|0,3:2|0:0,0:0:0:0:
205,208,36540,2,0,P|233:199|263:198,1,60.0000022888184
339,238,36707,1,0,3:0:0:0:
197,54,36873,6,0,L|153:52,1,30.0000011444092,2|0,0:0|0:0,0:0:0:0:
182,70,36957,2,0,L|138:68,1,30.0000011444092,2|0,0:0|0:0,0:0:0:0:
168,90,37040,1,8,3:2:0:0:
352,131,37207,2,0,B|385:126|385:126|390:129|390:129|424:121,1,60.0000022888184,2|0,0:0|0:0,0:0:0:0:
508,67,37373,6,0,P|511:28|498:-4,3,60.0000022888184,0|0|0|0,3:0|0:0|0:0|0:0,0:0:0:0:
430,46,37707,2,0,L|360:51,1,60.0000022888184,8|0,3:2|0:0,0:0:0:0:
279,90,37873,2,0,L|219:85,1,60.0000022888184
140,47,38040,1,0,3:0:0:0:
40,200,38207,6,0,L|85:190,1,30.0000011444092,2|0,0:0|0:0,0:0:0:0:
59,214,38290,2,0,L|104:204,1,30.0000011444092,2|0,0:0|0:0,0:0:0:0:
77,230,38373,1,8,3:2:0:0:
279,90,38540,2,0,B|255:65|255:65|227:87,1,60.0000022888184,2|0,0:0|0:0,0:0:0:0:
266,190,38707,6,0,P|301:178|329:150,3,60.0000022888184,0|0|0|0,3:0|0:0|0:0|0:0,0:0:0:0:
210,243,39040,6,0,P|193:171|267:209,1,180.000006866455,8|2,3:2|0:0,0:0:0:0:
307,289,39373,2,0,P|336:292|301:277,1,120.000004577637,0|2,3:0|1:2,0:0:0:0:
188,352,39707,6,0,L|116:345,1,60.0000022888184
93,339,39873,2,0,L|165:332,1,60.0000022888184,2|0,1:2|0:0,0:0:0:0:
210,243,40040,6,0,P|218:199|212:175,3,60.0000022888184,4|0|0|0,3:2|0:0|0:0|0:0,0:0:0:0:
122,251,40373,6,0,P|56:240|127:200,1,180.000006866455,2|0,3:1|0:0,0:0:0:0:
210,243,40707,1,0,3:2:0:0:
302,82,40873,6,0,L|348:93,1,30.0000011444092,2|0,0:0|0:0,0:0:0:0:
319,100,40957,2,0,L|365:111,1,30.0000011444092,2|0,0:0|0:0,0:0:0:0:
336,120,41040,6,0,B|397:131|397:131|402:135|402:135|462:145,1,120.000004577637,2|2,3:1|3:2,0:0:0:0:
247,22,41373,2,0,P|220:48|224:153,1,120.000004577637,0|0,3:2|0:0,0:0:0:0:
277,194,41623,1,0,0:0:0:0:
277,194,41707,6,0,P|342:209|364:294,1,120.000004577637,2|0,3:1|0:0,0:0:0:0:
313,333,41957,1,0,0:0:0:0:
313,333,42040,2,0,B|243:323|243:323|195:348,1,120.000004577637,0|2,3:2|0:0,0:0:0:0:
116,353,42290,1,2,3:2:0:0:
116,353,42373,6,0,P|119:283|110:230,1,120.000004577637,2|2,0:1|3:2,0:0:0:0:
39,83,42707,6,0,P|21:100|23:147,1,60.0000022888184,2|0,3:1|0:0,0:0:0:0:
129,163,42873,2,0,P|147:146|145:99,1,60.0000022888184,0|0,3:2|0:0,0:0:0:0:
13,211,43040,2,0,L|78:223,1,60.0000022888184,0|0,3:2|0:0,0:0:0:0:
168,35,43207,2,0,L|103:47,1,60.0000022888184,0|0,3:2|0:0,0:0:0:0:
203,211,43373,5,0,3:2:0:0:
257,186,43456,1,0,3:2:0:0:
316,185,43539,1,2,3:2:0:0:
371,209,43623,1,2,3:2:0:0:
400,259,43707,1,0,3:2:0:0:
448,225,43790,1,0,3:2:0:0:
466,169,43873,1,2,3:2:0:0:
444,114,43957,1,0,3:2:0:0:
391,90,44040,6,0,B|317:79|317:79|268:98|268:98|191:90,1,180.000006866455,0|0,3:2|0:0,0:0:0:0:
140,83,44373,1,0,0:0:0:0:
75,3,44540,1,2,0:0:0:0:
75,3,44623,1,2,0:0:0:0:
75,3,44707,6,0,L|52:71,1,60.0000022888184
0,137,44873,2,0,L|23:205,1,60.0000022888184,2|2,0:0|0:0,0:0:0:0:
45,286,45040,2,0,P|119:262|186:284,1,120.000004577637,0|2,0:0|0:0,0:0:0:0:
286,94,45373,1,4,3:2:0:0:
256,192,45457,12,4,48040,0:3:0:0:
325,164,56040,6,0,P|378:109|374:29,1,143.999995605469,4|4,3:2|0:3,0:0:0:0:
197,104,56707,2,0,L|186:227,2,107.999996704102,4|4|4,0:3|0:3|0:3,0:0:0:0:
262,9,57373,1,8,0:3:0:0:
325,109,57540,1,8,0:3:0:0:
197,104,57707,1,8,0:3:0:0:
384,48,58040,6,0,P|460:47|491:63,2,107.999996704102,8|8|8,0:3|0:3|0:3,0:0:0:0:
328,111,58623,1,8,0:3:0:0:
328,111,58707,6,0,L|335:202,1,71.9999978027344,4|4,0:3|0:3,0:0:0:0:
279,275,59040,2,0,P|238:245|150:252,1,107.999996704102,4|0,0:3|0:0,0:0:0:0:
122,312,59373,2,0,B|140:329|147:360|147:360|151:328|167:308,2,107.999996704102,4|4|4,0:3|0:3|0:3,0:0:0:0:
60,249,59957,2,0,L|80:240,1,17.9999994506836
58,222,60040,6,0,P|98:210|115:182,1,71.9999978027344,8|8,0:3|0:3,0:0:0:0:
59,114,60373,2,0,P|19:126|2:154,1,71.9999978027344,8|8,0:3|0:3,0:0:0:0:
143,211,60707,2,0,L|231:213,1,71.9999978027344,8|8,0:3|0:3,0:0:0:0:
287,176,60957,2,0,P|306:140|296:93,1,71.9999978027344,8|8,0:3|0:3,0:0:0:0:
242,70,61207,2,0,P|225:82|202:88,1,35.9999989013672,8|0,0:3|0:0,0:0:0:0:
107,21,61373,6,0,B|49:29|49:29|60:130,1,143.999995605469,4|4,3:2|0:3,0:0:0:0:
117,308,62040,2,0,P|147:261|140:206,2,107.999996704102,4|4|4,0:3|0:3|0:3,0:0:0:0:
51,227,62707,1,8,0:3:0:0:
8,325,62873,1,8,0:3:0:0:
117,309,63040,1,8,0:3:0:0:
13,193,63373,6,0,P|58:215|127:195,2,107.999996704102,8|8|8,0:3|0:3|0:3,0:0:0:0:
27,78,64040,2,0,B|67:69|67:69|110:74,1,71.9999978027344,4|0,0:3|0:0,0:0:0:0:
177,108,64290,1,0,0:0:0:0:
177,108,64373,2,0,B|207:111|207:111|247:102,1,71.9999978027344,4|0,0:3|0:0,0:0:0:0:
375,10,64707,6,0,B|358:30|355:65|355:65|339:32|309:23,2,107.999996704102,4|4|4,0:3|0:3|0:3,0:0:0:0:
458,50,65290,2,0,L|431:47,1,17.9999994506836
469,63,65373,6,0,P|466:90|467:103,7,35.9999989013672,2|0|0|0|0|0|0|0,0:1|0:0|0:0|0:0|0:0|0:0|0:0|0:0,0:0:0:0:
427,174,66040,6,0,P|404:168|387:169,14,30.0000011444092,2|0|0|0|0|0|0|0|0|0|0|0|0|0|0,0:1|0:0|0:0|0:0|0:0|0:0|0:0|0:0|0:0|0:0|0:0|0:0|0:0|0:0|0:0,0:0:0:0:
469,272,66707,6,0,P|427:304|369:299,1,95.9999970703126,2|8,3:1|0:1,0:0:0:0:
309,200,67040,2,0,B|278:184|234:210|256:250|210:265|164:244,1,143.999995605469,8|0,0:0|0:0,0:0:0:0:
109,225,67373,2,0,L|97:160,1,47.9999985351563,8|0,0:0|0:0,0:0:0:0:
205,98,67540,2,0,L|196:145,1,47.9999985351563,8|0,0:1|0:0,0:0:0:0:
109,225,67707,2,0,L|86:98,1,95.9999970703126,8|8,0:0|0:1,0:0:0:0:
229,12,68040,6,0,P|272:45|326:44,1,95.9999970703126,8|8,0:0|0:1,0:0:0:0:
459,141,68373,2,0,P|395:121|324:168,1,143.999995605469,8|0,0:0|0:0,0:0:0:0:
381,259,68707,2,0,P|399:240|407:214,1,47.9999985351563,8|0,0:0|0:0,0:0:0:0:
253,193,68873,2,0,P|247:218|253:244,1,47.9999985351563,8|0,0:1|0:0,0:0:0:0:
310,347,69040,2,0,B|338:331|338:331|253:314,1,95.9999970703126,8|8,0:0|0:1,0:0:0:0:
99,295,69373,6,0,P|79:257|88:193,1,95.9999970703126,8|8,0:0|0:1,0:0:0:0:
127,122,69623,1,0,0:0:0:0:
127,122,69707,2,0,P|162:141|183:137,1,47.9999985351563,8|0,0:0|0:0,0:0:0:0:
254,113,69873,1,8,0:1:0:0:
254,113,69957,1,8,0:1:0:0:
254,113,70040,6,0,L|268:177,1,47.9999985351563,8|0,0:0|0:0,0:0:0:0:
185,260,70207,2,0,L|195:213,1,47.9999985351563,8|0,0:1|0:0,0:0:0:0:
345,194,70373,2,0,P|353:252|325:290,1,95.9999970703126,8|8,0:0|0:1,0:0:0:0:
274,330,70623,1,8,0:1:0:0:
274,330,70707,6,0,P|244:327|220:330,1,47.9999985351563,8|0,0:0|0:0,0:0:0:0:
392,371,70873,2,0,P|415:351|430:332,1,47.9999985351563,8|0,0:1|0:0,0:0:0:0:
345,194,71040,2,0,B|305:187|305:187|279:193|279:193|230:185,1,95.9999970703126,8|8,0:0|0:1,0:0:0:0:
178,176,71290,1,8,0:1:0:0:
178,176,71373,6,0,P|196:127|197:89,1,47.9999985351563,8|0,0:0|0:0,0:0:0:0:
172,11,71540,1,0,1:0:0:0:
49,168,71707,2,0,P|75:176|100:174,1,47.9999985351563,8|0,0:0|0:0,0:0:0:0:
113,59,71873,2,0,P|87:51|62:53,1,47.9999985351563,8|0,0:1|0:0,0:0:0:0:
184,115,72040,5,8,0:0:0:0:
207,112,72123,1,8,0:1:0:0:
231,109,72206,1,8,0:1:0:0:
255,107,72289,1,8,0:1:0:0:
279,105,72373,2,0,L|287:67,3,23.9999992675781,8|8|8|8,0:0|0:1|0:1|0:1,0:0:0:0:
345,194,72707,5,8,0:0:0:0:
313,193,72790,1,8,0:1:0:0:
281,192,72873,1,8,0:1:0:0:
249,192,72956,1,8,0:1:0:0:
217,193,73040,2,0,L|213:229,3,32,8|8|8|8,0:0|0:1|0:1|0:1,0:0:0:0:
153,319,73373,5,8,0:0:0:0:
192,315,73456,1,8,0:1:0:0:
232,311,73539,1,8,0:1:0:0:
272,307,73622,1,8,0:1:0:0:
310,305,73707,2,0,L|332:261,3,40,8|8|8|8,0:0|0:1|0:1|0:1,0:0:0:0:
375,365,74040,5,8,0:0:0:0:
413,357,74123,1,8,0:1:0:0:
444,332,74206,1,8,0:1:0:0:
459,295,74289,1,8,0:1:0:0:
459,259,74373,1,8,0:0:0:0:
413,271,74456,1,8,0:1:0:0:
367,258,74539,1,8,0:1:0:0:
334,224,74622,1,8,0:1:0:0:
330,177,74707,6,0,L|350:111,3,60.0000022888184,8|8|8|8,0:0|0:1|0:1|0:1,0:0:0:0:
272,108,75040,2,0,L|266:68,6,30.0000011444092,8|8|8|8|8|8|8,0:0|0:1|0:1|0:1|0:1|0:1|0:1,0:0:0:0:
196,86,75373,2,0,L|180:67,9,20.0000007629395,8|0|0|8|0|0|8|0|0|8,0:0|0:0|0:0|0:1|0:0|0:0|0:1|0:0|0:0|0:1,0:0:0:0:
130,129,75707,2,0,L|111:131,12,15.0000005722046,8|0|8|0|8|0|8|0|8|0|8|0|8,0:0|0:0|0:1|0:0|0:1|0:0|0:1|0:0|0:1|0:0|0:1|0:0|0:1,0:0:0:0:
132,205,76040,5,4,3:0:0:0:
256,192,76123,12,0,76873,0:0:0:0:
490,345,77040,6,0,P|469:356|427:359,1,60.0000022888184,0|0,1:0|0:0,0:0:0:0:
273,269,77207,2,0,P|294:258|336:255,1,60.0000022888184,2|0,0:0|0:0,0:0:0:0:
418,286,77373,22,0,B|381:308|381:308|376:191,1,120.000004577637,6|0,3:2|0:0,0:0:0:0:
410,108,77623,1,0,0:0:0:0:
410,108,77707,2,0,P|373:156|317:156,1,120.000004577637,8|0,3:2|0:0,0:0:0:0:
216,92,77957,1,0,0:0:0:0:
216,92,78041,2,0,P|158:93|123:140,1,120.000004577637,0|0,3:0|0:0,0:0:0:0:
134,227,78290,1,0,0:0:0:0:
134,227,78373,6,0,L|213:215,1,60.0000022888184,8|0,3:2|0:0,0:0:0:0:
367,246,78540,2,0,L|288:234,1,60.0000022888184,2|0,0:0|0:0,0:0:0:0:
213,350,78707,6,0,B|228:368|228:368|251:233,1,120.000004577637,2|0,3:2|0:0,0:0:0:0:
258,177,78957,1,0,0:0:0:0:
258,177,79040,2,0,P|186:188|139:152,1,120.000004577637,8|2,3:2|0:0,0:0:0:0:
124,88,79290,1,2,0:0:0:0:
124,88,79373,1,2,3:2:0:0:
353,47,79540,38,0,L|369:108,1,60.0000022888184,2|0,0:0|0:0,0:0:0:0:
200,62,79707,6,0,L|215:3,1,60.0000022888184,10|0,3:2|0:0,0:0:0:0:
258,177,79873,6,0,P|261:161|267:182,1,60.0000022888184,2|0,0:0|0:0,0:0:0:0:
210,247,80040,6,0,P|138:196|68:215,1,120.000004577637,2|0,3:2|0:0,0:0:0:0:
56,263,80290,1,0,0:0:0:0:
56,263,80373,2,0,L|56:333,1,60.0000022888184,8|0,3:2|0:0,0:0:0:0:
160,185,80540,2,0,L|160:125,1,60.0000022888184,2|0,0:0|0:0,0:0:0:0:
133,304,80707,6,0,B|166:331|166:331|256:326,1,120.000004577637,2|0,3:2|0:0,0:0:0:0:
323,278,80957,1,0,0:0:0:0:
323,278,81040,2,0,B|306:250|310:217|310:217|293:247|260:257,1,120.000004577637,8|0,3:2|0:0,0:0:0:0:
318,358,81290,1,0,0:0:0:0:
318,358,81373,6,0,B|385:343|385:343|447:357,1,120.000004577637,0|2,3:0|0:0,0:0:0:0:
501,273,81623,1,0,0:0:0:0:
501,273,81707,2,0,B|421:256|421:256|385:211,1,120.000004577637,10|0,3:2|0:0,0:0:0:0:
381,147,81957,1,0,0:0:0:0:
381,147,82040,2,0,P|428:147|457:134,1,60.0000022888184,0|0,3:0|0:0,0:0:0:0:
511,83,82207,1,2,0:0:0:0:
277,43,82373,6,0,B|243:38|243:38|241:39|241:39|213:35,1,60.0000022888184,10|0,3:2|0:0,0:0:0:0:
185,201,82540,2,0,B|151:196|151:196|149:197|149:197|121:193,1,60.0000022888184,2|0,1:2|0:0,0:0:0:0:
304,279,82707,6,0,B|279:268|269:234|269:234|264:268|205:287|242:355,1,180.000006866455,6|0,3:2|0:0,0:0:0:0:
340,380,83040,2,0,P|371:370|402:368,1,60.0000022888184,8|0,3:2|0:0,0:0:0:0:
475,219,83207,2,0,P|444:229|413:231,1,60.0000022888184
309,127,83373,2,0,B|378:113|358:168|439:146,1,120.000004577637,0|0,3:0|0:0,0:0:0:0:
507,90,83623,1,0,0:0:0:0:
507,90,83707,6,0,L|506:22,1,60.0000022888184,8|0,3:2|0:0,0:0:0:0:
374,0,83873,2,0,L|373:59,1,60.0000022888184,2|0,0:0|0:0,0:0:0:0:
475,219,84040,2,0,P|384:194|332:211,1,120.000004577637,2|0,3:2|0:0,0:0:0:0:
293,273,84290,1,0,0:0:0:0:
293,273,84373,2,0,P|227:311|163:298,1,120.000004577637,8|2,3:2|0:0,0:0:0:0:
125,274,84623,1,0,0:0:0:0:
125,274,84707,2,0,P|144:264|131:284,1,60.0000022888184,2|0,3:2|0:0,0:0:0:0:
32,154,84873,22,0,L|116:145,1,60.0000022888184,2|0,0:0|0:0,0:0:0:0:
234,51,85040,6,0,L|150:42,1,60.0000022888184,10|0,3:2|0:0,0:0:0:0:
208,206,85207,6,0,L|292:197,1,60.0000022888184,2|0,0:0|0:0,0:0:0:0:
393,112,85373,6,0,B|350:86|350:86|354:227,1,180.000006866455,2|0,3:2|0:0,0:0:0:0:
423,305,85707,2,0,P|471:286|506:290,1,60.0000022888184,8|0,3:2|0:0,0:0:0:0:
305,362,85873,2,0,P|263:331|248:299,1,60.0000022888184,2|0,0:0|0:0,0:0:0:0:
353,215,86040,2,0,B|334:237|339:281|339:281|326:239|285:229,1,120.000004577637,2|0,3:2|0:0,0:0:0:0:
235,250,86290,1,0,0:0:0:0:
235,250,86373,2,0,B|179:250|179:250|159:257|159:257|103:257,1,120.000004577637,8|2,3:2|0:2,0:0:0:0:
56,208,86623,1,0,0:0:0:0:
56,208,86707,2,0,L|50:142,1,60.0000022888184,2|0,3:2|0:0,0:0:0:0:
168,270,86873,2,0,L|162:329,1,60.0000022888184
153,142,87040,6,0,P|218:157|261:43,1,180.000006866455,10|0,3:2|0:0,0:0:0:0:
151,1,87373,2,0,P|126:20|171:14,1,120.000004577637,0|0,3:1|0:0,0:0:0:0:
315,194,87707,2,0,L|339:194,13,15.0000005722046,8|0|0|0|0|0|0|0|0|0|0|0|0|0,3:2|0:0|0:0|0:0|0:0|0:0|0:0|0:0|0:0|0:0|0:0|0:0|0:0|0:0,0:0:0:0:
231,162,88040,5,4,3:2:0:0:
219,144,88123,1,0,0:0:0:0:
236,125,88207,1,0,3:0:0:0:
226,97,88290,1,0,0:0:0:0:
247,60,88373,6,0,B|289:70|316:58|316:58|351:87|351:87|395:70|428:90,1,180.000006866455,10|0,3:2|0:0,0:0:0:0:
493,192,88707,2,0,B|462:206|462:206|418:197,1,60.0000022888184,0|0,3:0|0:0,0:0:0:0:
423,66,88873,2,0,B|454:52|454:52|498:61,1,60.0000022888184
464,285,89040,1,8,3:2:0:0:
231,162,89207,2,0,P|216:182|235:173,1,60.0000022888184,2|0,0:0|0:0,0:0:0:0:
306,105,89373,6,0,B|352:122|352:122|327:218,1,120.000004577637,2|0,3:2|0:0,0:0:0:0:
279,289,89623,1,0,0:0:0:0:
279,289,89707,2,0,P|245:279|184:281,1,60.0000022888184,8|0,3:2|0:0,0:0:0:0:
98,318,89873,2,0,P|132:328|193:326,1,60.0000022888184,2|0,0:0|0:0,0:0:0:0:
159,203,90040,1,2,3:2:0:0:
241,366,90207,38,0,L|331:364,1,60.0000022888184,2|0,0:0|0:0,0:0:0:0:
159,203,90373,6,0,L|69:201,1,60.0000022888184,10|0,3:2|0:0,0:0:0:0:
262,46,90540,6,0,L|352:44,1,60.0000022888184,2|0,0:0|0:0,0:0:0:0:
426,194,90707,6,0,B|441:167|441:167|391:133|353:163,1,120.000004577637,2|0,3:2|0:0,0:0:0:0:
301,232,90957,1,0,0:0:0:0:
301,232,91040,2,0,P|365:257|403:323,1,120.000004577637,8|2,3:2|0:0,0:0:0:0:
347,366,91290,1,0,0:0:0:0:
347,366,91373,2,0,B|272:357|272:357|227:380,1,120.000004577637,2|0,3:2|0:0,0:0:0:0:
173,321,91623,1,0,0:0:0:0:
173,321,91707,6,0,L|161:229,1,60.0000022888184,8|0,3:2|0:0,0:0:0:0:
301,232,91873,2,0,L|313:140,1,60.0000022888184
196,126,92040,2,0,P|146:156|61:133,1,120.000004577637,0|2,3:0|0:0,0:0:0:0:
123,51,92290,1,0,0:0:0:0:
123,51,92373,2,0,B|171:42|171:42|208:48|208:48|255:41,1,120.000004577637,10|0,3:2|0:0,0:0:0:0:
398,27,92707,1,0,3:0:0:0:
371,270,92873,6,0,P|351:231|368:198,1,60.0000022888184,2|0,0:0|0:0,0:0:0:0:
481,117,93040,6,0,P|453:151|416:148,1,60.0000022888184,10|0,3:2|0:0,0:0:0:0:
278,129,93207,6,0,P|317:109|350:126,1,60.0000022888184,2|0,1:2|0:0,0:0:0:0:
264,258,93373,6,0,B|238:269|223:305|223:305|212:175,1,180.000006866455,6|0,3:2|0:0,0:0:0:0:
171,88,93707,2,0,P|151:126|121:149,1,60.0000022888184,8|0,3:2|0:0,0:0:0:0:
67,168,93873,1,0,0:0:0:0:
67,168,93957,1,0,0:0:0:0:
67,168,94040,6,0,B|38:92|38:92|56:51,1,120.000004577637,0|0,3:0|0:0,0:0:0:0:
214,189,94373,2,0,P|251:188|287:175,1,60.0000022888184,8|0,3:2|0:0,0:0:0:0:
229,80,94540,2,0,P|192:81|156:94,1,60.0000022888184,2|0,3:2|0:0,0:0:0:0:
102,235,94707,2,0,B|126:253|133:288|133:288|138:252|165:224,1,120.000004577637,6|0,3:2|0:0,0:0:0:0:
370,131,95040,6,0,P|318:180|264:178,1,120.000004577637,8|2,3:2|0:0,0:0:0:0:
229,80,95290,1,0,0:0:0:0:
229,80,95373,2,0,P|223:67|222:89,1,60.0000022888184,2|0,3:2|0:0,0:0:0:0:
340,35,95540,6,0,B|375:27|375:27|406:39,1,60.0000022888184,2|0,3:2|0:0,0:0:0:0:
197,164,95707,6,0,B|162:156|162:156|131:168,1,60.0000022888184,2|0,3:2|0:0,0:0:0:0:
401,225,95873,6,0,B|436:217|436:217|467:229,1,60.0000022888184,2|0,3:2|0:0,0:0:0:0:
323,356,96040,5,6,3:2:0:0:
279,355,96123,1,0,0:0:0:0:
243,331,96206,1,0,3:0:0:0:
227,291,96289,1,2,0:0:0:0:
228,251,96373,6,0,B|258:248|274:234|274:234|294:249|333:255,1,88.000002685547,0|0,3:0|0:0,0:0:0:0:
495,189,96707,5,6,3:2:0:0:
474,150,96790,1,0,0:0:0:0:
440,122,96873,1,0,3:0:0:0:
398,110,96956,1,0,0:0:0:0:
361,135,97040,1,2,3:2:0:0:
325,160,97123,1,0,0:0:0:0:
280,164,97207,2,0,P|268:178|258:181,1,22.0000006713867,0|0,3:0|3:0,0:0:0:0:
240,143,97290,2,0,P|223:147|215:145,1,22.0000006713867,0|0,3:0|3:0,0:0:0:0:
217,105,97373,1,0,3:0:0:0:
256,192,97457,12,2,98373,0:1:0:0:
290,252,98540,6,0,P|320:239|351:241,1,44.0000013427735
410,150,98707,6,0,P|360:163|317:153,1,80,4|0,3:2|0:0,0:0:0:0:
196,113,99040,2,0,P|246:100|289:110,1,80,8|0,0:1|0:0,0:0:0:0:
200,237,99373,2,0,B|145:223|145:223|108:232,1,80,8|0,0:1|0:0,0:0:0:0:
99,244,99623,1,8,0:1:0:0:
99,244,99707,1,0,0:0:0:0:
166,366,99873,1,8,0:1:0:0:
285,266,100040,2,0,P|335:253|379:259,1,80,8|0,0:1|0:0,0:0:0:0:
452,364,100373,6,0,L|466:203,1,160,10|10,0:1|0:1,0:0:0:0:
420,41,100873,1,0,0:0:0:0:
420,41,100957,1,8,0:1:0:0:
420,41,101040,1,2,0:1:0:0:
323,176,101207,1,8,0:1:0:0:
237,44,101373,6,0,P|189:52|146:37,1,80,8|0,0:1|0:0,0:0:0:0:
241,201,101707,6,0,P|223:155|228:110,1,80,8|0,0:1|0:0,0:0:0:0:
406,218,102040,6,0,P|359:204|314:213,1,80,8|0,0:1|0:0,0:0:0:0:
323,176,102290,1,8,0:1:0:0:
323,176,102373,1,0,0:0:0:0:
349,316,102540,1,8,0:1:0:0:
225,284,102707,2,0,P|168:281|134:287,1,80,8|0,0:1|0:0,0:0:0:0:
28,380,103040,6,0,P|61:317|60:210,1,160,10|10,0:1|0:1,0:0:0:0:
36,49,103540,1,0,0:0:0:0:
36,49,103623,1,8,0:1:0:0:
36,49,103707,1,2,0:1:0:0:
65,231,103873,1,8,0:1:0:0:
186,40,104040,6,0,P|206:81|209:102,1,55.9999982910157,8|0,3:1|0:0,0:0:0:0:
302,160,104373,2,0,P|309:133|323:109,1,55.9999982910157,8|0,3:1|0:0,0:0:0:0:
412,56,104707,2,0,P|447:88|470:95,1,55.9999982910157,8|0,3:1|0:0,0:0:0:0:
488,98,104957,1,8,3:1:0:0:
488,98,105040,1,0,0:0:0:0:
488,225,105207,1,8,3:1:0:0:
389,271,105373,6,0,P|372:264|359:265,3,27.9999991455078,8|0|0|0,3:1|0:0|0:0|0:0,0:0:0:0:
308,347,105707,6,0,L|202:331,1,83.9999974365235,10|0,3:1|0:0,0:0:0:0:
184,261,106040,2,0,L|88:291,1,83.9999974365235,10|8,3:1|3:1,0:0:0:0:
141,375,106373,2,0,P|139:354|125:373,1,55.9999982910157,2|8,0:1|3:1,0:0:0:0:
276,263,106707,6,0,P|290:241|291:222,3,35.9999989013672,8|0|0|0,3:1|0:0|3:0|0:0,0:0:0:0:
183,260,107040,6,0,P|175:243|148:231,1,35.9999989013672,8|0,3:1|0:0,0:0:0:0:
332,327,107207,2,0,P|340:310|367:298,1,35.9999989013672,0|0,3:0|0:0,0:0:0:0:
186,367,107373,5,8,3:1:0:0:
152,379,107456,1,8,3:1:0:0:
117,376,107539,1,8,3:1:0:0:
86,358,107622,1,8,3:1:0:0:
68,327,107706,1,8,3:1:0:0:
64,292,107789,1,8,3:1:0:0:
73,261,107873,1,8,3:1:0:0:
97,237,107957,1,8,3:1:0:0:
129,231,108040,1,8,3:1:0:0:
141,305,108373,6,0,L|251:279,1,107.999996704102,2|0,0:1|0:0,0:0:0:0:
317,191,108707,2,0,P|267:208|214:176,1,107.999996704102,2|0,0:1|0:0,0:0:0:0:
255,93,109040,2,0,B|279:68|281:43|281:43|279:68|306:105,1,107.999996704102,2|0,0:1|0:0,0:0:0:0:
377,131,109373,5,8,0:0:0:0:
412,146,109457,1,0,0:0:0:0:
449,144,109540,2,0,P|467:141|483:131,1,27.9999991455078,0|0,3:0|3:0,0:0:0:0:
471,116,109623,2,0,P|485:104|490:83,1,27.9999991455078,0|0,3:0|3:0,0:0:0:0:
444,33,109707,6,0,B|384:20|384:20|338:46,1,111.999996582031,14|0,3:2|0:0,0:0:0:0:
280,109,109957,1,0,0:0:0:0:
280,109,110040,2,0,L|293:184,1,55.9999982910157,0|0,3:0|0:0,0:0:0:0:
402,201,110207,2,0,L|411:145,1,55.9999982910157
327,267,110373,1,8,3:2:0:0:
202,193,110540,1,2,0:0:0:0:
202,193,110623,1,2,0:0:0:0:
202,193,110707,6,0,P|164:183|135:187,1,55.9999982910157,2|0,3:2|0:0,0:0:0:0:
32,248,110873,2,0,P|70:258|99:254,1,55.9999982910157
120,92,111040,6,0,P|40:141|96:176,1,167.999994873047,8|0,3:2|0:0,0:0:0:0:
219,103,111373,2,0,P|234:82|202:102,1,111.999996582031,0|0,3:0|0:0,0:0:0:0:
243,268,111707,2,0,L|274:265,10,18.6666660970052,8|0|0|0|0|0|2|0|0|2|0,3:2|0:0|0:0|0:0|0:0|0:0|0:0|0:0|0:0|0:0|0:0,0:0:0:0:
285,184,112040,6,0,P|312:209|351:215,1,55.9999982910157,2|0,3:2|0:0,0:0:0:0:
465,207,112207,2,0,P|438:182|399:176,1,55.9999982910157
355,306,112373,2,0,P|385:285|400:248,1,55.9999982910157,8|0,3:2|0:0,0:0:0:0:
396,101,112540,2,0,P|365:121|350:158,1,55.9999982910157,2|2,0:0|0:0,0:0:0:0:
470,286,112707,1,2,3:2:0:0:
278,357,112873,5,0,0:0:0:0:
278,357,112957,1,0,0:0:0:0:
278,357,113040,1,8,3:2:0:0:
185,217,113207,1,2,0:0:0:0:
185,217,113290,1,2,0:0:0:0:
185,217,113373,6,0,L|196:142,1,55.9999982910157,2|0,3:2|0:0,0:0:0:0:
313,104,113540,2,0,L|302:29,1,55.9999982910157,2|0,0:0|0:0,0:0:0:0:
141,11,113707,6,0,P|116:73|199:65,1,167.999994873047,2|0,3:2|0:0,0:0:0:0:
215,0,114040,1,0,3:0:0:0:
313,189,114207,6,0,P|280:171|255:172,1,55.9999982910157,0|0,1:0|0:0,0:0:0:0:
161,231,114373,2,0,P|133:227|110:212,1,55.9999982910157,10|0,3:2|0:0,0:0:0:0:
178,129,114540,2,0,P|178:148|167:128,1,55.9999982910157,2|0,1:2|0:0,0:0:0:0:
246,74,114707,6,0,P|276:83|315:79,3,55.9999982910157,2|0|0|0,3:2|0:0|0:0|0:0,0:0:0:0:
186,24,115040,1,2,3:1:0:0:
132,11,115123,1,0,0:0:0:0:
84,37,115206,1,0,0:0:0:0:
66,88,115289,1,0,0:0:0:0:
78,143,115373,6,0,B|122:152|157:137|157:137|200:162|198:225,2,167.999994873047,0|0|0,3:0|3:0|3:0,0:0:0:0:
14,276,116040,5,0,3:0:0:0:
67,259,116123,1,0,0:0:0:0:
121,271,116206,1,0,0:0:0:0:
163,307,116289,1,0,0:0:0:0:
214,308,116373,1,2,3:1:0:0:
257,274,116456,1,0,0:0:0:0:
275,220,116540,2,0,P|281:197|271:173,1,27.9999991455078,0|0,3:0|0:0,0:0:0:0:
257,170,116623,2,0,P|249:148|231:132,1,27.9999991455078,0|0,3:0|0:0,0:0:0:0:
215,122,116707,6,0,P|216:83|236:52,1,55.9999982910157,0|0,3:0|0:0,0:0:0:0:
312,44,116873,2,0,P|322:29|326:12,3,27.9999991455078,8|8|8|0,3:2|3:2|3:2|0:0,0:0:0:0:
229,38,117040,6,0,P|195:43|164:37,1,55.9999982910157,2|0,3:1|0:0,0:0:0:0:
93,20,117207,2,0,P|88:33|80:44,3,27.9999991455078,8|8|8|0,3:2|3:2|3:2|0:0,0:0:0:0:
103,53,117373,6,0,L|97:117,1,55.9999982910157,2|0,3:1|0:0,0:0:0:0:
220,177,117540,2,0,L|214:121,1,55.9999982910157,0|0,3:0|0:0,0:0:0:0:
44,218,117707,2,0,P|71:231|119:222,1,55.9999982910157,0|0,3:0|0:0,0:0:0:0:
299,174,117873,2,0,P|272:161|224:170,1,55.9999982910157,0|0,3:0|0:0,0:0:0:0:
181,290,118040,5,0,3:0:0:0:
228,317,118123,1,0,3:0:0:0:
284,321,118206,1,0,3:0:0:0:
335,299,118289,1,0,3:0:0:0:
362,247,118373,1,0,3:0:0:0:
407,216,118456,1,0,3:0:0:0:
462,223,118539,1,0,3:0:0:0:
498,264,118622,1,0,3:0:0:0:
499,319,118707,6,0,P|475:344|438:345,3,55.9999982910157,0|0|0|0,3:0|0:0|0:0|0:0,0:0:0:0:
335,299,119040,6,0,P|359:274|396:273,3,55.9999982910157,8|0|0|0,0:1|0:0|0:0|0:0,0:0:0:0:
227,367,119373,6,0,P|203:342|166:341,3,55.9999982910157,8|0|0|0,0:1|0:0|0:0|0:0,0:0:0:0:
266,266,119707,6,0,P|270:199|201:251,1,167.999994873047,8|0,0:0|0:0,0:0:0:0:
228,342,120040,1,4,3:2:0:0:
256,192,120207,12,0,122707,0:0:0:0:
