osu file format v14

[General]
AudioFilename: audio.mp3
AudioLeadIn: 0
PreviewTime: 77040
Countdown: 0
SampleSet: Soft
StackLeniency: 0.7
Mode: 0
LetterboxInBreaks: 0
EpilepsyWarning: 1
WidescreenStoryboard: 1

[Editor]
Bookmarks: 16199,16866,17533,22533,33533,66533,74366
DistanceSpacing: 1.6
BeatDivisor: 4
GridSize: 32
TimelineZoom: 2.599999

[Metadata]
Title:L.F.O
TitleUnicode:L.F.O
Artist:aran
ArtistUnicode:aran
Creator:Pipuuko
Version:Hyper
Source:beatmania IIDX 26 Rootage
Tags:uk hardcore ln konami bemani low frequency oscillator video game electronic instrumental Feiri Runigh Orange_ Orange lfo rhythm megafan
BeatmapID:2893804
BeatmapSetID:1377112

[Difficulty]
HPDrainRate:3.5
CircleSize:3.5
OverallDifficulty:7
ApproachRate:8
SliderMultiplier:1.4
SliderTickRate:1

[Events]
//Background and Video events
0,0,"bg.jpg",0,0
Video,0,"video.mp4" S,0,0,,1
//Break Periods
//Storyboard Layer 0 (Background)
//Storyboard Layer 1 (Fail)
//Storyboard Layer 2 (Pass)
//Storyboard Layer 3 (Foreground)
//Storyboard Layer 4 (Overlay)
//Storyboard Sound Samples

[TimingPoints]
1374,333.333333333333,4,2,1,5,1,0
1533,-100,4,2,1,5,0,0
1540,-100,4,2,1,10,0,0
1707,-100,4,2,1,15,0,0
1866,-100,4,2,1,15,0,0
1873,-100,4,2,1,20,0,0
2040,-100,4,2,1,30,0,0
2199,-100,4,2,1,30,0,0
2207,-100,4,2,1,45,0,0
2373,-100,4,2,1,60,0,0
3873,-100,4,2,1,60,0,0
4207,-100,4,2,1,60,0,0
5040,-100,4,2,1,60,0,0
5540,-100,4,2,1,60,0,0
6540,-100,4,2,1,60,0,0
6873,-100,4,2,1,60,0,0
7207,-100,4,2,1,60,0,0
8123,-100,4,2,1,60,0,0
9207,-100,4,2,1,60,0,0
9457,-100,4,2,1,60,0,0
10373,-100,4,2,1,60,0,0
10790,-100,4,2,1,60,0,0
11207,-100,4,2,1,60,0,0
11457,-100,4,2,1,60,0,0
11873,-100,4,2,1,60,0,0
12082,-100,4,2,1,60,0,0
12207,-100,4,2,1,60,0,0
12373,-100,4,2,1,60,0,0
12540,-100,4,2,1,60,0,0
12707,-100,4,2,1,60,0,0
12873,-100,4,2,1,60,0,0
13373,-100,4,2,1,70,0,0
16040,-133.333333333333,4,2,1,70,0,0
18707,-100,4,2,1,70,0,0
21373,-100,4,2,1,70,0,0
22707,-100,4,3,2,70,0,0
23040,-100,4,2,1,70,0,0
23707,-100,4,2,2,70,0,0
24040,-100,4,2,1,70,0,0
33373,-100,4,2,1,70,0,0
33457,-100,4,2,1,70,0,0
34707,-100,4,2,1,70,0,0
35540,-100,4,2,1,70,0,0
36040,-100,4,2,1,70,0,0
36873,-100,4,2,1,70,0,0
45040,-100,4,2,1,70,0,0
45123,-100,4,2,1,70,0,0
45373,-133.333333333333,4,2,1,60,0,0
45457,-133.333333333333,4,2,1,60,0,0
46707,-133.333333333333,4,2,1,60,0,0
52040,-133.333333333333,4,2,1,55,0,0
52373,-153.846153846154,4,2,1,55,0,0
53707,-153.846153846154,4,2,1,50,0,0
53957,-200,4,2,1,50,0,0
56040,-153.846153846154,4,2,1,55,0,0
56123,-153.846153846154,4,2,1,55,0,0
56373,-153.846153846154,4,2,1,55,0,0
61373,-153.846153846154,4,2,1,60,0,0
65373,-133.333333333333,4,2,1,60,0,0
66283,-133.333333333333,4,2,1,60,0,0
66373,-86.9565217391304,4,2,1,60,0,0
66449,-86.9565217391304,4,2,1,60,0,0
66540,-86.9565217391304,4,2,1,60,0,0
66707,-86.9565217391304,4,2,1,70,0,0
67040,-100,4,2,1,70,0,0
74707,-100,4,2,1,70,0,0
76040,-100,4,3,2,70,0,0
76207,-100,4,3,2,70,0,0
76290,-100,4,3,2,70,0,0
76373,-100,4,3,2,70,0,0
76457,-100,4,3,2,70,0,0
76540,-117.647058823529,4,3,2,70,0,0
76623,-117.647058823529,4,3,2,70,0,0
76707,-111.111111111111,4,3,2,70,0,0
76873,-105.263157894737,4,3,2,70,0,0
77040,-100,4,2,1,70,0,0
77373,-86.9565217391304,4,2,1,80,0,1
77540,-86.9565217391304,4,2,1,80,0,1
80540,-133.333333333333,4,2,1,80,0,1
80873,-86.9565217391304,4,2,1,80,0,1
81540,-133.333333333333,4,2,1,80,0,1
81582,-133.333333333333,4,2,1,5,0,1
81707,-133.333333333333,4,2,1,80,0,1
82040,-86.9565217391304,4,2,1,80,0,1
82707,-86.9565217391304,4,2,1,80,0,1
82873,-86.9565217391304,4,2,1,80,0,1
85873,-133.333333333333,4,2,1,80,0,1
85915,-133.333333333333,4,2,1,5,0,1
86040,-133.333333333333,4,2,1,80,0,1
86207,-86.9565217391304,4,2,1,80,0,1
86748,-86.9565217391304,4,2,1,5,0,1
86873,-133.333333333333,4,2,1,80,0,1
87373,-86.9565217391304,4,2,1,80,0,1
88373,-86.9565217391304,4,2,1,80,0,1
88540,-86.9565217391304,4,2,1,80,0,1
91207,-133.333333333333,4,2,1,80,0,1
91248,-133.333333333333,4,2,1,5,0,1
91373,-133.333333333333,4,2,1,80,0,1
91540,-86.9565217391304,4,2,1,80,0,1
92207,-133.333333333333,4,2,1,80,0,1
92248,-133.333333333333,4,2,1,5,0,1
92373,-133.333333333333,4,2,1,80,0,1
92707,-86.9565217391304,4,2,1,80,0,1
93373,-86.9565217391304,4,2,1,80,0,1
93540,-86.9565217391304,4,2,1,80,0,1
94707,-86.9565217391304,4,2,1,80,0,1
94873,-86.9565217391304,4,2,1,80,0,1
96040,-86.9565217391304,4,2,1,80,0,1
96207,-86.9565217391304,4,2,1,80,0,1
96707,-86.9565217391304,4,2,1,80,0,1
96873,-86.9565217391304,4,2,1,80,0,1
97373,-86.9565217391304,4,2,1,80,0,1
97540,-86.9565217391304,4,2,1,80,0,1
97707,-100,4,2,1,70,0,1
98540,-100,4,2,1,70,0,0
98707,-100,4,2,1,70,0,0
109373,-100,4,2,1,80,0,0
109707,-100,4,2,1,80,0,1
118707,-100,4,2,1,70,0,0
120040,-100,4,2,1,70,0,0
120199,-57.1428571428571,4,2,1,70,0,0
120533,-57.1428571428571,4,2,1,70,0,0
120866,-57.1428571428571,4,2,1,70,0,0
121199,-57.1428571428571,4,2,1,70,0,0
121533,-57.1428571428571,4,2,1,70,0,0
121866,-57.1428571428571,4,2,1,70,0,0
122199,-57.1428571428571,4,2,1,70,0,0
122707,-57.1428571428571,4,2,1,5,0,0

[Colours]
Combo1 : 128,64,64
Combo2 : 128,128,128
Combo3 : 0,64,128

[HitObjects]
256,192,1374,12,0,2373,0:0:0:0:
69,293,2707,5,4,3:2:0:0:
69,293,2873,2,0,L|66:218,1,70
22,150,3207,2,0,P|49:140|95:146,1,70
143,208,3540,2,0,P|170:218|216:212,1,70
180,135,3873,6,0,L|176:85,2,35,8|8|2,0:1|0:1|0:3,0:0:0:0:
263,149,4207,2,0,L|259:69,1,70
343,76,4540,2,0,L|339:156,2,70
429,96,5040,1,2,0:3:0:0:
429,96,5207,2,0,L|433:146,2,35,8|8|2,0:1|0:1|0:3,0:0:0:0:
343,76,5540,5,0,0:0:0:0:
343,76,5707,2,0,L|339:156,1,70
256,161,6040,2,0,L|260:241,2,70
180,135,6540,2,0,L|176:85,2,35,8|8|2,0:1|0:1|0:3,0:0:0:0:
376,293,7207,22,0,L|377:332,2,35,8|8|2,0:1|0:1|0:3,0:0:0:0:
444,249,7540,2,0,L|440:169,1,70,8|2,0:1|0:3,0:0:0:0:
363,146,7873,2,0,L|366:192,1,35,8|8,0:1|0:1,0:0:0:0:
295,211,8040,6,0,L|298:284,3,70,2|0|0|0,0:3|0:0|0:0|0:0,0:0:0:0:
214,288,8707,2,0,L|212:218,2,70
155,348,9207,21,8,0:1:0:0:
155,348,9290,1,8,0:1:0:0:
155,348,9373,2,0,L|82:354,2,70,2|0|0,0:3|0:0|0:0,0:0:0:0:
214,288,9873,2,0,L|292:283,2,70
133,264,10373,6,0,L|71:268,2,46.6666666666667,8|0|0,0:1|0:0|0:0,0:0:0:0:
197,208,10707,2,0,L|272:203,2,70,2|0|0,0:3|0:0|0:0,0:0:0:0:
138,163,11207,21,8,0:1:0:0:
138,163,11290,1,8,0:1:0:0:
138,163,11373,2,0,L|65:167,2,70,2|0|0,0:3|0:0|0:0,0:0:0:0:
215,123,11873,1,8,0:1:0:0:
215,123,11956,1,8,0:1:0:0:
215,123,12040,1,2,0:3:0:0:
256,192,12123,12,2,13040,0:1:0:0:
435,191,13373,38,0,L|430:269,1,70,6|0,3:2|0:0,0:0:0:0:
334,289,13707,2,0,L|339:369,1,70,8|0,0:0|0:0,0:0:0:0:
442,370,14040,2,0,L|522:380,1,70,8|0,0:0|0:0,0:0:0:0:
512,277,14373,1,8,0:0:0:0:
512,277,14540,1,2,0:0:0:0:
435,191,14707,54,0,L|431:280,1,70,10|0,0:2|0:0,0:0:0:0:
334,289,15040,1,8,0:0:0:0:
334,289,15207,1,2,0:0:0:0:
234,257,15373,54,0,L|230:168,1,70,10|2,0:0|0:0,0:0:0:0:
210,87,15707,1,10,0:0:0:0:
210,87,15873,1,2,0:0:0:0:
124,63,16040,6,0,P|122:89|129:115,1,52.5000020027161,14|0,0:0|0:0,0:0:0:0:
101,192,16373,2,0,P|127:197|153:193,1,52.5000020027161,8|2,0:0|0:0,0:0:0:0:
232,218,16707,2,0,P|236:192|232:167,1,52.5000020027161,10|0,0:0|0:0,0:0:0:0:
261,87,17040,2,0,P|235:82|210:87,1,52.5000020027161,8|0,0:0|0:0,0:0:0:0:
128,114,17373,6,0,P|122:89|124:63,1,52.5000020027161,8|2,0:0|0:0,0:0:0:0:
210,86,17707,2,0,P|235:82|261:87,1,52.5000020027161,10|0,0:0|0:0,0:0:0:0:
232,167,18040,2,0,P|236:192|232:218,1,52.5000020027161,8|2,0:0|0:0,0:0:0:0:
152,193,18373,1,10,0:0:0:0:
152,193,18540,1,2,0:0:0:0:
176,283,18707,54,0,P|141:281|106:282,1,70,10|8,0:0|0:1,0:0:0:0:
109,358,19040,2,0,P|143:357|178:358,1,70,8|8,0:0|0:1,0:0:0:0:
255,240,19373,2,0,P|289:239|324:239,1,70,8|8,0:0|0:1,0:0:0:0:
328,315,19707,2,0,P|293:314|258:314,1,70,8|8,0:0|0:1,0:0:0:0:
178,199,20040,2,0,P|141:198|106:199,1,70,10|8,0:0|0:1,0:0:0:0:
105,274,20373,2,0,P|139:273|174:274,1,70,8|8,0:0|0:1,0:0:0:0:
253,156,20707,2,0,P|290:155|325:156,1,70,10|8,0:0|0:1,0:0:0:0:
326,231,21040,2,0,P|291:230|256:231,1,70,10|8,0:0|0:1,0:0:0:0:
178,113,21373,22,0,L|136:113,16,35,10|8|8|8|8|8|8|8|10|8|8|8|8|8|8|8|4,0:0|0:1|0:1|0:1|0:0|0:1|0:1|0:1|0:0|0:1|0:1|0:1|0:0|0:1|0:1|0:1|0:0,0:0:0:0:
336,170,23040,54,0,P|347:135|336:84,1,70,2|0,0:1|0:0,0:0:0:0:
335,34,23373,2,0,P|332:69|343:102,1,70,2|0,0:1|0:0,0:0:0:0:
425,120,23707,2,0,P|449:99|409:89,1,70,2|0,0:2|0:0,0:0:0:0:
342,101,24040,54,0,L|253:101,1,70,4|0,3:2|0:0,0:0:0:0:
244,188,24373,2,0,L|329:188,1,70,8|0,3:2|0:0,0:0:0:0:
407,213,24707,1,0,3:0:0:0:
407,213,24873,2,0,L|407:248,2,35,2|2|8,0:0|0:0|3:2,0:0:0:0:
425,120,25207,1,2,0:0:0:0:
337,97,25373,54,0,L|267:97,1,70,0|0,3:0|0:0,0:0:0:0:
221,17,25707,2,0,L|291:17,1,70,8|0,3:2|0:0,0:0:0:0:
384,36,26040,1,0,3:0:0:0:
384,36,26207,2,0,L|384:1,2,35,2|2|8,0:0|0:0|3:2,0:0:0:0:
425,120,26540,1,2,0:0:0:0:
469,191,26707,6,0,L|469:261,1,70,0|0,3:0|0:0,0:0:0:0:
377,258,27040,2,0,L|377:188,1,70,8|0,3:2|0:0,0:0:0:0:
291,209,27373,1,0,3:0:0:0:
291,209,27540,2,0,L|291:254,2,35,2|2|8,0:0|0:0|3:2,0:0:0:0:
235,136,27873,1,2,0:0:0:0:
183,60,28040,6,0,L|113:60,1,70,0|0,3:0|0:0,0:0:0:0:
67,138,28373,1,8,3:2:0:0:
67,138,28540,2,0,L|104:138,2,35,2|2|0,0:0|0:0|3:0,0:0:0:0:
14,223,28873,1,2,0:0:0:0:
14,223,28957,1,2,0:0:0:0:
14,223,29040,1,8,3:2:0:0:
63,299,29207,1,2,3:2:0:0:
103,380,29373,6,0,L|173:380,1,70,4|0,3:2|0:0,0:0:0:0:
220,301,29707,2,0,L|149:301,1,70,8|0,3:2|0:0,0:0:0:0:
63,299,30040,1,0,3:0:0:0:
63,299,30207,2,0,L|11:299,2,35,2|2|8,0:0|0:0|3:2,0:0:0:0:
112,222,30540,1,2,0:0:0:0:
151,139,30707,6,0,L|221:139,1,70,0|0,3:0|0:0,0:0:0:0:
269,61,31040,2,0,L|199:61,1,70,8|0,3:2|0:0,0:0:0:0:
111,61,31373,1,0,3:0:0:0:
111,61,31540,2,0,L|111:27,2,35,2|2|8,0:0|0:0|3:2,0:0:0:0:
155,143,31873,1,2,0:0:0:0:
201,221,32040,6,0,L|201:299,1,70,0|0,3:0|0:0,0:0:0:0:
292,291,32373,2,0,L|292:221,1,70,8|0,3:2|0:0,0:0:0:0:
386,238,32707,1,0,3:0:0:0:
386,238,32873,2,0,L|386:282,2,35,2|2|8,0:0|0:0|3:2,0:0:0:0:
480,258,33207,1,2,0:0:0:0:
480,258,33373,1,0,3:0:0:0:
378,106,33707,6,0,P|414:100|462:120,1,70,2|0,0:1|0:0,0:0:0:0:
512,127,34040,2,0,P|477:124|445:109,1,70,2|0,0:1|0:0,0:0:0:0:
436,17,34374,2,0,P|460:-3|463:37,1,70,2|8,0:1|0:1,0:0:0:0:
446,109,34707,37,4,3:2:0:0:
446,109,34873,2,0,L|446:157,4,35,0|0|8|0|0,0:0|0:0|3:2|0:0|0:0,0:0:0:0:
362,137,35373,1,0,3:0:0:0:
362,137,35540,2,0,L|362:100,4,35,2|2|8|0|2,0:0|0:0|3:2|0:0|0:0,0:0:0:0:
370,231,36040,1,0,3:0:0:0:
370,231,36207,2,0,L|370:275,4,35,0|0|8|0|0,0:0|0:0|3:2|0:0|0:0,0:0:0:0:
460,263,36707,5,0,3:0:0:0:
460,263,36873,2,0,L|460:227,4,35,2|2|8|0|2,0:0|0:0|3:2|0:0|0:0,0:0:0:0:
464,358,37373,1,0,3:0:0:0:
464,358,37540,2,0,L|503:358,4,35,0|0|8|0|0,0:0|0:0|3:2|0:0|0:0,0:0:0:0:
376,357,38040,1,0,3:0:0:0:
376,357,38207,2,0,L|340:357,4,35,2|2|8|0|2,0:0|0:0|3:2|0:0|0:0,0:0:0:0:
416,275,38707,1,0,3:0:0:0:
255,189,39040,6,0,P|222:197|194:218,1,70,8|2,3:2|0:0,0:0:0:0:
137,257,39373,2,0,P|169:243|193:218,1,70,0|2,3:0|1:2,0:0:0:0:
190,173,39623,1,2,3:2:0:0:
190,173,39707,2,0,P|159:165|154:196,1,70,0|2,0:0|1:2,0:0:0:0:
255,268,40040,38,0,L|255:346,1,70,4|0,3:2|0:0,0:0:0:0:
345,328,40373,2,0,P|357:290|344:254,1,70,2|0,3:1|0:0,0:0:0:0:
295,187,40707,22,0,L|222:187,1,70,0|2,3:2|0:0,0:0:0:0:
154,244,41040,2,0,P|148:280|158:323,1,70,2|2,3:1|3:2,0:0:0:0:
215,379,41373,22,0,L|290:379,1,70,0|0,3:2|0:0,0:0:0:0:
345,328,41707,2,0,P|341:293|349:259,1,70,2|0,3:1|0:0,0:0:0:0:
397,182,42040,6,0,P|401:147|393:113,1,70,0|2,3:2|0:0,0:0:0:0:
309,150,42373,2,0,L|230:153,1,70,2|2,0:1|3:2,0:0:0:0:
191,74,42707,22,0,L|233:14,1,70,2|0,3:1|3:2,0:0:0:0:
322,12,43040,2,0,L|366:78,1,70,0|0,3:2|3:2,0:0:0:0:
395,147,43373,38,0,L|397:188,8,35,0|0|2|2|0|0|2|0|0,3:2|3:2|3:2|3:2|3:2|3:2|3:2|3:2|3:2,0:0:0:0:
147,260,44540,38,0,L|112:260,1,35,2|2,0:0|0:0,0:0:0:0:
11,350,44873,1,2,0:0:0:0:
11,350,44957,1,2,0:0:0:0:
11,350,45040,2,0,L|88:350,1,70,0|2,0:0|0:0,0:0:0:0:
159,346,45373,54,0,B|243:375|243:309|330:338,1,157.500006008148,4|0,3:2|0:0,0:0:0:0:
473,336,46207,1,4,0:3:0:0:
473,336,46290,2,0,L|473:251,1,78.7500030040742,0|4,0:0|0:3,0:0:0:0:
416,201,46707,1,4,0:3:0:0:
507,74,47040,1,4,0:3:0:0:
507,74,47290,1,4,0:3:0:0:
409,16,47540,53,4,0:3:0:0:
409,16,47623,2,0,L|327:16,1,78.7500030040742,0|4,0:0|0:3,0:0:0:0:
271,68,48040,1,4,0:3:0:0:
376,192,48373,1,4,0:3:0:0:
376,192,48623,1,4,0:3:0:0:
277,254,48873,5,4,0:3:0:0:
277,254,48957,2,0,L|260:353,1,78.7500030040742,0|4,0:0|0:3,0:0:0:0:
197,374,49373,1,8,0:3:0:0:
75,281,49707,5,8,0:3:0:0:
75,281,49873,2,0,L|74:246,1,26.2500010013581,0|8,0:0|0:3,0:0:0:0:
10,154,50207,2,0,L|10:128,1,26.2500010013581,8|0,0:3|0:0,0:0:0:0:
120,79,50540,1,8,0:3:0:0:
120,79,50707,1,4,0:3:0:0:
256,0,51040,6,0,L|334:0,1,78.7500030040742,4|4,0:3|0:3,0:0:0:0:
437,1,51540,2,0,P|454:51|437:108,1,105.000004005432,4|4,0:3|0:3,0:0:0:0:
391,146,52040,1,4,0:3:0:0:
297,218,52373,6,0,P|290:256|297:300,1,68.2499968757631,4|4,0:3|0:3,0:0:0:0:
371,338,52873,1,4,0:3:0:0:
371,338,53207,2,0,L|422:338,1,45.4999979171754,4|4,0:3|0:3,0:0:0:0:
501,255,53707,5,4,0:3:0:0:
501,255,53957,2,0,L|443:255,1,52.5,4|4,0:3|0:3,0:0:0:0:
357,255,54540,1,4,0:3:0:0:
357,255,54707,1,8,0:3:0:0:
386,168,55040,6,0,L|438:168,1,52.5,8|8,0:3|0:3,0:0:0:0:
506,167,55540,1,8,0:3:0:0:
471,88,55873,1,8,0:3:0:0:
471,88,56040,1,4,3:2:0:0:
386,168,56373,53,4,0:3:0:0:
294,93,56707,2,0,L|294:24,1,68.2499968757631,4|4,0:3|0:3,0:0:0:0:
205,33,57207,2,0,L|205:79,3,45.4999979171754,4|8|8|8,0:3|0:3|0:3|0:3,0:0:0:0:
92,59,58040,1,8,0:3:0:0:
92,59,58290,1,8,0:3:0:0:
3,67,58540,2,0,L|3:44,2,22.7499989585877,8|8|4,0:3|0:3|0:3,0:0:0:0:
8,130,58873,53,4,0:3:0:0:
8,130,59040,1,4,0:3:0:0:
82,221,59373,6,0,L|78:300,1,68.2499968757631,4|4,0:3|0:3,0:0:0:0:
154,334,59873,2,0,L|155:316,3,15.1666659723918,4|4|4|8,0:3|0:3|0:3|0:3,0:0:0:0:
159,259,60207,2,0,L|162:211,1,45.4999979171754,8|8,0:3|0:3,0:0:0:0:
167,158,60540,1,8,0:3:0:0:
167,158,60707,1,8,0:3:0:0:
240,193,60873,54,0,L|236:231,1,22.7499989585877,8|8,0:3|0:3,0:0:0:0:
234,273,61123,2,0,L|232:294,1,22.7499989585877,8|8,0:3|0:3,0:0:0:0:
229,358,61373,5,4,3:2:0:0:
229,358,61707,2,0,L|328:367,1,90.9999958343508,4|4,0:3|0:3,0:0:0:0:
412,376,62290,1,4,0:3:0:0:
412,376,62540,2,0,L|471:379,3,45.4999979171754,4|8|8|8,0:3|0:3|0:3|0:3,0:0:0:0:
372,304,63373,53,8,0:3:0:0:
372,304,63623,2,0,L|378:227,1,68.2499968757631,8|8,0:3|0:3,0:0:0:0:
426,201,64040,2,0,P|387:177|336:189,1,90.9999958343508,4|4,0:3|0:3,0:0:0:0:
241,244,64707,5,4,0:3:0:0:
163,286,64957,1,4,0:3:0:0:
84,327,65207,2,0,L|84:301,1,22.7499989585877,4|0,0:3|0:0,0:0:0:0:
85,270,65373,54,0,B|85:160,1,105.000004005432,2|0,0:1|0:0,0:0:0:0:
3,275,66040,2,0,L|3:312,6,26.2500010013581,2|0|0|0|0|0|0,0:1|0:0|0:0|0:0|0:0|0:0|0:0,0:0:0:0:
83,183,66707,5,2,3:1:0:0:
36,87,66873,1,8,0:1:0:0:
36,87,67040,2,0,L|112:86,1,70,8|8,0:0|0:1,0:0:0:0:
210,53,67373,1,8,0:0:0:0:
210,53,67540,2,0,L|210:131,1,70,8|8,0:1|0:0,0:0:0:0:
248,219,67873,1,8,0:1:0:0:
248,219,68040,2,0,L|170:219,1,70,8|8,0:0|0:1,0:0:0:0:
83,253,68373,1,8,0:0:0:0:
83,253,68540,2,0,L|82:176,1,70,8|8,0:1|0:0,0:0:0:0:
36,87,68873,5,8,0:1:0:0:
36,87,69040,1,8,0:0:0:0:
181,0,69290,5,0,0:0:0:0:
181,0,69373,2,0,L|263:0,1,70,8|8,0:0|0:1,0:0:0:0:
347,38,69707,1,8,0:0:0:0:
496,96,69957,5,8,0:1:0:0:
496,96,70040,2,0,L|414:96,1,70,8|8,0:0|0:1,0:0:0:0:
360,157,70373,1,8,0:0:0:0:
221,220,70623,5,8,0:1:0:0:
221,220,70706,2,0,L|303:220,1,70,8|8,0:0|0:1,0:0:0:0:
367,278,71040,1,8,0:0:0:0:
512,322,71290,5,8,0:1:0:0:
512,322,71373,2,0,L|430:322,1,70,8|0,0:0|1:0,0:0:0:0:
375,382,71707,1,8,0:0:0:0:
367,278,71873,5,8,0:1:0:0:
367,278,71957,1,0,0:0:0:0:
367,278,72040,2,0,L|367:232,6,35,8|8|8|8|8|8|8,0:0|0:1|0:1|0:1|0:0|0:1|0:1,0:0:0:0:
286,209,72707,2,0,L|286:174,6,35,8|8|8|8|8|8|8,0:0|0:1|0:1|0:1|0:0|0:1|0:1,0:0:0:0:
368,143,73373,2,0,L|368:108,6,35,8|8|8|8|8|8|8,0:0|0:1|0:1|0:1|0:0|0:1|0:1,0:0:0:0:
286,75,74040,2,0,L|286:40,6,35,8|8|8|8|8|8|8,0:0|0:1|0:1|0:1|0:0|0:1|0:1,0:0:0:0:
216,155,74707,5,8,0:0:0:0:
216,155,74790,1,8,0:1:0:0:
216,155,74873,1,8,0:1:0:0:
296,233,75040,2,0,L|336:199,2,35,8|8|8,0:0|0:1|0:1,0:0:0:0:
376,155,75373,1,8,0:0:0:0:
376,155,75456,1,8,0:1:0:0:
376,155,75539,1,8,0:1:0:0:
296,76,75707,2,0,L|265:110,2,35,8|8|8,0:0|0:1|0:1,0:0:0:0:
216,155,76040,5,4,3:0:0:0:
256,192,76207,12,0,77040,1:0:0:0:
280,132,77373,6,0,L|366:132,1,80.5000015354157,6|0,3:2|0:0,0:0:0:0:
321,249,77707,2,0,L|321:332,1,80.5000015354157,8|0,3:2|0:0,0:0:0:0:
207,286,78040,2,0,L|123:286,1,80.5000015354157,0|0,3:0|0:0,0:0:0:0:
174,177,78373,53,8,3:2:0:0:
174,177,78540,1,2,0:0:0:0:
118,77,78707,2,0,L|26:77,1,80.5000015354157,2|0,3:2|0:0,0:0:0:0:
131,0,79040,2,0,L|223:0,1,80.5000015354157,8|2,3:2|0:0,0:0:0:0:
300,81,79373,6,0,L|219:81,1,80.5000015354157,2|2,3:2|0:0,0:0:0:0:
139,172,79707,2,0,L|219:172,1,80.5000015354157,10|2,3:2|0:0,0:0:0:0:
337,197,80040,1,2,3:2:0:0:
396,251,80207,1,0,0:0:0:0:
417,173,80373,1,8,3:2:0:0:
314,279,80540,2,0,B|286:288|286:288|246:275,1,52.5000020027161,2|2,0:0|3:2,0:0:0:0:
174,199,80873,2,0,L|261:200,1,80.5000015354157,0|8,0:0|3:2,0:0:0:0:
344,117,81207,53,0,0:0:0:0:
264,117,81373,1,0,3:0:0:0:
184,116,81540,2,0,B|176:89|176:89|180:49,1,52.5000020027161,2|10,0:0|3:2,0:0:0:0:
263,36,81873,5,0,0:0:0:0:
263,36,82040,2,0,L|264:124,1,80.5000015354157,0|2,3:0|0:0,0:0:0:0:
174,199,82373,1,10,3:2:0:0:
174,199,82540,1,2,1:2:0:0:
83,279,82707,54,0,L|83:365,1,80.5000015354157,6|0,3:2|0:0,0:0:0:0:
202,378,83040,2,0,L|202:294,1,80.5000015354157,8|0,3:2|0:0,0:0:0:0:
320,272,83373,2,0,L|320:353,1,80.5000015354157,0|0,3:0|0:0,0:0:0:0:
443,379,83707,1,8,3:2:0:0:
443,379,83873,1,2,0:0:0:0:
320,352,84040,6,0,L|320:260,1,80.5000015354157,2|0,3:2|0:0,0:0:0:0:
414,194,84373,2,0,L|414:286,1,80.5000015354157,8|2,3:2|0:0,0:0:0:0:
324,193,84707,2,0,L|324:112,1,80.5000015354157,2|2,3:2|0:0,0:0:0:0:
412,30,85040,2,0,L|412:111,1,80.5000015354157,10|2,3:2|0:0,0:0:0:0:
316,36,85373,1,2,3:2:0:0:
247,80,85540,1,0,0:0:0:0:
319,115,85707,1,8,3:2:0:0:
236,1,85873,2,0,B|209:-8|209:-8|185:0,1,52.5000020027161,2|2,0:0|3:2,0:0:0:0:
91,76,86207,6,0,L|190:77,1,80.5000015354157,0|8,0:0|3:2,0:0:0:0:
251,167,86540,1,2,0:2:0:0:
251,167,86707,1,2,3:2:0:0:
337,251,86873,1,0,0:0:0:0:
416,341,87040,6,0,B|391:348|391:348|365:343,1,52.5000020027161,10|0,3:2|0:0,0:0:0:0:
260,282,87373,2,0,B|220:270|220:270|165:282,1,80.5000015354157,0|0,3:1|0:0,0:0:0:0:
81,344,87707,1,8,3:2:0:0:
10,260,87873,1,0,0:0:0:0:
10,260,87957,1,0,0:0:0:0:
10,260,88040,2,0,L|15:218,2,40.2500007677078,4|0|0,3:2|0:0|3:0,0:0:0:0:
121,212,88373,6,0,L|202:194,1,80.5000015354157,10|0,3:2|0:0,0:0:0:0:
319,213,88707,2,0,L|302:133,1,80.5000015354157,0|0,3:0|0:0,0:0:0:0:
320,15,89040,2,0,L|241:31,1,80.5000015354157,8|2,3:2|0:0,0:0:0:0:
122,23,89373,2,0,L|138:102,1,80.5000015354157,2|0,3:2|0:0,0:0:0:0:
121,212,89707,1,8,3:2:0:0:
121,212,89873,1,2,0:0:0:0:
240,232,90040,54,0,L|329:210,1,80.5000015354157,2|2,3:2|0:0,0:0:0:0:
427,265,90373,2,0,L|338:287,1,80.5000015354157,10|2,3:2|0:0,0:0:0:0:
260,379,90707,1,2,3:2:0:0:
201,304,90873,1,0,0:0:0:0:
277,301,91040,1,8,3:2:0:0:
183,380,91207,2,0,B|155:384|155:384|129:379,1,52.5000020027161,2|2,0:0|3:2,0:0:0:0:
36,305,91540,6,0,L|116:305,1,80.5000015354157,0|8,0:0|3:2,0:0:0:0:
160,194,91873,1,0,0:0:0:0:
160,194,92040,1,0,3:0:0:0:
205,78,92207,2,0,B|230:70|230:70|258:78,1,52.5000020027161,2|10,0:0|3:2,0:0:0:0:
352,137,92540,1,0,0:0:0:0:
352,137,92707,2,0,B|388:148|388:148|438:137,1,80.5000015354157,0|2,3:0|0:0,0:0:0:0:
392,28,93040,5,10,3:2:0:0:
392,28,93207,1,2,1:2:0:0:
352,137,93373,2,0,L|352:217,1,80.5000015354157,6|0,3:2|0:0,0:0:0:0:
317,332,93707,2,0,L|398:332,1,80.5000015354157,8|0,3:2|0:0,0:0:0:0:
512,371,94040,2,0,L|512:291,1,80.5000015354157,0|0,3:0|0:0,0:0:0:0:
456,185,94373,1,8,3:2:0:0:
456,185,94540,1,2,3:2:0:0:
343,140,94707,54,0,L|343:221,1,80.5000015354157,6|0,3:2|0:0,0:0:0:0:
226,253,95040,2,0,L|226:173,1,80.5000015354157,8|2,3:2|0:0,0:0:0:0:
229,55,95373,1,2,3:2:0:0:
229,55,95540,1,2,3:2:0:0:
112,141,95707,2,0,L|112:232,1,80.5000015354157,2|2,3:2|3:2,0:0:0:0:
226,253,96040,1,6,3:2:0:0:
226,253,96207,2,0,L|226:159,1,80.5000015354157,0|0,3:0|3:0,0:0:0:0:
303,8,96623,5,2,3:2:0:0:
303,8,96707,2,0,B|345:-2|345:-2|405:15,1,80.5000015354157,6|0,3:2|3:0,0:0:0:0:
483,73,97040,1,2,3:2:0:0:
376,120,97207,1,0,3:0:0:0:
376,120,97290,1,0,3:0:0:0:
376,120,97373,1,0,3:0:0:0:
167,180,97707,22,0,P|134:165|103:123,1,70,2|0,0:1|0:0,0:0:0:0:
64,92,98040,2,0,P|93:112|111:142,1,70,2|0,0:1|0:0,0:0:0:0:
69,223,98374,2,0,P|38:227|57:190,1,70,2|0,0:1|0:0,0:0:0:0:
110,141,98707,5,4,3:2:0:0:
110,141,99040,1,8,0:1:0:0:
250,25,99373,2,0,L|345:25,1,70,8|0,0:1|0:0,0:0:0:0:
320,25,99623,1,8,0:1:0:0:
320,25,99707,1,0,0:0:0:0:
326,115,99873,2,0,L|231:115,1,70,8|8,0:1|0:1,0:0:0:0:
377,250,100373,22,0,P|411:236|444:196,1,70,10|0,0:1|0:0,0:0:0:0:
483,166,100706,2,0,P|453:184|434:212,1,70,10|0,0:1|0:0,0:0:0:0:
468,298,101040,2,0,P|499:303|482:265,1,70,2|8,0:1|0:1,0:0:0:0:
434,213,101373,21,8,0:1:0:0:
434,213,101707,1,8,0:1:0:0:
291,326,102040,2,0,L|213:326,1,70,8|0,0:1|0:0,0:0:0:0:
221,326,102290,1,8,0:1:0:0:
221,326,102373,1,0,0:0:0:0:
221,235,102540,2,0,L|310:235,1,70,8|8,0:1|0:1,0:0:0:0:
158,110,103040,22,0,P|125:127|97:170,1,70,10|0,0:1|0:0,0:0:0:0:
60,205,103373,2,0,P|87:182|102:151,1,70,10|0,0:1|0:0,0:0:0:0:
58,70,103707,2,0,P|26:69|47:103,1,70,2|8,0:1|0:1,0:0:0:0:
102,151,104040,5,8,3:1:0:0:
102,151,104373,1,8,3:1:0:0:
256,247,104707,2,0,L|256:141,1,105,8|8,3:1|3:1,0:0:0:0:
259,9,105207,1,8,3:1:0:0:
259,9,105373,1,8,3:1:0:0:
369,188,105707,54,0,P|393:160|404:109,1,70,10|0,3:1|0:0,0:0:0:0:
426,65,106040,2,0,P|408:94|403:129,1,70,10|0,3:1|0:0,0:0:0:0:
431,168,106290,1,8,3:1:0:0:
431,168,106374,2,0,P|460:154|424:132,1,70,2|8,0:1|3:1,0:0:0:0:
327,120,106707,6,0,L|245:120,1,70,8|0,3:1|3:0,0:0:0:0:
186,197,107040,2,0,L|256:197,1,70,8|0,3:1|3:0,0:0:0:0:
308,271,107373,2,0,L|343:271,8,35,8|8|8|8|8|8|8|8|8,3:1|3:1|3:1|3:1|3:1|3:1|3:1|3:1|3:1,0:0:0:0:
320,131,108373,54,0,P|284:121|234:135,1,70,2|0,0:1|0:0,0:0:0:0:
184,135,108706,2,0,P|219:137|251:125,1,70,2|0,0:1|0:0,0:0:0:0:
277,25,109040,2,0,P|255:2|246:43,1,70,2|0,0:1|0:0,0:0:0:0:
252,125,109373,5,8,0:0:0:0:
252,125,109540,1,0,3:0:0:0:
220,224,109707,54,0,L|296:224,1,70,14|0,3:2|0:0,0:0:0:0:
389,258,110040,2,0,L|389:188,1,70,0|0,3:0|0:0,0:0:0:0:
423,88,110373,2,0,L|347:88,1,70,8|2,3:2|0:0,0:0:0:0:
252,55,110707,2,0,L|252:125,1,70,2|0,3:2|0:0,0:0:0:0:
315,215,111040,6,0,P|280:225|229:215,1,70,8|0,3:2|0:0,0:0:0:0:
179,217,111373,2,0,P|213:212|247:222,1,70,0|0,3:0|0:0,0:0:0:0:
277,324,111707,2,0,P|256:347|246:307,1,70,8|2,3:2|0:0,0:0:0:0:
134,294,112040,54,0,L|144:363,1,70,2|0,3:2|0:0,0:0:0:0:
60,301,112373,2,0,L|49:231,1,70,8|2,3:2|0:0,0:0:0:0:
111,146,112707,2,0,L|121:215,1,70,2|0,3:2|0:0,0:0:0:0:
35,156,113040,2,0,L|24:86,1,70,8|2,3:2|0:0,0:0:0:0:
89,5,113373,1,2,3:2:0:0:
89,5,113540,1,2,0:0:0:0:
176,63,113707,6,0,P|209:78|240:120,1,70,2|0,3:2|0:0,0:0:0:0:
279,152,114040,2,0,P|250:132|232:102,1,70,0|0,3:0|1:0,0:0:0:0:
288,13,114373,2,0,P|319:9|300:46,1,70,10|2,3:2|1:2,0:0:0:0:
378,128,114707,53,2,3:2:0:0:
397,209,114873,1,0,0:0:0:0:
428,287,115040,6,0,L|501:287,1,70,2|0,3:1|0:0,0:0:0:0:
473,184,115373,53,0,3:0:0:0:
325,232,115623,1,0,3:0:0:0:
325,232,115707,2,0,L|257:248,1,70,2|0,0:1|3:0,0:0:0:0:
155,277,116040,1,0,3:0:0:0:
25,343,116373,6,0,L|25:273,1,70,2|0,3:1|3:0,0:0:0:0:
24,220,116623,2,0,L|24:185,1,35,0|0,3:0|3:0,0:0:0:0:
93,111,116873,5,8,3:2:0:0:
93,111,116957,1,8,3:2:0:0:
93,111,117040,1,2,3:1:0:0:
20,34,117207,2,0,L|20:-8,2,35,8|8|2,3:2|3:2|3:1,0:0:0:0:
129,36,117540,5,0,3:0:0:0:
171,132,117707,1,0,3:0:0:0:
93,111,117873,1,0,3:0:0:0:
205,64,118040,2,0,L|249:41,8,35,0|0|0|0|0|0|0|0|0,3:0|3:0|3:0|3:0|3:0|3:0|3:0|3:0|3:0,0:0:0:0:
93,111,118873,21,0,0:0:0:0:
120,197,119040,1,8,0:1:0:0:
144,284,119207,1,0,0:0:0:0:
207,219,119373,5,8,0:1:0:0:
297,226,119540,1,0,0:0:0:0:
324,313,119707,1,8,0:0:0:0:
234,299,119873,1,0,0:0:0:0:
256,192,120040,12,0,122707,0:0:0:0:
