osu file format v14

[General]
AudioFilename: audio.mp3
AudioLeadIn: 0
PreviewTime: 77040
Countdown: 0
SampleSet: Soft
StackLeniency: 0.4
Mode: 0
LetterboxInBreaks: 0
EpilepsyWarning: 1
WidescreenStoryboard: 1

[Editor]
Bookmarks: 2533,13199,23866,34533,45199,77199,98533,109199,119866
DistanceSpacing: 0.5
BeatDivisor: 4
GridSize: 16
TimelineZoom: 2.599999

[Metadata]
Title:L.F.O
TitleUnicode:L.F.O
Artist:aran
ArtistUnicode:aran
Creator:Pipuuko
Version:Feiri's Expert
Source:beatmania IIDX 26 Rootage
Tags:uk hardcore ln konami bemani low frequency oscillator video game electronic instrumental Feiri Runigh Orange_ Orange lfo rhythm megafan
BeatmapID:2873058
BeatmapSetID:1377112

[Difficulty]
HPDrainRate:5
CircleSize:4.8
OverallDifficulty:8.5
ApproachRate:9.6
SliderMultiplier:2
SliderTickRate:1

[Events]
//Background and Video events
0,0,"bg.jpg",0,0
Video,0,"video.mp4" S,0,0,,1
//Break Periods
//Storyboard Layer 0 (Background)
//Storyboard Layer 1 (Fail)
//Storyboard Layer 2 (Pass)
//Storyboard Layer 3 (Foreground)
//Storyboard Layer 4 (Overlay)
//Storyboard Sound Samples

[TimingPoints]
1374,333.333333333333,4,2,1,5,1,0
1533,-100,4,2,1,5,0,0
1540,-100,4,2,1,10,0,0
1707,-100,4,2,1,15,0,0
1866,-100,4,2,1,15,0,0
1873,-100,4,2,1,20,0,0
2040,-100,4,2,1,30,0,0
2199,-100,4,2,1,30,0,0
2207,-100,4,2,1,45,0,0
2373,-100,4,2,1,60,0,0
2533,-400,4,2,1,60,0,0
3873,-400,4,2,1,60,0,0
4040,-285.714285714286,4,2,1,60,0,0
4207,-285.714285714286,4,2,1,60,0,0
5040,-285.714285714286,4,2,1,60,0,0
5373,-222.222222222222,4,2,1,60,0,0
5540,-222.222222222222,4,2,1,60,0,0
6540,-222.222222222222,4,2,1,60,0,0
6707,-181.818181818182,4,2,1,60,0,0
6873,-181.818181818182,4,2,1,60,0,0
7207,-181.818181818182,4,2,1,60,0,0
7290,-181.818181818182,4,2,1,60,0,0
7707,-153.846153846154,4,2,1,60,0,0
8040,-133.333333333333,4,2,1,60,0,0
8123,-133.333333333333,4,2,1,60,0,0
8207,-133.333333333333,4,2,1,60,0,0
9207,-133.333333333333,4,2,1,60,0,0
9373,-117.647058823529,4,2,1,60,0,0
9457,-117.647058823529,4,2,1,60,0,0
9540,-117.647058823529,4,2,1,60,0,0
10373,-399.999999999995,4,2,1,60,0,0
10707,-105.263157894737,4,2,1,60,0,0
10790,-105.263157894737,4,2,1,60,0,0
11207,-105.263157894737,4,2,1,60,0,0
11457,-105.263157894737,4,2,1,60,0,0
11873,-105.263157894737,4,2,1,60,0,0
12082,-105.263157894737,4,2,1,60,0,0
12123,-105.263157894737,4,2,1,60,0,0
12707,-105.263157894737,4,2,1,60,0,0
13040,-66.6666666666667,4,2,1,60,0,0
13373,-66.6666666666667,4,2,1,70,0,0
16040,-222.222222222222,4,2,1,70,0,0
18707,-133.333333333333,4,2,1,70,0,0
21373,-133.333333333333,4,2,1,70,0,0
22707,-50,4,3,2,70,0,0
23040,-66.6666666666667,4,2,1,70,0,0
23373,-100,4,2,1,70,0,0
23707,-50,4,2,2,70,0,0
23866,-80,4,2,2,70,0,0
24040,-80,4,2,1,70,0,0
33373,-80,4,2,1,70,0,0
33457,-80,4,2,1,70,0,0
33707,-100,4,2,1,70,0,0
34040,-133.333333333333,4,2,1,70,0,0
34373,-66.6666666666667,4,2,1,70,0,0
34707,-66.6666666666667,4,2,1,70,0,0
35040,-100,4,2,1,70,0,0
35373,-66.6666666666667,4,2,1,70,0,0
35540,-66.6666666666667,4,2,1,70,0,0
35707,-100,4,2,1,70,0,0
36040,-66.6666666666667,4,2,1,70,0,0
36373,-100,4,2,1,70,0,0
36707,-66.6666666666667,4,2,1,70,0,0
36873,-66.6666666666667,4,2,1,70,0,0
37040,-100,4,2,1,70,0,0
37373,-66.6666666666667,4,2,1,70,0,0
37707,-100,4,2,1,70,0,0
38040,-66.6666666666667,4,2,1,70,0,0
38373,-100,4,2,1,70,0,0
38707,-66.6666666666667,4,2,1,70,0,0
40040,-100,4,2,1,70,0,0
44373,-133.333333333333,4,2,1,70,0,0
44707,-200,4,2,1,70,0,0
45040,-400,4,2,1,70,0,0
45207,-400,4,2,1,70,0,0
45373,-400,4,2,1,60,0,0
45457,-400,4,2,1,60,0,0
46707,-400,4,2,1,60,0,0
52040,-400,4,2,1,55,0,0
53707,-400,4,2,1,50,0,0
56040,-400,4,2,1,55,0,0
56123,-400,4,2,1,55,0,0
56373,-400,4,2,1,55,0,0
61373,-400,4,2,1,60,0,0
62707,-200,4,2,1,60,0,0
64040,-400,4,2,1,60,0,0
65373,-200,4,2,1,60,0,0
65707,-133.333333333333,4,2,1,60,0,0
66283,-133.333333333333,4,2,1,60,0,0
66449,-133.333333333333,4,2,1,60,0,0
66707,-100,4,2,1,70,0,0
74707,-100,4,2,1,70,0,0
76040,-100,4,3,2,70,0,0
76207,-100,4,3,2,70,0,0
76290,-100,4,3,2,70,0,0
76373,-100,4,3,2,70,0,0
76457,-100,4,3,2,70,0,0
76540,-100,4,3,2,70,0,0
76623,-100,4,3,2,70,0,0
76707,-100,4,3,2,70,0,0
77040,-100,4,2,1,70,0,0
77373,-66.6666666666667,4,2,1,80,0,1
77540,-66.6666666666667,4,2,1,80,0,1
81582,-66.6666666666667,4,2,1,80,0,1
81707,-66.6666666666667,4,2,1,80,0,1
82707,-66.6666666666667,4,2,1,80,0,1
82873,-66.6666666666667,4,2,1,80,0,1
85915,-66.6666666666667,4,2,1,80,0,1
86040,-66.6666666666667,4,2,1,80,0,1
86748,-66.6666666666667,4,2,1,80,0,1
86873,-66.6666666666667,4,2,1,80,0,1
88373,-66.6666666666667,4,2,1,80,0,1
88540,-66.6666666666667,4,2,1,80,0,1
91248,-66.6666666666667,4,2,1,80,0,1
91373,-66.6666666666667,4,2,1,80,0,1
92248,-66.6666666666667,4,2,1,80,0,1
92373,-66.6666666666667,4,2,1,80,0,1
93373,-66.6666666666667,4,2,1,80,0,1
93540,-66.6666666666667,4,2,1,80,0,1
94707,-66.6666666666667,4,2,1,80,0,1
94873,-66.6666666666667,4,2,1,80,0,1
96040,-66.6666666666667,4,2,1,80,0,1
96207,-66.6666666666667,4,2,1,80,0,1
96707,-66.6666666666667,4,2,1,80,0,1
96873,-66.6666666666667,4,2,1,80,0,1
97373,-50,4,2,1,80,0,1
97540,-50,4,2,1,80,0,1
97707,-66.6666666666667,4,2,1,70,0,1
98040,-100,4,2,1,70,0,1
98373,-50,4,2,1,70,0,1
98707,-100,4,2,1,70,0,0
108040,-50,4,2,1,70,0,0
108373,-66.6666666666667,4,2,1,70,0,0
108707,-100,4,2,1,70,0,0
109040,-50,4,2,1,70,0,0
109373,-100,4,2,1,80,0,0
109707,-66.6666666666667,4,2,1,80,0,1
114707,-133.333333333333,4,2,1,80,0,1
115373,-100,4,2,1,80,0,1
116040,-133.333333333333,4,2,1,80,0,1
116707,-100,4,2,1,80,0,1
117707,-66.6666666666667,4,2,1,80,0,1
118707,-133.333333333333,4,2,1,70,0,0
120040,-400,4,2,1,70,0,0
120199,-400,4,2,1,70,0,0
120533,-400,4,2,1,70,0,0
120866,-400,4,2,1,70,0,0
121199,-400,4,2,1,70,0,0
121533,-400,4,2,1,70,0,0
121866,-400,4,2,1,70,0,0
122199,-400,4,2,1,70,0,0
122707,-400,4,2,1,5,0,0

[Colours]
Combo1 : 128,128,128
Combo2 : 0,64,128
Combo3 : 128,64,64

[HitObjects]
256,192,1374,12,0,2540,0:0:0:0:
143,309,2707,22,0,P|137:305|109:300,6,25,4|0|0|0|0|0|0,3:2|0:0|0:0|0:0|0:0|0:0|0:0,0:0:0:0:
153,382,3873,1,8,0:1:0:0:
102,384,3957,1,8,0:1:0:0:
64,354,4040,6,0,P|44:344|24:340,5,34.9999989318848,2|0|0|0|0|0,0:3|0:0|0:0|0:0|0:0|0:0,0:0:0:0:
153,382,5040,1,2,0:3:0:0:
203,271,5207,1,8,0:1:0:0:
256,224,5290,1,8,0:1:0:0:
309,271,5373,6,0,P|329:266|360:266,6,44.999998626709,2|0|0|0|0|0|0,0:3|0:0|0:0|0:0|0:0|0:0|0:0,0:0:0:0:
386,326,6540,1,8,0:1:0:0:
417,370,6623,1,8,0:1:0:0:
465,384,6707,6,0,P|473:350|486:326,3,55.0000016784668,2|0|0|8,0:3|0:0|0:0|0:1,0:0:0:0:
492,257,7290,1,8,0:1:0:0:
471,260,7373,6,0,P|439:242|414:234,1,55.0000016784668,2|8,0:3|0:1,0:0:0:0:
512,151,7707,2,0,P|468:162|439:177,1,64.9999970245363,2|8,0:3|0:1,0:0:0:0:
399,50,7957,1,8,0:1:0:0:
411,64,8040,6,0,P|395:93|384:149,6,75.0000028610231,2|0|0|0|0|0|0,0:3|0:0|0:0|0:0|0:0|0:0|0:0,0:0:0:0:
332,0,9207,1,8,0:1:0:0:
360,45,9290,1,8,0:1:0:0:
411,64,9373,6,0,P|472:68|507:77,5,85.0000016212464,2|0|0|0|0|0,0:3|0:0|0:0|0:0|0:0|0:0,0:0:0:0:
384,133,10373,2,0,L|381:156,1,12.5,8|8,0:1|0:1,0:0:0:0:
314,146,10540,2,0,L|311:169,1,12.5,8|8,0:1|0:1,0:0:0:0:
206,46,10707,6,0,P|174:41|133:48,1,47.4999987316132,2|0,0:3|0:0,0:0:0:0:
140,9,10873,2,0,P|116:30|95:66,1,47.4999987316132
69,35,11040,2,0,P|70:66|83:106,1,47.4999987316132
143,113,11207,1,8,0:1:0:0:
143,113,11290,1,8,0:1:0:0:
73,81,11373,6,0,P|57:107|46:148,1,47.4999987316132,2|0,0:3|0:0,0:0:0:0:
13,127,11539,2,0,P|23:156|48:190,1,47.4999987316132
9,202,11706,2,0,P|38:213|80:216,1,47.4999987316132
117,167,11873,1,8,0:1:0:0:
117,167,11956,1,8,0:1:0:0:
54,215,12040,6,0,P|60:249|73:277,1,47.4999987316132,2|0,0:3|0:0,0:0:0:0:
142,348,12207,2,0,P|153:327|163:306,1,47.4999987316132,8|0,0:1|0:0,0:0:0:0:
349,306,12373,2,0,P|358:327|369:348,1,47.4999987316132,2|8,0:1|0:1,0:0:0:0:
447,261,12540,2,0,P|454:238|458:215,1,47.4999987316132,8|8,0:1|0:1,0:0:0:0:
256,272,12707,2,0,L|256:240,6,23.7499993658066,2|8|8|8|8|8|8,0:1|0:1|0:1|0:1|0:1|0:1|0:1,0:0:0:0:
208,198,13040,6,0,P|259:151|304:204,1,150.000005722046,2|2,0:1|0:0,0:0:0:0:
130,6,13373,5,6,3:2:0:0:
100,9,13707,1,8,0:0:0:0:
73,23,14040,1,8,0:0:0:0:
55,47,14373,1,8,0:0:0:0:
255,90,14540,1,2,0:0:0:0:
457,47,14707,5,10,0:2:0:0:
439,23,15040,1,8,0:0:0:0:
412,9,15373,1,10,0:0:0:0:
255,90,15540,1,2,0:0:0:0:
286,177,15707,1,10,0:0:0:0:
316,16,15873,1,2,0:0:0:0:
470,307,16040,6,0,P|443:310|417:323,1,44.999998626709,14|0,0:0|0:0,0:0:0:0:
453,238,16373,2,0,P|419:229|402:225,1,44.999998626709,8|2,0:0|0:0,0:0:0:0:
512,199,16623,1,0,0:0:0:0:
512,199,16707,2,0,P|489:167|470:153,1,44.999998626709,10|0,0:0|0:0,0:0:0:0:
426,316,17040,2,0,P|447:308|470:307,1,44.999998626709,8|0,0:0|0:0,0:0:0:0:
85,316,17373,6,0,P|64:308|42:307,1,44.999998626709,8|2,0:0|0:0,0:0:0:0:
102,226,17623,1,0,0:0:0:0:
102,226,17706,2,0,P|80:232|59:238,1,44.999998626709,10|0,0:0|0:0,0:0:0:0:
27,163,18040,2,0,P|11:179|0:199,1,44.999998626709,8|2,0:0|0:0,0:0:0:0:
86,316,18373,2,0,P|65:308|42:307,1,44.999998626709,10|2,0:0|0:0,0:0:0:0:
216,254,18707,6,0,P|208:235|203:212,1,37.5000014305115,10|0,0:0|0:0,0:0:0:0:
174,311,18873,2,0,P|162:295|148:283,1,37.5000014305115,8|0,0:1|0:0,0:0:0:0:
285,284,19040,2,0,P|284:256|285:242,1,37.5000014305115,8|0,0:0|0:0,0:0:0:0:
216,254,19207,2,0,P|208:235|203:212,1,37.5000014305115,8|0,0:1|0:0,0:0:0:0:
422,317,19373,6,0,P|432:344|444:367,1,37.5000014305115,8|0,0:0|0:0,0:0:0:0:
352,293,19540,2,0,P|351:317|350:335,1,37.5000014305115,8|0,0:1|0:0,0:0:0:0:
460,258,19707,2,0,P|479:276|494:286,1,37.5000014305115,8|0,0:0|0:0,0:0:0:0:
352,293,19873,2,0,P|351:317|350:335,1,37.5000014305115,8|0,0:1|0:0,0:0:0:0:
456,118,20040,6,0,P|482:104|507:90,1,37.5000014305115,10|0,0:0|0:0,0:0:0:0:
441,187,20207,2,0,P|471:185|489:187,1,37.5000014305115,8|0,0:1|0:0,0:0:0:0:
384,97,20373,2,0,P|399:78|409:61,1,37.5000014305115,8|0,0:0|0:0,0:0:0:0:
456,118,20540,2,0,P|482:104|507:90,1,37.5000014305115,8|0,0:1|0:0,0:0:0:0:
258,56,20707,6,0,P|254:82|253:103,1,37.5000014305115,10|0,0:0|0:0,0:0:0:0:
320,13,20874,2,0,P|325:40|330:57,1,37.5000014305115,8|0,0:1|0:0,0:0:0:0:
207,0,21040,2,0,P|198:21|185:45,1,37.5000014305115,10|0,0:0|0:0,0:0:0:0:
320,13,21207,2,0,P|325:40|330:57,1,37.5000014305115,8|0,0:1|0:0,0:0:0:0:
245,202,21373,5,10,0:0:0:0:
256,206,21457,1,8,0:1:0:0:
266,202,21540,1,8,0:1:0:0:
270,192,21623,1,8,0:1:0:0:
266,181,21707,1,8,0:0:0:0:
256,177,21790,1,8,0:1:0:0:
245,181,21873,1,8,0:1:0:0:
241,192,21957,1,8,0:1:0:0:
233,214,22040,5,10,0:0:0:0:
256,224,22124,1,8,0:1:0:0:
278,214,22207,1,8,0:1:0:0:
288,192,22290,1,8,0:1:0:0:
278,169,22374,1,8,0:0:0:0:
256,159,22457,1,8,0:1:0:0:
233,169,22540,1,8,0:1:0:0:
223,192,22624,1,8,0:1:0:0:
256,235,22707,6,0,P|256:139|253:235,1,300,4|0,0:0|0:0,0:0:0:0:
323,291,23040,6,0,P|360:229|321:289,1,225.000008583069,2|0,0:1|0:0,0:0:0:0:
201,280,23373,6,0,P|176:238|202:279,1,150,2|0,0:1|0:0,0:0:0:0:
256,352,23707,6,0,L|256:48,1,300,2|0,0:2|0:0,0:0:0:0:
265,59,24040,6,0,B|252:111|311:134|311:134|325:117|355:130,1,125,4|0,3:2|0:0,0:0:0:0:
342,130,24373,2,0,B|458:141|458:141|465:135,1,125,8|0,3:2|0:0,0:0:0:0:
479,135,24707,1,0,3:0:0:0:
479,135,24873,5,2,0:0:0:0:
486,203,24957,1,2,0:0:0:0:
493,271,25040,1,8,3:2:0:0:
479,135,25207,1,2,0:0:0:0:
493,271,25373,6,0,B|456:261|429:296|448:297|420:336|380:314,1,125,0|0,3:0|0:0,0:0:0:0:
379,309,25707,2,0,P|324:295|311:350,1,125,8|0,3:2|0:0,0:0:0:0:
307,358,26040,1,0,3:0:0:0:
307,358,26207,5,2,0:0:0:0:
239,366,26290,1,2,0:0:0:0:
171,375,26373,1,8,3:2:0:0:
307,358,26540,1,2,0:0:0:0:
171,375,26707,6,0,B|159:377|159:377|105:292|105:292|88:295,1,125,0|0,3:0|0:0,0:0:0:0:
86,289,27040,2,0,B|-9:305|-9:305|26:322,1,125,8|0,3:2|0:0,0:0:0:0:
22,326,27373,1,0,3:0:0:0:
22,326,27540,5,2,0:0:0:0:
24,257,27623,1,2,0:0:0:0:
26,188,27707,1,8,3:2:0:0:
22,326,27873,1,2,0:0:0:0:
26,188,28040,6,0,L|31:60,1,125,0|0,3:0|0:0,0:0:0:0:
64,128,28290,1,0,0:0:0:0:
101,67,28373,2,0,L|96:195,1,125,8|2,3:2|0:0,0:0:0:0:
134,131,28624,1,2,0:0:0:0:
166,194,28707,2,0,L|171:70,1,125,0|2,3:0|0:0,0:0:0:0:
204,134,28957,1,2,0:0:0:0:
274,137,29040,5,8,3:2:0:0:
274,137,29207,1,2,3:2:0:0:
0,122,29373,6,0,B|-15:162|19:183|19:183|18:191|18:191|45:215|24:251,1,125,4|0,3:2|0:0,0:0:0:0:
32,245,29707,2,0,B|45:281|-2:306|8:339|8:339|14:324|35:312,1,125,8|0,3:2|0:0,0:0:0:0:
35,316,30040,1,0,3:0:0:0:
35,316,30207,5,2,0:0:0:0:
100,336,30290,1,2,0:0:0:0:
165,356,30373,1,8,3:2:0:0:
35,316,30540,1,2,0:0:0:0:
165,356,30707,6,0,B|178:365|178:365|263:331|263:331|273:308,1,125,0|0,3:0|0:0,0:0:0:0:
278,311,31040,2,0,B|296:252|296:252|353:292,1,125,8|0,3:2|0:0,0:0:0:0:
358,288,31373,1,0,3:0:0:0:
358,288,31540,5,2,0:0:0:0:
370,220,31623,1,2,0:0:0:0:
383,152,31707,1,8,3:2:0:0:
358,288,31873,1,2,0:0:0:0:
383,152,32040,6,0,B|420:182|463:152|463:152|469:132|495:116,1,125,0|0,3:0|0:0,0:0:0:0:
496,120,32373,2,0,B|471:90|487:54|501:70|514:30|485:6,1,125,8|0,3:2|0:0,0:0:0:0:
475,0,32707,1,0,3:0:0:0:
475,0,32873,5,2,0:0:0:0:
407,14,32957,1,2,0:0:0:0:
340,28,33040,1,8,3:2:0:0:
475,0,33207,1,2,0:0:0:0:
340,28,33373,6,0,B|281:40|281:40|277:37|277:37|217:50,1,125,0|0,3:0|0:0,0:0:0:0:
272,320,33707,6,0,B|228:329|228:329|224:334|224:334|177:345,1,100,2|0,0:1|0:0,0:0:0:0:
297,133,34040,6,0,B|262:140|262:140|257:137|257:137|219:146,1,75.0000028610231,2|0,0:1|0:0,0:0:0:0:
354,206,34373,6,0,B|426:192|426:192|431:196|431:196|500:182,1,150.000005722046,2|8,0:1|0:1,0:0:0:0:
479,262,34707,6,0,B|429:274|402:235|423:242|392:193|334:221,1,150.000005722046,4|0,3:2|0:0,0:0:0:0:
278,219,34957,1,0,0:0:0:0:
274,228,35040,2,0,P|291:264|314:276,1,50,8|0,3:2|0:0,0:0:0:0:
366,285,35207,2,0,P|398:276|417:253,1,50
206,345,35373,6,0,P|218:287|310:277,1,150.000005722046,0|2,3:0|0:0,0:0:0:0:
323,345,35623,1,2,0:0:0:0:
315,352,35707,2,0,P|290:346|271:330,1,50,8|0,3:2|0:0,0:0:0:0:
206,208,35873,2,0,P|216:179|268:152,1,50,2|0,0:0|0:0,0:0:0:0:
298,269,36040,6,0,P|186:226|157:245,1,150.000005722046,0|0,3:0|0:0,0:0:0:0:
49,359,36290,1,0,0:0:0:0:
55,366,36373,2,0,P|97:360|107:342,1,50,8|0,3:2|0:0,0:0:0:0:
31,247,36540,2,0,P|19:280|29:310,1,50
90,286,36707,6,0,L|122:123,1,150.000005722046,0|2,3:0|0:0,0:0:0:0:
229,82,36957,1,2,0:0:0:0:
227,91,37040,2,0,P|198:113|158:108,1,50,8|0,3:2|0:0,0:0:0:0:
68,87,37207,2,0,P|50:75|40:44,1,50,2|0,0:0|0:0,0:0:0:0:
173,44,37373,6,0,B|222:33|249:71|234:73|260:109|315:98,1,150.000005722046,0|0,3:0|0:0,0:0:0:0:
361,5,37623,1,0,0:0:0:0:
353,0,37707,2,0,P|316:3|302:28,1,50,8|0,3:2|0:0,0:0:0:0:
280,73,37873,2,0,P|287:113|312:127,1,50
353,0,38040,6,0,L|511:19,1,150.000005722046,0|2,3:0|0:0,0:0:0:0:
356,169,38290,1,2,0:0:0:0:
354,160,38373,2,0,P|376:133|401:132,1,50,8|0,3:2|0:0,0:0:0:0:
458,119,38540,2,0,P|491:81|480:48,1,50,2|0,0:0|0:0,0:0:0:0:
349,80,38707,6,0,L|365:241,1,150.000005722046,0|0,3:0|0:0,0:0:0:0:
292,240,39040,2,0,L|278:91,1,150.000005722046,8|2,3:2|0:0,0:0:0:0:
249,169,39290,1,2,0:0:0:0:
206,101,39373,2,0,L|221:251,1,150.000005722046,0|2,3:0|1:2,0:0:0:0:
181,177,39623,1,2,3:2:0:0:
113,185,39707,5,0,0:0:0:0:
113,185,39873,1,2,1:2:0:0:
373,372,40040,6,0,P|389:346|371:319,2,50,4|0|0,3:2|0:0|0:0,0:0:0:0:
315,234,40290,1,0,0:0:0:0:
311,244,40373,2,0,P|325:270|357:268,1,50,2|0,3:1|0:0,0:0:0:0:
452,254,40540,2,0,P|422:253|408:281,1,50
379,189,40707,6,0,P|363:163|381:136,2,50,0|0|2,3:2|0:0|0:0,0:0:0:0:
437,51,40957,1,2,0:0:0:0:
441,61,41040,2,0,P|427:87|395:85,1,50,2|0,3:1|0:0,0:0:0:0:
300,71,41207,2,0,P|329:70|343:98,1,50,2|0,3:2|0:0,0:0:0:0:
146,21,41373,6,0,P|130:47|148:74,2,50,0|0|0,3:2|0:0|0:0,0:0:0:0:
204,159,41623,1,0,0:0:0:0:
208,149,41706,2,0,P|194:123|162:125,1,50,2|0,3:1|0:0,0:0:0:0:
67,139,41873,2,0,P|96:139|110:111,1,50
140,204,42040,6,0,P|156:230|138:257,2,50,0|0|2,3:2|0:0|0:0,0:0:0:0:
82,342,42290,1,2,3:2:0:0:
78,332,42373,2,0,P|92:306|124:308,1,50,2|0,0:1|0:0,0:0:0:0:
219,322,42540,2,0,P|189:322|175:294,1,50,2|0,3:2|0:0,0:0:0:0:
59,144,42707,6,0,P|38:149|12:164,1,50,2|0,3:1|0:0,0:0:0:0:
131,212,42873,2,0,P|95:213|79:206,1,50,0|0,3:2|0:0,0:0:0:0:
223,123,43040,2,0,P|190:115|166:123,1,50,0|0,3:2|0:0,0:0:0:0:
281,223,43207,2,0,P|259:233|225:233,1,50,0|0,3:2|0:0,0:0:0:0:
452,133,43373,5,0,3:2:0:0:
466,169,43457,1,0,3:2:0:0:
452,204,43540,1,2,3:2:0:0:
416,218,43623,1,2,3:2:0:0:
381,204,43707,1,0,3:2:0:0:
367,169,43790,1,0,3:2:0:0:
381,133,43873,1,2,3:2:0:0:
416,119,43957,1,0,3:2:0:0:
416,170,44040,6,0,L|416:269,1,100,0|0,3:2|0:0,0:0:0:0:
346,269,44290,1,0,0:0:0:0:
346,344,44373,6,0,L|346:264,1,75.0000028610231,0|2,0:0|0:0,0:0:0:0:
276,268,44623,1,2,0:0:0:0:
276,218,44707,6,0,L|276:282,1,50,0|2,0:0|0:0,0:0:0:0:
206,267,44957,1,2,0:0:0:0:
206,292,45040,6,0,L|206:260,1,25,0|2,0:0|0:0,0:0:0:0:
66,265,45373,5,4,3:2:0:0:
66,265,46207,5,4,0:3:0:0:
60,257,46290,1,0,0:0:0:0:
256,192,46540,1,4,0:3:0:0:
66,265,47540,37,4,0:3:0:0:
60,257,47623,1,0,0:0:0:0:
256,192,47873,1,4,0:3:0:0:
66,265,48873,5,4,0:3:0:0:
60,257,48956,1,0,0:0:0:0:
256,192,49206,1,4,0:3:0:0:
66,265,49873,5,0,0:0:0:0:
60,257,49956,1,8,0:3:0:0:
256,192,50206,1,8,0:3:0:0:
256,192,50540,1,8,0:3:0:0:
452,257,50707,5,4,0:3:0:0:
452,257,51040,1,4,0:3:0:0:
452,257,51290,1,4,0:3:0:0:
452,257,51540,1,4,0:3:0:0:
452,257,51873,1,4,0:3:0:0:
386,147,52040,5,4,0:3:0:0:
386,147,52373,1,4,0:3:0:0:
386,147,52623,1,4,0:3:0:0:
386,147,52873,1,4,0:3:0:0:
386,147,53206,1,4,0:3:0:0:
256,96,53373,5,4,0:3:0:0:
256,96,53706,1,4,0:3:0:0:
256,96,53956,1,4,0:3:0:0:
256,96,54206,1,4,0:3:0:0:
256,96,54539,1,4,0:3:0:0:
126,147,54707,5,8,0:3:0:0:
126,147,55040,1,8,0:3:0:0:
126,147,55290,1,8,0:3:0:0:
126,147,55540,1,8,0:3:0:0:
126,147,55873,1,8,0:3:0:0:
60,257,56040,5,4,3:2:0:0:
126,147,56373,1,4,0:3:0:0:
256,96,56707,1,4,0:3:0:0:
386,147,56957,1,4,0:3:0:0:
452,257,57207,1,4,0:3:0:0:
452,257,57373,5,8,0:3:0:0:
386,147,57540,1,8,0:3:0:0:
276,213,57707,1,8,0:3:0:0:
276,213,58040,5,8,0:3:0:0:
265,215,58290,1,8,0:3:0:0:
254,217,58540,1,8,0:3:0:0:
258,149,58623,1,8,0:3:0:0:
262,81,58707,5,4,0:3:0:0:
398,118,58873,1,4,0:3:0:0:
507,17,59040,1,4,0:3:0:0:
499,9,59373,5,4,0:3:0:0:
398,118,59623,1,4,0:3:0:0:
262,81,59873,1,4,0:3:0:0:
253,82,59929,1,4,0:3:0:0:
244,83,59985,1,4,0:3:0:0:
236,85,60040,5,8,0:3:0:0:
225,175,60207,1,8,0:3:0:0:
151,232,60373,1,8,0:3:0:0:
59,222,60540,1,8,0:3:0:0:
0,149,60707,1,8,0:3:0:0:
11,58,60873,1,8,0:3:0:0:
11,58,60957,1,8,0:3:0:0:
84,0,61123,1,8,0:3:0:0:
84,0,61207,1,8,0:3:0:0:
176,9,61373,6,0,P|170:30|157:46,1,37.5,4|0,3:2|0:0,0:0:0:0:
229,98,61707,2,0,P|230:79|230:61,1,37.5,4|0,0:3|0:0,0:0:0:0:
284,5,62040,2,0,P|289:19|295:36,1,25,4|0,0:3|0:0,0:0:0:0:
229,98,62290,2,0,P|230:79|229:64,1,25,4|0,0:3|0:0,0:0:0:0:
176,9,62540,2,0,P|174:20|171:30,1,12.5,4|0,0:3|0:0,0:0:0:0:
163,136,62707,6,0,P|158:116|156:103,1,25,8|0,0:3|0:0,0:0:0:0:
76,85,62873,2,0,P|84:103|90:121,1,25,8|0,0:3|0:0,0:0:0:0:
76,202,63040,2,0,P|51:176|16:157,1,75,8|0,0:3|0:0,0:0:0:0:
9,166,63373,6,0,P|48:171|74:162,1,50,8|0,0:3|0:0,0:0:0:0:
105,258,63623,2,0,P|65:241|43:239,1,50,8|0,0:3|0:0,0:0:0:0:
0,305,63873,2,0,P|21:305|38:299,1,25,8|0,0:3|0:0,0:0:0:0:
180,265,64040,6,0,P|172:283|167:303,1,37.5,4|0,0:3|0:0,0:0:0:0:
237,361,64373,2,0,P|235:339|231:313,1,37.5,4|0,0:3|0:0,0:0:0:0:
293,269,64707,1,4,0:3:0:0:
382,376,64957,1,4,0:3:0:0:
511,322,65207,1,4,0:3:0:0:
504,323,65262,1,0,0:0:0:0:
497,324,65318,1,0,0:0:0:0:
490,325,65373,6,0,L|461:331,3,25,2|0|0|0,0:1|0:0|0:0|0:0,0:0:0:0:
478,203,65707,2,0,L|512:221,3,37.5000014305115
438,266,66040,6,0,P|424:272|416:285,1,18.7500007152558,2|0,0:1|0:0,0:0:0:0:
404,260,66123,2,0,P|388:258|375:265,1,18.7500007152558
377,237,66207,2,0,P|364:227|349:227,1,18.7500007152558
365,203,66290,2,0,P|359:189|346:180,1,18.7500007152558
328,180,66373,6,0,P|321:166|324:151,1,18.7500007152558
298,161,66456,2,0,P|285:152|280:137,1,18.7500007152558
262,160,66540,2,0,P|246:158|235:148,1,18.7500007152558
231,177,66623,2,0,P|217:183|202:180,1,18.7500007152558
189,252,66707,5,2,3:1:0:0:
171,125,66873,1,8,0:1:0:0:
41,182,67040,2,0,L|140:188,1,100,8|8,0:0|0:1,0:0:0:0:
140,188,67290,1,0,0:0:0:0:
140,188,67373,1,8,0:0:0:0:
0,120,67540,5,8,0:1:0:0:
19,351,67707,2,0,L|-3:236,1,100,8|8,0:0|0:1,0:0:0:0:
0,252,67957,1,0,0:0:0:0:
0,252,68040,5,8,0:0:0:0:
83,384,68207,1,8,0:1:0:0:
229,311,68373,2,0,L|112:332,1,100,8|8,0:0|0:1,0:0:0:0:
130,328,68623,1,0,0:0:0:0:
130,328,68707,5,8,0:0:0:0:
286,360,68873,1,8,0:1:0:0:
246,241,69040,2,0,L|362:258,1,100,8|8,0:0|0:1,0:0:0:0:
344,255,69290,1,0,0:0:0:0:
344,255,69373,5,8,0:0:0:0:
435,173,69540,1,8,0:1:0:0:
434,343,69707,2,0,L|415:225,1,100,8|8,0:0|0:1,0:0:0:0:
418,244,69957,1,8,0:1:0:0:
418,244,70040,5,8,0:0:0:0:
501,373,70207,1,8,0:1:0:0:
512,138,70373,2,0,L|497:246,1,100,8|8,0:0|0:1,0:0:0:0:
498,237,70623,1,8,0:1:0:0:
498,237,70707,5,8,0:0:0:0:
362,192,70873,1,8,0:1:0:0:
458,87,71040,2,0,L|348:109,1,100,8|8,0:0|0:1,0:0:0:0:
359,106,71290,1,8,0:1:0:0:
359,106,71373,5,8,0:0:0:0:
474,16,71540,1,0,1:0:0:0:
229,9,71707,2,0,L|353:42,1,100,8|8,0:0|0:1,0:0:0:0:
325,34,71957,1,0,0:0:0:0:
324,33,72040,6,0,P|312:53|290:73,1,50,8|8,0:0|0:1,0:0:0:0:
341,152,72207,2,0,P|349:128|359:106,1,50,8|8,0:1|0:1,0:0:0:0:
436,81,72373,2,0,P|429:110|429:133,1,50,8|8,0:0|0:1,0:0:0:0:
292,71,72540,2,0,P|310:54|324:33,1,50,8|8,0:1|0:1,0:0:0:0:
448,198,72707,38,0,P|423:200|400:208,1,50,8|8,0:0|0:1,0:0:0:0:
449,264,72873,2,0,P|474:266|499:272,1,50,8|8,0:1|0:1,0:0:0:0:
388,310,73040,2,0,P|410:320|429:336,1,50,8|8,0:0|0:1,0:0:0:0:
499,272,73207,2,0,P|467:266|440:265,1,50,8|8,0:1|0:1,0:0:0:0:
244,318,73373,6,0,P|239:286|230:254,1,50,8|8,0:0|0:1,0:0:0:0:
307,362,73540,2,0,P|309:343|319:308,1,50,8|8,0:1|0:1,0:0:0:0:
173,347,73707,2,0,P|193:363|207:384,1,50,8|8,0:0|0:1,0:0:0:0:
307,362,73873,2,0,P|309:343|319:308,1,50,8|8,0:1|0:1,0:0:0:0:
101,221,74040,38,0,P|76:214|53:198,1,50,8|8,0:0|0:1,0:0:0:0:
0,291,74207,2,0,P|38:278|66:279,1,50,8|8,0:1|0:1,0:0:0:0:
101,221,74373,2,0,P|76:214|53:198,1,50,8|8,0:0|0:1,0:0:0:0:
72,342,74540,2,0,P|93:328|111:310,1,50,8|8,0:1|0:1,0:0:0:0:
4,149,74707,6,0,L|-1:124,6,25,8|8|8|8|8|8|8,0:0|0:1|0:1|0:1|0:1|0:1|0:1,0:0:0:0:
63,77,75040,6,0,P|61:64|65:48,1,25,8|8,0:0|0:1,0:0:0:0:
92,55,75123,2,0,P|99:42|118:31,1,25,8|8,0:1|0:1,0:0:0:0:
128,54,75207,2,0,P|143:50|159:57,1,25,8|8,0:1|0:1,0:0:0:0:
155,76,75290,2,0,P|170:80|170:98,1,25,8|8,0:1|0:1,0:0:0:0:
214,147,75373,6,0,P|205:149|195:164,1,25,8|8,0:0|0:1,0:0:0:0:
242,173,75457,2,0,P|238:186|246:201,1,25,8|8,0:1|0:1,0:0:0:0:
282,173,75540,2,0,P|291:186|306:186,1,25,8|8,0:1|0:1,0:0:0:0:
313,149,75623,2,0,P|330:149|340:130,1,25,8|8,0:1|0:1,0:0:0:0:
354,75,75707,6,0,P|345:66|327:68,1,25,8|8,0:0|0:1,0:0:0:0:
389,42,75790,2,0,P|388:27|376:19,1,25,8|8,0:1|0:1,0:0:0:0:
434,42,75873,2,0,P|450:29|448:13,1,25,8|8,0:1|0:1,0:0:0:0:
470,76,75957,2,0,P|485:78|500:60,1,25,8|8,0:1|0:1,0:0:0:0:
480,153,76040,5,4,3:0:0:0:
256,192,76123,12,0,76957,0:0:0:0:
253,223,77040,38,0,L|267:146,1,75,0|0,1:0|0:0,0:0:0:0:
259,141,77207,2,0,L|245:218,1,75,2|0,0:0|0:0,0:0:0:0:
253,223,77373,6,0,P|212:179|115:228,1,150.000005722046,6|0,3:2|0:0,0:0:0:0:
161,327,77623,1,0,0:0:0:0:
173,319,77707,2,0,L|186:235,1,75.0000028610231,8|0,3:2|0:0,0:0:0:0:
51,226,77873,2,0,L|136:204,1,75.0000028610231
226,374,78040,37,0,3:0:0:0:
327,244,78207,1,0,0:0:0:0:
333,281,78290,1,0,0:0:0:0:
339,319,78373,2,0,L|263:298,1,75.0000028610231,8|0,3:2|0:0,0:0:0:0:
454,208,78540,2,0,L|369:186,1,75.0000028610231,2|0,0:0|0:0,0:0:0:0:
363,379,78707,6,0,P|417:312|484:325,1,150.000005722046,2|0,3:2|0:0,0:0:0:0:
438,384,78957,1,0,0:0:0:0:
473,318,79040,2,0,L|512:254,1,75.0000028610231,8|0,3:2|0:0,0:0:0:0:
363,379,79207,2,0,L|288:375,1,75.0000028610231,2|2,0:0|0:0,0:0:0:0:
399,314,79373,37,2,3:2:0:0:
325,171,79540,1,2,0:0:0:0:
113,314,79707,1,10,3:2:0:0:
187,171,79874,1,2,0:0:0:0:
386,224,80040,6,0,P|393:134|315:91,1,150.000005722046,2|0,3:2|0:0,0:0:0:0:
256,215,80290,1,0,0:0:0:0:
256,200,80373,2,0,L|332:167,1,75.0000028610231,8|0,3:2|0:0,0:0:0:0:
187,171,80540,2,0,L|112:142,1,75.0000028610231,2|0,0:0|0:0,0:0:0:0:
317,258,80707,5,2,3:2:0:0:
220,51,80873,1,0,0:0:0:0:
234,84,80956,1,0,0:0:0:0:
251,120,81039,1,8,3:2:0:0:
364,37,81207,1,0,0:0:0:0:
187,171,81373,6,0,L|41:116,1,150.000005722046,0|2,3:0|0:0,0:0:0:0:
56,115,81623,1,0,0:0:0:0:
56,115,81707,6,0,L|197:168,1,150.000005722046,10|0,3:2|0:0,0:0:0:0:
187,171,81957,1,0,0:0:0:0:
187,171,82040,6,0,L|46:118,1,150.000005722046,0|2,3:0|0:0,0:0:0:0:
56,115,82290,1,0,0:0:0:0:
56,115,82373,6,0,L|126:141,1,75.0000028610231,10|0,3:2|0:0,0:0:0:0:
187,171,82540,2,0,L|116:144,1,75.0000028610231,2|0,1:2|0:0,0:0:0:0:
0,219,82707,6,0,P|-7:280|67:328,1,150.000005722046,6|0,3:2|0:0,0:0:0:0:
147,235,82957,1,0,0:0:0:0:
132,230,83040,2,0,L|37:267,1,75.0000028610231,8|0,3:2|0:0,0:0:0:0:
199,339,83207,2,0,L|212:265,1,75.0000028610231
256,208,83373,5,0,3:0:0:0:
299,89,83540,1,0,0:0:0:0:
306,126,83623,1,0,0:0:0:0:
313,163,83707,2,0,L|408:126,1,75.0000028610231,8|0,3:2|0:0,0:0:0:0:
471,25,83873,2,0,L|426:114,1,75.0000028610231,2|0,0:0|0:0,0:0:0:0:
424,227,84040,6,0,P|365:158|299:170,1,150.000005722046,2|0,3:2|0:0,0:0:0:0:
344,234,84290,1,0,0:0:0:0:
312,162,84373,2,0,L|280:87,1,75.0000028610231,8|0,3:2|0:0,0:0:0:0:
424,227,84540,2,0,L|514:214,1,75.0000028610231,2|0,0:0|0:0,0:0:0:0:
268,223,84707,5,2,3:2:0:0:
323,326,84873,1,2,0:0:0:0:
391,165,85040,1,10,3:2:0:0:
257,215,85207,1,2,0:0:0:0:
487,259,85373,5,2,3:2:0:0:
443,384,85540,1,0,0:0:0:0:
373,272,85707,1,8,3:2:0:0:
373,272,85873,1,2,0:0:0:0:
305,277,85957,1,0,0:0:0:0:
238,282,86040,5,2,3:2:0:0:
275,143,86207,1,0,0:0:0:0:
155,350,86373,1,8,3:2:0:0:
155,350,86540,1,2,0:2:0:0:
168,285,86623,1,0,0:0:0:0:
182,219,86707,6,0,L|15:255,1,150.000005722046,2|0,3:2|0:0,0:0:0:0:
26,247,86957,1,0,0:0:0:0:
32,237,87040,6,0,L|199:201,1,150.000005722046,10|0,3:2|0:0,0:0:0:0:
256,192,87290,1,0,0:0:0:0:
330,165,87373,6,0,L|497:129,1,150.000005722046,0|0,3:1|0:0,0:0:0:0:
486,137,87623,1,0,0:0:0:0:
480,147,87706,6,0,L|313:183,2,150.000005722046,8|0|4,3:2|0:0|3:2,0:0:0:0:
486,137,88207,1,0,3:0:0:0:
256,192,88373,6,0,P|261:138|348:98,1,150.000005722046,10|0,3:2|0:0,0:0:0:0:
365,260,88623,1,0,0:0:0:0:
352,251,88707,2,0,L|328:159,1,75.0000028610231,0|0,3:0|0:0,0:0:0:0:
413,118,88873,2,0,L|486:137,1,75.0000028610231
256,32,89040,5,8,3:2:0:0:
160,251,89207,1,2,0:0:0:0:
169,214,89290,1,0,0:0:0:0:
178,178,89373,2,0,L|105:197,1,75.0000028610231,2|0,3:2|0:0,0:0:0:0:
26,137,89540,2,0,L|98:118,1,75.0000028610231
256,192,89707,6,0,P|251:138|164:98,1,150.000005722046,8|2,3:2|0:0,0:0:0:0:
178,178,89957,1,0,0:0:0:0:
172,96,90040,2,0,L|168:14,1,75.0000028610231,2|0,3:2|0:0,0:0:0:0:
256,192,90206,2,0,L|353:211,1,75.0000028610231,2|0,0:0|0:0,0:0:0:0:
104,197,90373,2,0,L|32:216,1,75.0000028610231,10|0,3:2|0:0,0:0:0:0:
178,178,90540,1,2,0:0:0:0:
0,312,90707,6,0,P|64:290|126:353,1,150.000005722046,2|0,3:2|0:0,0:0:0:0:
212,348,90957,1,0,0:0:0:0:
201,358,91040,2,0,L|117:347,1,75.0000028610231,8|0,3:2|0:0,0:0:0:0:
385,348,91207,2,0,L|311:358,1,75.0000028610231,2|0,0:0|0:0,0:0:0:0:
267,296,91373,5,2,3:2:0:0:
459,336,91540,1,0,0:0:0:0:
463,298,91623,1,0,0:0:0:0:
468,261,91706,1,8,3:2:0:0:
512,384,91873,1,0,0:0:0:0:
404,123,92040,6,0,L|389:278,1,150.000005722046,0|2,3:0|0:0,0:0:0:0:
396,265,92290,1,0,0:0:0:0:
396,265,92374,6,0,L|410:115,1,150.000005722046,10|0,3:2|0:0,0:0:0:0:
404,123,92624,1,0,0:0:0:0:
404,123,92708,6,0,L|389:272,1,150.000005722046,0|2,3:0|0:0,0:0:0:0:
396,265,92957,1,0,0:0:0:0:
396,265,93040,6,0,L|403:190,1,75.0000028610231,10|0,3:2|0:0,0:0:0:0:
404,123,93207,2,0,L|397:198,1,75.0000028610231,2|0,1:2|0:0,0:0:0:0:
327,309,93373,6,0,P|261:308|223:227,1,150.000005722046,6|0,3:2|0:0,0:0:0:0:
311,154,93623,1,0,0:0:0:0:
318,167,93707,2,0,L|294:250,1,75.0000028610231,8|0,3:2|0:0,0:0:0:0:
404,123,93873,2,0,L|494:147,1,75.0000028610231
256,352,94040,5,0,3:0:0:0:
194,167,94207,1,0,0:0:0:0:
204,203,94290,1,0,0:0:0:0:
214,239,94373,1,8,3:2:0:0:
106,128,94540,2,0,L|33:147,1,75.0000028610231,2|0,3:2|0:0,0:0:0:0:
119,49,94707,6,0,P|187:27|243:73,1,150.000005722046,6|0,3:2|0:0,0:0:0:0:
173,100,94957,1,0,0:0:0:0:
243,73,95040,2,0,L|313:46,1,75.0000028610231,8|0,3:2|0:0,0:0:0:0:
119,48,95206,2,0,L|62:0,1,75.0000028610231,2|0,0:0|0:0,0:0:0:0:
268,178,95373,5,2,3:2:0:0:
173,100,95540,1,2,3:2:0:0:
162,320,95707,1,2,3:2:0:0:
50,340,95874,1,2,3:2:0:0:
368,234,96040,6,0,P|386:266|426:291,1,75.0000028610231,6|0,3:2|0:0,0:0:0:0:
340,384,96207,2,0,P|332:347|316:313,1,75.0000028610231,0|2,3:0|0:0,0:0:0:0:
233,278,96373,2,0,P|237:324|223:368,1,75.0000028610231,0|0,3:0|0:0,0:0:0:0:
295,242,96540,5,0,0:0:0:0:
295,242,96623,1,2,3:2:0:0:
368,234,96707,6,0,L|346:140,1,75.0000028610231,6|0,3:2|0:0,0:0:0:0:
446,101,96873,2,0,L|433:189,1,75.0000028610231,0|0,3:0|0:0,0:0:0:0:
477,259,97040,2,0,L|517:184,1,75.0000028610231,2|0,3:2|0:0,0:0:0:0:
421,299,97207,6,0,L|419:349,1,37.5000014305115,0|0,3:0|3:0,0:0:0:0:
416,287,97290,2,0,L|378:318,1,37.5000014305115,0|0,3:0|3:0,0:0:0:0:
368,234,97373,38,0,P|447:183|373:237,1,300,0|0,3:0|0:0,0:0:0:0:
271,265,97707,6,0,P|301:331|277:263,1,225.000008583069,2|0,0:1|0:0,0:0:0:0:
206,206,98040,6,0,P|218:158|211:207,1,150,2|0,0:1|0:0,0:0:0:0:
141,249,98373,6,0,L|442:222,1,300,2|0,0:1|0:0,0:0:0:0:
445,213,98707,6,0,P|466:164|512:164,1,100,4|0,3:2|0:0,0:0:0:0:
501,154,99040,2,0,P|461:114|474:71,1,100,8|0,0:1|0:0,0:0:0:0:
477,69,99373,2,0,B|456:98|423:98|423:98|384:79,1,100,8|0,0:1|0:0,0:0:0:0:
388,74,99623,1,8,0:1:0:0:
388,74,99707,1,0,0:0:0:0:
477,69,99873,1,8,0:1:0:0:
323,16,100040,22,0,B|304:4|269:6|269:6|274:32|249:68,1,100,8|0,0:1|0:0,0:0:0:0:
251,55,100373,2,0,B|215:70|179:58|179:58|168:70|177:108,1,100,10|0,0:1|0:0,0:0:0:0:
165,89,100707,2,0,P|138:83|110:8,1,100,10|0,0:1|0:0,0:0:0:0:
109,18,100957,1,8,0:1:0:0:
109,18,101040,1,2,0:1:0:0:
165,89,101207,1,8,0:1:0:0:
28,0,101373,22,0,B|-8:37|-8:37|8:93,1,100,8|0,0:1|0:0,0:0:0:0:
17,90,101707,2,0,B|28:138|28:138|19:154|19:154|15:191,1,100,8|0,0:1|0:0,0:0:0:0:
8,199,102040,2,0,B|37:195|37:195|62:167|62:167|104:164,1,100,8|0,0:1|0:0,0:0:0:0:
111,174,102290,1,8,0:1:0:0:
111,174,102373,1,0,0:0:0:0:
8,199,102540,1,8,0:1:0:0:
152,239,102707,22,0,B|161:285|136:305|136:305|118:301|95:320,1,100,8|0,0:1|0:0,0:0:0:0:
100,304,103040,2,0,P|65:277|3:304,1,100,10|0,0:1|0:0,0:0:0:0:
7,300,103373,2,0,P|21:352|63:377,1,100,10|0,0:1|0:0,0:0:0:0:
68,376,103623,1,8,0:1:0:0:
144,367,103707,1,2,0:1:0:0:
144,367,103873,1,8,0:1:0:0:
300,373,104040,6,0,L|233:340,1,50,8|0,3:1|0:0,0:0:0:0:
196,315,104207,1,0,0:0:0:0:
306,377,104373,6,0,L|288:304,1,50,8|0,3:1|0:0,0:0:0:0:
283,260,104540,1,0,0:0:0:0:
314,381,104707,6,0,L|357:319,1,50,8|0,3:1|0:0,0:0:0:0:
386,288,104957,1,8,3:1:0:0:
386,288,105207,1,8,3:1:0:0:
421,179,105373,6,0,L|466:238,1,50,8|0,3:1|0:0,0:0:0:0:
489,276,105540,1,0,0:0:0:0:
417,172,105706,6,0,L|401:245,1,50,10|0,3:1|0:0,0:0:0:0:
386,288,105873,1,0,0:0:0:0:
411,165,106040,6,0,L|345:201,1,50,10|0,3:1|0:0,0:0:0:0:
306,217,106290,1,8,3:1:0:0:
306,217,106540,1,8,3:1:0:0:
411,165,106707,6,0,P|441:154|463:150,1,50,8|0,3:1|0:0,0:0:0:0:
332,99,106873,2,0,P|335:74|335:49,1,50,0|0,3:0|0:0,0:0:0:0:
458,150,107040,2,0,P|434:155|411:165,1,50,8|0,3:1|0:0,0:0:0:0:
408,86,107207,2,0,P|425:67|438:46,1,50,0|0,3:0|0:0,0:0:0:0:
279,214,107373,5,8,3:1:0:0:
256,224,107457,1,8,3:1:0:0:
234,214,107540,1,8,3:1:0:0:
224,192,107623,1,8,3:1:0:0:
234,169,107707,1,8,3:1:0:0:
256,159,107790,1,8,3:1:0:0:
279,169,107873,1,8,3:1:0:0:
289,192,107957,1,8,3:1:0:0:
256,235,108040,6,0,P|256:139|259:235,1,300,8|0,3:1|0:0,0:0:0:0:
323,291,108373,6,0,P|360:229|321:289,1,225.000008583069,2|0,0:1|0:0,0:0:0:0:
201,280,108707,6,0,P|176:238|202:279,1,150,2|0,0:1|0:0,0:0:0:0:
256,352,109040,6,0,L|256:48,1,300,2|0,0:1|0:0,0:0:0:0:
248,59,109373,6,0,P|221:87|160:84,1,100,8|0,0:0|3:0,0:0:0:0:
154,79,109582,1,0,3:0:0:0:
146,72,109623,2,0,P|116:72|112:84,1,25,0|0,3:0|3:0,0:0:0:0:
71,118,109707,6,0,P|91:155|198:155,2,150.000005722046,14|0|0,3:2|0:0|3:0,0:0:0:0:
51,384,110207,1,0,0:0:0:0:
63,310,110290,1,0,0:0:0:0:
74,236,110373,2,0,L|-11:224,1,75.0000028610231,8|0,3:2|0:0,0:0:0:0:
136,281,110540,2,0,L|221:264,1,75.0000028610231,2|2,0:0|0:0,0:0:0:0:
276,153,110707,6,0,P|369:153|387:227,1,150.000005722046,2|0,3:2|0:0,0:0:0:0:
323,204,110957,1,0,0:0:0:0:
276,153,111040,2,0,L|223:93,1,75.0000028610231,8|0,3:2|0:0,0:0:0:0:
391,194,111207,2,0,L|490:180,1,75.0000028610231
297,271,111373,5,0,3:0:0:0:
366,66,111540,1,0,0:0:0:0:
356,102,111623,1,0,0:0:0:0:
346,138,111707,1,8,3:2:0:0:
282,22,111873,1,2,0:0:0:0:
455,301,112040,6,0,P|460:245|373:196,1,150.000005722046,2|0,3:2|0:0,0:0:0:0:
302,264,112290,1,0,0:0:0:0:
317,280,112373,2,0,L|414:262,1,75.0000028610231,8|0,3:2|0:0,0:0:0:0:
512,149,112540,2,0,L|478:228,1,75.0000028610231,2|2,0:0|0:0,0:0:0:0:
286,187,112707,6,0,P|210:142|157:179,1,150.000005722046,2|0,3:2|0:0,0:0:0:0:
196,300,112957,1,0,0:0:0:0:
214,287,113040,2,0,L|220:201,1,75.0000028610231,8|0,3:2|0:0,0:0:0:0:
132,77,113207,2,0,L|210:145,1,75.0000028610231,2|2,0:0|0:0,0:0:0:0:
123,334,113373,6,0,L|49:321,1,75.0000028610231,2|0,3:2|0:0,0:0:0:0:
42,311,113540,2,0,L|116:324,1,75.0000028610231,2|0,0:0|0:0,0:0:0:0:
389,334,113707,6,0,L|463:321,1,75.0000028610231,2|0,3:2|0:0,0:0:0:0:
470,311,113874,2,0,L|396:324,1,75.0000028610231
218,384,114040,6,0,P|199:345|214:304,1,75.0000028610231,0|0,3:0|0:0,0:0:0:0:
294,306,114207,2,0,P|313:345|298:386,1,75.0000028610231,0|0,1:0|0:0,0:0:0:0:
240,218,114373,1,10,3:2:0:0:
240,218,114540,5,2,1:2:0:0:
175,254,114623,1,0,0:0:0:0:
102,233,114707,2,0,L|94:197,7,37.5000014305115,2|0|0|0|2|0|0|0,3:2|0:0|0:0|0:0|3:1|0:0|0:0|0:0,0:0:0:0:
102,233,115373,2,0,P|58:202|8:214,1,100,0|0,3:0|0:0,0:0:0:0:
130,135,115623,2,0,P|156:109|231:129,1,100,0|0,3:0|0:0,0:0:0:0:
57,125,115873,2,0,P|43:101|17:85,1,50,0|0,3:0|0:0,0:0:0:0:
269,164,116040,6,0,L|316:167,5,37.5000014305115,0|0|0|0|2|0,3:0|0:0|0:0|0:0|3:1|0:0,0:0:0:0:
269,164,116540,1,0,3:0:0:0:
298,232,116623,1,0,3:0:0:0:
365,197,116707,2,0,P|428:191|461:229,1,100,0|8,3:0|3:2,0:0:0:0:
457,224,116915,1,8,3:2:0:0:
467,231,116957,2,0,P|485:232|501:211,1,25,8|0,3:2|0:0,0:0:0:0:
410,280,117040,6,0,P|409:335|458:368,1,100,2|8,3:1|3:2,0:0:0:0:
451,359,117248,1,8,3:2:0:0:
456,347,117290,2,0,P|444:330|428:328,1,25,8|0,3:2|0:0,0:0:0:0:
342,349,117373,6,0,L|282:360,1,50,2|0,3:1|0:0,0:0:0:0:
219,375,117540,2,0,L|159:386,1,50,0|0,3:0|0:0,0:0:0:0:
291,210,117707,6,0,L|365:197,1,75.0000028610231,0|0,3:0|0:0,0:0:0:0:
105,249,117874,2,0,L|179:236,1,75.0000028610231,0|0,3:0|0:0,0:0:0:0:
256,71,118040,5,0,3:0:0:0:
233,80,118124,1,0,3:0:0:0:
224,103,118207,1,0,3:0:0:0:
233,126,118290,1,0,3:0:0:0:
256,135,118374,1,0,3:0:0:0:
279,126,118457,1,0,3:0:0:0:
288,103,118540,1,0,3:0:0:0:
279,80,118624,1,0,3:0:0:0:
192,43,118707,6,0,P|173:42|157:51,1,37.5000014305115,0|0,3:0|0:0,0:0:0:0:
166,105,118873,2,0,P|152:118|147:136,1,37.5000014305115
193,168,119040,2,0,P|193:187|202:203,1,37.5000014305115,8|0,0:1|0:0,0:0:0:0:
256,195,119207,2,0,P|270:208|287:212,1,37.5000014305115
318,166,119373,2,0,P|337:167|353:158,1,37.5000014305115,8|0,0:1|0:0,0:0:0:0:
343,104,119539,2,0,P|355:91|360:73,1,37.5000014305115
317,42,119707,2,0,P|317:23|308:7,1,37.5000014305115,8|0,0:0|0:0,0:0:0:0:
254,16,119873,2,0,P|240:2|220:0,1,37.5000014305115
256,107,120040,5,4,3:2:0:0:
256,192,120207,12,0,122707,0:0:0:0:
