osu file format v14

[General]
AudioFilename: audio.mp3
AudioLeadIn: 0
PreviewTime: 77040
Countdown: 0
SampleSet: Soft
StackLeniency: 0.7
Mode: 0
LetterboxInBreaks: 0
EpilepsyWarning: 1
WidescreenStoryboard: 1

[Editor]
Bookmarks: 16199,16866,17533,22533,33533,66533,74366
DistanceSpacing: 1.5
BeatDivisor: 8
GridSize: 32
TimelineZoom: 3.099998

[Metadata]
Title:L.F.O
TitleUnicode:L.F.O
Artist:aran
ArtistUnicode:aran
Creator:Pipuuko
Version:Another
Source:beatmania IIDX 26 Rootage
Tags:uk hardcore ln konami bemani low frequency oscillator video game electronic instrumental Feiri Runigh Orange_ Orange lfo rhythm megafan
BeatmapID:2875377
BeatmapSetID:1377112

[Difficulty]
HPDrainRate:4
CircleSize:4
OverallDifficulty:8
ApproachRate:9
SliderMultiplier:1.4
SliderTickRate:1

[Events]
//Background and Video events
0,0,"bg.jpg",0,0
Video,0,"video.mp4" S,0,0,,1
//Break Periods
//Storyboard Layer 0 (Background)
//Storyboard Layer 1 (Fail)
//Storyboard Layer 2 (Pass)
//Storyboard Layer 3 (Foreground)
//Storyboard Layer 4 (Overlay)
//Storyboard Sound Samples

[TimingPoints]
1374,333.333333333333,4,2,1,5,1,0
1533,-100,4,2,1,5,0,0
1540,-100,4,2,1,10,0,0
1707,-100,4,2,1,15,0,0
1866,-100,4,2,1,15,0,0
1873,-100,4,2,1,20,0,0
2040,-100,4,2,1,30,0,0
2199,-100,4,2,1,30,0,0
2207,-100,4,2,1,45,0,0
2373,-100,4,2,1,60,0,0
3873,-100,4,2,1,60,0,0
4207,-100,4,2,1,60,0,0
5040,-100,4,2,1,60,0,0
5540,-100,4,2,1,60,0,0
6540,-100,4,2,1,60,0,0
6873,-100,4,2,1,60,0,0
7207,-100,4,2,1,60,0,0
8123,-100,4,2,1,60,0,0
9207,-100,4,2,1,60,0,0
9457,-100,4,2,1,60,0,0
10373,-100,4,2,1,60,0,0
10790,-100,4,2,1,60,0,0
11207,-100,4,2,1,60,0,0
11457,-100,4,2,1,60,0,0
11873,-100,4,2,1,60,0,0
12082,-100,4,2,1,60,0,0
12207,-100,4,2,1,60,0,0
12373,-100,4,2,1,60,0,0
12540,-100,4,2,1,60,0,0
12707,-100,4,2,1,60,0,0
12873,-100,4,2,1,60,0,0
13373,-80,4,2,1,70,0,0
16040,-133.333333333333,4,2,1,70,0,0
18373,-86.9565217391304,4,2,1,70,0,0
21373,-86.9565217391304,4,2,1,70,0,0
22707,-86.9565217391304,4,3,2,70,0,0
23040,-86.9565217391304,4,2,1,70,0,0
23707,-86.9565217391304,4,2,2,70,0,0
24040,-80,4,2,1,70,0,0
33373,-80,4,2,1,70,0,0
33457,-80,4,2,1,70,0,0
33533,-86.9565217391304,4,2,1,70,0,0
34707,-80,4,2,1,70,0,0
35540,-80,4,2,1,70,0,0
35707,-100,4,2,1,70,0,0
36040,-100,4,2,1,70,0,0
36207,-86.9565217391304,4,2,1,70,0,0
36873,-86.9565217391304,4,2,1,70,0,0
37040,-100,4,2,1,70,0,0
39040,-86.9565217391304,4,2,1,70,0,0
40040,-80,4,2,1,70,0,0
40373,-86.9565217391304,4,2,1,70,0,0
40707,-80,4,2,1,70,0,0
41040,-86.9565217391304,4,2,1,70,0,0
41373,-80,4,2,1,70,0,0
41707,-86.9565217391304,4,2,1,70,0,0
42040,-80,4,2,1,70,0,0
42373,-86.9565217391304,4,2,1,70,0,0
42707,-86.9565217391304,4,2,1,70,0,0
45040,-86.9565217391304,4,2,1,70,0,0
45207,-86.9565217391304,4,2,1,70,0,0
45373,-86.9565217391304,4,2,1,60,0,0
45457,-86.9565217391304,4,2,1,60,0,0
46707,-100,4,2,1,60,0,0
52040,-133.333333333333,4,2,1,55,0,0
53707,-133.333333333333,4,2,1,50,0,0
53957,-153.846153846154,4,2,1,50,0,0
56040,-133.333333333333,4,2,1,55,0,0
56123,-133.333333333333,4,2,1,55,0,0
61373,-133.333333333333,4,2,1,60,0,0
65373,-86.9565217391304,4,2,1,60,0,0
66283,-86.9565217391304,4,2,1,60,0,0
66373,-86.9565217391304,4,2,1,60,0,0
66449,-86.9565217391304,4,2,1,60,0,0
66540,-86.9565217391304,4,2,1,60,0,0
66707,-86.9565217391304,4,2,1,70,0,0
67040,-80,4,2,1,70,0,0
74707,-80,4,2,1,70,0,0
76033,-200,4,2,1,70,0,0
76040,-200,4,3,2,70,0,0
76116,-166.666666666667,4,3,2,70,0,0
76199,-153.846153846154,4,3,2,70,0,0
76207,-153.846153846154,4,3,2,70,0,0
76283,-142.857142857143,4,3,2,70,0,0
76290,-142.857142857143,4,3,2,70,0,0
76366,-133.333333333333,4,3,2,70,0,0
76373,-133.333333333333,4,3,2,70,0,0
76449,-125,4,3,2,70,0,0
76457,-125,4,3,2,70,0,0
76533,-117.647058823529,4,3,2,70,0,0
76540,-117.647058823529,4,3,2,70,0,0
76616,-111.111111111111,4,3,2,70,0,0
76623,-111.111111111111,4,3,2,70,0,0
76699,-105.263157894737,4,3,2,70,0,0
76707,-105.263157894737,4,3,2,70,0,0
76783,-100,4,3,2,70,0,0
77040,-100,4,2,1,70,0,0
77373,-66.6666666666667,4,2,1,80,0,1
77540,-66.6666666666667,4,2,1,80,0,1
80540,-133.333333333333,4,2,1,80,0,1
80707,-66.6666666666667,4,2,1,80,0,1
81540,-133.333333333333,4,2,1,80,0,1
81582,-133.333333333333,4,2,1,80,0,1
81707,-66.6666666666667,4,2,1,80,0,1
82207,-133.333333333333,4,2,1,80,0,1
82373,-66.6666666666667,4,2,1,80,0,1
82707,-66.6666666666667,4,2,1,80,0,1
82873,-66.6666666666667,4,2,1,80,0,1
85873,-133.333333333333,4,2,1,80,0,1
85915,-133.333333333333,4,2,1,80,0,1
86040,-66.6666666666667,4,2,1,80,0,1
86623,-133.333333333333,4,2,1,80,0,1
86748,-133.333333333333,4,2,1,80,0,1
86873,-66.6666666666667,4,2,1,80,0,1
88373,-66.6666666666667,4,2,1,80,0,1
88540,-66.6666666666667,4,2,1,80,0,1
91207,-133.333333333333,4,2,1,80,0,1
91248,-133.333333333333,4,2,1,80,0,1
91373,-66.6666666666667,4,2,1,80,0,1
92207,-133.333333333333,4,2,1,80,0,1
92248,-133.333333333333,4,2,1,80,0,1
92373,-66.6666666666667,4,2,1,80,0,1
93373,-66.6666666666667,4,2,1,80,0,1
93540,-66.6666666666667,4,2,1,80,0,1
94707,-66.6666666666667,4,2,1,80,0,1
94873,-66.6666666666667,4,2,1,80,0,1
96040,-66.6666666666667,4,2,1,80,0,1
96207,-66.6666666666667,4,2,1,80,0,1
96707,-66.6666666666667,4,2,1,80,0,1
96873,-66.6666666666667,4,2,1,80,0,1
97373,-66.6666666666667,4,2,1,80,0,1
97540,-66.6666666666667,4,2,1,80,0,1
97707,-80,4,2,1,70,0,1
98540,-100,4,2,1,70,0,0
98707,-100,4,2,1,70,0,0
100373,-80,4,2,1,70,0,0
101207,-100,4,2,1,70,0,0
103040,-80,4,2,1,70,0,0
109373,-80,4,2,1,80,0,0
109540,-66.6666666666667,4,2,1,80,0,1
118707,-57.1428571428571,4,2,1,70,0,0
120040,-57.1428571428571,4,2,1,70,0,0
120199,-57.1428571428571,4,2,1,70,0,0
120533,-57.1428571428571,4,2,1,70,0,0
120866,-57.1428571428571,4,2,1,70,0,0
121199,-57.1428571428571,4,2,1,70,0,0
121533,-57.1428571428571,4,2,1,70,0,0
121866,-57.1428571428571,4,2,1,70,0,0
122199,-57.1428571428571,4,2,1,70,0,0
122707,-57.1428571428571,4,2,1,5,0,0

[Colours]
Combo1 : 128,64,64
Combo2 : 128,128,128
Combo3 : 0,64,128

[HitObjects]
256,192,1374,12,4,2707,3:2:0:0:
94,137,2873,5,0,0:0:0:0:
58,235,3040,1,0,0:0:0:0:
161,214,3207,1,0,0:0:0:0:
94,137,3373,1,0,0:0:0:0:
197,118,3540,1,0,0:0:0:0:
161,214,3707,1,0,0:0:0:0:
94,137,3873,5,8,0:1:0:0:
94,137,3957,1,8,0:1:0:0:
94,137,4040,1,2,0:3:0:0:
197,118,4207,5,0,0:0:0:0:
259,201,4373,1,0,0:0:0:0:
326,281,4540,1,0,0:0:0:0:
369,185,4707,1,0,0:0:0:0:
259,201,4873,1,0,0:0:0:0:
154,214,5040,5,2,0:3:0:0:
231,299,5207,1,8,0:1:0:0:
231,299,5290,1,8,0:1:0:0:
231,299,5373,1,2,0:3:0:0:
259,201,5540,5,0,0:0:0:0:
369,185,5707,1,0,0:0:0:0:
326,281,5873,1,0,0:0:0:0:
231,299,6040,1,0,0:0:0:0:
154,214,6207,53,0,0:0:0:0:
259,201,6373,1,0,0:0:0:0:
187,128,6540,5,8,0:1:0:0:
187,128,6623,1,8,0:1:0:0:
187,128,6707,1,2,0:3:0:0:
303,98,6873,6,0,L|293:58,2,35
259,201,7207,5,8,0:1:0:0:
259,201,7290,1,8,0:1:0:0:
259,201,7373,1,2,0:3:0:0:
187,128,7540,2,0,L|170:56,1,70,8|2,0:1|0:3,0:0:0:0:
294,64,7873,1,8,0:1:0:0:
294,64,7957,1,8,0:1:0:0:
294,64,8040,6,0,L|304:108,7,35,2|0|0|0|0|0|0|0,0:3|0:0|0:0|0:0|0:0|0:0|0:0|0:0,0:0:0:0:
259,201,8707,2,0,L|269:241,5,35
346,350,9207,5,8,0:1:0:0:
346,350,9290,1,8,0:1:0:0:
346,350,9373,2,0,L|337:312,7,35,2|0|0|0|0|0|0|0,0:3|0:0|0:0|0:0|0:0|0:0|0:0|0:0,0:0:0:0:
367,246,10040,5,0,0:0:0:0:
392,234,10123,1,0,0:0:0:0:
420,231,10207,1,0,0:0:0:0:
447,233,10290,1,0,0:0:0:0:
470,247,10373,2,0,L|496:286,3,46.6666666666667,8|0|0|2,0:1|0:0|0:0|0:3,0:0:0:0:
464,158,10873,5,0,0:0:0:0:
438,145,10957,1,0,0:0:0:0:
410,142,11040,1,0,0:0:0:0:
382,145,11123,1,0,0:0:0:0:
355,155,11207,2,0,L|342:120,2,35,8|8|2,0:1|0:1|0:3,0:0:0:0:
267,188,11540,5,0,0:0:0:0:
255,162,11623,1,0,0:0:0:0:
249,133,11707,1,0,0:0:0:0:
251,105,11790,1,0,0:0:0:0:
261,78,11873,2,0,L|224:71,2,35,8|8|2,0:1|0:1|0:3,0:0:0:0:
360,49,12123,5,0,0:0:0:0:
370,41,12207,2,0,L|370:14,20,17.5,8|0|0|0|2|8|8|8|8|8|8|8|2|8|8|8|8|8|8|8|2,0:1|0:0|0:0|0:0|0:1|0:1|0:1|0:1|0:1|0:1|0:1|0:1|0:1|0:1|0:1|0:1|0:1|0:1|0:1|0:1|0:1,0:0:0:0:
62,48,13373,6,0,L|62:148,1,87.5,6|0,3:2|0:0,0:0:0:0:
168,155,13623,1,0,0:0:0:0:
168,155,13707,2,0,L|168:246,1,87.5,8|0,0:0|0:0,0:0:0:0:
64,273,13957,1,0,0:0:0:0:
64,273,14040,2,0,L|64:363,1,87.5,8|0,0:0|0:0,0:0:0:0:
132,207,14373,1,8,0:0:0:0:
62,135,14540,1,2,0:0:0:0:
62,135,14623,1,0,0:0:0:0:
62,135,14707,2,0,L|62:42,1,87.5,10|0,0:2|0:0,0:0:0:0:
128,0,15040,1,8,0:0:0:0:
217,50,15207,53,2,0:0:0:0:
217,50,15290,1,0,0:0:0:0:
217,50,15373,2,0,L|217:144,1,87.5,10|2,0:0|0:0,0:0:0:0:
288,266,15707,2,0,L|288:172,1,87.5,10|2,0:0|0:0,0:0:0:0:
213,256,16040,6,0,L|213:314,1,52.5000020027161,14|0,0:0|0:0,0:0:0:0:
288,353,16373,1,8,0:0:0:0:
288,353,16540,1,2,0:0:0:0:
356,316,16707,2,0,L|416:316,1,52.5000020027161,10|0,0:0|0:0,0:0:0:0:
496,249,17040,2,0,L|436:249,1,52.5000020027161,8|0,0:0|0:0,0:0:0:0:
362,248,17373,1,8,0:0:0:0:
362,248,17540,1,2,0:0:0:0:
404,186,17707,2,0,L|404:130,1,52.5000020027161,10|0,0:0|0:0,0:0:0:0:
331,75,18040,2,0,L|331:131,1,52.5000020027161,8|2,0:0|0:0,0:0:0:0:
287,199,18373,6,0,B|245:199|245:199|242:208|242:208|186:208,1,80.5000015354157,10|2,0:0|0:0,0:0:0:0:
33,281,18707,2,0,L|124:281,1,80.5000015354157,10|8,0:0|0:1,0:0:0:0:
137,122,18957,1,0,0:0:0:0:
137,122,19040,2,0,L|137:206,1,80.5000015354157,8|8,0:0|0:1,0:0:0:0:
199,374,19290,1,0,0:0:0:0:
199,374,19373,2,0,L|199:286,1,80.5000015354157,8|8,0:0|0:1,0:0:0:0:
290,278,19623,1,0,0:0:0:0:
290,278,19707,1,8,0:0:0:0:
292,370,19873,1,8,0:1:0:0:
373,320,20040,6,0,L|454:319,1,80.5000015354157,10|8,0:0|0:1,0:0:0:0:
288,185,20290,1,0,0:0:0:0:
288,185,20373,2,0,L|191:185,1,80.5000015354157,8|8,0:0|0:1,0:0:0:0:
383,221,20707,2,0,L|383:133,1,80.5000015354157,10|8,0:0|0:1,0:0:0:0:
312,23,21040,2,0,L|312:114,1,80.5000015354157,10|8,0:0|0:1,0:0:0:0:
288,185,21373,6,0,L|288:228,7,40.2500007677078,10|8|8|8|8|8|8|8,0:0|0:1|0:1|0:1|0:0|0:1|0:1|0:1,0:0:0:0:
184,311,22040,1,10,0:0:0:0:
156,305,22123,1,8,0:1:0:0:
129,295,22207,1,8,0:1:0:0:
109,269,22290,1,8,0:1:0:0:
104,242,22373,1,8,0:0:0:0:
121,213,22457,1,8,0:1:0:0:
155,201,22540,1,8,0:1:0:0:
188,215,22623,1,8,0:1:0:0:
199,249,22707,5,4,0:0:0:0:
422,73,23040,6,0,L|422:166,1,80.5000015354157,2|0,0:1|0:0,0:0:0:0:
422,234,23373,2,0,L|422:143,1,80.5000015354157,2|0,0:1|0:0,0:0:0:0:
322,116,23707,2,0,P|302:143|328:126,1,80.5000015354157,2|0,0:2|0:0,0:0:0:0:
231,160,24040,6,0,P|169:165|115:143,1,87.5,4|0,3:2|0:0,0:0:0:0:
49,92,24373,2,0,P|38:136|62:203,1,87.5,8|0,3:2|0:0,0:0:0:0:
110,247,24707,1,0,3:0:0:0:
145,159,24873,1,2,0:0:0:0:
145,159,24957,1,2,0:0:0:0:
145,159,25040,1,8,3:2:0:0:
82,337,25207,1,2,0:0:0:0:
188,312,25373,54,0,P|236:301|276:314,1,87.5,0|0,3:0|0:0,0:0:0:0:
435,263,25707,2,0,P|387:274|347:261,1,87.5,8|0,3:2|0:0,0:0:0:0:
285,237,26040,1,0,3:0:0:0:
346,343,26207,1,2,0:0:0:0:
346,343,26290,1,2,0:0:0:0:
346,343,26373,1,8,3:2:0:0:
234,138,26540,1,2,0:0:0:0:
118,210,26707,6,0,P|177:219|224:201,1,87.5,0|0,3:0|0:0,0:0:0:0:
319,161,27040,2,0,P|378:151|425:169,1,87.5,8|0,3:2|0:0,0:0:0:0:
474,197,27373,1,0,3:0:0:0:
446,89,27540,1,2,0:0:0:0:
446,89,27623,1,2,0:0:0:0:
446,89,27707,1,8,3:2:0:0:
509,297,27873,1,2,0:0:0:0:
409,281,28040,54,0,P|367:291|311:278,1,87.5,0|0,3:0|0:0,0:0:0:0:
218,227,28373,2,0,P|229:268|217:325,1,87.5,8|2,3:2|0:0,0:0:0:0:
169,372,28623,1,2,0:0:0:0:
169,372,28707,1,0,3:0:0:0:
297,358,28873,1,2,0:0:0:0:
297,358,28957,1,2,0:0:0:0:
297,358,29040,1,8,3:2:0:0:
278,229,29207,1,2,3:2:0:0:
110,244,29373,6,0,P|67:253|24:247,1,87.5,4|0,3:2|0:0,0:0:0:0:
193,231,29707,2,0,P|241:220|290:235,1,87.5,8|0,3:2|0:0,0:0:0:0:
142,181,30040,1,0,3:0:0:0:
166,305,30207,1,2,0:0:0:0:
166,305,30290,1,2,0:0:0:0:
166,305,30373,1,8,3:2:0:0:
125,70,30540,1,2,0:0:0:0:
239,92,30707,54,0,P|281:100|323:89,1,87.5,0|0,3:0|0:0,0:0:0:0:
386,15,31040,2,0,P|400:65|440:99,1,87.5,8|0,3:2|0:0,0:0:0:0:
372,144,31373,1,0,3:0:0:0:
313,17,31540,1,2,0:0:0:0:
313,17,31623,1,2,0:0:0:0:
313,17,31707,1,8,3:2:0:0:
434,263,31873,1,2,0:0:0:0:
310,256,32040,6,0,P|264:266|211:253,1,87.5,0|0,3:0|0:0,0:0:0:0:
65,235,32373,2,0,P|107:225|150:233,1,87.5,8|0,3:2|0:0,0:0:0:0:
206,183,32707,1,0,3:0:0:0:
171,312,32873,1,2,0:0:0:0:
171,312,32957,1,2,0:0:0:0:
171,312,33040,1,8,3:2:0:0:
250,65,33207,1,2,0:0:0:0:
206,183,33373,53,0,3:0:0:0:
379,77,33707,6,0,L|399:166,1,80.5000015354157,2|0,0:1|0:0,0:0:0:0:
415,233,34040,2,0,L|396:152,1,80.5000015354157,2|0,0:1|0:0,0:0:0:0:
473,131,34373,2,0,P|498:127|469:108,1,80.5000015354157,2|8,0:1|0:1,0:0:0:0:
310,166,34707,53,4,3:2:0:0:
227,241,34873,1,0,0:0:0:0:
227,241,34957,1,0,0:0:0:0:
227,241,35040,1,8,3:2:0:0:
184,145,35207,1,0,0:0:0:0:
184,145,35290,1,0,0:0:0:0:
184,145,35373,1,0,3:0:0:0:
277,78,35540,1,2,0:0:0:0:
277,78,35623,1,2,0:0:0:0:
277,78,35707,6,0,L|313:78,4,35,8|0|2|0|0,3:2|0:0|0:0|0:0|3:0,0:0:0:0:
188,42,36207,1,0,0:0:0:0:
188,42,36290,1,0,0:0:0:0:
188,42,36373,1,8,3:2:0:0:
99,92,36540,1,0,0:0:0:0:
99,92,36623,1,0,0:0:0:0:
99,92,36707,1,0,3:0:0:0:
184,145,36873,1,2,0:0:0:0:
184,145,36957,1,2,0:0:0:0:
184,145,37040,54,0,L|222:145,4,35,8|0|2|0|0,3:2|0:0|0:0|0:0|3:0,0:0:0:0:
106,184,37540,1,0,0:0:0:0:
106,184,37623,1,0,0:0:0:0:
106,184,37707,1,8,3:2:0:0:
136,278,37873,1,0,0:0:0:0:
136,278,37957,1,0,0:0:0:0:
136,278,38040,1,0,3:0:0:0:
227,241,38207,1,2,0:0:0:0:
227,241,38290,1,2,0:0:0:0:
227,241,38373,6,0,L|268:241,4,35,8|0|2|0|0,3:2|0:0|0:0|0:0|3:0,0:0:0:0:
320,109,39040,22,0,L|406:109,1,80.5000015354157,8|2,3:2|0:0,0:0:0:0:
481,109,39373,2,0,L|399:109,1,80.5000015354157,0|2,3:0|1:2,0:0:0:0:
401,190,39623,1,2,3:2:0:0:
401,190,39707,2,0,P|402:222|405:191,1,80.5000015354157,0|2,0:0|1:2,0:0:0:0:
236,157,40040,6,0,P|221:195|236:259,1,87.5,4|0,3:2|0:0,0:0:0:0:
401,190,40373,6,0,L|401:106,1,80.5000015354157,2|0,3:1|0:0,0:0:0:0:
234,50,40707,6,0,P|189:44|130:57,1,87.5,0|2,3:2|0:0,0:0:0:0:
32,163,41040,6,0,L|32:250,1,80.5000015354157,2|2,3:1|3:2,0:0:0:0:
192,314,41373,6,0,P|203:267|195:223,1,87.5,0|0,3:2|0:0,0:0:0:0:
32,163,41707,6,0,L|122:163,1,80.5000015354157,2|0,3:1|0:0,0:0:0:0:
256,63,42040,6,0,P|266:111|254:158,1,87.5,0|2,3:2|0:0,0:0:0:0:
112,163,42290,1,2,3:2:0:0:
112,163,42373,6,0,L|112:81,1,80.5000015354157,2|2,0:1|3:2,0:0:0:0:
256,63,42707,5,2,3:1:0:0:
256,183,42873,1,0,3:2:0:0:
363,126,43040,1,0,3:2:0:0:
364,246,43207,1,0,3:2:0:0:
256,183,43373,2,0,L|256:244,3,40.2500007677078,0|0|2|2,3:2|3:2|3:2|3:2,0:0:0:0:
256,247,43707,1,0,3:2:0:0:
256,268,43790,1,0,3:2:0:0:
255,289,43874,1,2,3:2:0:0:
255,310,43957,1,0,3:2:0:0:
255,331,44040,1,0,3:2:0:0:
364,246,44207,54,0,L|364:161,1,80.5000015354157
255,112,44540,1,2,0:0:0:0:
255,112,44623,1,2,0:0:0:0:
426,80,44873,1,2,0:0:0:0:
426,80,44957,1,2,0:0:0:0:
426,80,45040,2,0,L|426:-1,1,80.5000015354157,0|2,0:0|0:0,0:0:0:0:
255,112,45373,6,0,P|172:172|259:232,1,241.500004606247,4|0,3:2|0:0,0:0:0:0:
416,49,46207,1,4,0:3:0:0:
416,49,46290,1,0,0:0:0:0:
414,218,46540,1,4,0:3:0:0:
320,113,46707,6,0,P|312:70|326:32,1,70,4|0,0:3|0:0,0:0:0:0:
220,83,47040,2,0,P|182:88|144:79,1,70,4|0,0:3|0:0,0:0:0:0:
88,50,47290,1,4,0:3:0:0:
35,198,47540,1,4,0:3:0:0:
35,198,47623,1,0,0:0:0:0:
186,156,47873,1,4,0:3:0:0:
186,156,48040,54,0,P|192:193|175:242,1,70,4|0,0:3|0:0,0:0:0:0:
140,319,48373,2,0,P|173:327|220:317,1,70,4|0,0:3|0:0,0:0:0:0:
274,297,48623,1,4,0:3:0:0:
320,146,48873,1,4,0:3:0:0:
320,146,48957,1,0,0:0:0:0:
437,250,49207,1,4,0:3:0:0:
437,250,49373,6,0,P|445:210|438:177,1,70,8|0,0:3|0:0,0:0:0:0:
357,248,49707,2,0,P|350:296|364:336,1,70,8|0,0:3|0:0,0:0:0:0:
354,316,49957,1,8,0:3:0:0:
439,181,50207,1,8,0:3:0:0:
439,181,50290,1,0,0:0:0:0:
511,320,50540,1,8,0:3:0:0:
354,316,50707,54,0,P|306:323|274:316,1,70,4|0,0:3|0:0,0:0:0:0:
190,352,51040,2,0,P|183:313|192:275,1,70,4|0,0:3|0:0,0:0:0:0:
222,218,51290,1,4,0:3:0:0:
371,169,51540,6,0,P|381:125|370:84,1,70,4|0,0:3|0:0,0:0:0:0:
287,49,51873,1,4,0:3:0:0:
287,49,52040,2,0,P|280:80|286:116,1,52.5000020027161,4|0,0:3|0:0,0:0:0:0:
370,168,52373,1,4,0:3:0:0:
370,168,52623,1,4,0:3:0:0:
448,79,52873,53,4,0:3:0:0:
450,240,53207,1,4,0:3:0:0:
450,240,53373,1,4,0:3:0:0:
293,216,53707,6,0,P|286:252|292:272,1,52.5000020027161,4|0,0:3|0:0,0:0:0:0:
299,287,53957,2,0,P|307:319|306:344,1,45.4999979171754,4|0,0:3|0:0,0:0:0:0:
301,354,54207,1,4,0:3:0:0:
154,322,54540,53,4,0:3:0:0:
154,322,54707,2,0,P|148:303|149:274,1,45.4999979171754,8|0,0:3|0:0,0:0:0:0:
218,225,55040,2,0,P|224:250|222:277,1,45.4999979171754,8|0,0:3|0:0,0:0:0:0:
225,293,55290,1,8,0:3:0:0:
225,293,55540,1,8,0:3:0:0:
127,197,55873,5,8,0:3:0:0:
127,197,56040,2,0,L|127:133,1,52.5000020027161,4|0,3:2|0:0,0:0:0:0:
63,97,56373,1,4,0:3:0:0:
127,197,56707,1,4,0:3:0:0:
187,95,56957,1,4,0:3:0:0:
239,200,57207,53,4,0:3:0:0:
187,95,57373,1,8,0:3:0:0:
127,197,57540,1,8,0:3:0:0:
64,93,57707,1,8,0:3:0:0:
271,62,58040,6,0,P|300:58|332:66,1,52.5000020027161,8|0,0:3|0:0,0:0:0:0:
347,70,58290,2,0,P|374:77|407:73,1,52.5000020027161,8|0,0:3|0:0,0:0:0:0:
472,51,58540,1,8,0:3:0:0:
472,51,58623,1,8,0:3:0:0:
472,51,58707,1,4,0:3:0:0:
475,155,58873,1,4,0:3:0:0:
369,158,59040,1,4,0:3:0:0:
129,57,59373,54,0,P|124:87|130:126,1,52.5000020027161,4|0,0:3|0:0,0:0:0:0:
132,134,59623,2,0,P|137:164|131:203,1,52.5000020027161,4|0,0:3|0:0,0:0:0:0:
112,253,59873,2,0,P|109:266|109:277,3,17.500000667572,4|4|4|8,0:3|0:3|0:3|0:3,0:0:0:0:
41,189,60207,1,8,0:3:0:0:
41,189,60373,1,8,0:3:0:0:
41,189,60540,1,8,0:3:0:0:
129,91,60707,5,8,0:3:0:0:
224,144,60873,1,8,0:3:0:0:
224,144,60957,1,8,0:3:0:0:
259,48,61123,1,8,0:3:0:0:
259,48,61207,1,8,0:3:0:0:
224,144,61373,54,0,P|216:192|225:233,1,78.7500030040742,4|0,3:2|0:0,0:0:0:0:
230,245,61707,2,0,P|240:278|237:309,1,52.5000020027161,4|0,0:3|0:0,0:0:0:0:
338,332,62040,2,0,P|338:305|347:281,1,52.5000020027161,4|0,0:3|0:0,0:0:0:0:
355,256,62290,2,0,P|359:217|351:178,1,78.7500030040742,4|4,0:3|0:3,0:0:0:0:
269,112,62707,5,8,0:3:0:0:
367,76,62873,1,8,0:3:0:0:
351,179,63040,2,0,P|320:192|291:195,1,52.5000020027161,8|0,0:3|0:0,0:0:0:0:
269,112,63373,54,0,P|236:103|203:107,1,52.5000020027161,8|0,0:3|0:0,0:0:0:0:
192,112,63623,2,0,P|155:122|120:115,1,52.5000020027161,8|0,0:3|0:0,0:0:0:0:
115,116,63873,1,8,0:3:0:0:
48,197,64040,6,0,P|40:230|45:265,1,52.5000020027161,4|0,0:3|0:0,0:0:0:0:
110,285,64373,2,0,P|116:247|114:230,1,52.5000020027161,4|0,0:3|0:0,0:0:0:0:
182,192,64707,54,0,P|215:187|251:193,1,52.5000020027161,4|0,0:3|0:0,0:0:0:0:
257,200,64957,2,0,P|284:206|311:203,1,52.5000020027161,4|0,0:3|0:0,0:0:0:0:
384,192,65207,1,4,0:3:0:0:
384,192,65290,1,0,0:0:0:0:
384,192,65373,6,0,L|384:288,1,80.5000015354157,2|0,0:1|0:0,0:0:0:0:
284,342,65707,53,0,0:0:0:0:
259,342,65790,1,0,0:0:0:0:
234,342,65873,1,0,0:0:0:0:
209,342,65957,1,0,0:0:0:0:
184,342,66040,2,0,L|150:341,14,20.1250003838539,2|0|0|0|0|0|0|0|0|0|0|0|0|0|0,0:1|0:0|0:0|0:0|0:0|0:0|0:0|0:0|0:0|0:0|0:0|0:0|0:0|0:0|0:0,0:0:0:0:
161,243,66707,5,2,3:1:0:0:
278,270,66873,1,8,0:1:0:0:
356,172,67040,2,0,P|309:164|259:173,1,87.5,8|8,0:0|0:1,0:0:0:0:
161,243,67373,1,8,0:0:0:0:
269,169,67540,2,0,P|276:123|266:82,1,87.5,8|8,0:1|0:0,0:0:0:0:
150,22,67873,1,8,0:1:0:0:
53,97,68040,2,0,P|45:142|55:183,1,87.5,8|8,0:0|0:1,0:0:0:0:
224,346,68373,5,8,0:0:0:0:
359,324,68540,1,8,0:1:0:0:
359,324,68623,1,0,0:0:0:0:
359,324,68707,2,0,L|359:231,1,87.5,8|8,0:0|0:1,0:0:0:0:
240,144,69040,1,8,0:0:0:0:
329,48,69207,1,8,0:1:0:0:
329,48,69290,1,0,0:0:0:0:
329,48,69373,2,0,L|420:48,1,87.5,8|8,0:0|0:1,0:0:0:0:
475,166,69707,53,8,0:0:0:0:
359,236,69873,1,8,0:1:0:0:
359,236,69957,1,8,0:1:0:0:
359,236,70040,2,0,L|263:236,1,87.5,8|8,0:0|0:1,0:0:0:0:
162,162,70373,1,8,0:0:0:0:
64,248,70540,1,8,0:1:0:0:
64,248,70623,1,8,0:1:0:0:
64,248,70707,2,0,L|64:338,1,87.5,8|8,0:0|0:1,0:0:0:0:
194,348,71040,5,8,0:0:0:0:
271,236,71207,1,8,0:1:0:0:
271,236,71290,1,8,0:1:0:0:
271,236,71373,2,0,L|271:146,1,87.5,8|0,0:0|1:0,0:0:0:0:
384,80,71707,1,8,0:0:0:0:
479,168,71873,2,0,L|479:214,1,43.75,8|0,0:1|0:0,0:0:0:0:
393,234,72040,54,0,L|393:282,3,43.75,8|8|8|8,0:0|0:1|0:1|0:1,0:0:0:0:
271,236,72373,2,0,L|271:192,3,43.75,8|8|8|8,0:0|0:1|0:1|0:1,0:0:0:0:
286,305,72707,2,0,L|329:305,3,43.75,8|8|8|8,0:0|0:1|0:1|0:1,0:0:0:0:
337,157,73040,2,0,L|384:157,3,43.75,8|8|8|8,0:0|0:1|0:1|0:1,0:0:0:0:
208,155,73373,2,0,L|156:155,3,43.75,8|8|8|8,0:0|0:1|0:1|0:1,0:0:0:0:
249,46,73707,5,8,0:0:0:0:
216,59,73790,1,8,0:1:0:0:
181,62,73873,1,8,0:1:0:0:
145,58,73957,1,8,0:1:0:0:
112,45,74040,1,8,0:0:0:0:
99,77,74123,1,8,0:1:0:0:
91,111,74207,1,8,0:1:0:0:
90,145,74290,1,8,0:1:0:0:
93,179,74373,1,8,0:0:0:0:
101,213,74457,1,8,0:1:0:0:
113,245,74540,1,8,0:1:0:0:
245,285,74707,54,0,L|245:310,4,21.875,8|8|8|8|8,0:0|0:1|0:1|0:1|0:1,0:0:0:0:
374,166,75040,2,0,L|374:194,4,21.875,8|8|8|8|8,0:0|0:1|0:1|0:1|0:1,0:0:0:0:
242,166,75373,2,0,L|242:196,4,21.875,8|8|8|8|8,0:0|0:1|0:1|0:1|0:1,0:0:0:0:
369,287,75707,2,0,L|369:319,6,21.875,8|8|8|8|8|8|8,0:0|0:1|0:1|0:1|0:1|0:1|0:1,0:0:0:0:
256,192,76040,12,0,77040,1:0:0:0:
256,193,77207,5,2,0:0:0:0:
384,103,77373,2,0,L|384:215,1,105.000004005432,6|0,3:2|0:0,0:0:0:0:
256,193,77707,2,0,L|256:318,1,105.000004005432,8|0,3:2|0:0,0:0:0:0:
103,258,78040,54,0,P|86:200|104:153,1,105.000004005432,0|0,3:0|0:0,0:0:0:0:
256,193,78373,2,0,P|274:140|258:92,1,105.000004005432,8|2,3:2|0:0,0:0:0:0:
103,60,78707,2,0,P|86:118|104:165,1,105.000004005432,2|0,3:2|0:0,0:0:0:0:
256,193,79040,1,8,3:2:0:0:
99,158,79207,1,2,0:0:0:0:
259,94,79373,6,0,B|313:81|313:81|369:96,1,105.000004005432,2|2,3:2|0:0,0:0:0:0:
491,24,79707,1,10,3:2:0:0:
360,93,79873,1,2,0:0:0:0:
461,213,80040,53,2,3:2:0:0:
440,109,80207,1,0,0:0:0:0:
355,171,80373,1,8,3:2:0:0:
461,213,80540,2,0,L|461:258,1,26.2500010013581,2|0,0:0|0:0,0:0:0:0:
379,306,80707,6,0,P|319:319|260:304,1,105.000004005432,2|0,3:2|0:0,0:0:0:0:
140,229,81040,2,0,P|189:220|247:230,1,105.000004005432,8|0,3:2|0:0,0:0:0:0:
379,306,81373,1,0,3:0:0:0:
355,171,81540,2,0,L|355:135,1,26.2500010013581,2|0,0:0|0:0,0:0:0:0:
145,131,81707,54,0,B|123:176|123:176|141:233,1,105.000004005432,10|0,3:2|0:0,0:0:0:0:
276,311,82040,1,0,3:0:0:0:
139,228,82207,2,0,L|127:192,1,26.2500010013581,2|0,0:0|0:0,0:0:0:0:
273,144,82373,5,10,3:2:0:0:
273,144,82540,1,2,1:2:0:0:
167,33,82707,54,0,P|151:86|172:141,1,105.000004005432,6|0,3:2|0:0,0:0:0:0:
309,68,83040,2,0,P|371:56|424:77,1,105.000004005432,8|0,3:2|0:0,0:0:0:0:
329,203,83373,2,0,P|274:221|213:203,1,105.000004005432,0|0,3:0|0:0,0:0:0:0:
94,127,83707,1,8,3:2:0:0:
228,211,83873,1,2,0:0:0:0:
96,227,84040,6,0,P|81:171|94:125,1,105.000004005432,2|0,3:2|0:0,0:0:0:0:
250,136,84373,2,0,P|260:76|250:34,1,105.000004005432,8|2,3:2|0:0,0:0:0:0:
96,25,84707,2,0,P|83:82|97:135,1,105.000004005432,2|2,3:2|0:0,0:0:0:0:
250,136,85040,1,10,3:2:0:0:
93,126,85207,1,2,0:0:0:0:
166,264,85373,53,2,3:2:0:0:
176,159,85540,1,0,0:0:0:0:
264,215,85707,1,8,3:2:0:0:
166,264,85873,2,0,L|166:304,1,26.2500010013581,2|0,0:0|0:0,0:0:0:0:
227,340,86040,6,0,P|279:351|344:338,1,105.000004005432,2|0,3:2|0:0,0:0:0:0:
455,248,86373,2,0,P|400:259|346:251,1,105.000004005432,8|2,3:2|0:2,0:0:0:0:
351,252,86623,2,0,L|351:225,1,26.2500010013581,0|2,0:0|3:2,0:0:0:0:
229,124,86873,1,0,0:0:0:0:
302,340,87040,54,0,L|176:340,1,105.000004005432,10|0,3:2|0:0,0:0:0:0:
91,340,87373,2,0,L|214:340,1,105.000004005432,0|0,3:1|0:0,0:0:0:0:
200,249,87707,2,0,P|218:213|212:253,1,105.000004005432,8|0,3:2|0:0,0:0:0:0:
200,249,87957,1,0,0:0:0:0:
200,249,88040,1,4,3:2:0:0:
200,249,88123,1,0,0:0:0:0:
200,249,88207,5,0,3:0:0:0:
66,166,88373,2,0,B|51:110|51:110|69:60,1,105.000004005432,10|0,3:2|0:0,0:0:0:0:
222,33,88707,2,0,B|237:77|237:77|222:133,1,105.000004005432,0|0,3:0|0:0,0:0:0:0:
66,166,89040,1,8,3:2:0:0:
222,133,89207,1,2,0:0:0:0:
369,187,89373,54,0,B|380:239|380:239|368:291,1,105.000004005432,2|0,3:2|0:0,0:0:0:0:
221,352,89707,2,0,B|209:301|209:301|221:250,1,105.000004005432,8|2,3:2|0:0,0:0:0:0:
369,187,90040,1,2,3:2:0:0:
221,250,90207,1,2,0:0:0:0:
224,93,90373,1,10,3:2:0:0:
301,230,90540,1,2,0:0:0:0:
382,94,90707,5,2,3:2:0:0:
293,149,90873,1,0,0:0:0:0:
282,44,91040,1,8,3:2:0:0:
382,94,91207,2,0,L|382:55,1,26.2500010013581,2|0,0:0|0:0,0:0:0:0:
282,44,91373,54,0,P|226:31|170:44,1,105.000004005432,2|0,3:2|0:0,0:0:0:0:
55,138,91707,2,0,P|105:151|166:137,1,105.000004005432,8|0,3:2|0:0,0:0:0:0:
282,44,92040,1,0,3:0:0:0:
156,141,92207,2,0,L|156:104,1,26.2500010013581,2|0,0:0|0:0,0:0:0:0:
105,227,92373,6,0,B|91:284|91:284|110:334,1,105.000004005432,10|0,3:2|0:0,0:0:0:0:
264,348,92707,2,0,B|280:304|280:304|266:247,1,105.000004005432,0|2,3:0|0:0,0:0:0:0:
156,141,93040,53,10,3:2:0:0:
156,141,93207,1,2,1:2:0:0:
294,66,93373,6,0,P|353:56|403:69,1,105.000004005432,6|0,3:2|0:0,0:0:0:0:
481,200,93707,2,0,P|428:214|353:193,1,105.000004005432,8|0,3:2|0:0,0:0:0:0:
294,66,94040,2,0,P|234:56|175:70,1,105.000004005432,0|0,3:0|0:0,0:0:0:0:
65,159,94373,1,8,3:2:0:0:
164,281,94540,1,2,3:2:0:0:
299,178,94707,54,0,B|310:235|310:235|292:296,1,105.000004005432,6|0,3:2|0:0,0:0:0:0:
164,281,95040,2,0,B|150:235|150:235|161:178,1,105.000004005432,8|2,3:2|0:0,0:0:0:0:
299,178,95373,1,2,3:2:0:0:
145,106,95540,1,2,3:2:0:0:
40,232,95707,1,2,3:2:0:0:
160,179,95873,1,2,3:2:0:0:
294,66,96040,6,0,P|335:74|401:62,1,105.000004005432,6|0,3:2|3:0,0:0:0:0:
477,199,96373,1,0,3:0:0:0:
319,311,96623,1,2,3:2:0:0:
319,311,96707,1,6,3:2:0:0:
376,200,96873,2,0,P|423:187|489:206,1,105.000004005432,0|2,3:0|3:2,0:0:0:0:
488,325,97207,2,0,L|488:356,4,26.2500010013581,0|0|0|0|0,3:0|3:0|3:0|3:0|3:0,0:0:0:0:
283,159,97707,54,0,L|283:251,1,87.5,2|0,0:1|0:0,0:0:0:0:
283,334,98040,2,0,L|283:239,1,87.5,2|0,0:1|0:0,0:0:0:0:
195,257,98373,2,0,P|164:243|198:236,1,87.5,2|0,0:1|0:0,0:0:0:0:
283,159,98707,5,4,3:2:0:0:
283,159,99040,1,8,0:1:0:0:
195,257,99373,1,8,0:1:0:0:
195,257,99540,2,0,L|195:209,2,35,0|8|0,0:0|0:1|0:0,0:0:0:0:
234,359,99873,1,8,0:1:0:0:
234,359,100040,1,8,0:1:0:0:
355,254,100373,6,0,L|355:158,1,87.5,10|0,0:1|0:0,0:0:0:0:
355,78,100707,2,0,L|355:172,1,87.5,10|0,0:1|0:0,0:0:0:0:
442,160,100957,1,8,0:1:0:0:
442,160,101040,2,0,P|472:177|436:176,1,87.5,2|8,0:1|0:1,0:0:0:0:
355,78,101373,53,8,0:1:0:0:
355,78,101707,1,8,0:1:0:0:
296,200,102040,1,8,0:1:0:0:
296,200,102207,2,0,L|296:249,2,35,0|8|0,0:0|0:1|0:0,0:0:0:0:
248,111,102540,1,8,0:1:0:0:
248,111,102707,1,8,0:1:0:0:
296,200,103040,6,0,L|386:200,1,87.5,10|0,0:1|0:0,0:0:0:0:
471,200,103373,2,0,L|378:200,1,87.5,10|0,0:1|0:0,0:0:0:0:
361,114,103623,1,8,0:1:0:0:
361,114,103707,2,0,P|385:87|367:117,1,87.5,2|8,0:1|0:1,0:0:0:0:
222,149,104040,6,0,L|222:246,1,87.5,8|0,3:1|0:0,0:0:0:0:
124,306,104373,2,0,P|76:317|24:294,1,87.5,8|0,3:1|0:0,0:0:0:0:
0,188,104707,1,8,3:1:0:0:
106,69,104873,1,0,0:0:0:0:
106,69,104957,2,0,L|106:214,1,131.25,8|8,3:1|3:1,0:0:0:0:
209,324,105373,2,0,P|250:334|305:321,1,87.5,8|0,3:1|0:0,0:0:0:0:
458,171,105707,6,0,L|458:264,1,87.5,10|0,3:1|0:0,0:0:0:0:
458,346,106040,2,0,L|458:257,1,87.5,10|0,3:1|0:0,0:0:0:0:
371,244,106290,1,8,3:1:0:0:
371,244,106373,2,0,P|340:265|374:268,1,87.5,2|8,0:1|3:1,0:0:0:0:
458,171,106707,53,8,3:1:0:0:
332,135,106873,1,0,3:0:0:0:
449,75,107040,1,8,3:1:0:0:
325,30,107207,1,0,3:0:0:0:
207,86,107373,6,0,L|207:134,3,43.75,8|8|8|8,3:1|3:1|3:1|3:1,0:0:0:0:
207,156,107707,1,8,3:1:0:0:
207,182,107790,1,8,3:1:0:0:
207,208,107873,1,8,3:1:0:0:
207,234,107957,1,8,3:1:0:0:
207,260,108040,1,8,3:1:0:0:
371,31,108373,54,0,L|281:31,1,87.5,2|0,0:1|0:0,0:0:0:0:
195,31,108707,2,0,L|288:31,1,87.5,2|0,0:1|0:0,0:0:0:0:
308,114,109040,2,0,P|288:144|285:112,1,87.5,2|0,0:1|0:0,0:0:0:0:
194,31,109373,5,8,0:0:0:0:
113,135,109540,2,0,L|113:181,4,26.2500010013581,0|0|0|0|14,3:0|3:0|3:0|3:0|3:2,0:0:0:0:
207,260,109873,53,0,0:0:0:0:
207,260,109957,1,0,0:0:0:0:
207,260,110040,2,0,P|266:273|315:258,1,105.000004005432,0|0,3:0|0:0,0:0:0:0:
421,151,110373,5,8,3:2:0:0:
298,68,110540,1,2,0:0:0:0:
298,68,110623,1,2,0:0:0:0:
298,68,110707,2,0,P|239:55|190:70,1,105.000004005432,2|0,3:2|0:0,0:0:0:0:
51,235,111040,54,0,L|51:126,1,105.000004005432,8|0,3:2|0:0,0:0:0:0:
51,24,111373,2,0,L|51:146,1,105.000004005432,0|0,3:0|0:0,0:0:0:0:
156,116,111707,2,0,P|193:135|150:140,1,105.000004005432,8|2,3:2|0:0,0:0:0:0:
296,77,112040,6,0,P|309:135|292:197,1,105.000004005432,2|0,3:2|0:0,0:0:0:0:
214,311,112373,1,8,3:2:0:0:
374,354,112540,1,2,0:0:0:0:
374,354,112623,1,2,0:0:0:0:
374,354,112707,2,0,P|432:364|493:345,1,105.000004005432,2|0,3:2|0:0,0:0:0:0:
473,195,113040,54,0,P|415:182|355:199,1,105.000004005432,8|2,3:2|0:0,0:0:0:0:
371,191,113289,1,2,0:0:0:0:
371,191,113373,1,2,3:2:0:0:
371,191,113456,1,0,0:0:0:0:
371,191,113540,1,2,0:0:0:0:
173,119,113707,6,0,L|173:230,1,105.000004005432,2|0,3:2|0:0,0:0:0:0:
174,329,114040,2,0,L|174:217,1,105.000004005432,0|0,3:0|1:0,0:0:0:0:
269,179,114373,2,0,P|306:211|258:214,1,105.000004005432,10|2,3:2|1:2,0:0:0:0:
292,343,114707,53,2,3:2:0:0:
318,342,114790,1,0,0:0:0:0:
344,342,114873,1,0,0:0:0:0:
370,342,114957,1,0,0:0:0:0:
396,342,115040,2,0,L|502:342,1,105.000004005432,2|0,3:1|0:0,0:0:0:0:
424,228,115373,6,0,L|424:121,1,105.000004005432,0|0,3:0|0:0,0:0:0:0:
478,15,115623,1,0,3:0:0:0:
478,15,115707,2,0,L|368:15,1,105.000004005432,2|0,0:1|3:0,0:0:0:0:
293,113,116040,2,0,L|293:224,1,105.000004005432,0|0,3:0|0:0,0:0:0:0:
128,324,116373,54,0,L|128:217,1,105.000004005432,2|0,3:1|3:0,0:0:0:0:
128,219,116623,1,0,3:0:0:0:
128,219,116707,1,0,3:0:0:0:
256,232,116873,2,0,L|256:279,2,26.2500010013581,8|8|8,3:2|3:2|3:2,0:0:0:0:
256,232,117040,6,0,L|256:117,1,105.000004005432,2|8,3:1|3:2,0:0:0:0:
256,127,117290,53,8,3:2:0:0:
256,127,117373,1,2,3:1:0:0:
128,219,117540,1,0,3:0:0:0:
257,308,117707,1,0,3:0:0:0:
128,219,117873,1,0,3:0:0:0:
258,106,118040,5,0,3:0:0:0:
258,106,118123,1,0,3:0:0:0:
258,106,118207,1,0,3:0:0:0:
258,106,118290,1,0,3:0:0:0:
258,106,118373,1,0,3:0:0:0:
258,106,118457,1,0,3:0:0:0:
258,106,118540,1,0,3:0:0:0:
258,106,118623,1,0,3:0:0:0:
258,106,118707,1,0,3:0:0:0:
370,58,118873,21,0,0:0:0:0:
444,155,119040,1,8,0:1:0:0:
371,254,119207,1,0,0:0:0:0:
444,155,119373,5,8,0:1:0:0:
371,254,119540,1,0,0:0:0:0:
252,263,119707,1,8,0:0:0:0:
252,263,119873,1,0,0:0:0:0:
252,263,120040,5,4,3:2:0:0:
256,192,120207,12,0,122707,0:0:0:0:
