osu file format v14

[General]
AudioFilename: audio.mp3
AudioLeadIn: 0
PreviewTime: 110382
Countdown: 0
SampleSet: None
StackLeniency: 0.7
Mode: 0
LetterboxInBreaks: 0
WidescreenStoryboard: 0

[Editor]
Bookmarks: 22106,44175,86934,99347,110382,154520,176589,197278,220727,231761,241416,264865,331072,353140
DistanceSpacing: 1.1
BeatDivisor: 4
GridSize: 4
TimelineZoom: 1.4

[Metadata]
Title:Graces of Heaven
TitleUnicode:Graces of Heaven
Artist:aran
ArtistUnicode:aran
Creator:huntress
Version:angel
Source:
Tags:
BeatmapID:1444166
BeatmapSetID:682936

[Difficulty]
HPDrainRate:6
CircleSize:4
OverallDifficulty:7
ApproachRate:9
SliderMultiplier:1.4
SliderTickRate:1

[Events]
//Background and Video events
0,0,"background.jpg",0,0
//Break Periods
2,198685,218747
//Storyboard Layer 0 (Background)
//Storyboard Layer 1 (Fail)
//Storyboard Layer 2 (Pass)
//Storyboard Layer 3 (Foreground)
//Storyboard Sound Samples

[TimingPoints]
37.5273671697177,344.827586206897,4,1,0,100,1,0
22106,-100,4,3,0,25,0,0
22451,-100,4,3,0,50,0,0
22796,-100,4,3,0,75,0,0
23140,-100,4,3,0,100,0,0
24865,-100,4,3,0,25,0,0
25209,-100,4,3,0,50,0,0
25554,-100,4,3,0,75,0,0
25899,-100,4,3,0,100,0,0
27623,-100,4,3,0,25,0,0
27968,-100,4,3,0,50,0,0
28313,-100,4,3,0,75,0,0
28658,-100,4,3,0,100,0,0
44175,-100,4,3,0,50,0,0
86589,-55.5555555555556,4,3,0,50,0,0
86847,-50,4,3,0,50,0,0
88313,-66.6666666666667,4,3,0,50,0,0
95209,-142.857142857143,4,3,0,50,0,0
96589,-117.647058823529,4,3,0,50,0,0
97968,-100,4,3,0,50,0,0
99347,-100,4,3,0,50,0,0
106244,-100,4,3,0,75,0,0
107623,-100,4,3,0,100,0,0
110382,-100,4,3,0,75,0,1
154434,-100,4,3,0,50,0,0
157278,-125,4,3,0,50,0,0
160037,-166.666666666667,4,3,0,50,0,0
162796,-200,4,3,0,50,0,0
165554,-100,4,3,0,50,0,0
175209,-66.6666666666667,4,3,0,50,0,0
176586,-133.333333333333,4,3,0,50,0,0
220813,-133.333333333333,4,3,0,10,0,0
225554,-133.333333333333,4,3,0,50,0,0
226416,-133.333333333333,4,3,0,10,0,0
231072,-133.333333333333,4,3,0,50,0,0
231761,-111.111111111111,4,3,0,50,0,0
235640,-111.111111111111,4,3,0,10,0,0
235727,-111.111111111111,4,3,0,50,0,0
241416,-50,4,3,0,50,0,0
242796,-100,4,3,0,50,0,0
253830,-83.3333333333333,4,3,0,50,0,0
259347,-66.6666666666667,4,3,0,50,0,0
262106,-50,4,3,0,50,0,0
264865,-100,4,3,0,80,0,1
331072,-100,4,3,0,50,0,0
331244,-200,4,3,0,50,0,0

[Colours]
Combo1 : 128,192,244
Combo2 : 40,78,123
Combo3 : 32,136,221
Combo4 : 171,243,252

[HitObjects]
28,240,22106,6,0,L|-7:156,1,70
72,160,22451,2,0,L|60:70,1,70
144,116,22796,2,0,L|155:26,1,70
260,60,23140,1,4,0:0:0:0:
464,176,23485,6,0,L|498:259,1,70
420,256,23830,2,0,L|431:345,1,70
348,300,24175,2,0,L|336:389,1,70
184,252,24520,1,4,0:0:0:0:
184,252,24865,6,0,L|204:328,1,70
122,309,25209,2,0,L|46:289,1,70
103,226,25554,2,0,L|158:171,1,70
260,272,25899,1,4,0:0:0:0:
293,50,26244,6,0,L|324:112,1,70
443,51,26588,2,0,L|374:46,1,70
368,182,26933,2,0,L|408:123,1,70
144,126,27278,1,4,0:0:0:0:
144,126,27623,6,0,L|176:64,1,70
103,194,27968,2,0,L|37:174,1,70
192,210,28313,2,0,L|160:272,1,70
304,164,28658,1,4,0:0:0:0:
371,365,29003,6,0,L|364:296,1,70
507,248,29347,2,0,L|440:268,1,70
439,108,29692,2,0,L|447:178,1,70
200,269,30037,1,4,0:0:0:0:
200,269,30382,6,0,L|150:318,1,70
183,160,30727,2,0,L|119:188,1,70
241,55,31072,2,0,L|171:60,1,70
404,44,31416,1,4,0:0:0:0:
320,364,31761,6,0,L|368:320,1,35
512,160,32106,6,0,L|481:144,1,35
268,96,32451,6,0,L|240:120,1,35
84,308,32796,6,0,B|116:296|116:296|160:248,1,70
200,204,33140,5,0,0:0:0:0:
200,204,33313,1,0,0:0:0:0:
159,126,33485,1,0,0:0:0:0:
159,126,33658,1,0,0:0:0:0:
121,55,33829,1,0,0:0:0:0:
121,55,34002,1,0,0:0:0:0:
200,204,34175,1,4,0:0:0:0:
296,296,34520,5,0,0:0:0:0:
296,296,34693,1,0,0:0:0:0:
316,209,34865,1,0,0:0:0:0:
316,209,35038,1,0,0:0:0:0:
334,130,35209,1,0,0:0:0:0:
334,130,35382,1,0,0:0:0:0:
296,296,35555,1,4,0:0:0:0:
127,251,35899,5,0,0:0:0:0:
127,251,36072,1,0,0:0:0:0:
91,154,36244,1,0,0:0:0:0:
91,154,36417,1,0,0:0:0:0:
152,75,36588,1,0,0:0:0:0:
152,75,36761,1,0,0:0:0:0:
127,251,36934,1,4,0:0:0:0:
246,155,37278,5,0,0:0:0:0:
246,155,37451,1,0,0:0:0:0:
291,247,37623,1,0,0:0:0:0:
291,247,37796,1,0,0:0:0:0:
239,331,37967,1,0,0:0:0:0:
239,331,38140,1,0,0:0:0:0:
246,155,38313,1,4,0:0:0:0:
382,146,38658,5,0,0:0:0:0:
382,146,38830,1,0,0:0:0:0:
382,16,39003,1,0,0:0:0:0:
382,16,39175,1,0,0:0:0:0:
493,80,39347,1,0,0:0:0:0:
493,80,39520,1,0,0:0:0:0:
382,146,39692,1,4,0:0:0:0:
448,224,40037,5,0,0:0:0:0:
448,224,40209,1,0,0:0:0:0:
317,268,40382,1,0,0:0:0:0:
317,268,40554,1,0,0:0:0:0:
421,357,40726,1,0,0:0:0:0:
421,357,40899,1,0,0:0:0:0:
448,224,41071,1,4,0:0:0:0:
160,220,41416,5,0,0:0:0:0:
160,220,41589,1,0,0:0:0:0:
91,64,41761,1,0,0:0:0:0:
91,64,41934,1,0,0:0:0:0:
160,220,42106,1,0,0:0:0:0:
160,220,42278,1,0,0:0:0:0:
91,64,42451,1,4,0:0:0:0:
256,192,42623,12,0,43830,0:0:0:0:
216,84,44175,5,0,0:0:0:0:
304,108,44347,2,0,B|337:116|370:121|370:121|412:56|412:56|468:128|408:280,1,350
417,253,45382,1,4,0:0:0:0:
158,144,45554,1,4,0:0:0:0:
271,339,45727,2,0,B|304:296|341:197|341:197|280:196|140:135,1,350,4|0,0:0|0:0,0:0:0:0:
208,72,46761,5,4,0:0:0:0:
213,273,46934,1,4,0:0:0:0:
208,72,47106,2,0,B|260:96|292:100|292:100|252:220|196:300,1,280,4|0,0:0|0:0,0:0:0:0:
213,273,47968,5,4,0:0:0:0:
368,348,48140,2,0,P|403:363|455:355,1,70,4|0,0:0|0:0,0:0:0:0:
484,220,48485,1,0,0:0:0:0:
368,348,48658,1,4,0:0:0:0:
418,198,48830,2,0,P|452:201|483:219,1,70,4|0,0:0|0:0,0:0:0:0:
308,288,49175,1,0,0:0:0:0:
140,171,49520,5,0,0:0:0:0:
68,123,49692,1,0,0:0:0:0:
40,223,49865,2,0,B|12:163|68:123|68:123|140:171|140:171|124:91|192:27,1,350
183,35,50899,2,4,P|214:10|244:1,1,70
304,80,51244,2,0,B|208:80|208:208|304:208|304:208|220:288|176:308,1,350,4|0,0:0|0:0,0:0:0:0:
164,220,52278,5,4,0:0:0:0:
40,180,52451,1,4,0:0:0:0:
164,220,52623,2,0,B|120:164|144:92|144:92|90:83|36:188,1,280,4|0,0:0|0:0,0:0:0:0:
40,179,53485,5,4,0:0:0:0:
112,340,53658,2,0,P|147:355|199:347,1,70,4|0,0:0|0:0,0:0:0:0:
352,264,54003,1,0,0:0:0:0:
112,340,54175,1,4,0:0:0:0:
310,317,54347,2,0,P|338:291|353:240,1,70,4|0,0:0|0:0,0:0:0:0:
324,120,54692,1,0,0:0:0:0:
240,224,54865,1,0,0:0:0:0:
128,144,55209,5,0,0:0:0:0:
69,201,55382,2,0,P|89:343|200:251,1,350
120,268,56416,1,4,0:0:0:0:
251,318,56589,1,4,0:0:0:0:
120,268,56761,2,0,P|216:172|244:324,1,350,4|0,0:0|0:0,0:0:0:0:
347,177,57796,5,4,0:0:0:0:
298,44,57968,1,4,0:0:0:0:
347,177,58140,2,0,B|304:100|204:92|204:92|316:36,1,280,4|0,0:0|0:0,0:0:0:0:
347,177,59003,5,4,0:0:0:0:
232,184,59175,2,0,P|209:209|177:226,1,70,4|0,0:0|0:0,0:0:0:0:
120,76,59520,1,0,0:0:0:0:
178,227,59692,1,4,0:0:0:0:
55,98,59865,2,0,P|87:77|140:79,1,70,4|0,0:0|0:0,0:0:0:0:
112,292,60209,1,0,0:0:0:0:
390,190,60554,5,0,0:0:0:0:
502,216,60727,1,0,0:0:0:0:
428,110,60899,2,0,B|433:166|388:190|388:190|504:214|504:214|516:282|452:346,1,350
461,338,61934,2,4,P|428:368|376:396,1,70
280,356,62278,2,0,B|348:336|404:276|404:276|200:228,1,350,4|0,0:0|0:0,0:0:0:0:
188,320,63313,5,4,0:0:0:0:
231,145,63485,1,4,0:0:0:0:
188,320,63658,2,0,P|123:211|236:147,1,280,4|0,0:0|0:0,0:0:0:0:
188,320,64520,5,4,0:0:0:0:
376,264,64692,2,0,P|404:256|448:208,1,70,4|0,0:0|0:0,0:0:0:0:
280,192,65037,1,2,0:0:0:0:
315,67,65209,1,2,0:0:0:0:
405,160,65382,1,2,0:0:0:0:
260,154,65554,1,2,0:0:0:0:
358,69,65727,1,2,0:0:0:0:
382,196,65899,1,2,0:0:0:0:
0,24,66244,5,0,0:0:0:0:
32,96,66416,2,0,B|48:128|60:184|60:184|60:252|-8:252|-8:184|60:184|60:184|120:184|144:248,1,350
141,241,67451,1,4,0:0:0:0:
128,76,67623,1,4,0:0:0:0:
244,248,67796,2,0,B|224:208|212:176|200:164|200:164|200:164|200:96|268:96|268:164|200:164|200:164|188:148|168:128|144:116|144:116|119:52|119:52,1,350,4|0,0:0|0:0,0:0:0:0:
156,258,68830,5,4,0:0:0:0:
12,266,69003,1,4,0:0:0:0:
156,258,69175,2,0,B|159:268|147:180|20:164|20:164|12:268,1,280,4|0,0:0|0:0,0:0:0:0:
12,266,70037,5,4,0:0:0:0:
108,324,70209,2,0,P|140:340|180:340,1,70,4|0,0:0|0:0,0:0:0:0:
280,280,70554,1,0,0:0:0:0:
173,341,70727,1,4,0:0:0:0:
329,233,70899,2,0,P|309:261|279:279,1,70,4|0,0:0|0:0,0:0:0:0:
260,108,71244,1,0,0:0:0:0:
497,191,71589,5,0,0:0:0:0:
411,264,71761,1,0,0:0:0:0:
484,348,71934,2,0,B|452:304|408:264|408:264|436:232|500:192|500:192|456:128|376:184,1,350
395,171,72968,2,4,P|371:191|327:243,1,70
404,384,73313,2,0,B|348:316|300:280|300:280|280:320|268:364|268:364|208:372|152:316,1,350,4|0,0:0|0:0,0:0:0:0:
216,265,74347,5,4,0:0:0:0:
161,84,74520,1,4,0:0:0:0:
216,265,74692,2,0,B|228:220|252:196|252:196|123:107|123:107|168:80,1,280,4|0,0:0|0:0,0:0:0:0:
216,265,75554,5,4,0:0:0:0:
252,64,75727,2,0,P|292:56|342:74,1,70,4|0,0:0|0:0,0:0:0:0:
412,112,76072,1,0,0:0:0:0:
252,64,76244,1,4,0:0:0:0:
428,179,76416,2,0,P|425:142|399:94,1,70,4|0,0:0|0:0,0:0:0:0:
352,252,76761,1,0,0:0:0:0:
79,166,77106,5,0,0:0:0:0:
152,106,77278,1,0,0:0:0:0:
20,192,77451,2,0,B|81:166|81:166|18:147|31:26|140:44|152:107|152:107|216:52,1,350,0|0,0:0|0:0,2:0:0:0:
198,67,78485,2,4,P|225:49|256:74,1,70
240,136,78830,2,0,B|200:220|200:220|130:249|130:249|52:284|160:353|160:353|208:340,1,350,4|0,0:0|0:0,0:0:0:0:
272,300,79865,5,4,0:0:0:0:
430,205,80037,1,4,0:0:0:0:
272,300,80209,2,0,B|340:152|340:152|376:236|456:196,1,280,4|0,0:0|0:0,0:0:0:0:
296,48,81072,5,4,0:0:0:0:
113,11,81244,2,0,P|82:29|45:73,1,70,4|0,0:0|0:0,0:0:0:0:
160,176,81590,1,0,0:0:0:0:
113,11,81762,1,4,0:0:0:0:
225,149,81934,2,0,P|192:166|138:176,1,70,4|0,0:0|0:0,0:0:0:0:
16,152,82278,1,0,0:0:0:0:
128,232,82623,5,0,0:0:0:0:
230,233,82796,1,0,0:0:0:0:
159,361,82968,2,0,B|232:233|232:233|170:214|129:232|129:232|194:122,1,350
180,148,84003,2,4,L|218:81,1,70
268,160,84347,2,0,B|332:48|332:48|372:8|436:21|436:21|376:145,1,350,4|0,0:0|0:0,0:0:0:0:
346,219,85382,5,4,0:0:0:0:
376,344,85554,1,4,0:0:0:0:
346,219,85727,2,0,B|328:255|328:255|456:228|472:308|432:376|376:344,1,280,4|0,0:0|0:0,0:0:0:0:
296,328,86589,2,0,B|268:316|268:316|252:348|168:352,1,125.999996154785
80,360,86934,5,2,0:0:0:0:
61,241,87106,2,2,B|88:236|88:236|98:222|98:222|134:217,1,70
240,284,87278,2,2,L|170:294,1,70
108,128,87450,2,2,B|159:119|159:119|175:96,1,70
244,42,87623,6,2,B|271:37|271:37|281:23|281:23|317:18,1,70
296,172,87796,2,2,B|270:176|270:176|260:189|260:189|232:194,1,70
356,92,87968,2,2,B|407:83|407:83|430:100,1,70
392,237,88140,2,2,B|443:228|443:228|432:256,1,70
300,312,88313,6,0,L|288:243,2,52.5000020027161
200,216,88658,2,0,L|195:293,2,52.5000020027161
256,60,89003,6,0,L|269:135,2,52.5000020027161
365,165,89348,2,0,L|371:80,2,52.5000020027161
120,120,89692,6,0,L|177:123,2,52.5000020027161
118,234,90037,2,0,L|61:243,2,52.5000020027161
396,260,90382,6,0,L|330:255,2,52.5000020027161
397,129,90727,2,0,L|461:117,2,52.5000020027161
179,295,91072,6,0,L|176:348,2,52.5000020027161
307,67,91417,2,0,L|315:15,2,52.5000020027161
100,112,91761,6,0,L|152:115,2,52.5000020027161
432,251,92106,2,0,L|381:243,2,52.5000020027161
232,54,92451,6,0,L|198:14,2,52.5000020027161
304,306,92796,2,0,L|334:349,2,52.5000020027161
485,117,93140,6,0,L|434:162,2,52.5000020027161
52,293,93485,2,0,L|107:254,2,52.5000020027161
328,56,93830,6,0,L|226:82,1,105.000004005432
380,112,94175,2,0,L|284:155,1,105.000004005432
440,160,94520,6,0,L|353:219,1,105.000004005432
512,192,94865,2,0,L|437:265,1,105.000004005432
276,268,95209,5,0,0:0:0:0:
200,240,95382,2,0,P|182:212|186:178,1,48.9999985046387
220,124,95727,2,0,P|284:120|332:184,1,146.999995513916
320,264,96589,5,0,0:0:0:0:
212,284,96762,2,0,P|180:264|164:224,1,59.5000011348725
180,120,97107,2,0,P|240:88|344:136,1,178.500003404617
356,232,97968,5,0,0:0:0:0:
272,308,98141,2,0,P|234:310|192:286,1,70
142,210,98486,2,0,P|159:132|301:90,1,210
88,328,99347,5,0,0:0:0:0:
55,248,99520,1,0,0:0:0:0:
88,328,99692,1,0,0:0:0:0:
55,248,99865,1,0,0:0:0:0:
88,328,100037,1,0,0:0:0:0:
55,248,100210,1,0,0:0:0:0:
176,280,100382,1,0,0:0:0:0:
176,280,100468,1,0,0:0:0:0:
176,280,100554,1,0,0:0:0:0:
204,20,100727,5,0,0:0:0:0:
172,124,100900,1,0,0:0:0:0:
204,20,101072,1,0,0:0:0:0:
172,124,101245,1,0,0:0:0:0:
204,20,101417,1,0,0:0:0:0:
172,124,101590,1,0,0:0:0:0:
292,74,101762,2,0,L|276:168,1,70,2|0,0:0|0:0,0:0:0:0:
404,362,102106,5,0,0:0:0:0:
460,234,102279,1,0,0:0:0:0:
404,362,102451,1,0,0:0:0:0:
460,234,102624,1,0,0:0:0:0:
404,362,102796,1,0,0:0:0:0:
460,234,102969,1,0,0:0:0:0:
300,276,103140,1,0,0:0:0:0:
300,276,103227,1,0,0:0:0:0:
300,276,103313,1,0,0:0:0:0:
512,188,103485,5,0,0:0:0:0:
473,9,103658,2,0,L|440:30,1,35
328,112,103830,2,0,B|291:133|291:133,1,35,2|0,0:0|0:0,0:0:0:0:
28,52,104175,2,0,L|79:41,1,35
232,8,104347,1,0,0:0:0:0:
384,152,104520,1,2,0:0:0:0:
248,260,104692,1,4,0:0:0:0:
120,336,104865,5,0,0:0:0:0:
12,252,105037,1,0,0:0:0:0:
120,256,105209,5,0,0:0:0:0:
37,146,105381,1,0,0:0:0:0:
140,188,105554,5,0,0:0:0:0:
88,60,105726,1,0,0:0:0:0:
200,140,105899,5,0,0:0:0:0:
182,2,106071,1,0,0:0:0:0:
286,17,106244,5,0,0:0:0:0:
146,70,106416,1,0,0:0:0:0:
260,98,106588,5,0,0:0:0:0:
140,188,106760,1,0,0:0:0:0:
261,176,106933,5,0,0:0:0:0:
167,293,107105,1,0,0:0:0:0:
309,244,107278,5,0,0:0:0:0:
249,382,107450,1,0,0:0:0:0:
168,336,107623,5,0,0:0:0:0:
344,384,107795,1,0,0:0:0:0:
248,271,107967,5,0,0:0:0:0:
456,268,108139,1,0,0:0:0:0:
296,188,108312,5,0,0:0:0:0:
488,140,108484,1,0,0:0:0:0:
272,104,108657,5,0,0:0:0:0:
460,0,108829,1,0,0:0:0:0:
136,140,110382,5,0,0:0:0:0:
224,310,110554,1,0,0:0:0:0:
31,300,110727,1,0,0:0:0:0:
188,84,110899,2,0,B|237:82|237:82|235:75|235:75|255:89|255:89|251:81|251:81|315:85,1,140
200,184,111416,2,4,P|218:213|240:228,2,35
456,260,111761,5,0,0:0:0:0:
291,158,111933,1,0,0:0:0:0:
462,67,112106,1,0,0:0:0:0:
388,304,112278,2,0,B|381:308|381:308|375:306|375:306|373:317|373:317|362:315|362:315|359:326|359:326|348:323|348:323|346:334|346:334|334:332|334:332|332:343|332:343|321:340|321:340|318:351|318:351|307:349|307:349|306:354|306:354|299:359,1,140
292,232,112796,1,4,0:0:0:0:
292,232,112882,1,4,0:0:0:0:
292,232,112968,1,4,0:0:0:0:
204,44,113140,5,0,0:0:0:0:
12,17,113313,1,0,0:0:0:0:
84,194,113485,1,0,0:0:0:0:
236,124,113658,2,0,B|278:80|278:80|303:80|303:80|356:24,1,140
460,164,114175,2,4,P|459:198|440:224,2,35
240,196,114520,5,0,0:0:0:0:
62,273,114693,1,0,0:0:0:0:
218,384,114865,1,0,0:0:0:0:
144,168,115037,2,0,P|155:136|207:101,1,70
204,100,115296,1,0,0:0:0:0:
234,94,115382,1,0,0:0:0:0:
264,96,115468,1,0,0:0:0:0:
292,108,115554,2,0,P|322:138|336:188,1,70,0|4,0:0|0:0,0:0:0:0:
32,203,115899,5,0,0:0:0:0:
50,11,116071,1,0,0:0:0:0:
207,126,116244,1,0,0:0:0:0:
72,140,116416,2,0,B|96:149|103:173|103:173|141:183|141:183|144:205|177:222,1,140
384,300,116934,1,4,0:0:0:0:
384,300,117020,1,4,0:0:0:0:
384,300,117106,1,4,0:0:0:0:
324,160,117278,5,0,0:0:0:0:
447,11,117450,1,0,0:0:0:0:
512,194,117623,1,0,0:0:0:0:
260,200,117796,2,0,B|235:161|235:161|245:161|245:161|222:151|222:151|230:149|230:149|205:105,1,140
104,248,118313,2,4,P|116:279|140:296,2,35
216,192,118658,5,0,0:0:0:0:
176,382,118831,1,0,0:0:0:0:
33,251,119003,1,0,0:0:0:0:
252,264,119175,2,0,B|295:221|295:221|294:196|294:196|349:142,1,140
484,172,119692,1,4,0:0:0:0:
484,172,119778,1,4,0:0:0:0:
484,172,119865,1,4,0:0:0:0:
424,336,120037,5,0,0:0:0:0:
234,380,120210,1,0,0:0:0:0:
293,195,120382,1,0,0:0:0:0:
292,116,120554,2,0,P|257:122|231:145,1,70
216,168,120813,1,0,0:0:0:0:
212,196,120899,1,0,0:0:0:0:
216,224,120985,1,0,0:0:0:0:
232,248,121072,2,4,P|258:270|292:276,1,70
292,116,121416,5,0,0:0:0:0:
131,4,121588,1,0,0:0:0:0:
117,199,121761,1,0,0:0:0:0:
348,100,121934,2,0,B|387:131|387:131|380:135|380:135|406:136|406:136|396:140|396:140|434:167,1,140
448,328,122451,2,4,P|425:354|396:368,2,35
188,372,122796,5,0,0:0:0:0:
143,181,122968,1,0,0:0:0:0:
2,317,123141,1,0,0:0:0:0:
220,296,123313,2,0,B|234:244|234:244|221:222|221:222|236:163,1,140
76,228,123830,1,4,0:0:0:0:
76,228,123916,1,4,0:0:0:0:
76,228,124003,1,4,0:0:0:0:
112,24,124175,5,0,0:0:0:0:
307,20,124348,1,0,0:0:0:0:
210,191,124520,1,0,0:0:0:0:
100,136,124692,2,0,B|106:130|106:130|111:131|111:131|113:120|113:120|124:121|124:121|125:110|125:110|136:111|136:111|137:100|137:100|149:101|149:101|150:90|150:90|161:91|161:91|162:80|162:80|174:81|174:81|174:75|174:75|180:70,1,140
224,272,125209,2,4,P|189:271|168:256,2,35
236,128,125554,5,0,0:0:0:0:
426,86,125727,1,0,0:0:0:0:
363,271,125899,1,0,0:0:0:0:
400,204,126072,2,0,P|428:225|440:258,1,70
440,280,126331,1,0,0:0:0:0:
432,304,126417,1,0,0:0:0:0:
416,331,126503,1,0,0:0:0:0:
392,344,126590,2,4,P|358:351|325:340,1,70
216,212,126934,5,0,0:0:0:0:
56,324,127107,1,0,0:0:0:0:
41,128,127279,1,0,0:0:0:0:
252,280,127451,2,0,B|283:266|288:244|288:244|327:237|327:237|335:213|360:206,1,140
184,108,127968,1,0,0:0:0:0:
184,108,128054,1,0,0:0:0:0:
184,108,128140,1,0,0:0:0:0:
24,280,128313,6,0,L|68:308,1,35
188,288,128485,2,0,L|152:252,1,35
36,152,128658,2,0,L|88:172,1,35
232,224,128830,5,0,0:0:0:0:
264,212,128916,1,0,0:0:0:0:
293,192,129002,1,0,0:0:0:0:
316,166,129088,1,0,0:0:0:0:
336,136,129175,2,0,P|343:117|352:72,1,35
432,232,129347,2,2,L|404:272,2,35
468,100,129692,5,0,0:0:0:0:
468,100,129778,1,0,0:0:0:0:
468,100,129864,2,0,L|432:92,1,35
236,48,130037,2,0,L|272:100,1,35
356,244,130209,5,0,0:0:0:0:
329,267,130295,1,0,0:0:0:0:
298,282,130381,1,0,0:0:0:0:
264,291,130467,1,0,0:0:0:0:
228,294,130554,2,0,P|207:291|163:278,1,35
432,304,130726,2,2,L|436:352,2,35
228,136,131072,5,0,0:0:0:0:
228,136,131158,1,0,0:0:0:0:
228,136,131244,2,0,L|218:100,1,35
356,64,131417,2,0,L|316:96,1,35
212,276,131589,6,0,L|269:256,1,35
160,220,131761,2,0,P|179:214|221:196,1,35
108,164,131934,2,0,P|127:158|169:140,1,35
136,316,132106,2,2,L|112:356,2,35
288,164,132451,5,0,0:0:0:0:
462,256,132624,1,0,0:0:0:0:
296,361,132796,1,0,0:0:0:0:
232,224,132968,2,0,B|209:167|209:167|219:144|219:144|188:73,1,140
356,84,133485,1,4,0:0:0:0:
356,84,133572,1,4,0:0:0:0:
356,84,133658,1,4,0:0:0:0:
176,224,133830,5,0,0:0:0:0:
14,114,134002,1,0,0:0:0:0:
191,32,134175,1,0,0:0:0:0:
116,280,134348,2,0,B|155:311|155:311|148:315|148:315|174:316|174:316|164:320|164:320|202:347,1,140
384,296,134865,2,4,P|409:272|420:244,2,35
344,128,135209,5,0,0:0:0:0:
157,68,135381,1,0,0:0:0:0:
201,258,135554,1,0,0:0:0:0:
340,40,135727,2,0,B|332:44|332:44|328:41|328:41|323:52|323:52|312:48|312:48|309:58|309:58|298:54|298:54|294:65|294:65|283:61|283:61|279:71|279:71|269:67|269:67|265:78|265:78|254:73|254:73|252:79|252:79|245:83,1,140
100,196,136244,1,4,0:0:0:0:
100,196,136330,1,4,0:0:0:0:
100,196,136416,1,4,0:0:0:0:
216,316,136589,5,0,0:0:0:0:
398,381,136761,1,0,0:0:0:0:
362,189,136934,1,0,0:0:0:0:
424,236,137106,2,0,P|441:206|441:171,1,70
432,147,137365,1,0,0:0:0:0:
413,126,137451,1,0,0:0:0:0:
388,112,137537,1,0,0:0:0:0:
364,108,137624,2,4,P|329:113|303:136,1,70
116,180,137968,5,0,0:0:0:0:
1,21,138141,1,0,0:0:0:0:
196,2,138313,1,0,0:0:0:0:
124,260,138485,2,0,B|157:258|170:239|170:239|209:246|209:246|225:227|251:229,1,140
240,96,139003,2,4,P|273:86|304:92,2,35
320,296,139347,5,0,0:0:0:0:
440,141,139520,1,0,0:0:0:0:
511,324,139692,1,0,0:0:0:0:
360,220,139865,2,0,B|352:214|352:214|347:215|347:215|345:204|345:204|334:206|334:206|332:195|332:195|322:197|322:197|319:185|319:185|308:187|308:187|307:177|307:177|295:178|295:178|294:168|294:168|283:168|283:168|282:163|282:163|275:159,1,140
296,328,140382,1,4,0:0:0:0:
296,328,140468,1,4,0:0:0:0:
296,328,140554,1,4,0:0:0:0:
368,97,140727,5,0,0:0:0:0:
194,9,140899,1,0,0:0:0:0:
207,205,141072,1,0,0:0:0:0:
312,8,141244,2,0,B|265:34|265:34|258:58|258:58|206:89,1,140
24,128,141761,2,4,P|11:160|12:188,2,35
100,360,142106,5,0,0:0:0:0:
265,255,142278,1,0,0:0:0:0:
91,166,142451,1,0,0:0:0:0:
320,304,142623,2,4,P|294:327|260:332,1,70
236,328,142882,1,0,0:0:0:0:
211,314,142968,1,0,0:0:0:0:
192,293,143054,1,0,0:0:0:0:
182,268,143141,2,0,P|182:234|200:204,1,70
428,152,143485,5,0,0:0:0:0:
260,252,143658,1,0,0:0:0:0:
259,57,143830,1,0,0:0:0:0:
400,228,144003,2,0,B|393:225|393:225|392:220|392:220|381:224|381:224|377:213|377:213|366:217|366:217|362:207|362:207|352:212|352:212|347:200|347:200|337:204|337:204|332:194|332:194|323:198|323:198|318:187|318:187|313:189|313:189|305:186,1,140
136,64,144520,1,4,0:0:0:0:
136,64,144606,1,4,0:0:0:0:
136,64,144692,1,4,0:0:0:0:
312,32,144865,5,0,0:0:0:0:
506,11,145038,1,0,0:0:0:0:
424,189,145210,1,0,0:0:0:0:
408,80,145383,2,0,B|447:111|447:111|440:115|440:115|466:116|466:116|456:120|456:120|494:147,1,140
320,248,145900,2,4,P|286:258|256:252,2,35
192,80,146244,5,0,0:0:0:0:
0,46,146416,1,0,0:0:0:0:
69,229,146589,1,0,0:0:0:0:
228,16,146761,2,0,B|259:30|264:52|264:52|303:59|303:59|311:83|336:90,1,140
406,217,147278,1,0,0:0:0:0:
406,217,147365,1,0,0:0:0:0:
406,217,147451,1,0,0:0:0:0:
264,348,147623,5,0,0:0:0:0:
219,157,147796,1,0,0:0:0:0:
406,217,147968,1,0,0:0:0:0:
144,180,148140,2,4,P|138:145|153:114,1,70
169,96,148399,1,0,0:0:0:0:
195,81,148485,1,0,0:0:0:0:
224,77,148571,1,0,0:0:0:0:
249,82,148658,2,0,P|277:100|292:131,1,70
110,373,149003,5,0,0:0:0:0:
144,180,149176,1,0,0:0:0:0:
292,308,149348,1,0,0:0:0:0:
200,360,149520,2,0,B|170:306|170:306|146:299|146:299|111:230,1,140
256,204,150038,2,4,P|260:217|235:243,2,35
156,172,150382,6,0,L|112:164,1,35
240,28,150554,2,0,L|258:57,1,35
168,88,150727,2,0,L|220:112,1,35
316,176,150899,5,0,0:0:0:0:
338,200,150985,1,0,0:0:0:0:
355,230,151071,1,0,0:0:0:0:
364,264,151157,1,0,0:0:0:0:
368,300,151244,2,0,P|365:320|353:364,1,35
440,172,151416,2,2,L|393:156,2,35
200,320,151761,5,0,0:0:0:0:
200,320,151847,1,0,0:0:0:0:
200,320,151933,2,0,L|229:298,1,35
436,280,152106,2,0,L|413:221,1,35
364,124,152278,5,0,0:0:0:0:
334,107,152364,1,0,0:0:0:0:
300,98,152450,1,0,0:0:0:0:
265,96,152536,1,0,0:0:0:0:
229,100,152623,2,0,P|208:106|168:128,1,35
376,40,152795,2,2,L|361:-6,2,35
252,180,153141,5,0,0:0:0:0:
252,180,153227,1,0,0:0:0:0:
252,180,153313,2,0,L|218:196,1,35
68,184,153485,2,0,L|101:192,1,35
204,320,153658,6,0,L|188:288,1,35
289,332,153830,2,0,L|273:300,1,35
374,334,154002,2,0,L|359:303,1,35
364,176,154175,2,2,L|343:134,2,35
192,164,154520,5,0,0:0:0:0:
287,263,154692,1,0,0:0:0:0:
237,213,154865,1,0,0:0:0:0:
123,173,155037,2,0,B|199:135|236:212|236:212|276:293|357:253,1,280
376,160,155899,5,0,0:0:0:0:
316,75,156072,1,0,0:0:0:0:
375,96,156244,1,0,0:0:0:0:
312,180,156416,2,0,P|375:96|280:152,1,280
184,152,157278,5,0,0:0:0:0:
250,248,157450,1,0,0:0:0:0:
217,198,157623,1,0,0:0:0:0:
201,94,157795,2,0,B|156:152|215:197|215:197|278:244|230:307,1,224
96,240,158657,5,0,0:0:0:0:
141,305,158830,1,0,0:0:0:0:
91,296,159002,1,0,0:0:0:0:
169,261,159174,2,0,P|91:296|144:228,1,224
192,152,160037,5,0,0:0:0:0:
239,226,160209,1,0,0:0:0:0:
213,188,160382,1,0,0:0:0:0:
145,146,160554,2,0,B|198:131|211:185|211:185|226:243|283:228,1,167.999994873047
378,213,161416,5,0,0:0:0:0:
358,154,161589,1,0,0:0:0:0:
388,175,161761,1,0,0:0:0:0:
338,211,161933,2,0,P|388:174|324:188,1,167.999994873047
412,280,162796,5,0,0:0:0:0:
440,256,162968,1,0,0:0:0:0:
456,224,163140,1,0,0:0:0:0:
384,296,163313,2,0,P|439:255|464:179,1,140
440,120,164175,1,0,0:0:0:0:
256,192,164347,5,0,0:0:0:0:
292,192,164520,1,0,0:0:0:0:
232,224,164693,1,0,0:0:0:0:
236,156,164865,1,0,0:0:0:0:
288,256,165038,1,0,0:0:0:0:
180,184,165210,1,0,0:0:0:0:
296,128,165382,1,0,0:0:0:0:
192,80,165554,5,0,0:0:0:0:
120,144,165899,1,0,0:0:0:0:
144,240,166244,2,0,P|184:284|208:224,1,140
143,96,166934,5,0,0:0:0:0:
90,193,167279,1,0,0:0:0:0:
154,287,167624,2,0,P|214:319|260:256,1,140
98,133,168313,5,0,0:0:0:0:
79,258,168658,1,0,0:0:0:0:
184,333,169003,2,0,P|261:344|316:276,1,140
76,191,169692,5,0,0:0:0:0:
103,322,170037,1,0,0:0:0:0:
235,360,170382,2,0,P|316:343|376:288,1,140
74,257,171072,5,0,0:0:0:0:
150,379,171417,1,0,0:0:0:0:
297,369,171762,2,0,P|372:321|428:268,1,140
364,72,172451,6,0,L|316:156,1,70
416,188,172796,2,0,L|364:248,1,70
244,284,173140,2,0,P|209:282|179:264,2,70
242,108,173830,6,0,L|208:48,1,70
124,128,174175,2,0,L|169:180,1,70
208,296,174519,2,0,P|243:297|285:279,2,70
100,204,175209,6,4,P|85:172|91:133,1,52.5000020027161
164,104,175382,1,4,0:0:0:0:
184,152,175468,1,4,0:0:0:0:
220,189,175554,1,4,0:0:0:0:
268,211,175640,1,4,0:0:0:0:
300,212,175727,2,4,P|326:210|358:176,1,52.5000020027161
376,280,175899,1,4,0:0:0:0:
355,327,175985,1,4,0:0:0:0:
313,358,176071,1,4,0:0:0:0:
263,373,176157,1,4,0:0:0:0:
212,368,176244,2,4,P|160:353|112:317,1,105.000004005432
0,268,176589,6,4,B|95:227|95:227|137:131|137:131|240:87,1,315.000012016297
304,152,177968,6,4,B|206:197|206:197|168:296|168:296|261:254|261:254,1,315.000012016297
328,224,179347,6,4,B|524:148|524:148|503:232|503:232,1,288.750011014939
488,304,180727,6,4,B|476:352|476:352|436:364|436:364|368:296|368:296|251:345,1,315.000012016297
180,292,182106,6,4,B|276:252|276:252|116:88,1,315.000012016297
208,72,183485,6,4,B|280:148|280:148|476:64,1,315.000012016297
472,152,184865,6,4,B|376:192|376:192|448:268|448:268|332:316,1,315.000012016297
316,240,186244,6,4,B|292:216|292:216|196:260|196:260|72:132,1,315.000012016297
140,92,187623,6,4,B|215:167|215:167|308:124|308:124|392:204,1,315.000012016297
296,216,189003,6,4,B|204:260|204:260|280:336|280:336|212:372|212:372|180:344,1,315.000012016297
136,304,190382,6,4,B|60:228|60:228|-14:155|-14:155|100:104,1,315.000012016297
124,172,191761,6,4,B|196:248|196:248|404:160,1,315.000012016297
432,236,193140,6,4,B|120:368,1,315.000012016297
140,272,194520,6,4,B|235:230|235:230|164:148|164:148|64:188,1,315.000012016297
103,85,195899,6,4,B|188:52|188:52|336:220,1,315.000012016297
92,304,197278,6,0,L|114:230,1,52.5000020027161
191,315,197623,2,0,L|213:241,1,52.5000020027161
155,185,197968,2,0,L|177:111,1,52.5000020027161
251,196,198313,2,0,L|273:122,1,52.5000020027161
256,192,219347,12,0,220382,0:0:0:0:
48,336,220727,6,0,B|32:280|140:240|140:240|28:216|28:216|128:160|164:140|200:64|132:-12|24:32|4:88|28:144|68:160|128:160|128:160|188:172|188:172|260:188|316:148|316:148|236:108|196:52|256:68|256:68|364:92|472:36,1,1260.00004806519,2|2,0:0|0:0,0:0:0:0:
348,208,225727,5,0,0:0:0:0:
496,308,226330,2,0,B|360:284|360:284|464:256|448:132|364:96|280:116|264:220|264:220|264:220|264:228|264:228|268:328|140:312|136:224|184:160|264:212|264:212|264:256|260:292|296:348|296:348|144:408|96:272|96:272|64:288|16:232,1,1260.00004806519
256,192,231244,5,4,0:0:0:0:
280,124,231761,2,4,B|304:132|368:172|351:260|280:287|225:294|192:232|188:216|188:216|148:290|148:290|187:344|264:361|356:352|404:280|404:209|400:177,1,724.499977890015
357,88,234520,6,4,B|280:17|176:64|176:64|158:121|158:121|142:165|98:169|74:153|46:121|78:73,1,409.499987503052
68,91,235727,2,4,B|87:50|139:50|155:82|163:110|163:110|202:225|202:225|270:229|238:289,1,346.49998942566,4|6,0:0|0:0,0:0:0:0:
239,285,236761,5,4,0:0:0:0:
330,313,237278,2,4,B|345:284|344:248|336:200|336:200|464:120|464:120|456:72|392:78|392:78|362:96|362:96|294:101|265:54|272:-2|340:-32|404:0|389:59|362:96|362:96|302:133|302:133|258:102|222:98|194:111|194:111|191:163|215:198|283:193|283:193,1,976.499970199586
258,191,240037,5,4,0:0:0:0:
500,100,241416,5,2,0:0:0:0:
408,125,241588,2,2,B|381:114|381:114|366:121|366:121|332:108,1,70
344,293,241761,2,2,B|392:311|392:311|376:275,1,70
337,200,241932,2,2,B|288:181|288:181|260:196,1,70
176,192,242105,6,2,B|149:181|149:181|134:188|134:188|100:175,1,70
172,283,242278,2,2,B|196:292|196:292|203:307|203:307|229:317,1,70
83,270,242450,2,2,L|17:244,1,70
132,96,242622,2,2,B|83:77|83:77|119:61,1,70
246,153,242882,6,0,L|280:164,2,35
256,60,243140,2,0,L|221:62,2,35
168,152,243485,2,2,B|168:224|224:228|224:228|216:284|216:284|236:304|280:316,1,210
344,300,244175,6,0,L|380:264,2,35
324,184,244519,2,0,L|308:216,2,35
248,160,244865,2,2,B|284:88|356:112|356:112|284:40,1,210
216,40,245555,6,0,L|191:64,2,35
96,84,245899,2,0,L|109:51,2,35
156,132,246244,2,2,B|100:192|32:136|32:136|-8:144|24:224,1,210
68,264,246934,6,0,L|104:228,2,35
184,296,247278,2,0,L|144:306,2,35
176,220,247623,2,2,B|236:216|260:276|260:276|296:280|296:280|332:344,1,210
404,372,248313,6,0,L|456:364,2,35
400,252,248657,2,0,L|387:284,2,35
476,272,249002,2,2,B|488:212|436:184|436:184|464:156|432:68,1,210
348,12,249692,6,0,L|400:36,2,35
296,96,250036,2,0,L|248:88,2,35
364,132,250381,2,2,B|344:186|272:173|272:173|235:211|235:211|256:280,1,210
324,292,251072,6,0,P|308:324|252:360,1,70
200,312,251416,2,0,P|165:301|108:316,1,70
48,304,251761,2,0,P|28:273|25:207,1,70
76,176,252106,2,0,P|91:142|82:77,1,70
168,164,252451,6,0,P|172:132|144:67,1,70
248,140,252796,2,0,P|246:107|208:49,1,70
324,104,253140,2,0,P|316:72|269:21,1,70
392,60,253485,2,0,P|379:30|323:-11,1,70
436,188,253830,6,0,P|399:206|358:202,1,83.9999974365235
194,202,254175,2,0,P|230:183|271:187,1,83.9999974365235
430,156,254520,2,0,P|399:184|358:190,1,83.9999974365235
271,199,254865,6,0,P|230:205|199:233,2,83.9999974365235
360,180,255382,2,0,P|397:163|420:128,2,83.9999974365235
215,261,255899,6,0,P|237:226|275:210,1,83.9999974365235
401,103,256244,2,0,P|388:143|356:168,1,83.9999974365235
379,278,256589,6,0,P|344:255|328:217,1,83.9999974365235
246,75,256934,2,0,P|281:98|298:136,1,83.9999974365235
403,257,257279,2,0,P|364:245|338:212,1,83.9999974365235
287,141,257624,6,0,P|262:109|222:96,2,83.9999974365235
348,208,258141,2,0,P|382:233|423:235,2,83.9999974365235
205,123,258658,6,0,P|247:125|280:150,1,83.9999974365235
435,205,259003,2,0,P|394:214|356:199,1,83.9999974365235
224,212,259347,6,0,B|168:220|168:220|130:266,1,105.000004005432
141,346,259692,2,0,B|196:337|196:337|228:300,1,105.000004005432
137,257,260037,2,0,B|168:220|168:220|224:212,1,105.000004005432
420,192,260382,1,0,0:0:0:0:
384,52,260554,2,0,B|353:89|353:89|297:97,1,105.000004005432
58,119,260899,1,0,0:0:0:0:
104,12,261071,1,0,0:0:0:0:
174,101,261244,1,0,0:0:0:0:
52,256,261416,6,0,L|124:332,1,105.000004005432
151,243,261761,2,0,L|237:302,1,105.000004005432
352,304,262106,5,0,0:0:0:0:
438,194,262278,1,0,0:0:0:0:
273,271,262451,5,0,0:0:0:0:
329,98,262623,1,0,0:0:0:0:
188,272,262796,5,0,0:0:0:0:
182,66,262968,1,0,0:0:0:0:
112,304,263140,5,0,0:0:0:0:
34,72,263312,1,0,0:0:0:0:
256,192,263485,12,0,264692,0:0:0:0:
128,268,264865,5,0,0:0:0:0:
60,140,265037,1,0,0:0:0:0:
128,268,265209,1,0,0:0:0:0:
60,140,265382,1,0,0:0:0:0:
180,192,265554,1,0,0:0:0:0:
50,257,265726,1,0,0:0:0:0:
180,192,265899,1,0,0:0:0:0:
276,284,266072,2,0,P|309:293|348:247,1,70
392,220,266416,5,0,0:0:0:0:
473,131,266589,1,0,0:0:0:0:
364,148,266761,1,0,0:0:0:0:
466,206,266934,1,0,0:0:0:0:
412,88,267106,2,0,P|380:72|344:64,1,70
160,292,267451,5,0,0:0:0:0:
163,257,267537,1,0,0:0:0:0:
173,223,267623,1,0,0:0:0:0:
268,100,267796,1,0,0:0:0:0:
260,264,267968,1,0,0:0:0:0:
212,152,268140,1,0,0:0:0:0:
72,228,268313,1,0,0:0:0:0:
308,176,268485,1,0,0:0:0:0:
216,352,268658,1,0,0:0:0:0:
88,144,268830,2,0,P|111:116|156:125,1,70
392,148,269175,5,0,0:0:0:0:
508,184,269347,1,0,0:0:0:0:
356,328,269520,2,0,P|320:328|296:276,1,70
460,136,269865,1,0,0:0:0:0:
492,248,270037,1,0,0:0:0:0:
296,212,270209,1,0,0:0:0:0:
266,193,270295,1,0,0:0:0:0:
241,169,270381,1,0,0:0:0:0:
172,76,270554,5,0,0:0:0:0:
340,136,270727,1,0,0:0:0:0:
136,188,270899,1,0,0:0:0:0:
320,56,271072,1,0,0:0:0:0:
272,296,271244,1,0,0:0:0:0:
100,112,271416,1,0,0:0:0:0:
360,200,271589,2,0,P|368:232|339:267,1,70
272,296,271934,5,0,0:0:0:0:
204,332,272107,1,0,0:0:0:0:
132,296,272279,1,0,0:0:0:0:
276,368,272452,1,0,0:0:0:0:
200,256,272624,2,0,P|220:225|274:228,1,70
416,92,272969,5,0,0:0:0:0:
381,85,273055,1,0,0:0:0:0:
346,84,273141,1,0,0:0:0:0:
316,288,273314,1,0,0:0:0:0:
492,184,273486,1,0,0:0:0:0:
316,288,273658,1,0,0:0:0:0:
492,184,273831,1,0,0:0:0:0:
336,152,274003,1,0,0:0:0:0:
460,312,274176,1,0,0:0:0:0:
260,224,274348,2,0,P|240:256|196:268,1,70
136,260,274693,5,0,0:0:0:0:
72,216,274865,1,0,0:0:0:0:
64,144,275038,2,0,P|67:108|89:50,1,70
200,220,275383,1,0,0:0:0:0:
140,176,275555,1,0,0:0:0:0:
160,104,275727,1,0,0:0:0:0:
188,83,275813,1,0,0:0:0:0:
221,71,275899,1,0,0:0:0:0:
296,264,276072,5,0,0:0:0:0:
504,181,276245,1,0,0:0:0:0:
433,322,276417,1,0,0:0:0:0:
461,100,276590,1,0,0:0:0:0:
349,326,276762,1,0,0:0:0:0:
381,96,276934,1,0,0:0:0:0:
400,260,277107,2,0,P|364:247|312:243,1,70
256,256,277451,5,0,0:0:0:0:
208,196,277624,1,0,0:0:0:0:
172,260,277796,1,0,0:0:0:0:
224,320,277969,1,0,0:0:0:0:
128,196,278141,2,0,P|131:159|178:134,1,70
288,60,278486,5,0,0:0:0:0:
322,63,278572,1,0,0:0:0:0:
356,72,278658,1,0,0:0:0:0:
510,168,278831,1,0,0:0:0:0:
306,163,279004,1,0,0:0:0:0:
510,168,279176,1,0,0:0:0:0:
306,163,279348,1,0,0:0:0:0:
445,101,279520,1,0,0:0:0:0:
478,242,279693,1,0,0:0:0:0:
320,89,279865,2,0,P|282:89|248:119,1,70
264,252,280210,5,0,0:0:0:0:
328,300,280382,1,0,0:0:0:0:
252,328,280555,2,0,P|218:315|167:279,1,70
196,220,280900,1,0,0:0:0:0:
152,164,281072,1,0,0:0:0:0:
116,232,281244,1,0,0:0:0:0:
91,207,281330,1,0,0:0:0:0:
74,176,281416,1,0,0:0:0:0:
192,24,281589,5,0,0:0:0:0:
272,220,281762,1,0,0:0:0:0:
344,20,281934,1,0,0:0:0:0:
120,92,282107,1,0,0:0:0:0:
352,228,282279,1,0,0:0:0:0:
268,16,282451,1,0,0:0:0:0:
328,136,282624,2,0,P|293:146|244:177,1,70
252,240,282968,5,0,0:0:0:0:
300,300,283141,1,0,0:0:0:0:
368,336,283313,1,0,0:0:0:0:
440,348,283486,1,0,0:0:0:0:
496,296,283658,2,0,P|493:259|446:234,1,70
308,144,284003,5,0,0:0:0:0:
274,134,284089,1,0,0:0:0:0:
239,131,284175,1,0,0:0:0:0:
168,372,284348,1,0,0:0:0:0:
80,180,284521,1,0,0:0:0:0:
168,372,284693,1,0,0:0:0:0:
80,180,284865,1,0,0:0:0:0:
76,344,285037,1,0,0:0:0:0:
188,240,285210,1,0,0:0:0:0:
264,60,285382,2,0,P|300:50|341:71,1,70
392,96,285727,5,0,0:0:0:0:
456,140,285899,1,0,0:0:0:0:
408,200,286072,2,0,P|376:182|330:139,1,70
300,216,286417,1,0,0:0:0:0:
356,264,286589,1,0,0:0:0:0:
284,292,286761,1,0,0:0:0:0:
252,277,286847,1,0,0:0:0:0:
225,255,286933,1,0,0:0:0:0:
132,72,287106,5,0,0:0:0:0:
136,244,287279,1,0,0:0:0:0:
57,81,287451,1,0,0:0:0:0:
207,58,287624,1,0,0:0:0:0:
68,204,287796,1,0,0:0:0:0:
282,49,287968,1,0,0:0:0:0:
144,324,288141,2,0,P|175:308|203:287,1,70
200,212,288485,5,0,0:0:0:0:
320,192,288658,1,0,0:0:0:0:
212,140,288830,1,0,0:0:0:0:
268,252,289003,1,0,0:0:0:0:
284,128,289175,2,0,P|318:113|361:144,1,70
400,280,289520,5,0,0:0:0:0:
429,262,289606,1,0,0:0:0:0:
457,239,289692,1,0,0:0:0:0:
324,48,289865,1,0,0:0:0:0:
512,146,290037,1,0,0:0:0:0:
324,48,290209,1,0,0:0:0:0:
512,146,290382,1,0,0:0:0:0:
408,12,290554,1,0,0:0:0:0:
428,184,290727,1,0,0:0:0:0:
248,24,290899,2,0,P|210:28|180:62,1,70
152,116,291244,5,0,0:0:0:0:
140,188,291416,1,0,0:0:0:0:
144,264,291589,2,0,P|151:298|165:330,1,70
208,164,291934,1,0,0:0:0:0:
212,236,292106,1,0,0:0:0:0:
236,304,292278,1,0,0:0:0:0:
252,334,292364,1,0,0:0:0:0:
277,359,292450,1,0,0:0:0:0:
512,208,292623,5,0,0:0:0:0:
324,160,292796,1,0,0:0:0:0:
376,352,292968,1,0,0:0:0:0:
480,140,293141,1,0,0:0:0:0:
272,208,293313,1,0,0:0:0:0:
448,336,293485,1,0,0:0:0:0:
420,88,293658,2,0,P|393:67|361:52,1,70
288,36,294003,5,0,0:0:0:0:
216,48,294176,1,0,0:0:0:0:
264,104,294348,1,0,0:0:0:0:
196,120,294521,1,0,0:0:0:0:
148,68,294693,2,0,P|125:93|126:127,1,70
200,384,295038,5,0,0:0:0:0:
229,366,295124,1,0,0:0:0:0:
257,343,295210,1,0,0:0:0:0:
204,152,295383,1,0,0:0:0:0:
96,334,295554,1,0,0:0:0:0:
204,152,295728,1,0,0:0:0:0:
96,334,295900,1,0,0:0:0:0:
96,164,296072,1,0,0:0:0:0:
184,304,296245,1,0,0:0:0:0:
40,280,296417,2,0,P|66:258|101:255,1,70
172,232,296762,5,0,0:0:0:0:
216,172,296934,1,0,0:0:0:0:
248,240,297107,2,0,P|255:274|269:306,1,70
344,328,297452,1,0,0:0:0:0:
328,252,297624,1,0,0:0:0:0:
400,272,297796,1,0,0:0:0:0:
424,246,297882,1,0,0:0:0:0:
440,216,297968,1,0,0:0:0:0:
240,144,298141,5,0,0:0:0:0:
100,284,298314,1,0,0:0:0:0:
304,236,298486,1,0,0:0:0:0:
188,356,298659,1,0,0:0:0:0:
124,164,298831,1,0,0:0:0:0:
292,320,299003,1,0,0:0:0:0:
336,140,299176,2,0,P|364:159|388:185,1,70
380,260,299520,5,0,0:0:0:0:
304,236,299693,1,0,0:0:0:0:
236,272,299865,1,0,0:0:0:0:
176,224,300038,1,0,0:0:0:0:
104,248,300210,2,0,P|70:252|43:232,1,70
48,124,300555,5,0,0:0:0:0:
73,100,300641,1,0,0:0:0:0:
102,80,300727,1,0,0:0:0:0:
156,300,300900,1,0,0:0:0:0:
180,80,301072,1,0,0:0:0:0:
156,300,301244,1,0,0:0:0:0:
180,80,301417,1,0,0:0:0:0:
264,232,301589,1,0,0:0:0:0:
92,172,301762,1,0,0:0:0:0:
260,52,301934,2,0,P|294:54|320:77,1,70
376,128,302279,5,0,0:0:0:0:
412,196,302451,1,0,0:0:0:0:
408,272,302624,2,0,P|396:304|378:334,1,70
312,376,302969,1,0,0:0:0:0:
232,376,303141,1,0,0:0:0:0:
164,340,303313,1,0,0:0:0:0:
139,314,303399,1,0,0:0:0:0:
123,284,303485,1,0,0:0:0:0:
284,312,303658,5,0,0:0:0:0:
332,116,303831,1,0,0:0:0:0:
348,264,304003,1,0,0:0:0:0:
256,72,304176,1,0,0:0:0:0:
364,188,304348,1,0,0:0:0:0:
180,88,304520,1,0,0:0:0:0:
216,288,304692,2,0,P|187:268|164:243,1,70
144,168,305037,5,0,0:0:0:0:
80,124,305210,1,0,0:0:0:0:
8,152,305382,1,0,0:0:0:0:
0,228,305555,1,0,0:0:0:0:
48,288,305727,2,0,P|75:308|109:304,1,70
360,156,306072,5,0,0:0:0:0:
343,125,306158,1,0,0:0:0:0:
323,96,306244,1,0,0:0:0:0:
144,56,306417,1,0,0:0:0:0:
292,222,306590,1,0,0:0:0:0:
144,56,306762,1,0,0:0:0:0:
292,222,306934,1,0,0:0:0:0:
268,40,307106,1,0,0:0:0:0:
80,124,307279,1,0,0:0:0:0:
344,40,307451,2,0,P|338:74|314:98,1,70
240,108,307796,5,0,0:0:0:0:
288,168,307968,1,0,0:0:0:0:
360,164,308141,2,0,P|388:143|411:117,1,70
424,44,308486,1,0,0:0:0:0:
484,96,308658,1,0,0:0:0:0:
464,168,308830,1,0,0:0:0:0:
447,198,308916,1,0,0:0:0:0:
423,224,309002,1,0,0:0:0:0:
288,300,309175,5,0,0:0:0:0:
176,184,309348,1,0,0:0:0:0:
340,68,309520,1,0,0:0:0:0:
220,252,309693,1,0,0:0:0:0:
136,84,309865,1,0,0:0:0:0:
288,4,310037,1,0,0:0:0:0:
360,176,310209,2,0,P|357:211|344:244,1,70
280,200,310554,5,0,0:0:0:0:
240,264,310727,1,0,0:0:0:0:
176,224,310899,1,0,0:0:0:0:
216,160,311072,1,0,0:0:0:0:
148,128,311244,2,0,P|116:116|86:133,1,70
44,320,311589,5,0,0:0:0:0:
72,340,311675,1,0,0:0:0:0:
102,357,311761,1,0,0:0:0:0:
320,380,311934,1,0,0:0:0:0:
123,275,312107,1,0,0:0:0:0:
320,380,312279,1,0,0:0:0:0:
123,275,312451,1,0,0:0:0:0:
324,240,312623,1,0,0:0:0:0:
240,384,312796,1,0,0:0:0:0:
308,164,312968,2,0,P|275:174|254:201,1,70
240,276,313313,5,0,0:0:0:0:
304,324,313485,1,0,0:0:0:0:
384,312,313658,2,0,P|412:291|435:265,1,70
456,192,314003,1,0,0:0:0:0:
428,120,314175,1,0,0:0:0:0:
360,84,314347,1,0,0:0:0:0:
326,72,314433,1,0,0:0:0:0:
292,70,314519,1,0,0:0:0:0:
116,304,314692,5,0,0:0:0:0:
324,336,314865,1,0,0:0:0:0:
120,164,315037,1,0,0:0:0:0:
212,364,315210,1,0,0:0:0:0:
344,192,315382,1,0,0:0:0:0:
244,96,315554,1,0,0:0:0:0:
372,268,315726,2,0,P|397:251|422:219,1,70
412,144,316072,5,0,0:0:0:0:
344,88,316245,1,0,0:0:0:0:
340,160,316417,1,0,0:0:0:0:
416,68,316590,1,0,0:0:0:0:
364,16,316762,2,0,P|332:4|302:21,1,70
128,128,317107,5,0,0:0:0:0:
132,162,317193,1,0,0:0:0:0:
140,196,317279,1,0,0:0:0:0:
436,224,317452,1,0,0:0:0:0:
238,328,317624,1,0,0:0:0:0:
436,224,317796,1,0,0:0:0:0:
238,328,317969,1,0,0:0:0:0:
280,168,318141,1,0,0:0:0:0:
464,296,318314,1,0,0:0:0:0:
368,376,318486,2,0,P|335:366|314:339,1,70
288,268,318831,5,0,0:0:0:0:
224,228,319003,1,0,0:0:0:0:
148,240,319176,2,0,P|113:236|79:226,1,70
36,160,319521,1,0,0:0:0:0:
48,84,319693,1,0,0:0:0:0:
112,40,319865,1,0,0:0:0:0:
145,28,319951,1,0,0:0:0:0:
179,26,320037,1,0,0:0:0:0:
360,44,320210,5,0,0:0:0:0:
508,172,320383,1,0,0:0:0:0:
380,120,320555,1,0,0:0:0:0:
420,0,320728,1,0,0:0:0:0:
468,244,320900,1,0,0:0:0:0:
304,92,321072,1,0,0:0:0:0:
440,172,321244,2,0,P|412:193|393:223,1,70
364,292,321589,5,0,0:0:0:0:
440,288,321762,1,0,0:0:0:0:
288,292,321934,1,0,0:0:0:0:
404,356,322107,1,0,0:0:0:0:
328,356,322279,2,0,P|299:375|265:366,1,70
232,192,322624,5,0,0:0:0:0:
240,157,322710,1,0,0:0:0:0:
245,123,322796,1,0,0:0:0:0:
72,9,322969,1,0,0:0:0:0:
148,220,323141,1,0,0:0:0:0:
72,9,323313,1,0,0:0:0:0:
148,220,323486,1,0,0:0:0:0:
76,176,323658,1,0,0:0:0:0:
200,24,323831,1,0,0:0:0:0:
372,52,324003,2,0,P|402:68|418:98,1,70
420,176,324348,5,0,0:0:0:0:
356,224,324520,1,0,0:0:0:0:
348,144,324693,2,0,P|313:147|279:157,1,70
208,192,325038,1,0,0:0:0:0:
132,176,325210,1,0,0:0:0:0:
180,116,325382,1,0,0:0:0:0:
148,101,325468,1,0,0:0:0:0:
114,94,325554,1,0,0:0:0:0:
44,232,325727,5,0,0:0:0:0:
212,360,325900,1,0,0:0:0:0:
240,136,326072,1,0,0:0:0:0:
72,304,326245,1,0,0:0:0:0:
280,324,326417,1,0,0:0:0:0:
152,136,326589,1,0,0:0:0:0:
136,344,326761,2,0,P|155:314|182:292,1,70
244,244,327106,5,0,0:0:0:0:
320,248,327279,1,0,0:0:0:0:
352,320,327451,1,0,0:0:0:0:
412,368,327624,1,0,0:0:0:0:
484,344,327796,2,0,P|510:321|509:287,1,70
372,128,328141,5,0,0:0:0:0:
343,107,328227,1,0,0:0:0:0:
313,90,328313,1,0,0:0:0:0:
176,336,328486,1,0,0:0:0:0:
245,161,328659,1,0,0:0:0:0:
176,336,328831,1,0,0:0:0:0:
245,161,329003,1,0,0:0:0:0:
112,216,329175,1,0,0:0:0:0:
260,300,329348,1,0,0:0:0:0:
69,157,329520,2,0,P|45:181|40:216,1,70
44,292,329865,5,0,0:0:0:0:
108,336,330037,1,0,0:0:0:0:
152,272,330210,2,0,P|186:278|221:278,1,70
260,344,330555,1,0,0:0:0:0:
336,328,330727,1,0,0:0:0:0:
400,284,330899,2,0,P|431:269|459:247,1,70
336,232,331244,6,0,B|320:192|392:208|436:160|436:160|360:172|292:160|292:160|420:112|452:84|428:12|428:12|372:56|256:92|256:92|260:96|172:56|180:-4|244:-32|280:-20|304:4|320:40|292:72|256:92|256:92|212:84|152:60|76:12|76:12|52:56|104:120|200:156|220:160|220:160|160:176|80:160|80:160|100:208|180:208|209:222|228:232|256:228|256:228|212:264|256:288|256:288|296:288|268:328|252:344|256:388,1,1925
