osu file format v14

[General]
AudioFilename: audio.mp3
AudioLeadIn: 0
PreviewTime: 110354
Countdown: 0
SampleSet: Soft
StackLeniency: 0.3
Mode: 0
LetterboxInBreaks: 1
WidescreenStoryboard: 1

[Editor]
Bookmarks: 1044,2423,3803,5182,6561,7941,9320,10699,12078,13458,14837,16216,17596,18975,20354,21734,23113,24492,25872,27251,28630,30010,31389,32768,34147,35527,36906,38285,39665,41044,42423,43803,100354,101734,103113,104492,110010,111389,112768,114147,115527,116906,118285,119665,121044,122423,123803,125182,126561,127941,129320,130699,132078,133458,134837,136216,137596,138975,140354,141734,143113,144492,145872,147251,148630,150010,151389,152768,154147,154320,171734,173113,174492,176216,177596,178975,180354,181734,183113,184492,185872,187251,188630,190010,191389,192768,194147,195527,196906,198285,203803,205182,206561,207941,209320,210699,212078,213458,214837,216216,217596,218975,220354,278285,281044,283803,286561,287941,289320,290699,292078,293458,294837,296216,297596,298975,300354,301734,303113,304492,305872,307251,308630,310010,311389,312768,314147,315527,316906,318285,319665,321044,322423,323803,325182,326561,327941,329320,330699,332078,333458,334837,336216,337596,338975,340354,341734,343113,344492,345872,347251,348630,350010,351389,352768,354147,355527,356906,358285,359665,361044,362423,363803,365182,366561,367941,369320,370699,372078,373458,374837,375010
DistanceSpacing: 0.9
BeatDivisor: 4
GridSize: 32
TimelineZoom: 2.200001

[Metadata]
Title:Graces of Heaven
TitleUnicode:Graces of Heaven
Artist:aran
ArtistUnicode:aran
Creator:Mattay
Version:Biblically Accurate Beatmap
Source:
Tags:fa featured artist mappers' guild mpg ancel ancelysia electronic instrumental hardcore syndrome 7 tano*c jcore j-core
BeatmapID:4314996
BeatmapSetID:2063140

[Difficulty]
HPDrainRate:4.8
CircleSize:6.2
OverallDifficulty:9.2
ApproachRate:9.8
SliderMultiplier:0.999999999999999
SliderTickRate:1

[Events]
//Background and Video events
0,0,"beatmap.jpg",0,0
//Break Periods
2,220942,225220
2,226459,230737
//Storyboard Layer 0 (Background)
//Storyboard Layer 1 (Fail)
//Storyboard Layer 2 (Pass)
//Storyboard Layer 3 (Foreground)
//Storyboard Layer 4 (Overlay)
//Storyboard Sound Samples

[TimingPoints]
10,344.827586206897,4,2,99,60,1,0
182,-100,4,2,1,60,0,0
527,-71.4285714285714,4,2,1,60,0,0
1561,-100,4,2,1,60,0,0
1906,-71.4285714285714,4,2,1,60,0,0
2941,-100,4,2,1,60,0,0
3285,-71.4285714285714,4,2,1,60,0,0
4320,-100,4,2,1,60,0,0
5699,-100,4,2,1,60,0,0
6044,-71.4285714285714,4,2,1,60,0,0
7078,-100,4,2,1,60,0,0
7423,-71.4285714285714,4,2,1,60,0,0
8458,-100,4,2,1,60,0,0
8803,-71.4285714285714,4,2,1,60,0,0
9837,-100,4,2,1,60,0,0
11216,-100,4,2,1,60,0,0
11561,-71.4285714285714,4,2,1,60,0,0
12596,-100,4,2,1,60,0,0
12941,-71.4285714285714,4,2,1,60,0,0
13975,-100,4,2,1,60,0,0
14320,-71.4285714285714,4,2,1,60,0,0
15354,-100,4,2,1,60,0,0
15699,-71.4285714285714,4,2,1,60,0,0
16734,-100,4,2,1,60,0,0
17078,-71.4285714285714,4,2,1,60,0,0
18113,-100,4,2,1,60,0,0
18458,-71.4285714285714,4,2,1,60,0,0
19492,-100,4,2,1,60,0,0
19837,-71.4285714285714,4,2,1,60,0,0
20872,-100,4,2,1,60,0,0
21216,-71.4285714285714,4,2,1,60,0,0
22078,-50,4,2,1,70,0,0
22165,-50,4,2,1,5,0,0
22251,-50,4,2,1,70,0,0
22510,-50,4,2,1,5,0,0
22596,-50,4,2,1,70,0,0
22854,-50,4,2,1,5,0,0
22940,-50,4,2,1,70,0,0
23544,-50,4,2,1,5,0,0
23630,-50,4,2,1,70,0,0
23889,-50,4,2,1,5,0,0
23975,-50,4,2,1,70,0,0
24234,-50,4,2,1,5,0,0
24320,-50,4,2,1,70,0,0
24923,-50,4,2,1,5,0,0
25009,-50,4,2,1,70,0,0
25268,-50,4,2,1,5,0,0
25354,-50,4,2,1,70,0,0
25613,-50,4,2,1,5,0,0
25699,-50,4,2,1,70,0,0
26303,-50,4,2,1,5,0,0
26389,-50,4,2,1,70,0,0
26647,-50,4,2,1,5,0,0
26733,-50,4,2,1,70,0,0
27682,-50,4,2,1,5,0,0
27768,-50,4,2,1,70,0,0
28027,-50,4,2,1,5,0,0
28113,-50,4,2,1,70,0,0
28372,-50,4,2,1,5,0,0
28458,-50,4,2,1,70,0,0
29061,-50,4,2,1,5,0,0
29147,-50,4,2,1,70,0,0
29406,-50,4,2,1,5,0,0
29492,-50,4,2,1,70,0,0
29751,-50,4,2,1,5,0,0
29837,-50,4,2,1,70,0,0
30182,-71.4285714285714,4,2,1,70,0,0
30354,-50,4,2,1,70,0,0
30441,-50,4,2,1,5,0,0
30527,-50,4,2,1,70,0,0
30785,-50,4,2,1,5,0,0
30871,-50,4,2,1,70,0,0
31130,-50,4,2,1,5,0,0
31216,-50,4,2,1,70,0,0
31734,-100,4,2,1,70,0,0
32423,-66.6666666666667,4,2,1,70,0,0
32768,-33.3333333333333,4,2,1,70,0,0
38630,-33.3333333333333,4,2,1,70,0,0
39665,-33.3333333333333,4,2,1,80,0,0
41216,-71.4285714285714,4,2,1,60,0,0
41389,-71.4285714285714,4,2,1,90,0,0
43716,-50,4,2,1,5,0,0
43802,-50,4,2,1,70,0,0
44147,-71.4285714285714,4,2,0,50,0,0
54837,-27.7777777777778,4,2,0,50,0,0
55182,-100,4,2,0,60,0,0
56389,-66.6666666666667,4,2,0,60,0,0
56475,-66.6666666666667,4,2,1,5,0,0
56561,-66.6666666666667,4,2,1,60,0,0
56820,-66.6666666666667,4,2,1,5,0,0
56906,-66.6666666666667,4,2,1,60,0,0
57768,-66.6666666666667,4,2,0,60,0,0
57941,-100,4,2,0,60,0,0
59147,-66.6666666666667,4,2,0,60,0,0
59234,-66.6666666666667,4,2,1,5,0,0
59320,-66.6666666666667,4,2,1,60,0,0
59578,-66.6666666666667,4,2,1,5,0,0
59664,-66.6666666666667,4,2,1,60,0,0
59751,-66.6666666666667,4,2,1,5,0,0
59837,-66.6666666666667,4,2,1,60,0,0
59923,-66.6666666666667,4,2,1,5,0,0
60009,-66.6666666666667,4,2,1,60,0,0
60268,-66.6666666666667,4,2,1,5,0,0
60354,-66.6666666666667,4,2,1,60,0,0
60613,-66.6666666666667,4,2,1,5,0,0
60699,-66.6666666666667,4,2,1,60,0,0
60872,-100,4,2,0,60,0,0
61906,-66.6666666666667,4,2,0,60,0,0
61992,-66.6666666666667,4,2,1,5,0,0
62078,-66.6666666666667,4,2,1,60,0,0
62337,-66.6666666666667,4,2,1,5,0,0
62423,-66.6666666666667,4,2,1,60,0,0
62941,-50,4,2,1,60,0,0
63285,-50,4,2,0,60,0,0
63458,-100,4,2,0,60,0,0
64492,-66.6666666666667,4,2,0,60,0,0
64578,-66.6666666666667,4,2,1,5,0,0
64664,-66.6666666666667,4,2,1,60,0,0
64751,-66.6666666666667,4,2,1,5,0,0
64837,-66.6666666666667,4,2,1,60,0,0
65096,-66.6666666666667,4,2,1,5,0,0
65182,-66.6666666666667,4,2,1,60,0,0
65441,-66.6666666666667,4,2,1,5,0,0
65527,-66.6666666666667,4,2,1,60,0,0
65785,-66.6666666666667,4,2,1,5,0,0
65871,-66.6666666666667,4,2,1,60,0,0
66130,-66.6666666666667,4,2,1,5,0,0
66216,-50,4,2,1,65,0,0
66906,-100,4,2,1,60,0,0
67596,-50,4,2,1,60,0,0
68285,-100,4,2,1,60,0,0
68975,-50,4,2,1,60,0,0
69665,-333.333333333333,4,2,1,60,0,0
70354,-50,4,2,1,60,0,0
71044,-333.333333333333,4,2,1,60,0,0
71734,-50,4,2,1,60,0,0
72423,-125,4,2,1,60,0,0
73113,-41.6666666666667,4,2,1,60,0,0
73803,-100,4,2,1,60,0,0
74492,-37.037037037037,4,2,1,60,0,0
75182,-333.333333333333,4,2,1,60,0,0
75872,-37.037037037037,4,2,1,60,0,0
76561,-333.333333333333,4,2,1,60,0,0
77251,-66.6666666666667,4,2,1,70,0,0
82768,-62.5,4,2,1,70,0,0
83458,-100,4,2,1,70,0,0
84147,-62.5,4,2,1,70,0,0
84837,-100,4,2,1,70,0,0
85527,-62.5,4,2,1,70,0,0
86216,-133.333333333333,4,2,1,70,0,0
86906,-100,4,2,2,70,0,0
87078,-100,4,2,2,50,0,0
87251,-100,4,2,2,55,0,0
87423,-100,4,2,2,65,0,0
87596,-100,4,2,2,65,0,0
87768,-100,4,2,2,70,0,0
87941,-100,4,2,2,75,0,0
88113,-100,4,2,2,80,0,0
88285,-100,4,2,3,70,0,0
88458,-50,4,2,3,70,0,0
88544,-50,4,2,3,5,0,0
88630,-50,4,2,3,70,0,0
88889,-50,4,2,3,5,0,0
88975,-50,4,2,3,70,0,0
89234,-50,4,2,3,5,0,0
89320,-50,4,2,3,70,0,0
89578,-50,4,2,3,5,0,0
89664,-50,4,2,3,70,0,0
89923,-50,4,2,3,5,0,0
90009,-50,4,2,3,70,0,0
90268,-50,4,2,3,5,0,0
90354,-50,4,2,3,70,0,0
90613,-50,4,2,3,5,0,0
90699,-50,4,2,3,70,0,0
90958,-50,4,2,3,5,0,0
91044,-50,4,2,3,70,0,0
91303,-50,4,2,3,5,0,0
91389,-50,4,2,3,70,0,0
91647,-50,4,2,3,5,0,0
91733,-50,4,2,3,70,0,0
91992,-50,4,2,3,5,0,0
92078,-50,4,2,3,70,0,0
92337,-50,4,2,3,5,0,0
92423,-50,4,2,3,70,0,0
92682,-50,4,2,3,5,0,0
92768,-50,4,2,3,70,0,0
93027,-50,4,2,3,5,0,0
93113,-50,4,2,3,70,0,0
93372,-50,4,2,3,5,0,0
93458,-50,4,2,3,70,0,0
93716,-50,4,2,3,5,0,0
93802,-50,4,2,3,70,0,0
94061,-50,4,2,3,5,0,0
94147,-50,4,2,3,70,0,0
94406,-50,4,2,3,5,0,0
94492,-50,4,2,3,70,0,0
94751,-50,4,2,3,5,0,0
94837,-50,4,2,3,70,0,0
95096,-50,4,2,3,5,0,0
95182,-50,4,2,3,70,0,0
95441,-50,4,2,3,5,0,0
95527,-50,4,2,3,70,0,0
95785,-50,4,2,3,5,0,0
95871,-50,4,2,3,70,0,0
96130,-50,4,2,3,5,0,0
96216,-50,4,2,3,70,0,0
96475,-50,4,2,3,5,0,0
96561,-50,4,2,3,70,0,0
96820,-50,4,2,3,5,0,0
96906,-50,4,2,3,70,0,0
97078,-43.4782608695652,4,2,3,70,0,0
97165,-43.4782608695652,4,2,3,5,0,0
97251,-43.4782608695652,4,2,3,70,0,0
97423,-38.4615384615385,4,2,3,70,0,0
97510,-38.4615384615385,4,2,3,5,0,0
97596,-38.4615384615385,4,2,3,70,0,0
97768,-34.4827586206897,4,2,3,70,0,0
97854,-34.4827586206897,4,2,3,5,0,0
97941,-34.4827586206897,4,2,3,70,0,0
98113,-38.4615384615385,4,2,3,70,0,0
98199,-38.4615384615385,4,2,3,5,0,0
98285,-38.4615384615385,4,2,3,70,0,0
98458,-35.7142857142857,4,2,3,70,0,0
98544,-35.7142857142857,4,2,3,5,0,0
98630,-35.7142857142857,4,2,3,70,0,0
98803,-33.3333333333333,4,2,3,70,0,0
98889,-33.3333333333333,4,2,3,5,0,0
98975,-33.3333333333333,4,2,3,70,0,0
100354,-33.3333333333333,4,2,1,70,0,0
100699,-33.3333333333333,4,2,3,70,0,0
101734,-33.3333333333333,4,2,1,70,0,0
101906,-33.3333333333333,4,2,3,70,0,0
103113,-33.3333333333333,4,2,1,70,0,0
103458,-33.3333333333333,4,2,3,70,0,0
104492,-33.3333333333333,4,2,1,70,0,0
104665,-33.3333333333333,4,2,3,70,0,0
104837,-33.3333333333333,4,2,3,75,0,0
106216,-33.3333333333333,4,2,3,80,0,0
107596,-33.3333333333333,4,2,3,85,0,0
109665,-33.3333333333333,4,2,3,90,0,0
109837,-33.3333333333333,4,2,1,90,0,0
110010,-33.3333333333333,4,2,1,90,0,0
110527,-50,4,2,1,70,0,0
110872,-33.3333333333333,4,2,1,70,0,0
111130,-33.3333333333333,4,2,1,5,0,0
111216,-66.6666666666667,4,2,1,70,0,0
111734,-50,4,2,1,70,0,0
112251,-33.3333333333333,4,2,1,70,0,0
112510,-33.3333333333333,4,2,1,5,0,0
112596,-66.6666666666667,4,2,1,70,0,0
113285,-50,4,2,1,70,0,0
113630,-33.3333333333333,4,2,1,70,0,0
113889,-33.3333333333333,4,2,1,5,0,0
113975,-66.6666666666667,4,2,1,70,0,0
114492,-50,4,2,1,70,0,0
115010,-33.3333333333333,4,2,1,70,0,0
115354,-66.6666666666667,4,2,1,70,0,0
115872,-50,4,2,1,70,0,0
116389,-33.3333333333333,4,2,1,70,0,0
116820,-33.3333333333333,4,2,1,5,0,0
116906,-33.3333333333333,4,2,1,70,0,0
117251,-50,4,2,1,70,0,0
117768,-33.3333333333333,4,2,1,70,0,0
118199,-33.3333333333333,4,2,1,5,0,0
118285,-33.3333333333333,4,2,1,70,0,0
118630,-50,4,2,1,70,0,0
119147,-33.3333333333333,4,2,1,70,0,0
119578,-33.3333333333333,4,2,1,5,0,0
119664,-33.3333333333333,4,2,1,70,0,0
120010,-50,4,2,1,70,0,0
120527,-33.3333333333333,4,2,1,70,0,0
121389,-50,4,2,1,70,0,0
121734,-33.3333333333333,4,2,1,70,0,0
122768,-50,4,2,1,70,0,0
123113,-33.3333333333333,4,2,1,70,0,0
124147,-50,4,2,1,70,0,0
124492,-33.3333333333333,4,2,1,70,0,0
125527,-50,4,2,1,70,0,0
125872,-40,4,2,1,70,0,0
125958,-40,4,2,1,5,0,0
126044,-33.3333333333333,4,2,1,70,0,0
126906,-33.3333333333333,4,2,1,72,0,0
128285,-33.3333333333333,4,2,1,74,0,0
129665,-33.3333333333333,4,2,1,76,0,0
131044,-33.3333333333333,4,2,1,78,0,0
132423,-40,4,2,1,80,0,0
132768,-28.5714285714286,4,2,1,80,0,0
133803,-40,4,2,1,80,0,0
134147,-28.5714285714286,4,2,1,80,0,0
135182,-40,4,2,1,80,0,0
135527,-28.5714285714286,4,2,1,80,0,0
136561,-40,4,2,1,80,0,0
136906,-28.5714285714286,4,2,1,80,0,0
137941,-40,4,2,1,80,0,0
138285,-28.5714285714286,4,2,1,80,0,0
139320,-40,4,2,1,80,0,0
139665,-28.5714285714286,4,2,1,80,0,0
140699,-40,4,2,1,80,0,0
141044,-28.5714285714286,4,2,1,80,0,0
142078,-40,4,2,1,80,0,0
142423,-28.5714285714286,4,2,1,80,0,0
142510,-28.5714285714286,4,2,1,5,0,0
142596,-28.5714285714286,4,2,1,80,0,0
143458,-50,4,2,1,80,0,0
143803,-33.3333333333333,4,2,1,80,0,0
144147,-25,4,2,1,80,0,0
144837,-50,4,2,1,80,0,0
145182,-33.3333333333333,4,2,1,80,0,0
145527,-25,4,2,1,80,0,0
146216,-50,4,2,1,80,0,0
146561,-33.3333333333333,4,2,1,80,0,0
146906,-25,4,2,1,80,0,0
147596,-50,4,2,1,80,0,0
147941,-33.3333333333333,4,2,1,80,0,0
148027,-33.3333333333333,4,2,1,5,0,0
148113,-33.3333333333333,4,2,1,80,0,0
148285,-25,4,2,1,80,0,0
148975,-25,4,2,1,82,0,0
150354,-25,4,2,1,84,0,0
151734,-25,4,2,1,86,0,0
152423,-25,4,2,1,88,0,0
152768,-25,4,2,1,90,0,0
153113,-33.3333333333333,4,2,1,70,0,0
153285,-50,4,2,1,70,0,0
153630,-33.3333333333333,4,2,1,70,0,0
153975,-33.3333333333333,4,2,1,80,0,0
154147,-33.3333333333333,4,2,1,90,0,0
154492,-33.3333333333333,4,3,1,80,0,0
154837,-33.3333333333333,4,3,1,60,0,0
157251,-83.3333333333333,4,3,1,60,0,0
158630,-100,4,3,1,60,0,0
164320,-100,4,3,1,80,0,0
164665,-100,4,3,1,75,0,0
165010,-100,4,3,1,70,0,0
165182,-100,4,3,1,65,0,0
165354,-100,4,3,1,60,0,0
165527,-62.5,4,3,1,70,0,0
166216,-100,4,3,1,70,0,0
166906,-62.5,4,3,1,70,0,0
167596,-100,4,3,1,70,0,0
168285,-62.5,4,3,1,70,0,0
168975,-100,4,3,1,70,0,0
169665,-62.5,4,3,1,70,0,0
171044,-62.5,4,3,1,60,0,0
172423,-62.5,4,3,1,70,0,0
173803,-62.5,4,3,1,80,0,0
175182,-62.5,4,3,3,90,0,0
176561,-38.4615384615385,4,3,2,75,0,0
176647,-38.4615384615385,4,3,1,75,0,0
176820,-38.4615384615385,4,3,1,5,0,0
176906,-38.4615384615385,4,3,1,75,0,0
177165,-38.4615384615385,4,3,1,5,0,0
177251,-38.4615384615385,4,3,1,75,0,0
177337,-38.4615384615385,4,3,1,5,0,0
177423,-38.4615384615385,4,3,1,75,0,0
177510,-38.4615384615385,4,3,1,5,0,0
177596,-38.4615384615385,4,3,1,75,0,0
178199,-38.4615384615385,4,3,1,5,0,0
178285,-38.4615384615385,4,3,1,75,0,0
178543,-38.4615384615385,4,3,1,5,0,0
178630,-38.4615384615385,4,3,1,75,0,0
178716,-38.4615384615385,4,3,1,5,0,0
178803,-38.4615384615385,4,3,1,75,0,0
178889,-38.4615384615385,4,3,1,5,0,0
178975,-38.4615384615385,4,3,1,75,0,0
179578,-38.4615384615385,4,3,1,5,0,0
179664,-38.4615384615385,4,3,1,75,0,0
179922,-38.4615384615385,4,3,1,5,0,0
180009,-38.4615384615385,4,3,1,75,0,0
180095,-38.4615384615385,4,3,1,5,0,0
180182,-38.4615384615385,4,3,1,75,0,0
180268,-38.4615384615385,4,3,1,5,0,0
180354,-38.4615384615385,4,3,1,75,0,0
180957,-38.4615384615385,4,3,1,5,0,0
181043,-38.4615384615385,4,3,1,75,0,0
181301,-38.4615384615385,4,3,1,5,0,0
181388,-38.4615384615385,4,3,1,75,0,0
181474,-38.4615384615385,4,3,1,5,0,0
181561,-38.4615384615385,4,3,1,75,0,0
181647,-38.4615384615385,4,3,1,5,0,0
181734,-38.4615384615385,4,3,1,75,0,0
182078,-38.4615384615385,4,3,2,75,0,0
182165,-38.4615384615385,4,3,1,75,0,0
182337,-38.4615384615385,4,3,1,5,0,0
182423,-38.4615384615385,4,3,1,75,0,0
182681,-38.4615384615385,4,3,1,5,0,0
182768,-38.4615384615385,4,3,1,75,0,0
182854,-38.4615384615385,4,3,1,5,0,0
182941,-38.4615384615385,4,3,1,75,0,0
183027,-38.4615384615385,4,3,1,5,0,0
183113,-38.4615384615385,4,3,1,75,0,0
183716,-38.4615384615385,4,3,1,5,0,0
183802,-38.4615384615385,4,3,1,75,0,0
184060,-38.4615384615385,4,3,1,5,0,0
184147,-38.4615384615385,4,3,1,75,0,0
184233,-38.4615384615385,4,3,1,5,0,0
184320,-38.4615384615385,4,3,1,75,0,0
184406,-38.4615384615385,4,3,1,5,0,0
184492,-38.4615384615385,4,3,1,75,0,0
185095,-38.4615384615385,4,3,1,5,0,0
185181,-38.4615384615385,4,3,1,75,0,0
185439,-38.4615384615385,4,3,1,5,0,0
185526,-38.4615384615385,4,3,1,75,0,0
185612,-38.4615384615385,4,3,1,5,0,0
185699,-38.4615384615385,4,3,1,75,0,0
185785,-38.4615384615385,4,3,1,5,0,0
185872,-38.4615384615385,4,3,1,75,0,0
186475,-38.4615384615385,4,3,1,5,0,0
186561,-38.4615384615385,4,3,1,75,0,0
186819,-38.4615384615385,4,3,1,5,0,0
186906,-38.4615384615385,4,3,1,75,0,0
186992,-38.4615384615385,4,3,1,5,0,0
187079,-38.4615384615385,4,3,1,75,0,0
187165,-38.4615384615385,4,3,1,5,0,0
187251,-38.4615384615385,4,3,1,75,0,0
187596,-38.4615384615385,4,3,2,80,0,0
187683,-38.4615384615385,4,3,1,80,0,0
193113,-38.4615384615385,4,3,2,85,0,0
193285,-38.4615384615385,4,3,1,85,0,0
196906,-38.4615384615385,4,3,1,85,0,0
197251,-38.4615384615385,4,3,1,90,0,0
198716,-38.4615384615385,4,3,1,60,0,0
203716,-38.4615384615385,4,3,1,5,0,0
203803,-38.4615384615385,4,3,1,70,0,0
204147,-50,4,3,1,70,0,0
204492,-33.3333333333333,4,3,1,70,0,0
205527,-50,4,3,1,70,0,0
205872,-33.3333333333333,4,3,1,70,0,0
206906,-50,4,3,1,70,0,0
208285,-50,4,3,1,70,0,0
209665,-50,4,3,1,75,0,0
210010,-33.3333333333333,4,3,1,75,0,0
211044,-50,4,3,1,75,0,0
211389,-33.3333333333333,4,3,1,75,0,0
212423,-50,4,3,1,75,0,0
213803,-50,4,3,1,75,0,0
215182,-50,4,3,1,77,0,0
216561,-50,4,3,1,79,0,0
217941,-50,4,3,1,81,0,0
219320,-50,4,3,1,83,0,0
220354,-50,4,3,1,85,0,0
220699,-200,4,2,99,70,0,0
220742,-200,4,2,99,5,0,0
225699,-100,4,2,2,90,0,0
225742,-100,4,2,2,5,0,0
226216,-200,4,2,2,70,0,0
226260,-200,4,2,2,5,0,0
231216,-100,4,2,2,90,0,0
231260,-100,4,2,2,5,0,0
231734,-33.3333333333333,4,2,2,70,0,0
232078,-33.3333333333333,4,3,1,60,0,0
236734,-100,4,3,2,90,0,0
236777,-100,4,3,2,5,0,0
237251,-33.3333333333333,4,3,2,70,0,0
237596,-33.3333333333333,4,3,1,60,0,0
241303,-33.3333333333333,4,3,1,5,0,0
241389,-33.3333333333333,4,3,2,70,0,0
241561,-33.3333333333333,4,3,2,60,0,0
241734,-33.3333333333333,4,3,2,65,0,0
241906,-33.3333333333333,4,3,2,70,0,0
242078,-33.3333333333333,4,3,2,75,0,0
242251,-33.3333333333333,4,3,2,80,0,0
242423,-33.3333333333333,4,3,2,85,0,0
242596,-33.3333333333333,4,3,2,90,0,0
242768,-66.6666666666667,4,3,2,70,0,0
248285,-100,4,3,2,70,0,0
248975,-29.2397660818713,4,3,2,70,0,0
249665,-100,4,3,2,70,0,0
250354,-68.4931506849315,4,3,2,70,0,0
251044,-100,4,3,2,70,0,0
251734,-29.2397660818713,4,3,2,70,0,0
252423,-66.6666666666667,4,3,2,70,0,0
253113,-50,4,3,2,70,0,0
253803,-50,4,3,2,50,0,0
254837,-50,4,3,2,60,0,0
255010,-55.5555555555556,4,3,2,60,0,0
256561,-55.5555555555556,4,3,2,65,0,0
257596,-55.5555555555556,4,3,2,70,0,0
259320,-55.5555555555556,4,3,2,75,0,0
260699,-55.5555555555556,4,3,2,80,0,0
262078,-55.5555555555556,4,3,2,85,0,0
263544,-55.5555555555556,4,2,2,60,0,0
264492,-55.5555555555556,4,3,1,90,0,0
264837,-50,4,3,1,75,0,1
266734,-66.6666666666667,4,3,1,75,0,1
268803,-50,4,3,1,75,0,1
269492,-40,4,3,1,75,0,1
271561,-50,4,3,1,75,0,1
272251,-66.6666666666667,4,3,1,75,0,1
274320,-50,4,3,1,75,0,1
275010,-40,4,3,1,75,0,1
275872,-40,4,3,1,80,0,1
277078,-50,4,3,1,80,0,1
286906,-50,4,3,1,85,0,1
288803,-66.6666666666667,4,3,1,85,0,1
290872,-50,4,3,1,85,0,1
291561,-40,4,3,1,85,0,1
293630,-50,4,3,1,85,0,1
294320,-66.6666666666667,4,3,1,85,0,1
296389,-50,4,3,1,85,0,1
297078,-40,4,3,1,85,0,1
297941,-41.6666666666667,4,3,1,85,0,1
303458,-41.6666666666667,4,3,1,87,0,1
304837,-41.6666666666667,4,3,1,89,0,1
306216,-41.6666666666667,4,3,1,91,0,1
307596,-41.6666666666667,4,3,1,93,0,1
308113,-41.6666666666667,4,3,1,95,0,1
308975,-41.6666666666667,4,3,1,90,0,1
320010,-41.6666666666667,4,3,1,80,0,0
320182,-41.6666666666667,4,3,1,70,0,0
329665,-41.6666666666667,4,3,1,80,0,0
330010,-41.6666666666667,4,3,1,85,0,0
330527,-41.6666666666667,4,3,1,90,0,0
330699,-41.6666666666667,4,3,1,95,0,0
330872,-41.6666666666667,4,3,1,100,0,0
331044,-50,4,3,1,80,0,0
332423,-62.5,4,3,1,75,0,0
333803,-71.4285714285714,4,3,1,70,0,0
335182,-83.3333333333333,4,3,1,65,0,0
336216,-83.3333333333333,4,3,1,70,0,0
336561,-50,4,3,1,70,0,0
337941,-50,4,3,1,70,0,0
339320,-50,4,3,1,70,0,0
340699,-50,4,3,1,75,0,0
341561,-50,4,3,1,80,0,0
342078,-50,4,3,1,75,0,0
342768,-33.3333333333333,4,3,1,75,0,0
343458,-50,4,3,1,70,0,0
344147,-33.3333333333333,4,3,1,70,0,0
344837,-50,4,3,1,65,0,0
345527,-33.3333333333333,4,3,1,65,0,0
346216,-50,4,3,1,60,0,0
347596,-50,4,3,1,65,0,0
348975,-50,4,3,1,70,0,0
350354,-50,4,3,1,75,0,0
351561,-50,4,2,1,75,0,0
351734,-50,4,3,1,50,0,0
352768,-50,4,3,1,80,0,0
353113,-71.4285714285714,4,3,1,60,0,0
353630,-100,4,3,1,60,0,0
354665,-71.4285714285714,4,3,1,60,0,0
355010,-100,4,3,1,60,0,0
356044,-71.4285714285714,4,3,1,60,0,0
356389,-100,4,3,1,60,0,0
357423,-71.4285714285714,4,3,1,60,0,0
358630,-71.4285714285714,4,3,1,55,0,0
358803,-71.4285714285714,4,3,1,55,0,0
359147,-100,4,3,1,55,0,0
360182,-71.4285714285714,4,3,1,55,0,0
360527,-100,4,3,1,55,0,0
361561,-71.4285714285714,4,3,1,55,0,0
361906,-100,4,3,1,55,0,0
362768,-100,4,3,1,55,0,0
364147,-142.857142857143,4,3,1,50,0,0
364320,-100,4,3,1,50,0,0
364665,-71.4285714285714,4,3,1,50,0,0
365527,-71.4285714285714,4,3,1,48,0,0
365699,-100,4,3,1,48,0,0
366044,-71.4285714285714,4,3,1,48,0,0
366906,-71.4285714285714,4,3,1,46,0,0
367078,-100,4,3,1,46,0,0
367423,-71.4285714285714,4,3,1,46,0,0
368285,-71.4285714285714,4,3,1,44,0,0
368458,-100,4,3,1,44,0,0
369665,-100,4,3,1,42,0,0
369837,-125,4,3,1,42,0,0
370182,-90.9090909090909,4,3,1,42,0,0
371044,-90.9090909090909,4,3,1,40,0,0
371216,-125,4,3,1,40,0,0
371561,-90.9090909090909,4,3,1,40,0,0
372423,-90.9090909090909,4,3,1,38,0,0
372596,-125,4,3,1,38,0,0
372941,-90.9090909090909,4,3,1,38,0,0
373803,-90.9090909090909,4,3,1,36,0,0
373975,-125,4,3,1,36,0,0
374837,-125,4,2,99,80,0,0

[Colours]
Combo1 : 189,151,210
Combo2 : 243,233,160
Combo3 : 233,233,233

[HitObjects]
0,0,10,5,6,3:2:0:0:
0,0,182,2,0,P|4:35|6:62,1,50,8|0,0:3|3:0,0:0:0:0:
72,32,527,2,0,P|64:62|56:104,1,69.9999978637695,8|0,0:3|3:0,0:0:0:0:
128,80,872,1,8,0:3:0:0:
256,0,1044,5,12,1:0:0:0:
512,0,1389,5,2,3:2:0:0:
512,0,1561,2,0,P|508:35|506:62,1,50,8|0,0:3|3:0,0:0:0:0:
440,32,1906,2,0,P|448:62|456:104,1,69.9999978637695,8|0,0:3|3:0,0:0:0:0:
384,80,2251,1,8,0:3:0:0:
256,0,2423,21,12,1:0:0:0:
5,49,2768,21,2,3:2:0:0:
5,49,2941,2,0,P|2:82|-5:113,1,50,8|0,0:3|3:0,0:0:0:0:
66,14,3285,2,0,P|73:49|85:82,1,69.9999978637695,8|0,0:3|3:0,0:0:0:0:
52,132,3630,1,8,0:3:0:0:
256,0,3803,5,12,1:0:0:0:
507,49,4147,5,2,3:2:0:0:
507,49,4320,2,0,P|510:82|517:113,1,50,8|0,0:3|3:0,0:0:0:0:
460,132,4665,1,8,3:0:0:0:
460,132,4751,1,2,3:2:0:0:
460,132,4838,1,2,3:2:0:0:
393,119,5010,1,8,0:3:0:0:
256,0,5182,21,12,1:0:0:0:
256,192,5355,1,8,0:1:0:0:
52,132,5527,21,2,3:2:0:0:
52,132,5700,2,0,P|42:102|30:72,1,50,8|0,0:3|3:0,0:0:0:0:
119,119,6044,2,0,P|126:82|138:46,1,69.9999978637695,8|0,0:3|3:0,0:0:0:0:
175,150,6389,1,8,0:3:0:0:
256,0,6562,5,12,1:0:0:0:
460,132,6906,5,2,3:2:0:0:
460,132,7079,2,0,P|470:102|482:72,1,50,8|0,0:3|3:0,0:0:0:0:
393,119,7423,2,0,P|386:82|374:46,1,69.9999978637695,8|0,0:3|3:0,0:0:0:0:
337,150,7768,1,8,0:3:0:0:
256,0,7941,21,12,1:0:0:0:
35,84,8286,21,2,3:2:0:0:
35,84,8458,2,0,P|41:52|44:26,1,50,8|0,0:3|3:0,0:0:0:0:
117,124,8803,2,0,P|109:88|103:47,1,69.9999978637695,8|0,0:3|3:0,0:0:0:0:
183,109,9148,1,8,0:3:0:0:
256,0,9320,5,12,1:0:0:0:
477,84,9665,5,2,3:2:0:0:
477,84,9837,2,0,P|471:52|468:26,1,50,8|0,0:3|3:0,0:0:0:0:
395,124,10182,1,8,3:0:0:0:
395,124,10268,1,2,3:2:0:0:
395,124,10354,1,2,3:2:0:0:
410,67,10526,1,8,0:3:0:0:
256,0,10699,21,12,1:0:0:0:
256,256,10871,1,8,0:1:0:0:
117,124,11044,21,6,1:2:0:0:
76,82,11216,2,0,L|22:87,1,50,8|8,0:3|3:2,0:0:0:0:
0,164,11561,2,0,P|34:160|69:157,1,69.9999978637695,8|0,0:3|3:0,0:0:0:0:
117,124,11906,1,8,0:3:0:0:
256,0,12078,5,12,1:0:0:0:
395,124,12423,5,2,3:2:0:0:
436,82,12596,2,0,L|501:88,1,50,8|8,0:3|3:2,0:0:0:0:
512,164,12941,2,0,L|413:154,1,69.9999978637695,8|0,0:3|3:0,0:0:0:0:
395,124,13285,1,8,0:3:0:0:
256,0,13457,21,12,1:0:0:0:
117,124,13803,21,2,3:2:0:0:
76,82,13975,2,0,L|16:87,1,50,8|8,0:3|3:2,0:0:0:0:
0,164,14320,2,0,L|70:157,1,69.9999978637695,8|0,0:3|3:0,0:0:0:0:
117,124,14665,1,8,0:3:0:0:
256,0,14837,5,12,1:0:0:0:
395,124,15182,5,2,3:2:0:0:
436,82,15354,2,0,L|489:86,1,50,8|8,0:3|3:2,0:0:0:0:
512,164,15699,1,8,3:0:0:0:
512,164,15785,1,2,3:2:0:0:
512,164,15872,1,2,3:2:0:0:
442,156,16044,1,8,0:3:0:0:
256,0,16216,21,12,1:0:0:0:
256,224,16389,1,8,0:1:0:0:
69,161,16561,21,2,3:2:0:0:
69,161,16734,2,0,P|78:190|85:228,1,50,8|8,0:3|3:2,0:0:0:0:
157,192,17078,2,0,P|143:222|135:260,1,69.9999978637695,8|0,0:3|3:0,0:0:0:0:
43,256,17423,1,8,0:3:0:0:
256,0,17596,5,12,1:0:0:0:
443,161,17941,5,2,3:2:0:0:
443,161,18114,2,0,P|433:190|427:228,1,50,8|8,0:3|3:2,0:0:0:0:
355,192,18458,2,0,P|368:222|377:260,1,69.9999978637695,8|0,0:3|3:0,0:0:0:0:
469,256,18803,1,8,0:3:0:0:
256,0,18976,21,12,1:0:0:0:
96,199,19320,21,2,3:2:0:0:
96,199,19493,2,0,P|86:228|80:266,1,50,8|8,0:3|3:2,0:0:0:0:
6,233,19837,2,0,P|19:263|28:301,1,69.9999978637695,8|0,0:3|3:0,0:0:0:0:
86,325,20182,1,8,0:3:0:0:
256,0,20354,5,12,1:0:0:0:
416,199,20699,5,2,3:2:0:0:
416,199,20872,2,0,P|425:228|432:266,1,50,8|8,0:3|3:2,0:0:0:0:
485,299,21216,1,8,3:0:0:0:
485,299,21303,1,2,3:2:0:0:
485,299,21389,1,2,3:2:0:0:
418,338,21561,1,8,0:3:0:0:
256,0,21734,21,12,1:0:0:0:
27,299,22078,22,2,L|76:305,1,50,4|0,1:2|0:0,0:0:0:0:
131,282,22251,1,2,0:3:0:0:
14,302,22423,22,0,L|63:308,1,50,8|0,3:2|0:0,0:0:0:0:
178,318,22596,1,10,0:3:0:0:
8,286,22768,6,0,L|57:292,1,50,0|0,3:0|0:0,0:0:0:0:
125,339,22941,1,10,0:3:0:0:
256,192,23113,5,12,1:0:0:0:
256,248,23285,1,2,0:3:0:0:
485,299,23458,6,2,L|436:305,1,50,4|0,1:3|0:0,0:0:0:0:
381,282,23631,1,2,0:3:0:0:
498,302,23803,6,0,L|449:308,1,50,8|0,3:2|0:0,0:0:0:0:
334,318,23976,1,10,0:3:0:0:
504,286,24148,22,0,L|455:292,1,50,0|0,3:0|0:0,0:0:0:0:
387,339,24321,1,10,0:3:0:0:
256,192,24492,21,12,1:0:0:0:
512,227,24837,22,2,L|463:221,1,50,4|0,1:2|0:0,0:0:0:0:
403,212,25010,1,2,0:3:0:0:
506,219,25182,22,0,L|457:213,1,50,8|0,3:2|0:0,0:0:0:0:
380,160,25355,1,10,0:3:0:0:
502,236,25527,6,0,L|453:230,1,50,0|0,3:0|0:0,0:0:0:0:
357,108,25699,1,10,0:3:0:0:
256,192,25872,5,12,1:0:0:0:
256,136,26044,1,2,0:3:0:0:
0,227,26216,6,0,L|49:221,1,50,0|0,3:0|0:0,0:0:0:0:
109,212,26389,1,2,0:3:0:0:
6,219,26561,6,0,L|55:213,1,50,8|0,3:2|0:0,0:0:0:0:
132,160,26734,1,8,3:0:0:0:
132,160,26820,1,2,3:2:0:0:
132,160,26906,1,2,3:2:0:0:
155,108,27078,1,8,0:3:0:0:
256,192,27251,5,12,1:0:0:0:
256,0,27423,1,8,0:1:0:0:
380,160,27596,6,2,L|430:168,1,50,4|0,1:2|0:0,0:0:0:0:
357,108,27768,1,2,0:3:0:0:
323,18,27941,6,0,L|315:68,1,50,8|0,3:2|0:0,0:0:0:0:
352,111,28113,1,10,0:3:0:0:
447,74,28285,22,0,L|397:66,1,50,0|0,3:0|0:0,0:0:0:0:
357,114,28457,1,10,0:3:0:0:
256,192,28630,21,12,1:0:0:0:
256,136,28803,1,2,0:3:0:0:
132,160,28975,22,0,L|82:168,1,50,0|0,3:0|0:0,0:0:0:0:
155,108,29147,1,2,0:3:0:0:
65,74,29320,22,0,L|115:66,1,50,8|0,3:2|0:0,0:0:0:0:
158,113,29492,1,2,0:3:0:0:
189,18,29665,6,0,L|197:68,1,50,0|0,3:0|0:0,0:0:0:0:
152,112,29837,1,2,0:3:0:0:
256,192,30010,5,12,1:0:0:0:
256,136,30182,2,0,L|256:112,2,17.4999994659424,2|2|2,0:2|0:2|0:2,0:2:0:0:
100,267,30354,6,2,L|34:256,1,50,4|0,1:2|0:0,0:0:0:0:
130,323,30527,1,2,0:3:0:0:
179,294,30699,6,0,L|190:228,1,50,8|0,3:2|0:0,0:0:0:0:
126,320,30872,1,10,0:3:0:0:
152,373,31044,22,0,L|218:384,1,50,0|0,3:0|0:0,0:0:0:0:
123,324,31216,1,10,0:3:0:0:
256,192,31389,21,12,1:0:0:0:
256,248,31561,1,2,0:3:0:0:
408,267,31734,22,0,L|466:257,1,50,6|0,3:0|0:0,0:0:0:0:
356,373,32078,22,0,L|290:384,1,50,6|0,3:0|0:0,0:0:0:0:
389,325,32337,5,8,0:3:0:0:
389,325,32423,2,0,L|418:333,6,18.7500007152557,4|0|0|0|8|0|0,0:2|0:0|0:0|0:0|3:0|0:0|0:0,0:0:0:0:
256,344,32768,5,12,1:0:0:0:
512,300,32941,1,2,0:1:0:0:
330,211,33113,5,0,3:0:0:0:
356,373,33285,1,2,0:3:0:0:
407,268,33458,5,8,3:2:0:0:
185,306,33630,1,2,0:3:0:0:
296,287,33803,21,0,3:0:0:0:
278,171,33975,1,2,0:3:0:0:
87,149,34147,21,12,1:0:0:0:
121,362,34320,1,2,0:3:0:0:
330,211,34492,21,0,3:0:0:0:
312,95,34664,1,2,0:3:0:0:
186,229,34837,21,8,3:2:0:0:
403,201,35009,1,2,0:3:0:0:
278,171,35182,5,0,3:0:0:0:
305,351,35354,1,2,0:3:0:0:
512,192,35527,5,12,1:0:0:0:
0,192,35872,5,0,3:0:0:0:
186,155,36044,1,2,0:3:0:0:
79,175,36217,5,8,3:2:0:0:
54,47,36389,1,2,0:3:0:0:
237,109,36562,21,0,3:0:0:0:
127,128,36734,1,2,0:3:0:0:
310,24,36906,21,12,1:0:0:0:
341,206,37078,1,2,0:3:0:0:
205,265,37251,21,0,3:0:0:0:
186,155,37423,1,2,0:3:0:0:
296,136,37596,1,0,3:0:0:0:
256,192,37768,21,2,3:0:0:0:
256,192,37855,1,2,3:2:0:0:
256,192,37941,1,2,3:2:0:0:
87,160,38113,5,4,0:2:0:0:
425,224,38285,5,12,1:0:0:0:
305,145,38457,5,2,0:3:0:0:
221,251,38630,5,0,3:0:0:0:
299,231,38803,1,2,0:3:0:0:
186,194,38975,1,8,3:2:0:0:
228,262,39148,1,2,0:3:0:0:
228,143,39319,1,0,3:0:0:0:
176,205,39492,1,2,0:3:0:0:
311,154,39664,5,12,1:0:0:0:
190,90,39837,5,2,0:3:0:0:
293,274,40010,1,0,3:0:0:0:
314,140,40183,1,2,0:3:0:0:
173,294,40354,1,8,3:2:0:0:
307,272,40527,1,2,0:3:0:0:
115,184,40699,1,0,3:0:0:0:
178,306,40872,1,2,0:3:0:0:
194,77,41044,21,12,1:0:0:0:
194,77,41216,2,0,L|200:49,2,17.4999994659424,2|2|2,0:2|0:2|0:2,0:2:0:0:
114,100,41389,21,0,3:0:0:0:
319,32,41561,1,2,0:3:0:0:
107,308,41734,1,8,3:2:0:0:
105,91,41906,1,2,0:3:0:0:
302,378,42077,1,0,3:0:0:0:
95,314,42251,1,2,0:3:0:0:
421,159,42423,5,12,1:0:0:0:
0,384,42768,5,0,3:0:0:0:
256,192,42854,12,12,43803,1:0:0:0:
512,0,44147,5,4,0:2:0:0:
512,0,44320,1,2,0:3:0:0:
0,0,45354,21,2,0:3:0:0:
0,0,45699,1,2,0:3:0:0:
480,56,46734,5,2,0:3:0:0:
512,0,46906,21,2,0:3:0:0:
512,0,47079,1,2,0:3:0:0:
32,56,47941,5,2,0:3:0:0:
0,0,48113,21,2,0:3:0:0:
0,0,48458,5,2,0:3:0:0:
0,0,48630,1,2,0:3:0:0:
0,0,48803,1,2,0:3:0:0:
32,56,49147,21,2,0:3:0:0:
480,56,49492,5,2,0:3:0:0:
512,0,49665,21,2,0:3:0:0:
512,0,49838,1,2,0:3:0:0:
0,0,50872,5,2,0:3:0:0:
0,0,51217,1,2,0:3:0:0:
480,56,52251,21,2,0:3:0:0:
512,0,52423,5,2,0:3:0:0:
512,0,52596,1,2,0:3:0:0:
32,56,53458,21,2,0:3:0:0:
0,0,53630,5,2,0:3:0:0:
0,0,53975,21,2,0:3:0:0:
0,0,54320,5,2,0:3:0:0:
0,0,54665,21,2,0:3:0:0:
0,1,54837,6,0,P|26:52|2:0,1,179.999994506836,2|2,0:3|0:0,0:0:0:0:
256,32,55182,21,6,0:3:0:0:
256,32,55354,2,0,B|304:88|334:0|412:38|421:135|317:146|294:99|317:64,1,250,2|2,0:3|0:0,0:0:0:0:
315,66,56389,5,2,0:3:0:0:
315,66,56734,1,2,0:3:0:0:
315,66,57768,21,2,0:3:0:0:
177,15,57940,5,2,0:3:0:0:
177,15,58113,2,0,B|131:7|106:32|154:69|40:97|68:38|30:26|-1:53,1,200,2|2,0:3|0:0,0:0:0:0:
0,52,58975,21,2,0:3:0:0:
0,52,59147,5,2,0:3:0:0:
56,80,59492,21,2,0:3:0:0:
56,80,59665,1,2,0:3:0:0:
56,80,59837,1,2,0:3:0:0:
95,127,60182,5,2,0:3:0:0:
111,184,60527,21,2,0:3:0:0:
256,32,60699,5,2,0:3:0:0:
256,32,60872,2,0,B|208:88|178:0|100:38|91:135|195:146|218:99|195:64,1,250,2|2,0:3|0:0,0:0:0:0:
196,66,61906,21,2,0:3:0:0:
196,66,62251,1,2,0:3:0:0:
196,66,63285,5,2,0:3:0:0:
335,15,63458,21,2,0:3:0:0:
335,15,63631,2,0,B|381:7|406:32|358:69|472:97|444:38|482:26|513:53,1,200,2|2,0:3|0:0,0:0:0:0:
512,52,64493,5,2,0:3:0:0:
512,52,64665,21,2,0:3:0:0:
456,80,65010,5,2,0:3:0:0:
412,120,65354,21,2,0:3:0:0:
391,68,65699,5,2,0:3:0:0:
342,40,66044,21,2,0:3:0:0:
512,62,66216,6,0,P|460:77|384:93,2,99.9999999999999,4|0|2,3:2|0:0|3:0,0:0:0:0:
510,70,66906,2,2,P|456:64|346:33,1,150,0|2,3:0|0:3,0:2:0:0:
173,175,67596,22,0,P|206:138|245:105,2,99.9999999999999,0|0|2,3:0|0:0|3:0,0:0:0:0:
179,176,68285,2,2,P|208:114|226:23,1,150,0|2,3:0|0:3,0:2:0:0:
107,290,68975,6,0,B|90:330|33:328|-17:263|78:156|212:227|162:325,1,300,2|0,3:0|0:0,0:0:0:0:
122,365,69665,2,2,P|114:344|102:322,1,44.999998626709,0|2,3:0|0:3,0:2:0:0:
411,226,70354,22,0,B|428:266|485:264|535:199|440:92|306:163|356:261,1,300,2|0,3:0|0:0,0:0:0:0:
396,301,71044,2,2,P|404:280|416:258,1,44.999998626709,0|2,3:0|0:3,0:2:0:0:
209,328,71734,6,0,P|257:318|313:306,2,99.9999999999999,2|0|2,3:0|0:0|3:0,0:0:0:0:
203,341,72423,2,2,P|262:316|329:290,1,119.999996337891,0|2,3:0|0:3,0:2:0:0:
306,192,73113,22,0,P|242:178|167:162,2,119.999996337891,2|0|2,3:0|0:0|3:0,0:0:0:0:
315,205,73803,2,2,P|235:177|175:152,1,150,0|2,3:0|0:3,0:2:0:0:
70,149,74492,6,0,B|36:123|-19:151|-48:203|66:296|210:222|7:106|117:-31|221:28|194:157|269:144|332:91|322:47,1,472.500001802444,2|0,3:0|0:0,0:0:0:0:
415,0,75182,2,2,B|407:25|406:47,1,44.999998626709,0|2,3:0|0:3,0:2:0:0:
442,149,75872,22,0,B|476:123|531:151|560:203|446:296|302:222|505:106|394:-31|291:28|318:157|243:144|180:91|190:47,1,472.500001802444,2|0,3:0|0:0,0:0:0:0:
97,0,76561,2,2,B|105:25|106:47,1,44.999998626709,0|2,3:0|0:3,0:2:0:0:
256,0,77251,5,4,3:2:0:0:
326,77,77596,1,0,3:0:0:0:
414,91,77941,1,0,3:0:0:0:
484,66,78285,1,0,3:0:0:0:
256,384,78630,21,0,3:0:0:0:
186,307,78975,1,0,3:0:0:0:
98,293,79320,1,0,3:0:0:0:
28,318,79664,1,0,3:0:0:0:
0,192,80010,5,0,3:0:0:0:
100,162,80354,1,0,3:0:0:0:
173,110,80699,1,0,3:0:0:0:
216,48,81044,1,0,3:0:0:0:
512,192,81389,21,0,3:0:0:0:
412,222,81733,1,0,3:0:0:0:
339,274,82078,1,0,3:0:0:0:
296,336,82423,1,0,3:0:0:0:
132,106,82768,6,0,P|97:191|68:104,1,240,2|0,3:0|0:0,0:0:0:0:
101,177,83458,2,2,P|127:121|66:127,1,150,0|2,3:0|0:3,0:2:0:0:
380,106,84147,22,0,P|415:191|444:104,1,240,0|0,3:0|0:0,0:0:0:0:
411,177,84837,2,2,P|385:121|446:127,1,150,0|2,3:0|0:3,0:2:0:0:
287,153,85527,6,0,P|255:241|223:155,1,240,2|0,3:0|0:0,0:0:0:0:
287,173,86216,2,2,P|234:162|256:228,1,150.000005722046,0|2,3:0|1:2,0:2:0:0:
256,384,87078,21,2,0:1:0:0:
215,317,87250,5,2,0:1:0:0:
304,265,87422,21,2,0:1:0:0:
165,223,87596,5,10,1:0:0:0:
347,161,87768,21,10,1:0:0:0:
216,97,87940,5,10,1:0:0:0:
292,57,88112,21,10,1:0:0:0:
256,0,88285,5,4,1:2:0:0:
292,57,88458,2,0,P|314:66|339:65,1,50,2|0,0:1|0:0,0:0:0:0:
256,0,88630,1,8,1:0:0:0:
220,56,88803,2,0,P|196:66|172:64,1,50,2|0,0:1|0:0,0:0:0:0:
256,0,88975,1,8,1:0:0:0:
339,64,89147,2,0,P|357:49|369:27,1,50,2|0,0:1|0:0,0:0:0:0:
256,0,89319,1,8,1:0:0:0:
173,64,89492,2,0,P|154:49|142:27,1,50,2|0,0:1|0:0,0:0:0:0:
278,171,89665,21,8,1:0:0:0:
256,103,89837,2,0,P|237:118|227:141,1,50,2|0,0:1|0:0,0:0:0:0:
278,171,90010,1,8,1:0:0:0:
171,126,90182,2,0,P|169:150|177:174,1,50,2|0,0:1|0:0,0:0:0:0:
278,171,90354,1,8,1:0:0:0:
126,201,90527,2,0,P|142:220|165:230,1,50,2|0,0:1|0:0,0:0:0:0:
278,171,90699,1,8,1:0:0:0:
147,286,90872,2,0,P|172:288|196:280,1,50,2|0,0:1|0:0,0:0:0:0:
243,235,91044,5,8,1:0:0:0:
243,235,91216,2,0,P|250:261|254:287,1,50,2|0,0:1|0:0,0:0:0:0:
440,296,91389,1,8,1:0:0:0:
440,296,91561,2,0,P|433:322|429:348,1,50,2|0,0:1|0:0,0:0:0:0:
208,384,91734,1,8,1:0:0:0:
208,384,91906,2,0,P|215:358|219:332,1,50,2|0,0:1|0:0,0:0:0:0:
340,208,92078,1,8,1:0:0:0:
340,208,92250,2,0,P|333:182|329:156,1,50,2|0,0:1|0:0,0:0:0:0:
147,286,92423,21,8,1:0:0:0:
147,286,92595,2,0,P|154:260|158:234,1,50,2|0,0:1|0:0,0:0:0:0:
398,165,92768,1,8,1:0:0:0:
398,165,92940,2,0,P|391:139|387:113,1,50,2|0,0:1|0:0,0:0:0:0:
52,42,93113,1,8,1:0:0:0:
52,42,93285,2,0,P|59:68|63:94,1,50,2|0,0:1|0:0,0:0:0:0:
268,150,93458,1,8,1:0:0:0:
268,150,93630,2,0,P|261:176|257:202,1,50,2|0,0:1|0:0,0:0:0:0:
104,133,93803,5,8,1:0:0:0:
195,165,93975,2,0,L|135:174,1,50,2|0,0:1|0:0,0:0:0:0:
104,133,94147,1,8,1:0:0:0:
66,219,94320,2,0,L|56:159,1,50,2|0,0:1|0:0,0:0:0:0:
104,133,94492,1,8,1:0:0:0:
13,98,94665,2,0,L|73:88,1,50,2|0,0:1|0:0,0:0:0:0:
104,133,94836,1,8,1:0:0:0:
138,43,95010,2,0,L|147:103,1,50,2|0,0:1|0:0,0:0:0:0:
408,133,95182,21,8,1:0:0:0:
317,165,95354,2,0,L|377:174,1,50,2|0,0:1|0:0,0:0:0:0:
408,133,95526,1,8,1:0:0:0:
446,219,95699,2,0,L|455:159,1,50,2|0,0:1|0:0,0:0:0:0:
408,133,95871,1,8,1:0:0:0:
499,98,96044,2,0,L|439:88,1,50,2|0,0:1|0:0,0:0:0:0:
408,133,96215,1,8,1:0:0:0:
374,43,96389,2,0,L|364:103,1,50,2|0,0:1|0:0,0:0:0:0:
317,165,96561,5,8,1:0:0:0:
443,314,96734,2,0,L|392:306,1,50,2|0,0:1|0:0,0:0:0:0:
317,165,96906,1,8,1:0:0:0:
344,339,97078,2,0,L|280:329,1,57.5000010967254,2|0,0:1|0:0,0:0:0:0:
317,165,97251,1,8,1:0:0:0:
269,271,97423,2,0,L|204:261,1,64.9999970245362,2|0,0:1|0:0,0:0:0:0:
317,165,97596,1,8,1:0:0:0:
164,339,97768,2,0,L|93:329,1,72.5000022125244,2|0,0:1|0:0,0:0:0:0:
0,269,97941,21,8,1:0:0:0:
137,214,98113,2,0,L|149:151,1,64.9999970245362,2|0,0:1|0:0,0:0:0:0:
0,269,98285,1,8,1:0:0:0:
218,142,98458,2,0,L|176:86,1,69.9999978637695,2|0,0:1|0:0,0:0:0:0:
0,269,98630,1,8,1:0:0:0:
220,35,98803,2,0,L|143:23,1,75.000002861023,2|0,0:1|0:0,0:0:0:0:
0,0,98975,5,8,1:0:0:0:
409,95,99320,21,8,1:0:0:0:
393,22,99492,1,2,0:1:0:0:
409,95,99665,1,8,1:0:0:0:
353,144,99837,1,2,0:1:0:0:
409,95,100010,1,8,1:0:0:0:
479,118,100182,1,2,0:1:0:0:
512,0,100354,21,12,1:0:0:0:
118,23,100699,21,12,1:0:0:0:
102,95,100871,1,2,0:1:0:0:
158,145,101044,1,8,1:0:0:0:
102,95,101216,1,2,0:1:0:0:
32,119,101389,1,8,1:0:0:0:
118,23,101561,1,2,0:2:0:0:
0,0,101734,5,12,1:0:0:0:
256,192,101906,5,2,0:1:0:0:
256,192,102078,1,12,1:0:0:0:
254,104,102251,1,2,0:1:0:0:
256,192,102424,1,8,1:0:0:0:
181,234,102596,1,2,0:1:0:0:
256,192,102769,1,8,1:0:0:0:
329,234,102941,1,2,0:1:0:0:
256,384,103113,21,12,1:0:0:0:
254,88,103458,21,12,1:0:0:0:
167,243,103631,1,2,0:1:0:0:
344,241,103803,1,2,0:2:0:0:
114,192,104147,21,8,1:0:0:0:
397,192,104319,1,2,0:3:0:0:
256,0,104492,21,12,1:0:0:0:
96,326,104665,21,2,0:1:0:0:
96,326,104837,1,8,1:0:0:0:
152,305,105010,1,2,0:1:0:0:
122,32,105182,21,8,1:0:0:0:
143,88,105355,1,2,0:1:0:0:
416,58,105527,5,8,1:0:0:0:
360,79,105700,1,2,0:1:0:0:
390,352,105872,21,8,1:0:0:0:
369,296,106045,1,2,0:1:0:0:
101,231,106216,5,8,1:0:0:0:
159,220,106389,1,2,0:1:0:0:
217,37,106561,21,8,1:0:0:0:
228,95,106734,1,2,0:1:0:0:
411,153,106906,5,8,1:0:0:0:
353,164,107079,1,2,0:1:0:0:
295,347,107251,21,8,1:0:0:0:
284,289,107424,1,2,0:1:0:0:
132,160,107596,5,8,1:0:0:0:
190,171,107769,1,2,0:1:0:0:
288,68,107941,21,8,1:0:0:0:
277,126,108114,1,2,0:1:0:0:
380,224,108285,5,8,1:0:0:0:
322,213,108458,1,2,0:1:0:0:
224,316,108630,21,8,1:0:0:0:
235,258,108803,1,2,0:1:0:0:
256,0,109665,5,8,0:1:0:0:
256,192,109837,1,0,3:0:0:0:
256,384,110010,5,12,1:0:0:0:
70,305,110354,5,4,3:2:0:0:
14,323,110527,2,0,B|26:353|26:353|91:372,1,99.9999999999999,2|0,0:1|3:0,0:0:0:0:
70,305,110872,2,2,L|288:249,1,225.000008583069,2|0,0:1|0:0,0:1:0:0:
327,161,111216,2,0,B|315:198,1,37.5000014305115,2|0,0:0|0:0,0:0:0:0:
256,384,111389,21,12,1:0:0:0:
442,157,111734,21,0,3:0:0:0:
497,176,111907,2,0,B|485:206|485:206|419:225,1,99.9999999999999,2|0,0:1|3:0,0:0:0:0:
442,157,112252,2,2,L|223:99,1,225.000008583069,2|0,0:1|0:0,0:1:0:0:
168,20,112596,2,0,B|182:65,1,37.5000014305115,2|0,0:0|0:0,0:0:0:0:
256,384,112768,5,12,1:0:0:0:
76,272,113113,5,0,3:0:0:0:
118,226,113285,2,0,B|97:255|97:255|119:321,1,99.9999999999999,2|0,0:1|3:0,0:0:0:0:
71,367,113630,2,2,L|-1:153,1,225.000008583069,2|0,0:1|0:0,0:1:0:0:
47,105,113975,2,0,L|61:145,1,37.5000014305115,2|0,0:0|0:0,0:0:0:0:
256,384,114147,21,12,1:0:0:0:
393,207,114492,21,0,3:0:0:0:
351,161,114664,2,0,B|372:190|372:190|350:256,1,99.9999999999999,2|0,0:1|3:0,0:0:0:0:
398,302,115010,2,2,L|420:225,1,75.000002861023,2|0,0:1|0:0,0:1:0:0:
451,153,115182,1,0,3:0:0:0:
455,149,115268,1,2,0:1:0:0:
460,145,115354,2,0,L|447:186,1,37.5000014305115,2|0,0:0|0:0,0:0:0:0:
256,384,115527,5,12,1:0:0:0:
122,175,115872,5,4,3:2:0:0:
183,195,116044,2,0,B|217:206|217:206|176:154,1,99.9999999999999,2|0,0:1|3:0,0:0:0:0:
65,208,116389,1,2,0:1:0:0:
47,150,116561,2,0,B|165:92|165:92|118:178,1,225.000008583069,0|0,3:0|0:0,0:0:0:0:
256,384,116906,21,12,1:0:0:0:
403,218,117251,21,0,3:0:0:0:
342,238,117423,2,0,B|308:249|308:249|349:197,1,99.9999999999999,2|0,0:1|3:0,0:0:0:0:
460,251,117768,1,2,0:1:0:0:
478,193,117940,2,0,B|359:135|359:135|406:221,1,225.000008583069,0|0,3:0|0:0,0:0:0:0:
256,384,118285,5,12,1:0:0:0:
89,263,118630,5,0,3:0:0:0:
34,237,118803,2,0,B|-11:255|-11:255|35:284,1,99.9999999999999,2|0,0:1|3:0,0:0:0:0:
119,343,119147,1,2,0:1:0:0:
145,288,119320,2,0,B|209:169|209:169|116:208,1,225.000008583069,0|0,3:0|0:0,0:0:0:0:
256,384,119665,21,12,1:0:0:0:
386,242,120010,21,0,3:0:0:0:
418,287,120183,2,0,B|477:271|477:271|437:255,1,99.9999999999999,2|0,0:1|3:0,0:0:0:0:
337,272,120527,2,2,B|274:288|274:288|327:205,1,150.000005722046,2|0,0:1|3:0,0:1:0:0:
330,216,120785,1,2,0:1:0:0:
340,214,120872,1,2,0:1:0:0:
256,384,121044,5,12,1:0:0:0:
256,192,121389,6,0,B|172:225|172:225|160:221,1,99.9999999999999,4|2,3:2|0:3,0:0:0:0:
232,265,121734,2,0,B|107:318|107:318|102:331,1,150.000005722046,0|2,3:0|0:1,0:0:0:0:
42,324,122078,1,0,3:0:0:0:
352,192,122251,1,2,0:3:0:0:
256,0,122423,21,12,1:0:0:0:
256,192,122768,22,0,B|339:225|339:225|351:221,1,99.9999999999999,4|2,3:2|0:3,0:0:0:0:
280,265,123113,2,0,B|404:318|404:318|409:331,1,150.000005722046,0|2,3:0|0:1,0:0:0:0:
470,324,123457,1,0,3:0:0:0:
160,192,123630,1,2,0:3:0:0:
256,0,123802,5,12,1:0:0:0:
107,162,124147,6,0,B|22:135|22:135|12:141,1,99.9999999999999,4|2,3:2|0:3,0:0:0:0:
220,217,124492,2,0,B|91:259|91:259|85:271,1,150.000005722046,0|2,3:0|0:1,0:0:0:0:
42,324,124837,1,0,3:0:0:0:
352,192,125010,1,2,0:3:0:0:
256,0,125182,21,12,1:0:0:0:
405,162,125527,22,0,B|489:135|489:135|499:141,1,99.9999999999999,4|2,3:2|0:3,0:0:0:0:
292,217,125872,2,0,B|342:234|342:234|345:243,1,62.4999999999999,0|0,3:0|0:0,0:0:0:0:
403,282,126044,2,2,B|398:291|398:291|254:332,1,150.000005722046,2|0,0:3|3:0,0:1:0:0:
259,338,126303,1,2,0:1:0:0:
255,346,126390,1,2,0:1:0:0:
256,0,126562,5,12,1:0:0:0:
69,238,126906,5,0,3:0:0:0:
190,213,127078,1,2,0:3:0:0:
101,141,127251,1,0,3:0:0:0:
248,165,127423,1,2,0:1:0:0:
152,99,127596,1,0,3:0:0:0:
301,56,127768,1,2,0:3:0:0:
0,0,127941,21,12,1:0:0:0:
461,94,128285,21,0,3:0:0:0:
319,127,128458,1,2,0:3:0:0:
426,155,128630,1,0,3:0:0:0:
335,201,128803,1,2,0:1:0:0:
461,261,128975,1,0,3:0:0:0:
297,295,129147,1,2,0:3:0:0:
512,384,129320,5,12,1:0:0:0:
0,192,129665,5,0,3:0:0:0:
221,241,129837,1,2,0:3:0:0:
60,163,130010,1,0,3:0:0:0:
290,142,130182,1,2,0:1:0:0:
92,221,130354,1,0,3:0:0:0:
222,113,130527,1,2,0:3:0:0:
512,192,130699,21,12,1:0:0:0:
446,212,130872,1,2,0:3:0:0:
512,192,131044,21,0,3:0:0:0:
353,171,131216,1,2,0:3:0:0:
446,212,131389,1,0,3:0:0:0:
221,241,131561,1,2,0:1:0:0:
422,147,131734,1,0,3:0:0:0:
424,141,131820,1,2,0:1:0:0:
426,135,131906,1,2,0:1:0:0:
0,192,132078,5,12,1:0:0:0:
66,172,132251,1,2,0:3:0:0:
0,192,132423,6,0,L|149:219,1,125,4|10,1:0|0:3,0:0:0:0:
512,287,132768,2,0,L|341:254,1,175.00000166893,8|2,3:1|0:1,0:0:0:0:
212,292,133113,1,0,3:0:0:0:
232,183,133285,1,10,0:3:0:0:
267,0,133458,21,12,1:0:0:0:
218,34,133630,1,10,0:3:0:0:
0,192,133803,22,0,L|149:165,1,125,0|10,3:0|0:3,0:0:0:0:
512,97,134148,2,0,L|341:129,1,175.00000166893,8|2,3:1|0:1,0:0:0:0:
212,92,134492,1,0,3:0:0:0:
232,201,134664,1,10,0:3:0:0:
267,384,134837,5,12,1:0:0:0:
321,358,135010,1,10,0:3:0:0:
512,258,135182,6,0,L|392:213,1,125,0|10,3:0|0:3,0:0:0:0:
0,57,135527,2,0,L|166:122,1,175.00000166893,8|2,3:1|0:1,0:0:0:0:
352,40,135872,1,0,3:0:0:0:
256,84,136045,1,10,0:3:0:0:
0,193,136217,21,12,1:0:0:0:
53,229,136389,1,10,0:3:0:0:
323,384,136561,22,0,L|295:260,1,125,0|10,3:0|0:3,0:0:0:0:
236,0,136906,2,0,L|260:98,1,87.5000008344649,8|0,3:1|0:0,0:0:0:0:
339,124,137078,2,2,L|206:240,1,175.00000166893,2|0,0:3|3:0,0:1:0:0:
206,248,137337,1,2,0:1:0:0:
204,256,137423,1,2,0:1:0:0:
512,192,137596,5,12,1:0:0:0:
459,155,137768,1,10,0:3:0:0:
0,193,137941,6,0,L|132:226,1,125,4|10,3:1|0:3,0:0:0:0:
512,318,138285,2,0,L|313:267,1,175.00000166893,8|2,3:1|0:1,0:0:0:0:
104,348,138630,1,0,3:0:0:0:
367,212,138803,1,10,0:3:0:0:
256,0,138975,21,12,1:0:0:0:
226,56,139147,1,10,0:3:0:0:
512,98,139320,22,0,L|389:128,1,125,0|10,3:0|0:3,0:0:0:0:
0,223,139665,2,0,L|171:179,1,175.00000166893,8|2,3:1|0:1,0:0:0:0:
433,187,140010,1,0,3:0:0:0:
147,66,140182,1,10,0:3:0:0:
256,384,140354,5,12,1:0:0:0:
286,328,140527,1,10,0:3:0:0:
0,99,140699,6,0,L|123:129,1,125,0|10,3:0|0:3,0:0:0:0:
512,224,141044,2,0,L|341:180,1,175.00000166893,8|2,3:1|0:1,0:0:0:0:
82,44,141389,1,0,3:0:0:0:
365,276,141561,1,10,0:3:0:0:
255,0,141734,21,12,1:0:0:0:
226,56,141906,1,10,0:3:0:0:
512,98,142078,22,0,L|382:130,1,125,0|10,3:0|0:3,0:0:0:0:
0,223,142423,2,0,L|91:199,1,87.5000008344649,8|0,3:1|0:0,0:0:0:0:
301,99,142596,2,2,L|186:243,1,175.00000166893,2|0,0:3|3:0,0:1:0:0:
188,227,142854,1,2,0:1:0:0:
184,217,142941,1,2,0:1:0:0:
256,384,143113,5,12,1:0:0:0:
273,328,143285,1,10,0:3:0:0:
256,384,143458,6,0,P|206:372|183:326,1,99.9999999999999,4|10,3:1|0:3,0:0:0:0:
376,253,143803,2,0,P|343:318|260:322,1,150.000005722046,8|2,3:1|0:1,0:0:0:0:
162,165,144147,2,0,P|192:257|287:237,1,200,0|10,3:0|0:3,0:0:0:0:
256,0,144492,21,12,1:0:0:0:
256,0,144665,1,10,0:3:0:0:
413,72,144837,22,0,P|359:69|326:110,1,99.9999999999999,0|10,3:0|0:3,0:0:0:0:
95,97,145182,2,0,P|162:108|211:45,1,150.000005722046,8|2,3:1|0:1,0:0:0:0:
348,214,145527,2,0,P|322:115|234:137,1,200,0|10,3:0|0:3,0:0:0:0:
256,384,145872,5,12,1:0:0:0:
256,384,146044,1,10,0:3:0:0:
337,285,146216,6,0,P|394:283|427:322,1,99.9999999999999,0|10,3:0|0:3,0:0:0:0:
256,384,146561,2,0,P|196:333|214:270,1,150.000005722046,8|2,3:1|0:1,0:0:0:0:
282,231,146906,2,0,P|241:323|151:305,1,200,0|10,3:0|0:3,0:0:0:0:
0,192,147251,21,12,1:0:0:0:
0,192,147423,1,10,0:3:0:0:
52,76,147596,22,0,P|76:116|128:124,1,99.9999999999999,0|10,3:0|0:3,0:0:0:0:
311,117,147941,2,0,P|280:93|244:97,1,75.000002861023,8|0,3:1|0:0,0:0:0:0:
202,177,148113,2,2,L|164:31,1,150.000005722046,2|0,0:3|3:0,0:1:0:0:
157,29,148372,1,2,0:1:0:0:
149,25,148458,1,10,0:1:0:0:
512,192,148630,5,12,1:0:0:0:
512,192,148803,1,10,0:3:0:0:
472,144,148975,5,4,3:1:0:0:
452,212,149147,1,10,0:3:0:0:
512,192,149320,1,8,3:1:0:0:
416,164,149492,1,2,0:1:0:0:
404,253,149665,1,0,3:0:0:0:
452,212,149837,1,10,0:3:0:0:
0,192,150010,21,12,1:0:0:0:
0,192,150182,1,10,0:3:0:0:
51,132,150354,21,0,3:0:0:0:
76,217,150526,1,10,0:3:0:0:
0,192,150699,1,8,3:1:0:0:
121,157,150871,1,2,0:1:0:0:
136,269,151044,1,0,3:0:0:0:
76,217,151216,1,10,0:3:0:0:
256,192,151389,5,12,1:0:0:0:
256,192,151561,1,10,0:3:0:0:
181,176,151734,5,0,3:0:0:0:
330,207,151906,1,10,0:3:0:0:
271,117,152078,1,8,3:1:0:0:
240,266,152250,1,2,0:1:0:0:
183,80,152423,5,0,3:0:0:0:
325,301,152595,1,10,0:3:0:0:
365,119,152767,5,12,1:0:0:0:
144,261,152941,1,10,0:3:0:0:
256,192,153113,5,0,3:0:0:0:
256,192,153285,1,10,0:3:0:0:
256,192,153631,1,2,0:1:0:0:
256,200,153717,1,0,0:0:0:0:
256,208,153803,1,0,3:0:0:0:
256,288,153975,5,10,0:3:0:0:
0,192,154147,5,12,1:0:0:0:
512,192,154320,5,10,0:3:0:0:
256,192,154492,5,4,1:2:0:0:
457,48,154837,1,0,0:0:0:0:
55,336,155182,1,0,0:0:0:0:
422,100,155527,1,0,0:0:0:0:
90,284,155872,1,0,0:0:0:0:
361,120,156216,1,0,0:0:0:0:
151,264,156561,1,0,0:0:0:0:
340,174,156906,1,0,0:0:0:0:
172,210,157251,1,0,0:0:0:0:
328,237,157596,1,0,0:0:0:0:
183,146,157941,1,0,0:0:0:0:
330,295,158286,1,0,0:0:0:0:
181,88,158631,1,0,0:0:0:0:
380,335,158975,1,0,0:0:0:0:
131,48,159147,21,0,0:0:0:0:
131,48,159234,1,8,0:0:0:0:
131,48,159320,1,0,0:0:0:0:
330,295,159492,1,8,0:0:0:0:
181,88,159665,1,0,0:0:0:0:
328,237,159837,1,0,0:0:0:0:
183,146,160010,5,0,0:0:0:0:
390,219,160355,1,0,0:0:0:0:
122,165,160699,1,0,0:0:0:0:
450,195,161044,1,0,0:0:0:0:
62,189,161389,1,0,0:0:0:0:
390,165,161734,1,0,0:0:0:0:
122,219,162078,1,0,0:0:0:0:
381,107,162423,1,0,0:0:0:0:
131,277,162768,1,0,0:0:0:0:
443,102,163113,1,0,0:0:0:0:
69,282,163458,1,0,0:0:0:0:
424,34,163803,1,0,0:0:0:0:
88,350,164147,1,0,0:0:0:0:
512,192,164320,21,2,0:2:0:0:
384,160,164493,5,2,0:2:0:0:
320,256,164665,21,2,0:2:0:0:
320,256,164751,1,8,0:0:0:0:
320,256,164837,1,2,0:2:0:0:
192,128,165010,5,8,0:0:0:0:
128,224,165182,21,2,0:2:0:0:
0,192,165354,5,2,0:2:0:0:
288,56,165527,22,0,P|256:144|224:58,1,240,4|8,0:2|0:0,0:0:0:0:
290,79,166217,2,2,P|238:64|255:130,1,150,0|0,0:0|2:0,0:2:0:0:
478,228,166906,6,0,P|446:140|414:226,1,240,0|10,0:0|0:0,0:0:0:0:
480,205,167596,2,2,P|428:220|445:154,1,150,0|2,0:0|2:3,0:2:0:0:
34,228,168285,22,0,P|66:140|98:226,1,240,0|10,0:0|0:0,0:0:0:0:
32,205,168975,2,2,P|84:220|67:154,1,150,0|2,0:0|2:3,0:2:0:0:
223,325,169665,6,0,P|258:240|288:327,1,240,0|10,0:0|0:0,0:0:0:0:
254,254,170268,21,8,0:3:0:0:
254,254,170354,1,0,0:0:0:0:
258,130,170527,1,2,2:3:0:0:
318,194,170699,1,0,0:0:0:0:
194,190,170872,1,2,2:3:0:0:
263,156,171044,5,0,0:0:0:0:
249,228,171216,1,2,2:3:0:0:
211,185,171389,1,0,0:0:0:0:
301,199,171561,1,10,0:0:0:0:
178,89,171734,6,2,P|76:117|62:240,1,240,8|2,0:1|2:3,0:2:0:0:
262,234,172423,5,0,0:0:0:0:
249,149,172595,1,2,2:3:0:0:
306,182,172768,1,0,0:0:0:0:
205,201,172940,1,10,0:0:0:0:
334,89,173113,22,2,P|436:117|450:240,1,240,8|2,0:1|2:3,0:2:0:0:
247,234,173803,21,0,0:0:0:0:
264,149,173975,1,2,2:3:0:0:
309,200,174148,1,0,0:0:0:0:
202,183,174320,1,10,0:0:0:0:
148,352,174492,6,2,P|252:317|373:352,1,240,8|2,0:1|2:3,0:2:0:0:
413,300,175182,5,8,0:1:0:0:
469,318,175354,1,2,2:1:0:0:
512,279,175527,1,8,0:1:0:0:
256,384,175785,5,8,0:1:0:0:
256,384,175872,1,8,0:1:0:0:
99,212,176044,21,10,0:1:0:0:
43,230,176130,5,2,0:2:0:0:
0,192,176216,5,4,1:0:0:0:
512,192,176561,6,2,P|408:209|338:139,1,194.999991073609,4|0,1:0|2:0,0:1:0:0:
375,89,176906,2,2,P|455:100|512:201,1,194.999991073609,0|0,0:0|2:0,0:1:0:0:
427,185,177251,6,2,P|429:154|450:128,1,64.9999970245362,0|0,0:0|2:0,0:1:0:0:
427,185,177423,2,2,P|447:160|449:128,1,64.9999970245362,10|0,2:3|2:0,0:1:0:0:
512,0,177596,5,12,1:0:0:0:
0,102,177941,6,2,P|56:169|99:272,1,194.999991073609,8|0,3:0|2:0,0:1:0:0:
99,75,178285,2,2,P|84:161|98:271,1,194.999991073609,0|0,0:0|2:0,0:1:0:0:
35,50,178630,6,2,P|11:70|18:99,1,64.9999970245362,0|0,0:0|2:0,0:1:0:0:
35,50,178803,2,2,P|65:55|74:83,1,64.9999970245362,10|0,2:3|2:0,0:1:0:0:
114,323,178975,5,12,1:0:0:0:
512,192,179320,6,2,P|414:202|348:125,1,194.999991073609,8|0,3:0|0:0,0:1:0:0:
351,137,179665,2,2,P|430:188|438:282,1,194.999991073609,0|0,0:0|0:0,0:1:0:0:
355,311,180010,6,2,P|351:279|368:252,1,64.9999970245362,0|0,0:0|0:0,0:1:0:0:
355,311,180182,2,2,P|372:284|368:252,1,64.9999970245362,10|0,2:3|2:0,0:1:0:0:
402,83,180354,5,12,1:0:0:0:
185,71,180699,6,2,P|188:182|123:223,1,194.999991073609,8|0,0:0|0:0,0:1:0:0:
22,94,181044,2,2,P|38:186|125:222,1,194.999991073609,0|0,0:0|0:0,0:1:0:0:
119,164,181389,6,2,P|142:138|133:101,1,64.9999970245362,2|0,0:3|0:0,0:1:0:0:
119,164,181561,2,2,P|88:147|84:109,1,64.9999970245362,10|0,2:3|2:0,0:1:0:0:
91,6,181734,5,12,1:0:0:0:
90,0,181906,1,2,2:3:0:0:
288,245,182078,6,2,P|389:195|469:211,1,194.999991073609,4|0,1:0|0:0,0:1:0:0:
310,149,182423,2,2,P|373:243|450:269,1,194.999991073609,0|0,0:0|0:0,0:1:0:0:
323,203,182769,6,2,P|357:200|381:219,1,64.9999970245362,2|0,0:3|0:0,0:1:0:0:
323,203,182941,2,2,P|348:222|380:218,1,64.9999970245362,10|0,2:3|2:0,0:1:0:0:
506,251,183113,5,12,1:0:0:0:
119,55,183458,6,2,P|153:132|258:192,1,194.999991073609,8|0,3:0|0:0,0:1:0:0:
119,55,183803,2,2,P|119:139|51:238,1,194.999991073609,0|0,0:0|0:0,0:1:0:0:
188,183,184147,6,2,P|184:214|160:235,1,64.9999970245362,0|0,0:0|0:0,0:1:0:0:
116,196,184320,2,2,P|130:224|159:236,1,64.9999970245362,10|0,2:3|2:0,0:1:0:0:
180,341,184492,5,12,1:0:0:0:
362,230,184837,6,2,P|403:145|495:122,1,194.999991073609,8|0,3:0|0:0,0:1:0:0:
423,243,185182,2,2,P|423:147|351:88,1,194.999991073609,0|0,0:0|0:0,0:1:0:0:
477,27,185527,6,2,P|457:58|431:64,1,64.9999970245362,0|0,0:0|0:0,0:1:0:0:
408,11,185699,2,2,P|412:48|432:65,1,64.9999970245362,10|0,2:3|2:0,0:1:0:0:
382,284,185872,5,12,1:0:0:0:
282,184,186216,6,2,B|248:170|160:210|240:239|155:273|116:258,1,194.999991073609,8|0,0:0|0:0,0:1:0:0:
298,242,186561,2,2,B|275:269|179:278|234:214|143:227|116:260,1,194.999991073609,0|0,0:0|0:0,0:1:0:0:
278,217,186906,6,2,P|244:214|220:233,1,64.9999970245362,2|0,0:3|0:0,0:1:0:0:
278,217,187078,2,2,P|253:236|221:232,1,64.9999970245362,10|0,2:3|2:0,0:1:0:0:
48,274,187251,5,12,1:0:0:0:
55,273,187423,1,2,2:3:0:0:
512,96,187596,6,2,P|448:82|384:68,1,129.999994049072,4|2,1:0|2:3,0:1:0:0:
0,96,187941,2,2,P|61:82|126:68,1,129.999994049072,0|2,0:0|2:3,0:1:0:0:
432,144,188285,5,0,0:0:0:0:
80,144,188458,1,10,2:3:0:0:
256,0,188630,5,12,1:0:0:0:
0,192,188975,6,2,P|64:206|128:220,1,129.999994049072,8|2,3:0|2:3,0:1:0:0:
512,192,189320,2,2,P|448:206|384:220,1,129.999994049072,0|2,0:0|2:3,0:1:0:0:
80,280,189665,5,0,0:0:0:0:
432,280,189837,1,10,2:3:0:0:
256,0,190010,5,12,1:0:0:0:
0,96,190354,6,2,P|64:110|128:124,1,129.999994049072,8|2,3:0|2:3,0:1:0:0:
512,96,190699,2,2,P|448:110|384:124,1,129.999994049072,0|2,0:0|2:3,0:1:0:0:
56,192,191044,5,0,0:0:0:0:
456,192,191216,1,10,2:3:0:0:
256,384,191389,5,12,1:0:0:0:
512,288,191734,6,2,P|448:274|384:260,1,129.999994049072,8|2,0:0|2:3,0:1:0:0:
0,288,192078,2,2,P|64:274|128:260,1,129.999994049072,0|2,0:0|2:3,0:1:0:0:
432,96,192423,5,2,0:1:0:0:
80,96,192596,1,8,2:3:0:0:
256,384,192768,5,12,1:0:0:0:
256,320,192941,1,2,2:3:0:0:
144,32,193113,5,4,1:0:0:0:
144,192,193285,1,2,2:3:0:0:
368,192,193458,1,0,0:0:0:0:
368,32,193630,1,2,2:3:0:0:
80,96,193803,1,0,0:0:0:0:
80,288,193975,1,10,2:3:0:0:
512,192,194147,21,12,1:0:0:0:
512,192,194492,21,8,3:0:0:0:
512,352,194665,1,2,2:3:0:0:
256,360,194837,1,0,0:0:0:0:
256,192,195010,1,2,2:3:0:0:
432,96,195182,1,0,0:0:0:0:
432,288,195354,1,10,2:3:0:0:
0,192,195527,5,12,1:0:0:0:
0,192,195872,5,4,3:0:0:0:
0,32,196045,1,2,2:3:0:0:
256,24,196217,1,0,0:0:0:0:
256,192,196390,1,2,2:3:0:0:
80,288,196562,1,0,0:0:0:0:
80,96,196734,1,10,2:3:0:0:
512,192,196907,21,12,1:0:0:0:
512,192,197251,5,4,0:2:0:0:
512,0,197423,5,2,2:1:0:0:
384,0,197596,21,4,0:2:0:0:
256,0,197768,5,2,2:1:0:0:
128,0,197941,21,6,0:2:0:0:
0,0,198113,5,2,2:1:0:0:
0,192,198285,5,2,0:0:0:0:
0,384,198458,5,2,0:1:0:0:
512,384,198630,5,12,1:0:0:0:
256,192,198716,12,12,203803,1:0:0:0:
204,148,204147,22,0,B|200:158|200:158|114:184,1,99.9999999999999,0|2,3:3|2:3,0:0:0:0:
178,233,204492,2,0,B|169:228|169:228|26:272,1,150.000005722046,0|2,3:3|2:3,0:0:0:0:
0,324,204837,1,0,3:3:0:0:
256,192,205010,1,2,2:3:0:0:
0,384,205182,21,12,1:0:0:0:
308,236,205527,22,0,B|312:226|312:226|398:200,1,99.9999999999999,0|2,3:3|2:3,0:0:0:0:
334,151,205872,2,0,B|343:156|343:156|487:110,1,150.000005722046,0|2,3:3|2:3,0:0:0:0:
512,60,206217,1,0,3:3:0:0:
256,192,206390,1,2,2:3:0:0:
512,0,206562,5,12,1:0:0:0:
256,252,206734,5,2,2:1:0:0:
391,69,206906,6,0,B|422:152|422:152|432:159,1,99.9999999999999,0|2,3:3|2:3,0:0:0:0:
100,193,207251,2,0,B|69:276|69:276|59:283,1,99.9999999999999,0|2,3:3|2:3,0:0:0:0:
383,258,207596,2,0,B|414:341|414:341|424:348,1,99.9999999999999,0|2,3:3|2:3,0:0:0:0:
256,192,207941,5,12,1:0:0:0:
463,301,208285,6,0,B|487:221|487:221|501:211,1,99.9999999999999,0|2,3:3|2:3,0:0:0:0:
102,148,208630,2,0,B|77:70|77:70|62:60,1,99.9999999999999,0|2,3:3|2:3,0:0:0:0:
128,32,208889,1,0,0:0:0:0:
128,32,208975,1,8,3:3:0:0:
80,212,209147,1,2,3:1:0:0:
0,0,209320,21,12,1:0:0:0:
128,258,209492,21,2,2:3:0:0:
0,122,209665,22,0,P|49:102|103:88,1,99.9999999999999,4|2,3:2|2:3,0:0:0:0:
512,202,210010,2,0,P|463:195|359:170,1,150.000005722046,8|2,3:2|2:3,0:0:0:0:
128,32,210354,1,0,3:3:0:0:
387,115,210527,1,2,2:3:0:0:
0,266,210699,21,12,1:0:0:0:
512,284,211044,22,0,P|463:271|406:263,1,99.9999999999999,2|2,3:2|2:3,0:0:0:0:
0,193,211389,2,0,P|71:187|156:151,1,150.000005722046,8|2,3:2|2:3,0:0:0:0:
449,109,211733,1,0,3:3:0:0:
158,235,211906,1,2,2:3:0:0:
512,358,212078,5,12,1:0:0:0:
256,192,212251,5,2,2:3:0:0:
375,142,212423,6,0,B|410:222|410:222|424:230,1,99.9999999999999,2|2,3:2|2:3,0:0:0:0:
141,348,212768,2,0,B|106:268|106:268|92:260,1,99.9999999999999,8|2,3:2|2:3,0:0:0:0:
403,23,213113,2,0,B|438:103|438:103|452:111,1,99.9999999999999,0|2,3:3|2:3,0:0:0:0:
256,192,213458,5,12,1:0:0:0:
141,36,213803,6,0,B|106:116|106:116|92:124,1,99.9999999999999,2|2,3:2|2:3,0:0:0:0:
403,361,214148,2,0,B|438:281|438:281|452:273,1,99.9999999999999,8|2,3:2|2:3,0:0:0:0:
508,259,214406,1,8,0:0:0:0:
508,259,214493,1,0,3:3:0:0:
256,320,214665,1,8,0:0:0:0:
512,377,214838,21,12,1:0:0:0:
166,297,215010,21,2,2:0:0:0:
256,80,215182,21,4,3:2:0:0:
224,158,215354,1,2,2:3:0:0:
361,72,215527,1,8,3:2:0:0:
271,194,215699,1,2,2:3:0:0:
434,52,215872,1,0,3:3:0:0:
323,294,216044,1,2,2:3:0:0:
512,0,216216,21,12,1:0:0:0:
256,80,216561,21,2,3:2:0:0:
288,158,216733,1,2,2:3:0:0:
151,72,216906,1,8,3:2:0:0:
241,194,217078,1,2,2:3:0:0:
78,52,217251,1,0,3:3:0:0:
189,294,217423,1,2,2:3:0:0:
0,0,217595,5,12,1:0:0:0:
256,80,217768,5,2,2:3:0:0:
512,0,217941,5,2,3:2:0:0:
349,52,218113,1,2,2:3:0:0:
476,86,218285,1,8,3:2:0:0:
323,127,218458,1,2,2:3:0:0:
473,224,218630,1,0,3:3:0:0:
256,192,218803,1,2,2:3:0:0:
512,384,218975,5,12,1:0:0:0:
0,0,219320,5,2,3:2:0:0:
163,52,219492,1,2,2:3:0:0:
36,86,219664,1,8,3:2:0:0:
189,127,219837,1,2,2:3:0:0:
39,224,220009,1,0,3:3:0:0:
256,192,220182,1,8,0:0:0:0:
0,384,220354,21,12,1:0:0:0:
256,256,220527,21,2,2:3:0:0:
512,384,220699,22,0,L|518:384,1,6.24999999999999,6|0,2:0|0:0,2:0:0:0:
512,328,225699,6,2,L|512:315,10,12.5,6|2|2|2|2|2|2|2|2|2|2,0:1|0:0|0:0|0:0|0:0|0:0|0:0|0:0|0:0|0:0|0:0,0:0:0:0:
512,384,226216,22,0,L|518:384,1,6.24999999999999,6|0,0:1|0:0,0:0:0:0:
512,328,231216,6,0,L|512:315,10,12.5,6|2|2|2|2|2|2|2|2|2|2,0:1|0:0|0:0|0:0|0:0|0:0|0:0|0:0|0:0|0:0|0:0,0:0:0:0:
512,384,231733,21,4,3:1:0:0:
512,380,232078,1,2,0:2:0:0:
512,376,232423,1,2,0:2:0:0:
512,372,232768,1,2,0:2:0:0:
512,364,233113,1,2,0:2:0:0:
512,368,233458,1,2,0:2:0:0:
512,372,233803,1,2,0:2:0:0:
512,376,234147,1,2,0:2:0:0:
0,384,234492,5,2,0:2:0:0:
0,384,235699,21,2,0:2:0:0:
512,328,236734,6,0,L|512:315,10,12.5,6|2|2|2|2|2|2|2|2|2|2,3:1|2:0|2:0|2:0|2:0|2:0|2:0|2:0|2:0|2:0|2:0,2:0:0:0:
512,384,237251,21,4,3:1:0:0:
512,380,237596,1,2,0:2:0:0:
512,376,237941,1,2,0:2:0:0:
512,372,238286,1,2,0:2:0:0:
512,364,238631,1,2,0:2:0:0:
512,368,238976,1,2,0:2:0:0:
512,372,239321,1,2,0:2:0:0:
512,376,239665,1,2,0:2:0:0:
0,384,240010,5,2,0:2:0:0:
256,192,240096,12,2,241389,1:2:0:0:
246,252,241560,21,2,0:1:0:0:
266,132,241734,5,2,0:1:0:0:
256,192,241906,21,2,0:1:0:0:
357,172,242078,5,8,1:0:0:0:
154,211,242251,21,8,1:0:0:0:
430,114,242423,5,2,0:1:0:0:
82,270,242596,21,8,1:0:0:0:
249,0,242768,6,0,L|263:79,1,75.000002861023,4|0,3:2|2:0,0:0:0:0:
263,384,243113,22,0,L|249:305,1,75.000002861023,8|0,3:1|2:0,0:0:0:0:
178,164,243458,5,8,3:1:0:0:
334,220,243630,1,0,2:0:0:0:
270,155,243803,21,8,3:1:0:0:
242,229,243975,1,0,2:0:0:0:
386,51,244147,6,0,L|340:117,1,75.000002861023,8|0,3:1|2:0,0:0:0:0:
125,332,244492,22,0,L|171:266,1,75.000002861023,8|0,3:1|2:0,0:0:0:0:
223,124,244837,5,8,3:1:0:0:
288,259,245009,1,0,2:0:0:0:
288,177,245182,21,8,3:1:0:0:
223,206,245354,1,0,2:0:0:0:
457,184,245527,6,0,L|378:198,1,75.000002861023,8|0,3:1|2:0,0:0:0:0:
57,200,245872,22,0,L|136:186,1,75.000002861023,8|0,3:1|2:0,0:0:0:0:
278,129,246216,5,8,3:1:0:0:
233,254,246388,1,0,2:0:0:0:
285,203,246561,21,8,3:1:0:0:
226,180,246733,1,0,2:0:0:0:
396,322,246906,6,0,L|330:276,1,75.000002861023,8|0,3:1|2:0,0:0:0:0:
115,61,247251,22,0,L|181:107,1,75.000002861023,8|0,3:1|2:0,0:0:0:0:
308,167,247596,5,8,3:1:0:0:
203,216,247768,1,0,2:0:0:0:
267,217,247941,21,8,3:1:0:0:
244,166,248113,1,0,2:0:0:0:
209,285,248285,5,8,3:1:0:0:
209,285,248458,1,0,2:0:0:0:
303,99,248630,21,8,3:1:0:0:
303,99,248803,1,0,2:0:0:0:
2,153,248975,6,2,L|509:231,1,513.000016046906,8|0,3:1|2:0,0:2:0:0:
256,320,249665,21,8,3:1:0:0:
256,320,249838,1,0,2:0:0:0:
256,64,250010,5,8,3:1:0:0:
256,64,250183,1,0,2:0:0:0:
146,192,250354,22,2,L|365:192,1,219.000006015015,8|0,3:1|2:0,0:2:0:0:
303,285,251044,5,8,3:1:0:0:
303,285,251217,1,0,2:0:0:0:
209,99,251389,21,8,3:1:0:0:
209,99,251562,1,0,2:0:0:0:
2,230,251734,6,2,L|511:152,1,513.000016046906,8|0,3:1|2:0,0:2:0:0:
215,176,252423,22,0,L|134:188,1,75.000002861023,8|0,3:1|2:0,0:0:0:0:
297,208,252768,2,0,L|378:196,1,75.000002861023,8|0,3:1|2:0,0:0:0:0:
101,245,253113,6,0,L|-5:229,1,99.9999999999999,8|0,3:1|2:0,0:0:0:0:
411,139,253458,2,0,L|517:155,1,99.9999999999999,8|0,3:1|2:0,0:0:0:0:
270,226,253803,21,4,3:2:0:0:
242,158,253975,1,2,2:0:0:0:
239,273,254147,1,8,3:1:0:0:
274,108,254320,1,2,2:0:0:0:
270,226,254492,1,8,3:1:0:0:
236,64,254665,1,2,2:0:0:0:
208,209,254837,5,10,3:1:0:0:
312,48,255010,1,2,2:1:0:0:
312,48,255354,21,2,2:1:0:0:
237,65,255527,1,10,3:1:0:0:
163,82,255699,1,2,2:1:0:0:
163,82,256044,5,2,2:1:0:0:
288,112,256216,1,10,3:1:0:0:
413,142,256389,1,2,2:3:0:0:
306,174,256561,21,10,3:1:0:0:
395,81,256734,1,2,2:3:0:0:
385,232,256906,1,10,3:1:0:0:
350,128,257078,1,2,2:3:0:0:
314,276,257251,1,10,3:1:0:0:
413,142,257423,1,2,2:3:0:0:
475,304,257596,5,10,3:1:0:0:
274,223,257768,1,2,2:1:0:0:
274,223,258113,21,2,2:1:0:0:
431,197,258285,1,10,3:1:0:0:
314,276,258458,1,2,2:1:0:0:
314,276,258803,5,2,2:1:0:0:
232,179,258975,1,10,3:1:0:0:
354,211,259147,1,2,2:1:0:0:
216,317,259320,21,10,3:1:0:0:
162,157,259492,1,2,2:3:0:0:
110,265,259665,1,8,3:1:0:0:
193,104,259837,1,2,2:3:0:0:
63,38,260010,5,8,3:1:0:0:
162,157,260182,1,2,2:3:0:0:
196,1,260354,1,10,3:1:0:0:
95,189,260527,1,2,2:1:0:0:
132,39,260699,21,8,3:1:0:0:
275,107,260872,1,2,2:1:0:0:
148,97,261044,1,10,3:1:0:0:
223,143,261217,1,2,2:1:0:0:
128,151,261389,5,8,3:1:0:0:
275,107,261562,1,2,2:1:0:0:
190,55,261734,1,10,3:1:0:0:
373,7,261906,1,2,2:1:0:0:
433,188,262078,21,10,3:1:0:0:
331,57,262251,1,2,2:3:0:0:
286,269,262423,1,10,3:1:0:0:
390,79,262596,1,2,2:3:0:0:
439,307,262768,5,10,3:1:0:0:
260,212,262941,1,2,2:3:0:0:
460,183,263113,1,10,3:1:0:0:
314,323,263285,1,2,2:1:0:0:
348,125,263458,21,4,3:2:0:0:
256,192,263544,12,12,264492,1:0:0:0:
183,59,264837,5,14,3:1:0:0:
214,239,265010,21,2,1:3:0:0:
185,55,265182,5,2,0:1:0:0:
214,243,265354,21,2,1:3:0:0:
182,52,265527,5,2,0:1:0:0:
217,247,265699,21,2,1:3:0:0:
219,0,265872,5,2,0:1:0:0:
136,107,266044,2,0,L|24:107,1,99.9999999999999,2|0,1:0|0:0,0:0:0:0:
85,77,266389,21,2,1:0:0:0:
86,136,266561,1,0,0:1:0:0:
219,0,266734,2,0,L|297:0,1,75.000002861023,2|0,1:3|0:1,0:0:0:0:
424,80,267078,5,2,1:0:0:0:
512,107,267251,1,2,0:1:0:0:
426,136,267423,1,2,1:3:0:0:
309,120,267596,21,2,0:1:0:0:
360,99,267768,5,2,1:3:0:0:
305,127,267941,21,2,0:1:0:0:
361,92,268113,5,2,1:3:0:0:
298,120,268285,21,2,0:1:0:0:
367,99,268458,5,2,1:3:0:0:
256,64,268630,21,2,3:1:0:0:
136,104,268803,2,0,L|36:104,1,99.9999999999999,2|0,1:3|0:0,0:0:0:0:
86,136,269147,5,2,1:3:0:0:
85,77,269319,1,2,0:1:0:0:
256,192,269492,2,0,L|381:192,1,125,2|0,1:0|0:1,0:0:0:0:
317,230,269837,21,2,1:0:0:0:
318,155,270009,1,2,0:1:0:0:
88,192,270182,1,2,1:0:0:0:
208,326,270354,5,2,0:1:0:0:
166,101,270527,21,2,1:3:0:0:
204,333,270699,5,2,0:1:0:0:
173,108,270871,21,2,1:3:0:0:
214,336,271044,5,2,0:1:0:0:
165,114,271216,21,2,1:3:0:0:
164,380,271389,5,2,0:1:0:0:
376,277,271561,2,0,L|488:277,1,99.9999999999999,2|0,1:0|0:0,0:0:0:0:
426,248,271906,21,2,1:0:0:0:
427,307,272078,1,2,3:1:0:0:
294,192,272251,2,0,L|216:192,1,75.000002861023,2|0,1:3|0:1,0:0:0:0:
88,304,272596,5,2,1:0:0:0:
0,277,272769,1,2,0:1:0:0:
86,248,272941,1,2,1:0:0:0:
203,329,273113,21,2,0:1:0:0:
142,116,273285,5,2,1:3:0:0:
195,326,273458,21,2,0:1:0:0:
160,59,273630,5,2,1:3:0:0:
207,318,273803,21,2,0:1:0:0:
101,39,273975,5,2,1:3:0:0:
164,380,274147,21,2,0:1:0:0:
376,277,274320,2,0,L|488:277,1,99.9999999999999,2|0,1:3|0:0,0:0:0:0:
427,307,274665,5,2,1:3:0:0:
426,248,274837,1,2,0:1:0:0:
136,277,275010,2,0,L|7:277,1,125,2|0,1:0|0:0,0:0:0:0:
73,316,275354,21,2,1:0:0:0:
73,237,275527,1,2,0:1:0:0:
256,280,275699,1,2,1:0:0:0:
103,156,275872,5,6,3:1:0:0:
388,103,276044,21,2,1:3:0:0:
108,149,276216,5,10,0:1:0:0:
395,108,276389,21,2,1:3:0:0:
115,150,276561,5,2,0:1:0:0:
396,101,276734,21,2,1:3:0:0:
120,144,276906,5,10,0:1:0:0:
405,104,277078,2,0,L|306:121,1,99.9999999999999,2|0,1:0|0:1,0:0:0:0:
157,93,277423,21,2,1:0:0:0:
379,173,277596,1,10,0:1:0:0:
159,88,277768,2,0,L|257:70,1,99.9999999999999,2|0,1:3|0:1,0:0:0:0:
512,0,278113,5,2,1:0:0:0:
256,0,278285,5,14,1:0:0:0:
0,0,278458,5,2,1:3:0:0:
134,198,278630,5,2,0:1:0:0:
120,144,278803,21,2,1:3:0:0:
124,211,278975,5,10,0:1:0:0:
129,154,279147,21,2,1:3:0:0:
135,217,279320,5,2,0:1:0:0:
119,164,279492,21,2,1:3:0:0:
129,229,279665,5,10,0:1:0:0:
130,171,279837,2,0,L|104:313,1,99.9999999999999,2|0,1:3|0:1,0:0:0:0:
217,338,280182,21,2,1:3:0:0:
34,255,280354,1,10,0:1:0:0:
201,195,280527,2,0,L|219:96,1,99.9999999999999,2|0,1:0|0:0,0:0:0:0:
512,384,280872,5,2,1:0:0:0:
256,384,281044,5,14,1:0:0:0:
0,384,281216,5,2,1:0:0:0:
210,299,281389,5,2,0:1:0:0:
144,49,281561,21,2,1:3:0:0:
204,305,281734,5,10,0:1:0:0:
152,54,281906,21,2,1:3:0:0:
214,310,282078,5,2,0:1:0:0:
151,62,282251,21,2,1:3:0:0:
208,322,282423,5,10,0:1:0:0:
158,69,282596,2,0,L|177:168,1,99.9999999999999,2|0,1:0|0:1,0:0:0:0:
139,316,282941,21,2,1:0:0:0:
227,94,283114,1,10,0:1:0:0:
131,313,283286,2,0,L|113:214,1,99.9999999999999,2|0,1:3|0:1,0:0:0:0:
52,92,283630,5,2,1:0:0:0:
256,192,283803,5,14,1:0:0:0:
460,292,283975,5,2,1:0:0:0:
0,318,284147,5,2,0:1:0:0:
120,229,284320,21,2,1:3:0:0:
9,319,284492,5,10,0:1:0:0:
180,239,284665,21,2,1:3:0:0:
17,306,284837,5,2,0:1:0:0:
200,184,285010,21,2,1:3:0:0:
34,313,285182,5,10,0:1:0:0:
255,193,285354,21,2,1:3:0:0:
478,71,285527,5,4,1:0:0:0:
0,384,285872,21,4,1:0:0:0:
478,71,286389,5,2,0:1:0:0:
512,0,286561,5,14,1:0:0:0:
409,99,286734,5,2,0:1:0:0:
256,24,286906,5,6,1:0:0:0:
103,99,287078,1,2,1:3:0:0:
0,0,287251,1,10,0:1:0:0:
34,71,287423,1,2,1:3:0:0:
115,25,287596,1,2,0:1:0:0:
90,158,287768,1,2,1:3:0:0:
256,0,287941,5,14,1:0:0:0:
100,231,288113,6,0,L|0:231,1,99.9999999999999,2|0,1:0|0:1,0:0:0:0:
256,192,288458,5,2,1:0:0:0:
256,272,288630,1,10,0:1:0:0:
412,231,288803,2,0,L|493:231,1,75.000002861023,2|0,1:3|0:1,0:0:0:0:
205,230,289147,21,2,1:0:0:0:
256,384,289320,21,14,1:0:0:0:
307,230,289492,21,2,1:3:0:0:
372,289,289665,21,2,0:1:0:0:
448,192,289837,1,2,1:3:0:0:
256,328,290010,1,10,0:1:0:0:
256,136,290182,1,2,1:3:0:0:
140,289,290354,1,2,0:1:0:0:
64,192,290526,1,2,1:3:0:0:
256,384,290699,21,14,1:0:0:0:
388,153,290872,22,0,L|498:153,1,99.9999999999999,2|0,1:3|0:0,0:0:0:0:
256,224,291216,21,2,1:3:0:0:
256,80,291389,1,10,0:1:0:0:
124,153,291561,2,0,L|0:153,1,125,2|0,1:0|0:1,0:0:0:0:
304,152,291906,5,2,1:0:0:0:
256,0,292079,5,14,1:0:0:0:
208,152,292251,5,2,1:0:0:0:
128,48,292423,5,2,0:1:0:0:
61,126,292596,1,2,1:3:0:0:
256,80,292768,1,10,0:1:0:0:
256,224,292940,1,2,1:3:0:0:
384,48,293113,1,2,0:1:0:0:
451,126,293286,1,2,1:3:0:0:
256,0,293458,5,14,1:0:0:0:
100,232,293630,6,0,L|0:232,1,99.9999999999999,2|0,1:0|0:1,0:0:0:0:
256,288,293975,5,2,1:0:0:0:
256,176,294147,1,10,0:1:0:0:
412,232,294320,2,0,L|506:232,1,75.000002861023,2|0,1:3|0:1,0:0:0:0:
168,128,294665,21,2,1:0:0:0:
256,383,294837,21,14,1:0:0:0:
344,128,295010,21,2,1:0:0:0:
200,336,295182,21,2,0:1:0:0:
104,176,295354,1,2,1:3:0:0:
256,288,295527,1,10,0:1:0:0:
256,80,295699,1,2,1:3:0:0:
312,336,295872,1,2,0:1:0:0:
408,176,296044,1,2,1:3:0:0:
256,384,296216,21,14,1:0:0:0:
120,120,296389,22,0,L|16:120,1,99.9999999999999,2|0,1:0|0:0,0:0:0:0:
256,192,296734,21,2,1:0:0:0:
256,56,296906,1,10,0:1:0:0:
392,120,297078,2,0,L|536:120,1,125,2|0,1:0|0:0,0:0:0:0:
176,256,297423,5,2,1:0:0:0:
256,0,297596,5,14,1:0:0:0:
336,256,297768,5,2,1:1:0:0:
120,96,297941,6,0,L|0:96,1,119.999996337891,6|2,1:0|1:3,0:0:0:0:
392,192,298285,2,0,L|512:192,1,119.999996337891,10|2,0:1|1:3,0:0:0:0:
120,288,298630,2,0,L|0:288,1,119.999996337891,2|2,3:1|1:3,0:0:0:0:
256,384,298975,5,14,1:0:0:0:
392,96,299147,6,0,L|512:96,2,119.999996337891,2|0|2,1:0|0:0|1:0,0:0:0:0:
256,288,299665,1,10,0:1:0:0:
120,96,299837,2,0,L|0:96,2,119.999996337891,2|0|2,1:3|0:1|1:0,0:0:0:0:
256,192,300354,21,14,1:0:0:0:
256,192,300527,1,2,1:3:0:0:
392,288,300699,22,0,L|512:288,1,119.999996337891,2|2,0:1|1:3,0:0:0:0:
120,192,301043,2,0,L|0:192,1,119.999996337891,10|2,0:1|1:3,0:0:0:0:
392,96,301388,2,0,L|512:96,1,119.999996337891,2|2,0:1|1:3,0:0:0:0:
256,0,301734,5,14,1:0:0:0:
120,288,301906,6,0,L|0:288,2,119.999996337891,2|0|2,1:3|0:1|1:3,0:0:0:0:
256,96,302423,1,10,0:1:0:0:
392,288,302596,2,0,L|512:288,2,119.999996337891,2|0|2,1:0|0:0|1:0,0:0:0:0:
256,192,303113,21,14,1:0:0:0:
256,192,303285,1,2,1:1:0:0:
32,304,303458,21,2,0:1:0:0:
200,240,303630,1,2,1:3:0:0:
0,192,303803,1,10,0:1:0:0:
168,192,303975,1,2,1:3:0:0:
32,80,304147,1,2,0:1:0:0:
185,139,304320,1,2,1:3:0:0:
0,0,304492,5,14,1:0:0:0:
480,304,304838,5,0,0:1:0:0:
312,240,305010,1,2,1:3:0:0:
512,192,305183,1,10,0:1:0:0:
344,192,305355,1,2,1:3:0:0:
480,80,305527,1,0,0:1:0:0:
327,139,305699,1,2,1:0:0:0:
512,0,305872,21,14,1:0:0:0:
256,192,306044,21,2,1:0:0:0:
412,113,306216,21,2,0:1:0:0:
99,270,306389,5,2,1:3:0:0:
473,192,306561,21,10,0:1:0:0:
38,192,306734,5,2,1:3:0:0:
480,304,306906,21,2,0:1:0:0:
32,80,307079,5,2,1:3:0:0:
512,384,307251,5,14,1:0:0:0:
0,0,307596,5,4,1:0:0:0:
512,0,307941,5,6,0:1:0:0:
0,384,308113,21,2,0:1:0:0:
0,384,308199,1,0,0:0:0:0:
0,384,308285,1,4,1:0:0:0:
0,192,308458,5,2,0:3:0:0:
257,384,308630,5,14,0:1:0:0:
512,192,308803,5,2,0:1:0:0:
256,0,308975,5,6,1:0:0:0:
256,192,309147,1,2,0:3:0:0:
328,96,309320,1,10,0:1:0:0:
120,0,309492,1,2,1:3:0:0:
184,96,309665,1,2,0:1:0:0:
392,0,309837,1,2,1:3:0:0:
0,0,310010,5,14,1:0:0:0:
512,0,310182,6,0,L|392:0,1,119.999996337891,2|0,1:0|0:1,0:0:0:0:
52,96,310527,1,2,1:0:0:0:
460,96,310699,1,10,0:1:0:0:
196,48,310872,2,0,L|316:48,1,119.999996337891,2|0,1:3|0:1,0:0:0:0:
512,192,311216,5,2,1:0:0:0:
256,384,311389,5,14,1:0:0:0:
0,192,311561,5,2,1:3:0:0:
256,288,311734,5,2,0:1:0:0:
256,96,311906,1,2,1:3:0:0:
184,192,312079,1,10,0:1:0:0:
392,288,312251,1,2,1:3:0:0:
328,192,312424,1,2,0:1:0:0:
120,288,312596,1,2,1:3:0:0:
512,192,312768,5,14,1:0:0:0:
0,192,312940,6,0,L|120:192,1,119.999996337891,2|0,1:0|0:1,0:0:0:0:
460,96,313285,1,2,1:3:0:0:
52,96,313457,1,10,0:1:0:0:
316,144,313630,2,0,L|196:144,1,119.999996337891,2|0,1:0|0:1,0:0:0:0:
512,192,313975,5,2,1:1:0:0:
256,0,314147,5,14,1:0:0:0:
0,192,314320,5,2,1:0:0:0:
256,288,314492,5,2,0:1:0:0:
256,96,314664,1,2,1:3:0:0:
184,192,314837,1,10,0:1:0:0:
392,288,315009,1,2,1:3:0:0:
328,192,315182,1,2,0:1:0:0:
120,288,315354,1,2,1:3:0:0:
512,384,315527,5,14,1:0:0:0:
0,384,315699,6,0,L|120:384,1,119.999996337891,2|0,1:0|0:1,0:0:0:0:
460,288,316044,1,2,1:0:0:0:
52,288,316216,1,10,0:1:0:0:
316,328,316389,2,0,L|196:328,1,119.999996337891,2|0,1:3|0:1,0:0:0:0:
0,192,316734,5,2,1:1:0:0:
256,0,316907,5,14,1:0:0:0:
512,192,317079,5,2,1:0:0:0:
256,384,317251,5,2,0:1:0:0:
256,192,317423,1,2,1:3:0:0:
184,288,317596,1,10,0:1:0:0:
392,384,317768,1,2,1:3:0:0:
328,288,317941,1,2,0:1:0:0:
120,384,318113,1,2,1:3:0:0:
512,192,318286,5,14,1:0:0:0:
0,192,318458,6,0,L|120:192,1,119.999996337891,2|4,1:0|0:1,0:0:0:0:
460,288,318803,1,2,1:3:0:0:
52,288,318975,1,14,3:1:0:0:
316,240,319148,2,0,L|196:240,1,119.999996337891,2|4,1:0|3:1,0:0:0:0:
0,192,319493,5,2,0:1:0:0:
256,384,319665,5,14,1:0:0:0:
512,192,319838,5,2,0:1:0:0:
256,320,320010,5,6,1:0:0:0:
199,300,320182,1,2,2:1:0:0:
158,343,320354,1,8,0:1:0:0:
114,301,320527,1,2,2:1:0:0:
54,310,320699,1,0,0:1:0:0:
22,258,320872,1,2,2:1:0:0:
256,0,321044,5,12,1:0:0:0:
256,320,321389,5,0,0:1:0:0:
313,300,321561,1,2,2:1:0:0:
354,343,321733,1,8,0:1:0:0:
398,301,321906,1,2,2:3:0:0:
458,310,322078,1,0,0:1:0:0:
490,258,322251,1,2,2:1:0:0:
256,0,322423,21,14,1:0:0:0:
490,258,322596,21,2,2:3:0:0:
201,162,322768,21,2,0:1:0:0:
177,215,322941,1,2,2:3:0:0:
120,198,323113,1,10,0:1:0:0:
101,255,323285,1,2,2:3:0:0:
54,216,323458,1,2,0:1:0:0:
6,250,323630,1,2,2:3:0:0:
256,0,323803,21,14,1:0:0:0:
140,142,323975,21,2,2:1:0:0:
90,109,324147,1,0,0:1:0:0:
120,56,324320,1,2,2:3:0:0:
68,27,324492,1,8,0:1:0:0:
212,238,324665,21,2,2:1:0:0:
194,174,324837,1,0,0:1:0:0:
256,151,325010,1,2,2:1:0:0:
512,0,325182,21,14,1:0:0:0:
256,151,325354,21,2,2:3:0:0:
0,0,325527,21,2,0:1:0:0:
55,16,325699,1,2,2:3:0:0:
40,74,325872,1,10,0:1:0:0:
97,77,326044,1,2,2:3:0:0:
121,131,326216,1,2,0:1:0:0:
173,103,326389,1,2,2:3:0:0:
512,384,326561,21,14,1:0:0:0:
121,131,326906,21,0,0:1:0:0:
108,189,327078,1,2,2:1:0:0:
166,204,327251,1,8,0:1:0:0:
168,263,327423,1,2,2:3:0:0:
229,258,327596,1,0,0:1:0:0:
256,312,327768,1,2,2:1:0:0:
512,192,327941,5,14,1:0:0:0:
256,312,328113,5,2,2:3:0:0:
0,192,328285,5,2,0:1:0:0:
58,175,328458,1,2,2:3:0:0:
32,120,328630,1,10,0:1:0:0:
76,79,328803,1,2,2:3:0:0:
28,42,328975,1,2,0:1:0:0:
74,3,329147,1,2,2:3:0:0:
0,384,329320,5,14,1:0:0:0:
512,0,329665,5,4,1:0:0:0:
0,384,330010,5,6,1:0:0:0:
512,0,330527,21,2,2:1:0:0:
256,192,330699,21,14,1:0:0:0:
0,384,330872,21,2,3:1:0:0:
346,273,331044,22,0,P|399:281|451:294,1,99.9999999999999,6|8,0:2|0:3,0:0:0:0:
77,157,331389,6,0,P|52:112|15:60,1,99.9999999999999,0|8,0:0|0:3,0:0:0:0:
385,0,331734,22,0,P|357:41|331:84,1,99.9999999999999,0|8,0:0|0:3,0:0:0:0:
146,357,332078,21,12,1:0:0:0:
146,357,332423,22,0,P|106:346|59:328,1,79.9999999999999,2|8,0:2|0:3,0:0:0:0:
394,206,332768,22,0,P|434:195|481:177,1,79.9999999999999,0|8,0:0|0:3,0:0:0:0:
137,78,333113,6,0,P|162:135|178:178,1,79.9999999999999,0|8,0:0|0:3,0:0:0:0:
360,366,333458,5,12,1:0:0:0:
360,366,333803,6,0,P|405:340|436:329,1,69.9999978637695,2|8,0:2|0:3,0:0:0:0:
115,263,334147,6,0,P|73:268|37:277,1,69.9999978637695,0|8,0:0|0:3,0:0:0:0:
329,123,334492,22,0,P|366:133|412:136,1,69.9999978637695,0|8,0:0|0:3,0:0:0:0:
0,0,334838,21,12,1:0:0:0:
0,0,335182,22,0,P|10:33|17:60,1,59.9999981689453,2|8,0:2|0:3,0:0:0:0:
414,199,335527,22,0,P|404:232|394:268,1,59.9999981689453,0|8,0:0|0:0,0:0:0:0:
351,292,335785,1,2,0:2:0:0:
351,292,335872,1,2,0:2:0:0:
291,61,336044,1,8,0:3:0:0:
130,260,336217,21,12,1:0:0:0:
466,163,336389,21,8,0:1:0:0:
144,129,336561,22,0,P|99:121|37:111,1,99.9999999999999,2|8,0:2|0:3,0:0:0:0:
407,41,336906,2,0,P|457:31|546:3,1,99.9999999999999,0|8,0:0|0:3,0:0:0:0:
230,200,337251,1,0,0:0:0:0:
160,25,337423,1,8,0:3:0:0:
397,256,337596,21,12,1:0:0:0:
397,256,337941,22,0,P|442:264|504:274,1,99.9999999999999,2|8,0:2|0:3,0:0:0:0:
134,344,338286,2,0,P|84:354|-5:382,1,99.9999999999999,0|8,0:0|0:3,0:0:0:0:
311,185,338630,1,0,0:0:0:0:
381,360,338802,1,8,0:3:0:0:
144,129,338975,5,12,1:0:0:0:
144,129,339320,6,0,P|99:107|25:88,1,99.9999999999999,2|8,0:2|0:3,0:0:0:0:
368,255,339665,2,0,P|413:277|487:296,1,99.9999999999999,0|8,0:0|0:3,0:0:0:0:
330,85,340010,1,0,0:0:0:0:
182,299,340182,1,8,0:3:0:0:
256,192,340355,21,12,1:0:0:0:
256,192,340699,21,2,0:2:0:0:
256,284,340872,21,8,0:3:0:0:
396,112,341044,5,0,0:0:0:0:
116,112,341216,21,8,0:0:0:0:
116,112,341303,1,2,0:2:0:0:
116,112,341389,1,2,0:2:0:0:
256,384,341561,5,8,0:3:0:0:
256,0,341734,5,12,1:0:0:0:
256,192,341906,5,8,0:1:0:0:
511,80,342078,6,0,L|410:66,1,99.9999999999999,6|8,0:2|0:3,0:0:0:0:
0,7,342423,2,0,L|100:20,1,99.9999999999999,0|8,0:0|0:3,0:0:0:0:
506,72,342768,22,0,L|346:50,1,150.000005722046,0|8,0:0|0:3,0:0:0:0:
256,384,343113,21,12,1:0:0:0:
1,145,343458,22,0,L|102:131,1,99.9999999999999,2|8,0:2|0:3,0:0:0:0:
512,72,343803,2,0,L|412:85,1,99.9999999999999,0|8,0:0|0:3,0:0:0:0:
5,137,344148,22,0,L|165:113,1,150.000005722046,0|8,0:0|0:3,0:0:0:0:
257,384,344493,21,12,1:0:0:0:
511,210,344837,22,0,L|410:196,1,99.9999999999999,2|8,0:2|0:3,0:0:0:0:
0,137,345182,2,0,L|100:150,1,99.9999999999999,0|8,0:0|0:3,0:0:0:0:
507,201,345527,22,0,L|349:181,1,150.000005722046,0|8,0:0|0:3,0:0:0:0:
257,384,345872,21,12,1:0:0:0:
1,275,346216,22,0,L|102:261,1,99.9999999999999,2|8,0:2|0:3,0:0:0:0:
512,202,346561,2,0,L|412:215,1,99.9999999999999,0|8,0:0|0:0,0:0:0:0:
365,267,346820,1,2,0:2:0:0:
365,267,346906,1,2,0:2:0:0:
168,192,347078,1,8,0:3:0:0:
256,0,347251,5,12,1:0:0:0:
344,192,347423,5,8,0:1:0:0:
147,267,347596,5,2,0:2:0:0:
99,224,347768,1,8,0:3:0:0:
168,192,347941,1,0,0:0:0:0:
34,254,348113,1,8,0:3:0:0:
192,311,348285,1,0,0:0:0:0:
54,182,348458,1,8,0:3:0:0:
512,0,348630,5,12,1:0:0:0:
382,121,348975,5,2,0:2:0:0:
453,101,349147,1,8,0:3:0:0:
350,57,349320,1,0,0:0:0:0:
412,176,349492,1,8,0:3:0:0:
294,94,349665,1,0,0:0:0:0:
483,51,349837,1,8,0:3:0:0:
0,384,350010,21,12,1:0:0:0:
311,180,350354,21,2,0:2:0:0:
200,203,350527,1,8,0:3:0:0:
339,126,350699,1,0,0:0:0:0:
173,258,350872,1,8,0:3:0:0:
366,205,351044,1,0,0:0:0:0:
146,179,351216,1,8,0:3:0:0:
256,0,351389,5,12,1:0:0:0:
256,60,351561,1,0,0:0:0:0:
311,180,351734,5,2,0:2:0:0:
200,203,351906,5,8,0:3:0:0:
248,155,352078,21,0,0:0:0:0:
268,229,352251,5,8,0:0:0:0:
268,229,352337,1,2,0:2:0:0:
268,229,352423,1,2,0:2:0:0:
256,192,352596,21,8,0:3:0:0:
512,192,352768,21,12,1:0:0:0:
0,192,352941,21,8,0:1:0:0:
353,269,353113,21,4,0:2:0:0:
353,269,353285,2,0,P|364:240|374:195,1,69.9999978637695,8|0,0:3|0:0,0:0:0:0:
446,296,353630,2,0,P|435:273|428:239,1,50,8|0,0:3|0:0,0:0:0:0:
495,252,353975,1,8,0:3:0:0:
256,384,354147,21,12,1:0:0:0:
159,269,354493,21,4,0:2:0:0:
159,269,354665,2,0,P|148:240|138:195,1,69.9999978637695,8|0,0:3|0:0,0:0:0:0:
66,296,355010,2,0,P|77:273|84:239,1,50,8|0,0:3|0:0,0:0:0:0:
17,252,355354,1,8,0:3:0:0:
256,384,355527,5,12,1:0:0:0:
352,268,355872,5,4,0:2:0:0:
352,268,356044,2,0,P|341:239|331:194,1,69.9999978637695,8|0,0:3|0:0,0:0:0:0:
406,225,356389,2,0,P|417:202|424:168,1,50,8|0,0:3|0:0,0:0:0:0:
466,244,356733,1,8,0:3:0:0:
255,384,356906,21,12,1:0:0:0:
160,268,357251,21,4,0:2:0:0:
160,268,357423,2,0,P|171:239|181:194,1,69.9999978637695,8|0,0:3|0:0,0:0:0:0:
106,225,357768,1,8,0:0:0:0:
106,225,357854,1,2,0:2:0:0:
106,225,357941,1,2,0:2:0:0:
46,244,358113,1,4,0:2:0:0:
255,384,358285,5,12,1:0:0:0:
256,128,358458,1,8,0:1:0:0:
406,225,358630,5,2,0:2:0:0:
406,225,358803,2,0,L|475:213,1,69.9999978637695,8|0,0:3|0:0,0:0:0:0:
440,160,359147,2,0,L|503:148,1,50,8|0,0:3|0:0,0:0:0:0:
511,94,359492,1,8,0:3:0:0:
256,384,359665,21,12,1:0:0:0:
106,225,360010,21,2,0:2:0:0:
106,225,360183,2,0,L|37:213,1,69.9999978637695,8|0,0:3|0:0,0:0:0:0:
72,160,360527,2,0,L|9:148,1,50,8|0,0:3|0:0,0:0:0:0:
1,94,360872,1,8,0:3:0:0:
256,384,361045,5,12,1:0:0:0:
256,192,361216,1,8,2:1:0:0:
372,292,361389,5,2,0:2:0:0:
372,292,361561,2,0,L|443:274,1,69.9999978637695,8|0,0:3|0:0,0:0:0:0:
406,225,361906,2,0,L|456:211,1,50,8|0,0:3|0:0,0:0:0:0:
468,154,362251,1,8,0:3:0:0:
256,384,362423,21,12,1:0:0:0:
140,292,362768,22,0,L|82:277,1,50,6|0,3:0|0:0,0:0:0:0:
187,259,363112,22,0,L|248:276,1,50,6|0,3:0|0:0,0:0:0:0:
177,347,363372,5,2,3:0:0:0:
177,347,363458,1,12,1:0:0:0:
142,213,363630,21,0,0:1:0:0:
256,384,363803,21,12,1:0:0:0:
58,239,364147,21,6,0:2:0:0:
58,239,364320,2,0,P|62:204|64:177,1,50,8|0,0:3|0:0,0:0:0:0:
130,207,364665,2,0,P|122:177|114:135,1,69.9999978637695,8|0,0:3|0:0,0:0:0:0:
186,159,365010,1,8,0:3:0:0:
256,384,365182,5,12,1:0:0:0:
476,304,365527,5,2,0:2:0:0:
476,304,365699,2,0,P|472:269|470:242,1,50,8|0,0:3|0:0,0:0:0:0:
404,272,366044,2,0,P|412:242|420:200,1,69.9999978637695,8|0,0:3|0:0,0:0:0:0:
348,224,366389,1,8,0:3:0:0:
256,384,366561,21,12,1:0:0:0:
5,335,366906,21,2,0:2:0:0:
5,335,367078,2,0,P|2:302|-5:271,1,50,8|0,0:3|0:0,0:0:0:0:
66,370,367423,2,0,P|73:335|85:302,1,69.9999978637695,8|0,0:3|0:0,0:0:0:0:
52,252,367768,1,8,0:3:0:0:
256,384,367941,5,12,1:0:0:0:
507,335,368285,5,2,0:2:0:0:
507,335,368458,2,0,P|510:302|517:271,1,50,8|0,0:3|0:0,0:0:0:0:
460,252,368802,1,8,0:0:0:0:
460,252,368888,1,2,0:2:0:0:
460,252,368975,1,2,0:2:0:0:
393,265,369147,1,6,0:2:0:0:
256,384,369319,21,12,1:0:0:0:
256,136,369492,1,8,0:1:0:0:
52,252,369664,21,2,0:2:0:0:
52,252,369837,2,0,P|42:282|32:304,1,40,8|0,0:3|0:0,0:0:0:0:
119,265,370182,2,0,P|126:302|136:332,1,55.0000016784668,8|0,0:3|0:0,0:0:0:0:
175,234,370526,1,8,0:3:0:0:
256,384,370699,5,12,1:0:0:0:
460,252,371044,5,2,0:2:0:0:
460,252,371216,2,0,P|470:282|481:304,1,40,8|0,0:3|0:0,0:0:0:0:
393,265,371561,2,0,P|386:302|377:332,1,55.0000016784668,8|0,0:3|0:0,0:0:0:0:
337,234,371906,1,8,0:3:0:0:
256,384,372078,21,12,1:0:0:0:
256,192,372251,1,8,2:1:0:0:
35,300,372423,21,2,0:2:0:0:
35,300,372596,2,0,P|41:328|45:350,1,40,8|0,0:3|0:0,0:0:0:0:
117,260,372941,2,0,P|109:296|104:333,1,55.0000016784668,8|0,0:3|0:0,0:0:0:0:
183,275,373285,1,8,0:3:0:0:
256,384,373458,5,12,1:0:0:0:
477,300,373803,5,2,0:2:0:0:
477,300,373975,2,0,P|471:332|469:358,1,40,8|0,0:3|0:0,0:0:0:0:
395,260,374320,1,8,0:0:0:0:
395,260,374406,1,2,0:2:0:0:
395,260,374491,1,2,0:2:0:0:
408,323,374665,1,8,0:3:0:0:
256,384,374837,21,12,1:0:0:0:
256,0,375010,1,12,1:0:0:0:
