osu file format v14

[General]
AudioFilename: audio.mp3
AudioLeadIn: 0
PreviewTime: 307589
Countdown: 0
SampleSet: Normal
StackLeniency: 0.7
Mode: 3
LetterboxInBreaks: 0
SpecialStyle: 0
WidescreenStoryboard: 0

[Editor]
DistanceSpacing: 0.6
BeatDivisor: 4
GridSize: 16
TimelineZoom: 2.3

[Metadata]
Title:Graces of Heaven
TitleUnicode:Graces of Heaven
Artist:aran
ArtistUnicode:aran
Creator:BringoBrango
Version:Angelic Echoes
Source:
Tags:tanocd-0014 hardcore tano*c syndrome 7 tanoc j-core jcore electronic instrumental mbc featured artist fa
BeatmapID:4378525
BeatmapSetID:2089374

[Difficulty]
HPDrainRate:9
CircleSize:4
OverallDifficulty:7.5
ApproachRate:5
SliderMultiplier:1.4
SliderTickRate:1

[Events]
//Background and Video events
0,0,"ya-lun.jpg",0,0
//Break Periods
//Storyboard Layer 0 (Background)
//Storyboard Layer 1 (Fail)
//Storyboard Layer 2 (Pass)
//Storyboard Layer 3 (Foreground)
//Storyboard Layer 4 (Overlay)
//Storyboard Sound Samples

[TimingPoints]
3,344.827586206897,4,1,1,30,1,0
88278,-100,4,1,1,40,0,0
110347,-100,4,1,1,50,0,1
154485,-100,4,1,1,30,0,0
171037,-100,4,1,1,40,0,0
176554,-100,4,1,1,50,0,1
220692,-100,4,1,1,30,0,0
242761,-100,4,1,1,40,0,0
264830,-100,4,1,1,50,0,1
320003,-100,4,1,1,40,0,0
353106,-100,4,1,1,30,0,0

[HitObjects]
192,192,3,5,0,0:0:0:0:
64,192,3,1,0,0:0:0:0:
192,192,175,1,0,0:0:0:0:
192,192,347,1,0,0:0:0:0:
320,192,347,1,0,0:0:0:0:
320,192,520,128,0,606:0:0:0:0:
448,192,520,128,0,606:0:0:0:0:
320,192,692,1,0,0:0:0:0:
192,192,692,1,0,0:0:0:0:
192,192,865,1,0,0:0:0:0:
448,192,1037,1,0,0:0:0:0:
192,192,1037,1,0,0:0:0:0:
64,192,1037,1,0,0:0:0:0:
320,192,1037,1,0,0:0:0:0:
448,192,1382,1,0,0:0:0:0:
320,192,1382,1,0,0:0:0:0:
320,192,1554,1,0,0:0:0:0:
320,192,1727,1,0,0:0:0:0:
192,192,1727,1,0,0:0:0:0:
192,192,1899,128,0,1985:0:0:0:0:
64,192,1899,128,0,1985:0:0:0:0:
320,192,2071,1,0,0:0:0:0:
192,192,2071,1,0,0:0:0:0:
320,192,2244,1,0,0:0:0:0:
448,192,2416,1,0,0:0:0:0:
320,192,2416,1,0,0:0:0:0:
64,192,2416,1,0,0:0:0:0:
192,192,2416,1,0,0:0:0:0:
64,192,2761,1,0,0:0:0:0:
192,192,2761,1,0,0:0:0:0:
64,192,2934,1,0,0:0:0:0:
64,192,3106,1,0,0:0:0:0:
448,192,3106,1,0,0:0:0:0:
192,192,3278,128,0,3365:0:0:0:0:
448,192,3278,128,0,3365:0:0:0:0:
64,192,3451,1,0,0:0:0:0:
448,192,3451,1,0,0:0:0:0:
64,192,3623,1,0,0:0:0:0:
64,192,3796,1,0,0:0:0:0:
192,192,3796,1,0,0:0:0:0:
448,192,3796,1,0,0:0:0:0:
320,192,3796,1,0,0:0:0:0:
448,192,4140,1,0,0:0:0:0:
320,192,4140,1,0,0:0:0:0:
448,192,4313,1,0,0:0:0:0:
448,192,4485,1,0,0:0:0:0:
64,192,4485,1,0,0:0:0:0:
64,192,4658,1,0,0:0:0:0:
320,192,4744,128,0,4830:0:0:0:0:
192,192,4744,128,0,4830:0:0:0:0:
448,192,4830,1,0,0:0:0:0:
64,192,4830,1,0,0:0:0:0:
448,192,5003,128,0,5089:0:0:0:0:
320,192,5003,1,0,0:0:0:0:
448,192,5175,1,0,0:0:0:0:
64,192,5175,1,0,0:0:0:0:
320,192,5175,1,0,0:0:0:0:
192,192,5175,1,0,0:0:0:0:
192,192,5347,1,0,0:0:0:0:
64,192,5347,1,0,0:0:0:0:
320,192,5520,1,0,0:0:0:0:
448,192,5520,1,0,0:0:0:0:
448,192,5692,1,0,0:0:0:0:
448,192,5865,1,0,0:0:0:0:
192,192,5865,1,0,0:0:0:0:
192,192,6037,128,0,6123:0:0:0:0:
320,192,6037,128,0,6123:0:0:0:0:
192,192,6209,1,0,0:0:0:0:
448,192,6209,1,0,0:0:0:0:
448,192,6382,1,0,0:0:0:0:
448,192,6554,1,0,0:0:0:0:
320,192,6554,1,0,0:0:0:0:
192,192,6554,1,0,0:0:0:0:
64,192,6554,1,0,0:0:0:0:
192,192,6899,1,0,0:0:0:0:
64,192,6899,1,0,0:0:0:0:
64,192,7071,1,0,0:0:0:0:
64,192,7244,1,0,0:0:0:0:
320,192,7244,1,0,0:0:0:0:
320,192,7416,128,0,7503:0:0:0:0:
192,192,7416,128,0,7503:0:0:0:0:
320,192,7589,1,0,0:0:0:0:
64,192,7589,1,0,0:0:0:0:
64,192,7761,1,0,0:0:0:0:
64,192,7934,1,0,0:0:0:0:
192,192,7934,1,0,0:0:0:0:
448,192,7934,1,0,0:0:0:0:
320,192,7934,1,0,0:0:0:0:
320,192,8278,1,0,0:0:0:0:
448,192,8278,1,0,0:0:0:0:
320,192,8451,1,0,0:0:0:0:
320,192,8623,1,0,0:0:0:0:
192,192,8623,1,0,0:0:0:0:
192,192,8796,128,0,8882:0:0:0:0:
64,192,8796,128,0,8882:0:0:0:0:
192,192,8968,1,0,0:0:0:0:
320,192,8968,1,0,0:0:0:0:
320,192,9140,1,0,0:0:0:0:
448,192,9313,1,0,0:0:0:0:
320,192,9313,1,0,0:0:0:0:
192,192,9313,1,0,0:0:0:0:
64,192,9313,1,0,0:0:0:0:
192,192,9658,1,0,0:0:0:0:
64,192,9658,1,0,0:0:0:0:
192,192,9830,1,0,0:0:0:0:
192,192,10003,1,0,0:0:0:0:
320,192,10003,1,0,0:0:0:0:
320,192,10175,1,0,0:0:0:0:
64,192,10261,128,0,10347:0:0:0:0:
448,192,10261,128,0,10347:0:0:0:0:
320,192,10347,1,0,0:0:0:0:
192,192,10347,1,0,0:0:0:0:
192,192,10520,128,0,10606:0:0:0:0:
64,192,10520,1,0,0:0:0:0:
320,192,10692,1,0,0:0:0:0:
192,192,10692,1,0,0:0:0:0:
448,192,10692,1,0,0:0:0:0:
64,192,10692,1,0,0:0:0:0:
448,192,10865,1,0,0:0:0:0:
320,192,10865,1,0,0:0:0:0:
192,192,11037,1,0,0:0:0:0:
64,192,11037,1,0,0:0:0:0:
192,192,11209,1,0,0:0:0:0:
320,192,11360,1,0,0:0:0:0:
192,192,11382,1,0,0:0:0:0:
448,192,11382,1,0,0:0:0:0:
448,192,11554,128,0,11640:0:0:0:0:
64,192,11554,128,0,11640:0:0:0:0:
192,192,11727,1,0,0:0:0:0:
448,192,11727,1,0,0:0:0:0:
192,192,11899,1,0,0:0:0:0:
192,192,12043,1,0,0:0:0:0:
320,192,12050,1,0,0:0:0:0:
448,192,12071,1,0,0:0:0:0:
64,192,12071,1,0,0:0:0:0:
448,192,12416,1,0,0:0:0:0:
320,192,12416,1,0,0:0:0:0:
448,192,12589,1,0,0:0:0:0:
192,192,12740,1,0,0:0:0:0:
448,192,12761,1,0,0:0:0:0:
64,192,12761,1,0,0:0:0:0:
320,192,12934,128,0,13020:0:0:0:0:
64,192,12934,128,0,13020:0:0:0:0:
448,192,13106,1,0,0:0:0:0:
64,192,13106,1,0,0:0:0:0:
448,192,13278,1,0,0:0:0:0:
192,192,13422,1,0,0:0:0:0:
448,192,13429,1,0,0:0:0:0:
64,192,13451,1,0,0:0:0:0:
320,192,13451,1,0,0:0:0:0:
64,192,13796,1,0,0:0:0:0:
192,192,13796,1,0,0:0:0:0:
64,192,13968,1,0,0:0:0:0:
448,192,14119,1,0,0:0:0:0:
64,192,14140,1,0,0:0:0:0:
320,192,14140,1,0,0:0:0:0:
320,192,14313,128,0,14399:0:0:0:0:
192,192,14313,128,0,14399:0:0:0:0:
64,192,14485,1,0,0:0:0:0:
320,192,14485,1,0,0:0:0:0:
64,192,14658,1,0,0:0:0:0:
448,192,14801,1,0,0:0:0:0:
64,192,14809,1,0,0:0:0:0:
192,192,14830,1,0,0:0:0:0:
320,192,14830,1,0,0:0:0:0:
320,192,15175,1,0,0:0:0:0:
448,192,15175,1,0,0:0:0:0:
320,192,15347,1,0,0:0:0:0:
64,192,15498,1,0,0:0:0:0:
320,192,15520,1,0,0:0:0:0:
192,192,15520,1,0,0:0:0:0:
192,192,15692,1,0,0:0:0:0:
64,192,15778,128,0,15865:0:0:0:0:
320,192,15778,128,0,15865:0:0:0:0:
448,192,15865,1,0,0:0:0:0:
192,192,15865,1,0,0:0:0:0:
448,192,16037,1,0,0:0:0:0:
320,192,16037,1,0,0:0:0:0:
448,192,16181,1,0,0:0:0:0:
192,192,16188,1,0,0:0:0:0:
320,192,16209,1,0,0:0:0:0:
64,192,16209,1,0,0:0:0:0:
64,192,16382,1,0,0:0:0:0:
192,192,16382,128,0,16468:0:0:0:0:
320,192,16554,1,0,0:0:0:0:
448,192,16554,1,0,0:0:0:0:
320,192,16727,1,0,0:0:0:0:
192,192,16878,1,0,0:0:0:0:
320,192,16899,1,0,0:0:0:0:
64,192,16899,1,0,0:0:0:0:
64,192,17071,128,0,17158:0:0:0:0:
448,192,17071,128,0,17158:0:0:0:0:
320,192,17244,1,0,0:0:0:0:
64,192,17244,1,0,0:0:0:0:
320,192,17416,1,0,0:0:0:0:
320,192,17560,1,0,0:0:0:0:
192,192,17567,1,0,0:0:0:0:
448,192,17589,1,0,0:0:0:0:
64,192,17589,1,0,0:0:0:0:
192,192,17934,1,0,0:0:0:0:
64,192,17934,1,0,0:0:0:0:
192,192,18106,1,0,0:0:0:0:
448,192,18257,1,0,0:0:0:0:
192,192,18278,1,0,0:0:0:0:
320,192,18278,1,0,0:0:0:0:
64,192,18451,128,0,18537:0:0:0:0:
320,192,18451,128,0,18537:0:0:0:0:
320,192,18623,1,0,0:0:0:0:
192,192,18623,1,0,0:0:0:0:
192,192,18796,1,0,0:0:0:0:
448,192,18939,1,0,0:0:0:0:
192,192,18946,1,0,0:0:0:0:
64,192,18968,1,0,0:0:0:0:
320,192,18968,1,0,0:0:0:0:
448,192,19313,1,0,0:0:0:0:
320,192,19313,1,0,0:0:0:0:
448,192,19485,1,0,0:0:0:0:
64,192,19636,1,0,0:0:0:0:
448,192,19658,1,0,0:0:0:0:
192,192,19658,1,0,0:0:0:0:
320,192,19830,128,0,19916:0:0:0:0:
192,192,19830,128,0,19916:0:0:0:0:
448,192,20003,1,0,0:0:0:0:
192,192,20003,1,0,0:0:0:0:
448,192,20175,1,0,0:0:0:0:
448,192,20319,1,0,0:0:0:0:
64,192,20326,1,0,0:0:0:0:
192,192,20347,1,0,0:0:0:0:
320,192,20347,1,0,0:0:0:0:
64,192,20692,1,0,0:0:0:0:
192,192,20692,1,0,0:0:0:0:
64,192,20865,1,0,0:0:0:0:
320,192,21015,1,0,0:0:0:0:
448,192,21037,1,0,0:0:0:0:
64,192,21037,1,0,0:0:0:0:
448,192,21209,1,0,0:0:0:0:
192,192,21296,128,0,21382:0:0:0:0:
320,192,21296,128,0,21382:0:0:0:0:
64,192,21382,1,0,0:0:0:0:
448,192,21382,1,0,0:0:0:0:
64,192,21554,128,0,21640:0:0:0:0:
192,192,21554,1,0,0:0:0:0:
64,192,21727,1,0,0:0:0:0:
192,192,21727,1,0,0:0:0:0:
448,192,21727,1,0,0:0:0:0:
320,192,21727,1,0,0:0:0:0:
320,192,21899,1,0,0:0:0:0:
448,192,21899,1,0,0:0:0:0:
192,192,22071,1,0,0:0:0:0:
64,192,22071,1,0,0:0:0:0:
448,192,22071,1,0,0:0:0:0:
192,192,22244,1,0,0:0:0:0:
320,192,22244,1,0,0:0:0:0:
192,192,22416,1,0,0:0:0:0:
64,192,22416,1,0,0:0:0:0:
192,192,22589,128,0,22675:0:0:0:0:
448,192,22589,128,0,22675:0:0:0:0:
192,192,22761,1,0,0:0:0:0:
64,192,22761,1,0,0:0:0:0:
192,192,22934,1,0,0:0:0:0:
320,192,22934,1,0,0:0:0:0:
320,192,23106,1,0,0:0:0:0:
64,192,23106,1,0,0:0:0:0:
448,192,23106,1,0,0:0:0:0:
192,192,23106,1,0,0:0:0:0:
192,192,23278,1,0,0:0:0:0:
320,192,23278,1,0,0:0:0:0:
192,192,23451,1,0,0:0:0:0:
64,192,23451,1,0,0:0:0:0:
192,192,23623,1,0,0:0:0:0:
320,192,23623,1,0,0:0:0:0:
192,192,23796,1,0,0:0:0:0:
64,192,23796,1,0,0:0:0:0:
448,192,23968,128,0,24054:0:0:0:0:
192,192,23968,128,0,24054:0:0:0:0:
192,192,24140,1,0,0:0:0:0:
64,192,24140,1,0,0:0:0:0:
192,192,24313,1,0,0:0:0:0:
320,192,24313,1,0,0:0:0:0:
192,192,24485,1,0,0:0:0:0:
448,192,24485,1,0,0:0:0:0:
320,192,24485,1,0,0:0:0:0:
64,192,24485,1,0,0:0:0:0:
320,192,24830,1,0,0:0:0:0:
448,192,24830,1,0,0:0:0:0:
64,192,24830,1,0,0:0:0:0:
320,192,25003,1,0,0:0:0:0:
192,192,25003,1,0,0:0:0:0:
320,192,25175,1,0,0:0:0:0:
448,192,25175,1,0,0:0:0:0:
64,192,25347,128,0,25434:0:0:0:0:
320,192,25347,128,0,25434:0:0:0:0:
320,192,25520,1,0,0:0:0:0:
448,192,25520,1,0,0:0:0:0:
320,192,25692,1,0,0:0:0:0:
192,192,25692,1,0,0:0:0:0:
192,192,25865,1,0,0:0:0:0:
448,192,25865,1,0,0:0:0:0:
320,192,25865,1,0,0:0:0:0:
64,192,25865,1,0,0:0:0:0:
320,192,26037,1,0,0:0:0:0:
192,192,26037,1,0,0:0:0:0:
320,192,26209,1,0,0:0:0:0:
448,192,26209,1,0,0:0:0:0:
320,192,26382,1,0,0:0:0:0:
192,192,26382,1,0,0:0:0:0:
320,192,26554,1,0,0:0:0:0:
448,192,26554,1,0,0:0:0:0:
320,192,26727,1,0,0:0:0:0:
192,192,26813,128,0,26899:0:0:0:0:
64,192,26813,128,0,26899:0:0:0:0:
320,192,26899,1,0,0:0:0:0:
448,192,26899,1,0,0:0:0:0:
320,192,27071,1,0,0:0:0:0:
64,192,27071,1,0,0:0:0:0:
448,192,27071,1,0,0:0:0:0:
320,192,27244,1,0,0:0:0:0:
64,192,27244,1,0,0:0:0:0:
448,192,27244,1,0,0:0:0:0:
192,192,27244,1,0,0:0:0:0:
192,192,27416,1,0,0:0:0:0:
64,192,27589,1,0,0:0:0:0:
192,192,27589,1,0,0:0:0:0:
320,192,27589,1,0,0:0:0:0:
64,192,27761,1,0,0:0:0:0:
448,192,27761,1,0,0:0:0:0:
64,192,27934,1,0,0:0:0:0:
192,192,27934,1,0,0:0:0:0:
320,192,28106,128,0,28192:0:0:0:0:
64,192,28106,128,0,28192:0:0:0:0:
64,192,28278,1,0,0:0:0:0:
192,192,28278,1,0,0:0:0:0:
64,192,28451,1,0,0:0:0:0:
448,192,28451,1,0,0:0:0:0:
192,192,28623,1,0,0:0:0:0:
448,192,28623,1,0,0:0:0:0:
320,192,28623,1,0,0:0:0:0:
64,192,28623,1,0,0:0:0:0:
64,192,28796,1,0,0:0:0:0:
448,192,28796,1,0,0:0:0:0:
64,192,28968,1,0,0:0:0:0:
192,192,28968,1,0,0:0:0:0:
64,192,29140,1,0,0:0:0:0:
448,192,29140,1,0,0:0:0:0:
64,192,29313,1,0,0:0:0:0:
192,192,29313,1,0,0:0:0:0:
320,192,29485,128,0,29571:0:0:0:0:
64,192,29485,128,0,29571:0:0:0:0:
64,192,29658,1,0,0:0:0:0:
192,192,29658,1,0,0:0:0:0:
64,192,29830,1,0,0:0:0:0:
320,192,29830,1,0,0:0:0:0:
448,192,30003,1,0,0:0:0:0:
320,192,30003,1,0,0:0:0:0:
192,192,30003,1,0,0:0:0:0:
64,192,30003,1,0,0:0:0:0:
192,192,30175,1,0,0:0:0:0:
320,192,30232,1,0,0:0:0:0:
64,192,30290,1,0,0:0:0:0:
448,192,30347,1,0,0:0:0:0:
320,192,30347,1,0,0:0:0:0:
192,192,30347,1,0,0:0:0:0:
448,192,30520,1,0,0:0:0:0:
64,192,30520,1,0,0:0:0:0:
448,192,30692,1,0,0:0:0:0:
320,192,30692,1,0,0:0:0:0:
192,192,30865,128,0,30951:0:0:0:0:
448,192,30865,128,0,30951:0:0:0:0:
448,192,31037,1,0,0:0:0:0:
320,192,31037,1,0,0:0:0:0:
448,192,31209,1,0,0:0:0:0:
64,192,31209,1,0,0:0:0:0:
320,192,31382,1,0,0:0:0:0:
64,192,31382,1,0,0:0:0:0:
448,192,31382,1,0,0:0:0:0:
192,192,31382,1,0,0:0:0:0:
448,192,31554,1,0,0:0:0:0:
64,192,31554,1,0,0:0:0:0:
320,192,31727,1,0,0:0:0:0:
192,192,31727,1,0,0:0:0:0:
64,192,31727,1,0,0:0:0:0:
192,192,32071,1,0,0:0:0:0:
64,192,32071,1,0,0:0:0:0:
448,192,32071,1,0,0:0:0:0:
192,192,32330,1,0,0:0:0:0:
320,192,32416,1,0,0:0:0:0:
448,192,32416,1,0,0:0:0:0:
64,192,32416,1,0,0:0:0:0:
192,192,32503,1,0,0:0:0:0:
448,192,32589,1,0,0:0:0:0:
320,192,32632,1,0,0:0:0:0:
64,192,32675,1,0,0:0:0:0:
320,192,32761,1,0,0:0:0:0:
448,192,32761,1,0,0:0:0:0:
192,192,32761,1,0,0:0:0:0:
448,192,32934,1,0,0:0:0:0:
192,192,32934,128,0,33106:0:0:0:0:
448,192,33106,1,0,0:0:0:0:
64,192,33106,1,0,0:0:0:0:
320,192,33106,128,0,33192:0:0:0:0:
192,192,33278,1,0,0:0:0:0:
320,192,33278,128,0,33365:0:0:0:0:
448,192,33451,1,0,0:0:0:0:
320,192,33451,128,0,33537:0:0:0:0:
320,192,33623,128,0,33709:0:0:0:0:
64,192,33623,128,0,33709:0:0:0:0:
448,192,33796,1,0,0:0:0:0:
320,192,33796,128,0,33882:0:0:0:0:
192,192,33968,1,0,0:0:0:0:
320,192,33968,128,0,34054:0:0:0:0:
192,192,34140,1,0,0:0:0:0:
448,192,34140,1,0,0:0:0:0:
320,192,34140,128,0,34227:0:0:0:0:
64,192,34140,1,0,0:0:0:0:
192,192,34313,1,0,0:0:0:0:
320,192,34313,128,0,34399:0:0:0:0:
448,192,34485,1,0,0:0:0:0:
320,192,34485,128,0,34571:0:0:0:0:
192,192,34658,1,0,0:0:0:0:
320,192,34658,128,0,34744:0:0:0:0:
448,192,34830,1,0,0:0:0:0:
320,192,34830,128,0,34916:0:0:0:0:
320,192,35003,128,0,35089:0:0:0:0:
64,192,35003,128,0,35089:0:0:0:0:
448,192,35175,1,0,0:0:0:0:
320,192,35175,128,0,35261:0:0:0:0:
192,192,35347,1,0,0:0:0:0:
320,192,35347,128,0,35434:0:0:0:0:
192,192,35520,1,0,0:0:0:0:
448,192,35520,1,0,0:0:0:0:
320,192,35520,1,0,0:0:0:0:
64,192,35520,128,0,35606:0:0:0:0:
320,192,35692,1,0,0:0:0:0:
64,192,35865,1,0,0:0:0:0:
448,192,35865,1,0,0:0:0:0:
192,192,35865,128,0,35951:0:0:0:0:
320,192,36037,1,0,0:0:0:0:
192,192,36037,128,0,36123:0:0:0:0:
64,192,36209,1,0,0:0:0:0:
192,192,36209,128,0,36296:0:0:0:0:
192,192,36382,128,0,36468:0:0:0:0:
448,192,36382,128,0,36468:0:0:0:0:
64,192,36554,1,0,0:0:0:0:
192,192,36554,128,0,36640:0:0:0:0:
320,192,36727,1,0,0:0:0:0:
192,192,36727,128,0,36813:0:0:0:0:
320,192,36899,1,0,0:0:0:0:
64,192,36899,1,0,0:0:0:0:
448,192,36899,1,0,0:0:0:0:
192,192,36899,128,0,36985:0:0:0:0:
320,192,37071,1,0,0:0:0:0:
192,192,37071,128,0,37158:0:0:0:0:
64,192,37244,1,0,0:0:0:0:
192,192,37244,128,0,37330:0:0:0:0:
192,192,37416,128,0,37503:0:0:0:0:
320,192,37416,1,0,0:0:0:0:
64,192,37589,1,0,0:0:0:0:
192,192,37589,128,0,37675:0:0:0:0:
192,192,37761,128,0,37847:0:0:0:0:
320,192,37847,128,0,37934:0:0:0:0:
448,192,37847,128,0,37934:0:0:0:0:
64,192,37934,1,0,0:0:0:0:
192,192,37934,128,0,38020:0:0:0:0:
192,192,38106,1,0,0:0:0:0:
64,192,38106,128,0,38192:0:0:0:0:
320,192,38106,1,0,0:0:0:0:
448,192,38278,1,0,0:0:0:0:
64,192,38278,1,0,0:0:0:0:
320,192,38278,1,0,0:0:0:0:
192,192,38278,1,0,0:0:0:0:
448,192,38451,128,0,38537:0:0:0:0:
320,192,38623,1,0,0:0:0:0:
192,192,38623,1,0,0:0:0:0:
448,192,38623,128,0,38709:0:0:0:0:
64,192,38796,1,0,0:0:0:0:
448,192,38796,128,0,38882:0:0:0:0:
320,192,38968,1,0,0:0:0:0:
448,192,38968,128,0,39054:0:0:0:0:
448,192,39140,128,0,39227:0:0:0:0:
192,192,39140,128,0,39227:0:0:0:0:
320,192,39313,1,0,0:0:0:0:
448,192,39313,128,0,39399:0:0:0:0:
64,192,39485,1,0,0:0:0:0:
448,192,39485,128,0,39571:0:0:0:0:
320,192,39658,1,0,0:0:0:0:
64,192,39658,1,0,0:0:0:0:
448,192,39658,128,0,39744:0:0:0:0:
192,192,39658,1,0,0:0:0:0:
64,192,39830,1,0,0:0:0:0:
448,192,39830,128,0,39916:0:0:0:0:
320,192,40003,1,0,0:0:0:0:
448,192,40003,128,0,40089:0:0:0:0:
64,192,40175,1,0,0:0:0:0:
448,192,40175,128,0,40261:0:0:0:0:
320,192,40347,1,0,0:0:0:0:
448,192,40347,128,0,40434:0:0:0:0:
448,192,40520,128,0,40606:0:0:0:0:
192,192,40520,128,0,40606:0:0:0:0:
320,192,40692,1,0,0:0:0:0:
448,192,40692,128,0,40778:0:0:0:0:
64,192,40865,1,0,0:0:0:0:
448,192,40865,128,0,40951:0:0:0:0:
64,192,41037,1,0,0:0:0:0:
320,192,41037,1,0,0:0:0:0:
192,192,41037,1,0,0:0:0:0:
448,192,41037,1,0,0:0:0:0:
320,192,41209,1,0,0:0:0:0:
192,192,41267,1,0,0:0:0:0:
448,192,41324,1,0,0:0:0:0:
320,192,41382,1,0,0:0:0:0:
64,192,41382,128,0,41468:0:0:0:0:
192,192,41382,1,0,0:0:0:0:
448,192,41554,1,0,0:0:0:0:
64,192,41554,128,0,41640:0:0:0:0:
192,192,41727,1,0,0:0:0:0:
64,192,41727,128,0,41813:0:0:0:0:
64,192,41899,128,0,41985:0:0:0:0:
320,192,41899,128,0,41985:0:0:0:0:
192,192,42071,1,0,0:0:0:0:
64,192,42071,128,0,42158:0:0:0:0:
448,192,42244,1,0,0:0:0:0:
64,192,42244,128,0,42330:0:0:0:0:
192,192,42416,1,0,0:0:0:0:
320,192,42416,1,0,0:0:0:0:
64,192,42416,128,0,42503:0:0:0:0:
448,192,42416,1,0,0:0:0:0:
320,192,42589,1,0,0:0:0:0:
64,192,42589,128,0,42675:0:0:0:0:
192,192,42761,1,0,0:0:0:0:
320,192,42761,1,0,0:0:0:0:
448,192,42761,128,0,42847:0:0:0:0:
448,192,42934,128,0,43020:0:0:0:0:
64,192,43106,128,0,43192:0:0:0:0:
192,192,43278,128,0,43365:0:0:0:0:
320,192,43451,128,0,43537:0:0:0:0:
448,192,43623,128,0,43709:0:0:0:0:
448,192,43796,1,0,0:0:0:0:
320,192,43796,1,0,0:0:0:0:
64,192,43796,1,0,0:0:0:0:
192,192,43796,1,0,0:0:0:0:
64,192,44140,128,0,44227:0:0:0:0:
448,192,44140,1,0,0:0:0:0:
64,192,44313,128,0,45347:0:0:0:0:
192,192,44313,1,0,0:0:0:0:
320,192,44485,1,0,0:0:0:0:
448,192,44658,1,0,0:0:0:0:
192,192,44830,1,0,0:0:0:0:
448,192,45003,1,0,0:0:0:0:
320,192,45175,1,0,0:0:0:0:
448,192,45347,128,0,45606:0:0:0:0:
192,192,45347,1,0,0:0:0:0:
64,192,45520,1,0,0:0:0:0:
448,192,45692,128,0,46640:0:0:0:0:
192,192,45692,1,0,0:0:0:0:
320,192,45865,1,0,0:0:0:0:
64,192,46037,1,0,0:0:0:0:
320,192,46209,1,0,0:0:0:0:
192,192,46382,1,0,0:0:0:0:
64,192,46554,1,0,0:0:0:0:
448,192,46727,128,0,46899:0:0:0:0:
320,192,46727,1,0,0:0:0:0:
64,192,46899,128,0,46985:0:0:0:0:
192,192,46899,1,0,0:0:0:0:
64,192,47071,128,0,47847:0:0:0:0:
448,192,47071,1,0,0:0:0:0:
320,192,47244,1,0,0:0:0:0:
192,192,47416,1,0,0:0:0:0:
448,192,47589,1,0,0:0:0:0:
192,192,47761,1,0,0:0:0:0:
64,192,47934,128,0,48106:0:0:0:0:
320,192,47934,1,0,0:0:0:0:
448,192,48106,128,0,48278:0:0:0:0:
192,192,48106,128,0,48278:0:0:0:0:
320,192,48278,128,0,48451:0:0:0:0:
192,192,48451,128,0,48623:0:0:0:0:
448,192,48451,1,0,0:0:0:0:
320,192,48623,128,0,48796:0:0:0:0:
448,192,48623,1,0,0:0:0:0:
448,192,48796,128,0,49054:0:0:0:0:
192,192,48796,128,0,48968:0:0:0:0:
64,192,48968,128,0,49140:0:0:0:0:
448,192,49140,128,0,49399:0:0:0:0:
192,192,49140,1,0,0:0:0:0:
64,192,49313,128,0,49485:0:0:0:0:
448,192,49485,128,0,49658:0:0:0:0:
192,192,49485,1,0,0:0:0:0:
64,192,49658,128,0,49744:0:0:0:0:
320,192,49658,128,0,49830:0:0:0:0:
64,192,49830,128,0,50865:0:0:0:0:
192,192,49830,128,0,50003:0:0:0:0:
320,192,50003,128,0,50175:0:0:0:0:
192,192,50175,128,0,50347:0:0:0:0:
448,192,50347,128,0,50520:0:0:0:0:
192,192,50520,128,0,50692:0:0:0:0:
448,192,50692,128,0,50865:0:0:0:0:
320,192,50865,128,0,51037:0:0:0:0:
192,192,50865,128,0,51037:0:0:0:0:
64,192,51037,128,0,51209:0:0:0:0:
448,192,51209,128,0,52071:0:0:0:0:
320,192,51209,128,0,51382:0:0:0:0:
64,192,51382,128,0,51554:0:0:0:0:
320,192,51554,128,0,51727:0:0:0:0:
192,192,51727,128,0,51899:0:0:0:0:
320,192,51899,128,0,52071:0:0:0:0:
192,192,52071,128,0,52244:0:0:0:0:
448,192,52244,128,0,52416:0:0:0:0:
320,192,52244,128,0,52416:0:0:0:0:
192,192,52416,128,0,52589:0:0:0:0:
64,192,52416,1,0,0:0:0:0:
64,192,52589,128,0,53278:0:0:0:0:
448,192,52589,128,0,52761:0:0:0:0:
192,192,52761,128,0,52934:0:0:0:0:
448,192,52934,128,0,53106:0:0:0:0:
320,192,53106,128,0,53278:0:0:0:0:
192,192,53278,128,0,53451:0:0:0:0:
64,192,53451,128,0,53623:0:0:0:0:
320,192,53451,128,0,53623:0:0:0:0:
192,192,53623,128,0,53796:0:0:0:0:
448,192,53623,128,0,53796:0:0:0:0:
320,192,53796,1,0,0:0:0:0:
448,192,53968,128,0,54140:0:0:0:0:
64,192,53968,128,0,54140:0:0:0:0:
320,192,54140,1,0,0:0:0:0:
448,192,54313,128,0,54485:0:0:0:0:
192,192,54313,128,0,54485:0:0:0:0:
320,192,54485,1,0,0:0:0:0:
448,192,54658,128,0,54830:0:0:0:0:
64,192,54658,128,0,54830:0:0:0:0:
320,192,54830,128,0,54916:0:0:0:0:
192,192,54830,128,0,55003:0:0:0:0:
192,192,55175,128,0,55261:0:0:0:0:
64,192,55175,1,0,0:0:0:0:
64,192,55347,128,0,56382:0:0:0:0:
320,192,55347,128,0,55606:0:0:0:0:
192,192,55520,128,0,55865:0:0:0:0:
320,192,55692,128,0,55951:0:0:0:0:
448,192,55865,128,0,56123:0:0:0:0:
320,192,56037,128,0,56296:0:0:0:0:
448,192,56209,128,0,56554:0:0:0:0:
320,192,56382,128,0,56554:0:0:0:0:
192,192,56382,1,0,0:0:0:0:
64,192,56554,128,0,56813:0:0:0:0:
320,192,56727,128,0,57761:0:0:0:0:
192,192,56727,128,0,56985:0:0:0:0:
64,192,56899,128,0,57244:0:0:0:0:
192,192,57071,128,0,57330:0:0:0:0:
448,192,57244,128,0,57503:0:0:0:0:
192,192,57416,128,0,57675:0:0:0:0:
448,192,57589,128,0,57761:0:0:0:0:
64,192,57761,1,0,0:0:0:0:
192,192,57761,128,0,57847:0:0:0:0:
320,192,57934,128,0,58192:0:0:0:0:
64,192,57934,1,0,0:0:0:0:
64,192,58106,128,0,58968:0:0:0:0:
192,192,58106,128,0,58365:0:0:0:0:
320,192,58278,128,0,58623:0:0:0:0:
192,192,58451,128,0,58709:0:0:0:0:
448,192,58623,128,0,58882:0:0:0:0:
192,192,58796,128,0,58968:0:0:0:0:
320,192,58968,1,0,0:0:0:0:
448,192,58968,128,0,59054:0:0:0:0:
192,192,59140,128,0,59313:0:0:0:0:
320,192,59140,128,0,59399:0:0:0:0:
64,192,59313,128,0,59485:0:0:0:0:
320,192,59485,128,0,59744:0:0:0:0:
192,192,59485,128,0,59571:0:0:0:0:
64,192,59658,128,0,59744:0:0:0:0:
192,192,59658,1,0,0:0:0:0:
320,192,59830,128,0,60089:0:0:0:0:
192,192,59830,128,0,60003:0:0:0:0:
448,192,60003,128,0,60261:0:0:0:0:
320,192,60175,128,0,60434:0:0:0:0:
192,192,60175,128,0,60347:0:0:0:0:
448,192,60347,128,0,60606:0:0:0:0:
320,192,60520,128,0,60692:0:0:0:0:
192,192,60520,1,0,0:0:0:0:
192,192,60692,128,0,60778:0:0:0:0:
64,192,60692,1,0,0:0:0:0:
64,192,60865,128,0,61899:0:0:0:0:
320,192,60865,128,0,61123:0:0:0:0:
192,192,61037,128,0,61382:0:0:0:0:
320,192,61209,128,0,61468:0:0:0:0:
448,192,61382,128,0,61640:0:0:0:0:
320,192,61554,128,0,61813:0:0:0:0:
448,192,61727,128,0,62071:0:0:0:0:
320,192,61899,128,0,62071:0:0:0:0:
192,192,61899,1,0,0:0:0:0:
64,192,62071,128,0,62244:0:0:0:0:
320,192,62244,128,0,63278:0:0:0:0:
192,192,62244,128,0,62503:0:0:0:0:
64,192,62416,128,0,62761:0:0:0:0:
192,192,62589,128,0,62847:0:0:0:0:
448,192,62761,128,0,63020:0:0:0:0:
192,192,62934,128,0,63192:0:0:0:0:
448,192,63106,128,0,63278:0:0:0:0:
192,192,63278,1,0,0:0:0:0:
64,192,63278,1,0,0:0:0:0:
320,192,63451,128,0,63537:0:0:0:0:
64,192,63451,1,0,0:0:0:0:
64,192,63623,128,0,64485:0:0:0:0:
192,192,63623,128,0,63882:0:0:0:0:
320,192,63796,128,0,63968:0:0:0:0:
192,192,63968,128,0,64227:0:0:0:0:
448,192,64140,128,0,64399:0:0:0:0:
192,192,64313,128,0,64485:0:0:0:0:
448,192,64485,128,0,64571:0:0:0:0:
320,192,64485,1,0,0:0:0:0:
192,192,64658,128,0,64744:0:0:0:0:
320,192,64658,1,0,0:0:0:0:
64,192,64830,128,0,65089:0:0:0:0:
192,192,65003,128,0,65261:0:0:0:0:
320,192,65003,128,0,65089:0:0:0:0:
64,192,65175,128,0,65434:0:0:0:0:
320,192,65175,1,0,0:0:0:0:
192,192,65347,128,0,65520:0:0:0:0:
320,192,65347,128,0,65434:0:0:0:0:
448,192,65520,128,0,65778:0:0:0:0:
64,192,65520,1,0,0:0:0:0:
320,192,65692,128,0,65951:0:0:0:0:
192,192,65692,128,0,65778:0:0:0:0:
448,192,65865,128,0,66123:0:0:0:0:
192,192,65865,1,0,0:0:0:0:
320,192,66037,128,0,66123:0:0:0:0:
192,192,66037,128,0,66123:0:0:0:0:
64,192,66209,5,0,0:0:0:0:
448,192,66209,128,0,66899:0:0:0:0:
64,192,66382,128,0,67244:0:0:0:0:
320,192,66382,1,0,0:0:0:0:
192,192,66554,1,0,0:0:0:0:
192,192,66899,128,0,67589:0:0:0:0:
448,192,67244,1,0,0:0:0:0:
64,192,67416,1,0,0:0:0:0:
320,192,67416,128,0,67589:0:0:0:0:
448,192,67589,128,0,68278:0:0:0:0:
64,192,67761,1,0,0:0:0:0:
320,192,67761,128,0,68623:0:0:0:0:
192,192,67934,1,0,0:0:0:0:
64,192,68278,128,0,68968:0:0:0:0:
192,192,68623,1,0,0:0:0:0:
320,192,68796,1,0,0:0:0:0:
448,192,68796,128,0,68968:0:0:0:0:
192,192,68968,1,0,0:0:0:0:
320,192,68968,128,0,69658:0:0:0:0:
192,192,69140,1,0,0:0:0:0:
64,192,69140,128,0,70003:0:0:0:0:
448,192,69313,1,0,0:0:0:0:
192,192,69658,128,0,70347:0:0:0:0:
320,192,70003,1,0,0:0:0:0:
448,192,70003,1,0,0:0:0:0:
64,192,70175,1,0,0:0:0:0:
320,192,70175,128,0,70347:0:0:0:0:
448,192,70347,128,0,71037:0:0:0:0:
192,192,70520,1,0,0:0:0:0:
320,192,70520,1,0,0:0:0:0:
192,192,70692,1,0,0:0:0:0:
320,192,70692,1,0,0:0:0:0:
320,192,70865,1,0,0:0:0:0:
192,192,70865,128,0,71037:0:0:0:0:
64,192,71037,128,0,71727:0:0:0:0:
192,192,71209,1,0,0:0:0:0:
320,192,71209,128,0,71382:0:0:0:0:
448,192,71382,1,0,0:0:0:0:
320,192,71554,1,0,0:0:0:0:
192,192,71554,128,0,71727:0:0:0:0:
448,192,71727,128,0,72416:0:0:0:0:
320,192,71727,1,0,0:0:0:0:
320,192,71899,1,0,0:0:0:0:
64,192,71899,128,0,72761:0:0:0:0:
192,192,72071,1,0,0:0:0:0:
192,192,72416,128,0,73106:0:0:0:0:
320,192,72761,1,0,0:0:0:0:
64,192,72934,1,0,0:0:0:0:
448,192,72934,128,0,73106:0:0:0:0:
320,192,73106,128,0,73796:0:0:0:0:
64,192,73278,1,0,0:0:0:0:
448,192,73278,128,0,74140:0:0:0:0:
192,192,73451,1,0,0:0:0:0:
64,192,73796,128,0,74485:0:0:0:0:
192,192,74140,1,0,0:0:0:0:
448,192,74313,1,0,0:0:0:0:
320,192,74313,128,0,74485:0:0:0:0:
448,192,74485,128,0,75175:0:0:0:0:
192,192,74485,1,0,0:0:0:0:
320,192,74658,1,0,0:0:0:0:
192,192,74658,128,0,75520:0:0:0:0:
64,192,74830,1,0,0:0:0:0:
64,192,75175,128,0,75865:0:0:0:0:
320,192,75520,1,0,0:0:0:0:
448,192,75520,1,0,0:0:0:0:
192,192,75692,1,0,0:0:0:0:
320,192,75692,128,0,75865:0:0:0:0:
448,192,75865,128,0,76554:0:0:0:0:
320,192,76037,1,0,0:0:0:0:
64,192,76037,128,0,76209:0:0:0:0:
192,192,76209,1,0,0:0:0:0:
64,192,76382,1,0,0:0:0:0:
320,192,76382,128,0,76554:0:0:0:0:
192,192,76554,128,0,77244:0:0:0:0:
320,192,76727,1,0,0:0:0:0:
64,192,76727,128,0,76899:0:0:0:0:
448,192,76899,1,0,0:0:0:0:
64,192,77071,1,0,0:0:0:0:
320,192,77071,128,0,77244:0:0:0:0:
64,192,77244,1,0,0:0:0:0:
448,192,77244,128,0,77934:0:0:0:0:
320,192,77416,1,0,0:0:0:0:
64,192,77416,128,0,78278:0:0:0:0:
192,192,77589,1,0,0:0:0:0:
192,192,77934,128,0,78623:0:0:0:0:
320,192,77934,1,0,0:0:0:0:
320,192,78278,1,0,0:0:0:0:
64,192,78451,1,0,0:0:0:0:
448,192,78451,128,0,78623:0:0:0:0:
320,192,78623,128,0,79313:0:0:0:0:
64,192,78796,1,0,0:0:0:0:
448,192,78796,128,0,79658:0:0:0:0:
192,192,78968,1,0,0:0:0:0:
192,192,79313,128,0,80003:0:0:0:0:
64,192,79313,1,0,0:0:0:0:
64,192,79658,1,0,0:0:0:0:
448,192,79830,1,0,0:0:0:0:
320,192,79830,128,0,80003:0:0:0:0:
448,192,80003,1,0,0:0:0:0:
64,192,80003,128,0,80692:0:0:0:0:
448,192,80175,1,0,0:0:0:0:
320,192,80175,128,0,81037:0:0:0:0:
192,192,80347,1,0,0:0:0:0:
448,192,80692,128,0,81382:0:0:0:0:
192,192,80692,1,0,0:0:0:0:
192,192,81037,1,0,0:0:0:0:
64,192,81037,1,0,0:0:0:0:
320,192,81209,1,0,0:0:0:0:
192,192,81209,128,0,81382:0:0:0:0:
64,192,81382,128,0,82071:0:0:0:0:
448,192,81554,1,0,0:0:0:0:
192,192,81554,1,0,0:0:0:0:
448,192,81727,1,0,0:0:0:0:
192,192,81727,1,0,0:0:0:0:
192,192,81899,1,0,0:0:0:0:
448,192,81899,128,0,82071:0:0:0:0:
320,192,82071,128,0,82761:0:0:0:0:
448,192,82244,1,0,0:0:0:0:
192,192,82244,128,0,82416:0:0:0:0:
64,192,82416,1,0,0:0:0:0:
192,192,82589,1,0,0:0:0:0:
448,192,82589,128,0,82761:0:0:0:0:
192,192,82761,128,0,83451:0:0:0:0:
64,192,82761,1,0,0:0:0:0:
448,192,82934,1,0,0:0:0:0:
64,192,82934,128,0,83796:0:0:0:0:
320,192,83106,1,0,0:0:0:0:
448,192,83451,128,0,84140:0:0:0:0:
320,192,83451,1,0,0:0:0:0:
192,192,83796,1,0,0:0:0:0:
320,192,83968,1,0,0:0:0:0:
64,192,83968,128,0,84140:0:0:0:0:
192,192,84140,128,0,84830:0:0:0:0:
64,192,84313,1,0,0:0:0:0:
320,192,84313,128,0,85175:0:0:0:0:
448,192,84485,1,0,0:0:0:0:
448,192,84830,128,0,85520:0:0:0:0:
64,192,84830,1,0,0:0:0:0:
64,192,85175,1,0,0:0:0:0:
192,192,85347,1,0,0:0:0:0:
320,192,85347,128,0,85520:0:0:0:0:
64,192,85520,128,0,86209:0:0:0:0:
192,192,85520,1,0,0:0:0:0:
320,192,85692,1,0,0:0:0:0:
192,192,85692,128,0,86554:0:0:0:0:
448,192,85865,1,0,0:0:0:0:
448,192,86209,128,0,86899:0:0:0:0:
320,192,86209,1,0,0:0:0:0:
64,192,86554,1,0,0:0:0:0:
320,192,86554,1,0,0:0:0:0:
64,192,86727,1,0,0:0:0:0:
192,192,86727,1,0,0:0:0:0:
320,192,86899,1,0,0:0:0:0:
64,192,86899,1,0,0:0:0:0:
192,192,86899,1,0,0:0:0:0:
320,192,87071,1,0,0:0:0:0:
64,192,87071,128,0,87244:0:0:0:0:
448,192,87244,1,0,0:0:0:0:
192,192,87244,128,0,87416:0:0:0:0:
320,192,87416,1,0,0:0:0:0:
448,192,87416,128,0,87589:0:0:0:0:
192,192,87589,1,0,0:0:0:0:
64,192,87589,1,0,0:0:0:0:
320,192,87589,1,0,0:0:0:0:
448,192,87675,1,0,0:0:0:0:
192,192,87761,1,0,0:0:0:0:
64,192,87761,1,0,0:0:0:0:
320,192,87847,1,0,0:0:0:0:
192,192,87934,1,0,0:0:0:0:
448,192,87934,1,0,0:0:0:0:
320,192,88020,1,0,0:0:0:0:
192,192,88106,1,0,0:0:0:0:
64,192,88106,1,0,0:0:0:0:
448,192,88192,1,0,0:0:0:0:
320,192,88278,1,0,0:0:0:0:
64,192,88278,1,0,0:0:0:0:
192,192,88278,1,0,0:0:0:0:
64,192,88451,1,0,0:0:0:0:
320,192,88451,128,0,88537:0:0:0:0:
320,192,88623,1,0,0:0:0:0:
448,192,88623,1,0,0:0:0:0:
448,192,88796,1,0,0:0:0:0:
192,192,88796,128,0,88882:0:0:0:0:
192,192,88968,1,0,0:0:0:0:
64,192,88968,1,0,0:0:0:0:
448,192,89140,128,0,89227:0:0:0:0:
64,192,89140,1,0,0:0:0:0:
320,192,89313,1,0,0:0:0:0:
448,192,89313,1,0,0:0:0:0:
64,192,89485,128,0,89571:0:0:0:0:
448,192,89485,1,0,0:0:0:0:
192,192,89658,1,0,0:0:0:0:
64,192,89658,1,0,0:0:0:0:
448,192,89830,1,0,0:0:0:0:
192,192,89830,128,0,89916:0:0:0:0:
320,192,90003,1,0,0:0:0:0:
448,192,90003,1,0,0:0:0:0:
64,192,90175,1,0,0:0:0:0:
320,192,90175,128,0,90261:0:0:0:0:
192,192,90347,1,0,0:0:0:0:
64,192,90347,1,0,0:0:0:0:
64,192,90520,128,0,90606:0:0:0:0:
448,192,90520,1,0,0:0:0:0:
320,192,90692,1,0,0:0:0:0:
448,192,90692,1,0,0:0:0:0:
448,192,90865,128,0,90951:0:0:0:0:
64,192,90865,1,0,0:0:0:0:
320,192,91037,1,0,0:0:0:0:
192,192,91037,1,0,0:0:0:0:
64,192,91209,1,0,0:0:0:0:
192,192,91209,128,0,91296:0:0:0:0:
192,192,91382,1,0,0:0:0:0:
320,192,91382,1,0,0:0:0:0:
448,192,91554,1,0,0:0:0:0:
320,192,91554,128,0,91640:0:0:0:0:
320,192,91727,1,0,0:0:0:0:
192,192,91727,1,0,0:0:0:0:
192,192,91899,1,0,0:0:0:0:
64,192,91899,128,0,91985:0:0:0:0:
192,192,92071,1,0,0:0:0:0:
320,192,92071,1,0,0:0:0:0:
320,192,92244,1,0,0:0:0:0:
448,192,92244,128,0,92330:0:0:0:0:
448,192,92416,1,0,0:0:0:0:
64,192,92416,1,0,0:0:0:0:
64,192,92589,1,0,0:0:0:0:
192,192,92589,128,0,92675:0:0:0:0:
64,192,92761,1,0,0:0:0:0:
448,192,92761,1,0,0:0:0:0:
448,192,92934,1,0,0:0:0:0:
320,192,92934,128,0,93020:0:0:0:0:
448,192,93106,1,0,0:0:0:0:
64,192,93106,1,0,0:0:0:0:
192,192,93278,1,0,0:0:0:0:
64,192,93278,128,0,93365:0:0:0:0:
64,192,93451,1,0,0:0:0:0:
448,192,93451,1,0,0:0:0:0:
320,192,93623,1,0,0:0:0:0:
448,192,93623,128,0,93709:0:0:0:0:
192,192,93796,1,0,0:0:0:0:
64,192,93796,1,0,0:0:0:0:
448,192,93968,1,0,0:0:0:0:
192,192,93968,128,0,94054:0:0:0:0:
64,192,94140,1,0,0:0:0:0:
192,192,94140,1,0,0:0:0:0:
64,192,94313,1,0,0:0:0:0:
320,192,94313,128,0,94399:0:0:0:0:
320,192,94485,1,0,0:0:0:0:
448,192,94485,1,0,0:0:0:0:
64,192,94658,128,0,94744:0:0:0:0:
320,192,94658,1,0,0:0:0:0:
320,192,94830,1,0,0:0:0:0:
192,192,94830,1,0,0:0:0:0:
448,192,95003,128,0,95089:0:0:0:0:
192,192,95003,1,0,0:0:0:0:
320,192,95175,1,0,0:0:0:0:
448,192,95175,1,0,0:0:0:0:
64,192,95347,1,0,0:0:0:0:
320,192,95347,128,0,95434:0:0:0:0:
448,192,95520,1,0,0:0:0:0:
320,192,95520,1,0,0:0:0:0:
448,192,95692,1,0,0:0:0:0:
192,192,95692,128,0,95778:0:0:0:0:
192,192,95865,1,0,0:0:0:0:
64,192,95865,1,0,0:0:0:0:
448,192,96037,128,0,96123:0:0:0:0:
192,192,96037,1,0,0:0:0:0:
192,192,96209,1,0,0:0:0:0:
320,192,96209,1,0,0:0:0:0:
64,192,96382,128,0,96468:0:0:0:0:
320,192,96382,1,0,0:0:0:0:
192,192,96554,1,0,0:0:0:0:
64,192,96554,1,0,0:0:0:0:
448,192,96727,1,0,0:0:0:0:
192,192,96727,128,0,96813:0:0:0:0:
64,192,96899,1,0,0:0:0:0:
192,192,96899,1,0,0:0:0:0:
64,192,97071,1,0,0:0:0:0:
320,192,97071,128,0,97158:0:0:0:0:
320,192,97244,1,0,0:0:0:0:
448,192,97244,1,0,0:0:0:0:
64,192,97416,128,0,97503:0:0:0:0:
320,192,97416,1,0,0:0:0:0:
320,192,97589,1,0,0:0:0:0:
192,192,97589,1,0,0:0:0:0:
448,192,97761,128,0,97847:0:0:0:0:
192,192,97761,1,0,0:0:0:0:
320,192,97934,1,0,0:0:0:0:
448,192,97934,1,0,0:0:0:0:
320,192,98106,1,0,0:0:0:0:
64,192,98106,128,0,98192:0:0:0:0:
448,192,98278,1,0,0:0:0:0:
320,192,98278,1,0,0:0:0:0:
448,192,98451,1,0,0:0:0:0:
192,192,98451,128,0,98537:0:0:0:0:
192,192,98623,1,0,0:0:0:0:
64,192,98623,1,0,0:0:0:0:
448,192,98709,128,0,98796:0:0:0:0:
192,192,98796,1,0,0:0:0:0:
448,192,98968,1,0,0:0:0:0:
64,192,98968,1,0,0:0:0:0:
320,192,99140,128,0,99227:0:0:0:0:
448,192,99140,1,0,0:0:0:0:
192,192,99313,1,0,0:0:0:0:
64,192,99313,1,0,0:0:0:0:
320,192,99313,128,0,99485:0:0:0:0:
64,192,99485,1,0,0:0:0:0:
192,192,99485,1,0,0:0:0:0:
320,192,99658,1,0,0:0:0:0:
448,192,99658,1,0,0:0:0:0:
192,192,99658,128,0,99830:0:0:0:0:
320,192,99830,1,0,0:0:0:0:
448,192,99830,1,0,0:0:0:0:
192,192,100003,1,0,0:0:0:0:
64,192,100003,1,0,0:0:0:0:
320,192,100003,128,0,100175:0:0:0:0:
64,192,100175,1,0,0:0:0:0:
192,192,100175,1,0,0:0:0:0:
64,192,100347,1,0,0:0:0:0:
192,192,100347,1,0,0:0:0:0:
448,192,100347,1,0,0:0:0:0:
320,192,100347,1,0,0:0:0:0:
320,192,100520,1,0,0:0:0:0:
448,192,100692,128,0,100865:0:0:0:0:
192,192,100692,1,0,0:0:0:0:
64,192,100692,1,0,0:0:0:0:
192,192,100865,1,0,0:0:0:0:
64,192,100865,1,0,0:0:0:0:
64,192,101037,128,0,101209:0:0:0:0:
320,192,101037,1,0,0:0:0:0:
448,192,101037,1,0,0:0:0:0:
448,192,101209,1,0,0:0:0:0:
320,192,101209,1,0,0:0:0:0:
64,192,101382,1,0,0:0:0:0:
448,192,101382,128,0,101554:0:0:0:0:
192,192,101382,1,0,0:0:0:0:
320,192,101554,1,0,0:0:0:0:
64,192,101554,1,0,0:0:0:0:
320,192,101727,1,0,0:0:0:0:
64,192,101727,1,0,0:0:0:0:
192,192,101727,1,0,0:0:0:0:
448,192,101727,1,0,0:0:0:0:
192,192,101899,1,0,0:0:0:0:
448,192,101899,1,0,0:0:0:0:
192,192,102071,128,0,102244:0:0:0:0:
320,192,102071,1,0,0:0:0:0:
64,192,102071,1,0,0:0:0:0:
64,192,102244,1,0,0:0:0:0:
320,192,102244,1,0,0:0:0:0:
320,192,102416,128,0,102589:0:0:0:0:
192,192,102416,1,0,0:0:0:0:
448,192,102416,1,0,0:0:0:0:
448,192,102589,1,0,0:0:0:0:
192,192,102589,1,0,0:0:0:0:
192,192,102761,128,0,102934:0:0:0:0:
320,192,102761,1,0,0:0:0:0:
64,192,102761,1,0,0:0:0:0:
320,192,102934,1,0,0:0:0:0:
64,192,102934,1,0,0:0:0:0:
64,192,103106,1,0,0:0:0:0:
192,192,103106,1,0,0:0:0:0:
320,192,103106,1,0,0:0:0:0:
448,192,103106,1,0,0:0:0:0:
448,192,103278,1,0,0:0:0:0:
448,192,103451,128,0,103623:0:0:0:0:
320,192,103451,1,0,0:0:0:0:
192,192,103451,1,0,0:0:0:0:
320,192,103623,1,0,0:0:0:0:
192,192,103623,1,0,0:0:0:0:
320,192,103796,1,0,0:0:0:0:
192,192,103796,1,0,0:0:0:0:
64,192,103796,1,0,0:0:0:0:
64,192,103968,1,0,0:0:0:0:
448,192,104140,128,0,104313:0:0:0:0:
320,192,104140,1,0,0:0:0:0:
192,192,104140,1,0,0:0:0:0:
192,192,104313,1,0,0:0:0:0:
64,192,104313,1,0,0:0:0:0:
448,192,104485,1,0,0:0:0:0:
64,192,104485,1,0,0:0:0:0:
320,192,104485,1,0,0:0:0:0:
192,192,104485,1,0,0:0:0:0:
192,192,104658,1,0,0:0:0:0:
320,192,104658,1,0,0:0:0:0:
448,192,104830,1,0,0:0:0:0:
64,192,104830,1,0,0:0:0:0:
320,192,104830,128,0,105003:0:0:0:0:
64,192,105003,1,0,0:0:0:0:
448,192,105003,1,0,0:0:0:0:
448,192,105175,1,0,0:0:0:0:
64,192,105175,1,0,0:0:0:0:
192,192,105175,128,0,105347:0:0:0:0:
64,192,105347,1,0,0:0:0:0:
448,192,105347,1,0,0:0:0:0:
320,192,105520,1,0,0:0:0:0:
192,192,105520,1,0,0:0:0:0:
448,192,105520,128,0,105692:0:0:0:0:
320,192,105692,1,0,0:0:0:0:
192,192,105692,1,0,0:0:0:0:
64,192,105865,128,0,106037:0:0:0:0:
192,192,105865,1,0,0:0:0:0:
320,192,105865,1,0,0:0:0:0:
320,192,106037,1,0,0:0:0:0:
192,192,106037,1,0,0:0:0:0:
320,192,106209,128,0,106382:0:0:0:0:
192,192,106209,1,0,0:0:0:0:
448,192,106209,1,0,0:0:0:0:
448,192,106382,1,0,0:0:0:0:
192,192,106382,1,0,0:0:0:0:
192,192,106554,128,0,106727:0:0:0:0:
320,192,106554,1,0,0:0:0:0:
64,192,106554,1,0,0:0:0:0:
64,192,106727,1,0,0:0:0:0:
320,192,106727,1,0,0:0:0:0:
448,192,106899,128,0,107071:0:0:0:0:
192,192,106899,1,0,0:0:0:0:
64,192,106899,1,0,0:0:0:0:
192,192,107071,1,0,0:0:0:0:
64,192,107071,1,0,0:0:0:0:
320,192,107244,128,0,107416:0:0:0:0:
448,192,107244,1,0,0:0:0:0:
64,192,107244,1,0,0:0:0:0:
64,192,107416,1,0,0:0:0:0:
448,192,107416,1,0,0:0:0:0:
192,192,107589,128,0,107761:0:0:0:0:
320,192,107589,1,0,0:0:0:0:
448,192,107589,1,0,0:0:0:0:
448,192,107761,1,0,0:0:0:0:
320,192,107761,1,0,0:0:0:0:
64,192,107934,128,0,108106:0:0:0:0:
192,192,107934,1,0,0:0:0:0:
320,192,107934,1,0,0:0:0:0:
192,192,108106,1,0,0:0:0:0:
448,192,108106,1,0,0:0:0:0:
320,192,108278,128,0,108451:0:0:0:0:
192,192,108278,1,0,0:0:0:0:
64,192,108278,1,0,0:0:0:0:
448,192,108451,1,0,0:0:0:0:
64,192,108451,1,0,0:0:0:0:
192,192,108623,128,0,108796:0:0:0:0:
320,192,108623,1,0,0:0:0:0:
64,192,108623,1,0,0:0:0:0:
320,192,108796,1,0,0:0:0:0:
448,192,108796,1,0,0:0:0:0:
192,192,109658,1,0,0:0:0:0:
320,192,109658,1,0,0:0:0:0:
448,192,109658,1,0,0:0:0:0:
64,192,109830,1,0,0:0:0:0:
192,192,109830,1,0,0:0:0:0:
448,192,110003,1,0,0:0:0:0:
320,192,110003,1,0,0:0:0:0:
64,192,110003,1,0,0:0:0:0:
192,192,110089,1,0,0:0:0:0:
320,192,110175,1,0,0:0:0:0:
192,192,110347,1,0,0:0:0:0:
320,192,110347,128,0,110692:0:0:0:0:
64,192,110347,128,0,110434:0:0:0:0:
64,192,110520,128,0,110692:0:0:0:0:
448,192,110520,128,0,110606:0:0:0:0:
448,192,110692,128,0,110865:0:0:0:0:
192,192,110692,128,0,110778:0:0:0:0:
192,192,110865,128,0,111296:0:0:0:0:
320,192,110865,128,0,110951:0:0:0:0:
64,192,110865,128,0,111037:0:0:0:0:
320,192,111037,128,0,111123:0:0:0:0:
448,192,111037,128,0,111296:0:0:0:0:
320,192,111209,128,0,111425:0:0:0:0:
64,192,111209,128,0,111296:0:0:0:0:
64,192,111382,128,0,111468:0:0:0:0:
192,192,111382,1,0,0:0:0:0:
448,192,111382,128,0,111425:0:0:0:0:
320,192,111727,1,0,0:0:0:0:
64,192,111727,128,0,112071:0:0:0:0:
448,192,111727,128,0,111813:0:0:0:0:
448,192,111899,128,0,112071:0:0:0:0:
192,192,111899,128,0,111985:0:0:0:0:
192,192,112071,128,0,112244:0:0:0:0:
320,192,112071,128,0,112158:0:0:0:0:
320,192,112244,128,0,112675:0:0:0:0:
64,192,112244,128,0,112330:0:0:0:0:
448,192,112244,128,0,112416:0:0:0:0:
64,192,112416,128,0,112503:0:0:0:0:
192,192,112416,128,0,112675:0:0:0:0:
64,192,112589,128,0,112804:0:0:0:0:
448,192,112589,128,0,112675:0:0:0:0:
448,192,112761,128,0,112847:0:0:0:0:
320,192,112761,1,0,0:0:0:0:
192,192,112761,128,0,112804:0:0:0:0:
64,192,113106,1,0,0:0:0:0:
448,192,113106,128,0,113451:0:0:0:0:
192,192,113106,128,0,113192:0:0:0:0:
192,192,113278,128,0,113451:0:0:0:0:
320,192,113278,128,0,113365:0:0:0:0:
320,192,113451,128,0,113623:0:0:0:0:
64,192,113451,128,0,113537:0:0:0:0:
64,192,113623,128,0,114054:0:0:0:0:
448,192,113623,128,0,113709:0:0:0:0:
192,192,113623,128,0,113796:0:0:0:0:
448,192,113796,128,0,113882:0:0:0:0:
320,192,113796,128,0,114054:0:0:0:0:
448,192,113968,128,0,114184:0:0:0:0:
192,192,113968,128,0,114054:0:0:0:0:
192,192,114140,128,0,114227:0:0:0:0:
64,192,114140,1,0,0:0:0:0:
320,192,114140,128,0,114184:0:0:0:0:
320,192,114485,1,0,0:0:0:0:
192,192,114485,128,0,114830:0:0:0:0:
448,192,114485,128,0,114571:0:0:0:0:
448,192,114658,128,0,114830:0:0:0:0:
64,192,114658,128,0,114744:0:0:0:0:
64,192,114830,128,0,115003:0:0:0:0:
320,192,114830,128,0,114916:0:0:0:0:
192,192,115003,128,0,115089:0:0:0:0:
320,192,115003,128,0,115175:0:0:0:0:
448,192,115003,128,0,115089:0:0:0:0:
192,192,115175,128,0,115261:0:0:0:0:
64,192,115175,128,0,115434:0:0:0:0:
320,192,115261,128,0,115434:0:0:0:0:
192,192,115347,128,0,115563:0:0:0:0:
448,192,115347,128,0,115434:0:0:0:0:
448,192,115520,128,0,115606:0:0:0:0:
320,192,115520,1,0,0:0:0:0:
64,192,115520,128,0,115563:0:0:0:0:
192,192,115865,1,0,0:0:0:0:
448,192,115865,128,0,116209:0:0:0:0:
64,192,115865,128,0,115951:0:0:0:0:
64,192,116037,128,0,116209:0:0:0:0:
320,192,116037,128,0,116123:0:0:0:0:
320,192,116209,128,0,116382:0:0:0:0:
192,192,116209,128,0,116296:0:0:0:0:
192,192,116382,128,0,116813:0:0:0:0:
448,192,116382,128,0,116468:0:0:0:0:
64,192,116382,128,0,116554:0:0:0:0:
448,192,116554,128,0,116640:0:0:0:0:
320,192,116554,128,0,116813:0:0:0:0:
448,192,116727,128,0,116942:0:0:0:0:
64,192,116727,128,0,116813:0:0:0:0:
64,192,116899,128,0,116985:0:0:0:0:
192,192,116899,1,0,0:0:0:0:
320,192,116899,128,0,116942:0:0:0:0:
448,192,117244,1,0,0:0:0:0:
64,192,117244,128,0,117589:0:0:0:0:
320,192,117244,128,0,117330:0:0:0:0:
320,192,117416,128,0,117589:0:0:0:0:
192,192,117416,128,0,117503:0:0:0:0:
192,192,117589,128,0,117761:0:0:0:0:
448,192,117589,128,0,117675:0:0:0:0:
448,192,117761,128,0,118192:0:0:0:0:
64,192,117761,128,0,117847:0:0:0:0:
320,192,117761,128,0,117934:0:0:0:0:
64,192,117934,128,0,118020:0:0:0:0:
192,192,117934,128,0,118192:0:0:0:0:
64,192,118106,128,0,118321:0:0:0:0:
320,192,118106,128,0,118192:0:0:0:0:
448,192,118278,1,0,0:0:0:0:
192,192,118278,128,0,118321:0:0:0:0:
320,192,118278,128,0,118365:0:0:0:0:
64,192,118623,1,0,0:0:0:0:
320,192,118623,128,0,118968:0:0:0:0:
192,192,118623,128,0,118709:0:0:0:0:
192,192,118796,128,0,118968:0:0:0:0:
448,192,118796,128,0,118882:0:0:0:0:
448,192,118968,128,0,119140:0:0:0:0:
64,192,118968,128,0,119054:0:0:0:0:
64,192,119140,128,0,119571:0:0:0:0:
320,192,119140,128,0,119227:0:0:0:0:
192,192,119140,128,0,119313:0:0:0:0:
320,192,119313,128,0,119399:0:0:0:0:
448,192,119313,128,0,119571:0:0:0:0:
320,192,119485,128,0,119701:0:0:0:0:
192,192,119485,128,0,119571:0:0:0:0:
64,192,119658,1,0,0:0:0:0:
448,192,119658,128,0,119701:0:0:0:0:
192,192,119658,128,0,119744:0:0:0:0:
448,192,120003,1,0,0:0:0:0:
192,192,120003,128,0,120347:0:0:0:0:
320,192,120003,128,0,120089:0:0:0:0:
320,192,120175,128,0,120347:0:0:0:0:
64,192,120175,128,0,120261:0:0:0:0:
64,192,120347,128,0,120520:0:0:0:0:
448,192,120347,128,0,120434:0:0:0:0:
192,192,120520,128,0,120606:0:0:0:0:
448,192,120520,128,0,120692:0:0:0:0:
320,192,120520,128,0,120606:0:0:0:0:
192,192,120692,128,0,120778:0:0:0:0:
64,192,120692,128,0,120951:0:0:0:0:
448,192,120778,128,0,120951:0:0:0:0:
192,192,120865,128,0,121080:0:0:0:0:
320,192,120865,128,0,120951:0:0:0:0:
448,192,121037,1,0,0:0:0:0:
64,192,121037,128,0,121080:0:0:0:0:
320,192,121037,128,0,121123:0:0:0:0:
320,192,121382,128,0,121727:0:0:0:0:
64,192,121382,128,0,121468:0:0:0:0:
192,192,121382,1,0,0:0:0:0:
64,192,121554,128,0,121640:0:0:0:0:
448,192,121554,128,0,121727:0:0:0:0:
192,192,121727,128,0,121899:0:0:0:0:
64,192,121727,128,0,121813:0:0:0:0:
64,192,121899,128,0,122330:0:0:0:0:
320,192,121899,128,0,121985:0:0:0:0:
448,192,121899,128,0,122071:0:0:0:0:
320,192,122071,128,0,122158:0:0:0:0:
192,192,122071,128,0,122330:0:0:0:0:
320,192,122244,128,0,122330:0:0:0:0:
448,192,122244,128,0,122459:0:0:0:0:
320,192,122416,128,0,122459:0:0:0:0:
64,192,122416,128,0,122503:0:0:0:0:
192,192,122416,1,0,0:0:0:0:
64,192,122589,128,0,122675:0:0:0:0:
64,192,122761,128,0,123106:0:0:0:0:
448,192,122761,128,0,122847:0:0:0:0:
320,192,122761,1,0,0:0:0:0:
448,192,122934,128,0,123020:0:0:0:0:
192,192,122934,128,0,123106:0:0:0:0:
320,192,123106,128,0,123278:0:0:0:0:
448,192,123106,128,0,123192:0:0:0:0:
448,192,123278,128,0,123709:0:0:0:0:
64,192,123278,128,0,123365:0:0:0:0:
192,192,123278,128,0,123451:0:0:0:0:
64,192,123451,128,0,123537:0:0:0:0:
320,192,123451,128,0,123709:0:0:0:0:
64,192,123623,128,0,123709:0:0:0:0:
192,192,123623,128,0,123839:0:0:0:0:
64,192,123796,128,0,123839:0:0:0:0:
320,192,123796,1,0,0:0:0:0:
448,192,123796,128,0,123882:0:0:0:0:
448,192,123968,128,0,124054:0:0:0:0:
448,192,124140,128,0,124485:0:0:0:0:
192,192,124140,128,0,124227:0:0:0:0:
64,192,124140,1,0,0:0:0:0:
192,192,124313,128,0,124399:0:0:0:0:
320,192,124313,128,0,124485:0:0:0:0:
64,192,124485,128,0,124658:0:0:0:0:
192,192,124485,128,0,124571:0:0:0:0:
192,192,124658,128,0,125089:0:0:0:0:
448,192,124658,128,0,124744:0:0:0:0:
320,192,124658,128,0,124830:0:0:0:0:
448,192,124830,128,0,124916:0:0:0:0:
64,192,124830,128,0,125089:0:0:0:0:
448,192,125003,128,0,125089:0:0:0:0:
320,192,125003,128,0,125218:0:0:0:0:
448,192,125175,128,0,125218:0:0:0:0:
192,192,125175,128,0,125261:0:0:0:0:
64,192,125175,1,0,0:0:0:0:
192,192,125347,128,0,125434:0:0:0:0:
192,192,125520,128,0,125865:0:0:0:0:
320,192,125520,128,0,125606:0:0:0:0:
448,192,125520,1,0,0:0:0:0:
320,192,125692,128,0,125778:0:0:0:0:
64,192,125692,128,0,125865:0:0:0:0:
448,192,125865,128,0,126037:0:0:0:0:
320,192,125865,128,0,125951:0:0:0:0:
192,192,126037,128,0,126123:0:0:0:0:
64,192,126037,128,0,126209:0:0:0:0:
320,192,126037,128,0,126209:0:0:0:0:
192,192,126209,128,0,126296:0:0:0:0:
448,192,126209,128,0,126468:0:0:0:0:
320,192,126296,128,0,126468:0:0:0:0:
192,192,126382,128,0,126468:0:0:0:0:
64,192,126382,128,0,126597:0:0:0:0:
192,192,126554,128,0,126597:0:0:0:0:
448,192,126554,1,0,0:0:0:0:
320,192,126554,128,0,126640:0:0:0:0:
320,192,126727,128,0,126813:0:0:0:0:
320,192,126899,128,0,127244:0:0:0:0:
64,192,126899,128,0,126985:0:0:0:0:
192,192,126899,1,0,0:0:0:0:
64,192,127071,128,0,127158:0:0:0:0:
448,192,127071,128,0,127244:0:0:0:0:
192,192,127244,128,0,127416:0:0:0:0:
64,192,127244,128,0,127330:0:0:0:0:
64,192,127416,128,0,127847:0:0:0:0:
320,192,127416,128,0,127503:0:0:0:0:
448,192,127416,128,0,127589:0:0:0:0:
320,192,127589,128,0,127675:0:0:0:0:
192,192,127589,128,0,127847:0:0:0:0:
320,192,127761,128,0,127847:0:0:0:0:
448,192,127761,128,0,127977:0:0:0:0:
320,192,127934,128,0,127977:0:0:0:0:
64,192,127934,128,0,128020:0:0:0:0:
192,192,127934,1,0,0:0:0:0:
64,192,128106,128,0,128192:0:0:0:0:
64,192,128278,128,0,128623:0:0:0:0:
448,192,128278,128,0,128365:0:0:0:0:
320,192,128278,1,0,0:0:0:0:
448,192,128451,128,0,128537:0:0:0:0:
192,192,128451,128,0,128623:0:0:0:0:
320,192,128623,128,0,128796:0:0:0:0:
448,192,128623,128,0,128709:0:0:0:0:
448,192,128796,128,0,129227:0:0:0:0:
64,192,128796,128,0,128882:0:0:0:0:
192,192,128796,128,0,128968:0:0:0:0:
64,192,128968,128,0,129054:0:0:0:0:
320,192,128968,128,0,129227:0:0:0:0:
64,192,129140,128,0,129227:0:0:0:0:
192,192,129140,128,0,129356:0:0:0:0:
64,192,129313,128,0,129356:0:0:0:0:
320,192,129313,1,0,0:0:0:0:
448,192,129313,128,0,129399:0:0:0:0:
448,192,129485,128,0,129571:0:0:0:0:
448,192,129658,128,0,130003:0:0:0:0:
192,192,129658,128,0,129744:0:0:0:0:
64,192,129658,1,0,0:0:0:0:
192,192,129830,128,0,129916:0:0:0:0:
320,192,129830,128,0,130003:0:0:0:0:
64,192,130003,128,0,130175:0:0:0:0:
192,192,130003,128,0,130089:0:0:0:0:
192,192,130175,128,0,130606:0:0:0:0:
448,192,130175,128,0,130261:0:0:0:0:
320,192,130175,128,0,130347:0:0:0:0:
448,192,130347,128,0,130434:0:0:0:0:
64,192,130347,128,0,130606:0:0:0:0:
448,192,130520,128,0,130606:0:0:0:0:
320,192,130520,128,0,130735:0:0:0:0:
448,192,130692,128,0,130735:0:0:0:0:
192,192,130692,128,0,130778:0:0:0:0:
64,192,130692,1,0,0:0:0:0:
192,192,130865,128,0,130951:0:0:0:0:
192,192,131037,128,0,131382:0:0:0:0:
320,192,131037,128,0,131123:0:0:0:0:
448,192,131037,1,0,0:0:0:0:
320,192,131209,128,0,131296:0:0:0:0:
64,192,131209,128,0,131382:0:0:0:0:
448,192,131382,128,0,131554:0:0:0:0:
320,192,131382,128,0,131468:0:0:0:0:
192,192,131554,128,0,131640:0:0:0:0:
64,192,131554,128,0,131727:0:0:0:0:
320,192,131554,128,0,131727:0:0:0:0:
192,192,131727,128,0,131813:0:0:0:0:
448,192,131727,128,0,131985:0:0:0:0:
320,192,131813,128,0,131985:0:0:0:0:
192,192,131899,128,0,131985:0:0:0:0:
64,192,131899,128,0,132115:0:0:0:0:
192,192,132071,128,0,132115:0:0:0:0:
448,192,132071,1,0,0:0:0:0:
320,192,132071,128,0,132158:0:0:0:0:
320,192,132244,128,0,132330:0:0:0:0:
320,192,132416,128,0,132761:0:0:0:0:
64,192,132416,128,0,132503:0:0:0:0:
448,192,132416,1,0,0:0:0:0:
64,192,132589,128,0,132646:0:0:0:0:
192,192,132589,128,0,132704:0:0:0:0:
448,192,132761,128,0,132977:0:0:0:0:
64,192,132761,1,0,0:0:0:0:
320,192,132934,128,0,133020:0:0:0:0:
192,192,132934,128,0,133063:0:0:0:0:
64,192,132934,128,0,133494:0:0:0:0:
320,192,133106,1,0,0:0:0:0:
448,192,133106,128,0,133278:0:0:0:0:
192,192,133278,128,0,133365:0:0:0:0:
320,192,133278,128,0,133321:0:0:0:0:
192,192,133451,128,0,133537:0:0:0:0:
448,192,133451,128,0,133623:0:0:0:0:
320,192,133451,1,0,0:0:0:0:
192,192,133623,1,0,0:0:0:0:
192,192,133796,128,0,134140:0:0:0:0:
320,192,133796,128,0,133882:0:0:0:0:
64,192,133796,1,0,0:0:0:0:
320,192,133968,128,0,134025:0:0:0:0:
448,192,133968,128,0,134083:0:0:0:0:
64,192,134140,128,0,134356:0:0:0:0:
320,192,134140,1,0,0:0:0:0:
192,192,134313,128,0,134399:0:0:0:0:
448,192,134313,128,0,134442:0:0:0:0:
320,192,134313,128,0,134873:0:0:0:0:
192,192,134485,1,0,0:0:0:0:
64,192,134485,128,0,134658:0:0:0:0:
448,192,134658,128,0,134744:0:0:0:0:
192,192,134658,128,0,134701:0:0:0:0:
448,192,134830,128,0,134916:0:0:0:0:
64,192,134830,128,0,135003:0:0:0:0:
192,192,134830,1,0,0:0:0:0:
448,192,135003,1,0,0:0:0:0:
448,192,135175,128,0,135520:0:0:0:0:
192,192,135175,128,0,135261:0:0:0:0:
320,192,135175,1,0,0:0:0:0:
192,192,135347,128,0,135405:0:0:0:0:
64,192,135347,128,0,135462:0:0:0:0:
320,192,135520,128,0,135735:0:0:0:0:
192,192,135520,1,0,0:0:0:0:
448,192,135692,128,0,135778:0:0:0:0:
64,192,135692,128,0,135821:0:0:0:0:
192,192,135692,128,0,136253:0:0:0:0:
448,192,135865,1,0,0:0:0:0:
320,192,135865,128,0,136037:0:0:0:0:
64,192,136037,128,0,136123:0:0:0:0:
448,192,136037,128,0,136080:0:0:0:0:
64,192,136209,128,0,136296:0:0:0:0:
320,192,136209,128,0,136382:0:0:0:0:
448,192,136209,1,0,0:0:0:0:
64,192,136382,1,0,0:0:0:0:
64,192,136554,128,0,136899:0:0:0:0:
448,192,136554,128,0,136640:0:0:0:0:
192,192,136554,1,0,0:0:0:0:
448,192,136727,128,0,136784:0:0:0:0:
320,192,136727,128,0,136842:0:0:0:0:
192,192,136899,128,0,137115:0:0:0:0:
448,192,136899,1,0,0:0:0:0:
64,192,137071,128,0,137158:0:0:0:0:
320,192,137071,128,0,137201:0:0:0:0:
448,192,137071,128,0,137244:0:0:0:0:
64,192,137244,1,0,0:0:0:0:
192,192,137244,128,0,137416:0:0:0:0:
448,192,137330,128,0,137632:0:0:0:0:
320,192,137416,128,0,137503:0:0:0:0:
64,192,137416,128,0,137459:0:0:0:0:
320,192,137589,128,0,137675:0:0:0:0:
192,192,137589,128,0,137761:0:0:0:0:
64,192,137589,1,0,0:0:0:0:
320,192,137761,1,0,0:0:0:0:
320,192,137934,128,0,138278:0:0:0:0:
64,192,137934,128,0,138020:0:0:0:0:
448,192,137934,1,0,0:0:0:0:
64,192,138106,128,0,138163:0:0:0:0:
192,192,138106,128,0,138221:0:0:0:0:
448,192,138278,128,0,138494:0:0:0:0:
64,192,138278,1,0,0:0:0:0:
320,192,138451,128,0,138537:0:0:0:0:
192,192,138451,128,0,138580:0:0:0:0:
64,192,138451,128,0,139011:0:0:0:0:
320,192,138623,1,0,0:0:0:0:
448,192,138623,128,0,138796:0:0:0:0:
192,192,138796,128,0,138882:0:0:0:0:
320,192,138796,128,0,138839:0:0:0:0:
192,192,138968,128,0,139054:0:0:0:0:
448,192,138968,128,0,139140:0:0:0:0:
320,192,138968,1,0,0:0:0:0:
192,192,139140,1,0,0:0:0:0:
192,192,139313,128,0,139658:0:0:0:0:
320,192,139313,128,0,139399:0:0:0:0:
64,192,139313,1,0,0:0:0:0:
320,192,139485,128,0,139543:0:0:0:0:
448,192,139485,128,0,139600:0:0:0:0:
64,192,139658,128,0,139873:0:0:0:0:
320,192,139658,1,0,0:0:0:0:
192,192,139830,128,0,139916:0:0:0:0:
448,192,139830,128,0,139959:0:0:0:0:
320,192,139830,128,0,140390:0:0:0:0:
192,192,140003,1,0,0:0:0:0:
64,192,140003,128,0,140175:0:0:0:0:
448,192,140175,128,0,140261:0:0:0:0:
192,192,140175,128,0,140218:0:0:0:0:
448,192,140347,128,0,140434:0:0:0:0:
64,192,140347,128,0,140520:0:0:0:0:
192,192,140347,1,0,0:0:0:0:
448,192,140520,1,0,0:0:0:0:
448,192,140692,128,0,141037:0:0:0:0:
192,192,140692,128,0,140778:0:0:0:0:
320,192,140692,1,0,0:0:0:0:
192,192,140865,128,0,140922:0:0:0:0:
64,192,140865,128,0,140980:0:0:0:0:
320,192,141037,128,0,141253:0:0:0:0:
192,192,141037,1,0,0:0:0:0:
448,192,141209,128,0,141296:0:0:0:0:
64,192,141209,128,0,141339:0:0:0:0:
192,192,141209,128,0,141770:0:0:0:0:
448,192,141382,1,0,0:0:0:0:
320,192,141382,128,0,141554:0:0:0:0:
64,192,141554,128,0,141640:0:0:0:0:
448,192,141554,128,0,141597:0:0:0:0:
64,192,141727,128,0,141813:0:0:0:0:
320,192,141727,128,0,141899:0:0:0:0:
448,192,141727,1,0,0:0:0:0:
64,192,141899,1,0,0:0:0:0:
64,192,142071,128,0,142416:0:0:0:0:
448,192,142071,128,0,142158:0:0:0:0:
192,192,142071,1,0,0:0:0:0:
448,192,142244,128,0,142301:0:0:0:0:
320,192,142244,128,0,142359:0:0:0:0:
192,192,142416,128,0,142632:0:0:0:0:
448,192,142416,1,0,0:0:0:0:
64,192,142589,128,0,142675:0:0:0:0:
320,192,142589,128,0,142718:0:0:0:0:
448,192,142589,128,0,142761:0:0:0:0:
64,192,142761,1,0,0:0:0:0:
192,192,142761,128,0,142934:0:0:0:0:
448,192,142847,128,0,143149:0:0:0:0:
320,192,142934,128,0,143020:0:0:0:0:
64,192,142934,128,0,142977:0:0:0:0:
320,192,143106,128,0,143192:0:0:0:0:
192,192,143106,128,0,143278:0:0:0:0:
64,192,143106,1,0,0:0:0:0:
320,192,143278,1,0,0:0:0:0:
192,192,143451,128,0,143515:0:0:0:0:
320,192,143451,128,0,143709:0:0:0:0:
448,192,143451,128,0,143903:0:0:0:0:
192,192,143623,128,0,143709:0:0:0:0:
64,192,143623,1,0,0:0:0:0:
192,192,143796,128,0,143903:0:0:0:0:
320,192,143796,1,0,0:0:0:0:
448,192,143968,128,0,144076:0:0:0:0:
64,192,143968,128,0,144227:0:0:0:0:
192,192,143968,128,0,144370:0:0:0:0:
448,192,144140,128,0,144227:0:0:0:0:
320,192,144140,1,0,0:0:0:0:
448,192,144313,128,0,144378:0:0:0:0:
64,192,144313,128,0,144528:0:0:0:0:
448,192,144485,128,0,144528:0:0:0:0:
320,192,144485,128,0,144571:0:0:0:0:
192,192,144485,128,0,144701:0:0:0:0:
64,192,144658,128,0,144744:0:0:0:0:
448,192,144830,128,0,144895:0:0:0:0:
192,192,144830,128,0,145089:0:0:0:0:
64,192,144830,128,0,145283:0:0:0:0:
448,192,145003,128,0,145089:0:0:0:0:
320,192,145003,1,0,0:0:0:0:
448,192,145175,128,0,145283:0:0:0:0:
192,192,145175,1,0,0:0:0:0:
64,192,145347,128,0,145462:0:0:0:0:
320,192,145347,128,0,145606:0:0:0:0:
448,192,145347,128,0,145757:0:0:0:0:
64,192,145520,128,0,145606:0:0:0:0:
192,192,145520,1,0,0:0:0:0:
64,192,145692,128,0,145757:0:0:0:0:
320,192,145692,128,0,145908:0:0:0:0:
64,192,145865,128,0,145908:0:0:0:0:
192,192,145865,128,0,145951:0:0:0:0:
448,192,145865,128,0,146080:0:0:0:0:
320,192,146037,128,0,146123:0:0:0:0:
320,192,146209,128,0,146662:0:0:0:0:
448,192,146209,128,0,146468:0:0:0:0:
64,192,146209,128,0,146274:0:0:0:0:
192,192,146382,1,0,0:0:0:0:
64,192,146382,128,0,146468:0:0:0:0:
448,192,146554,1,0,0:0:0:0:
64,192,146554,128,0,146662:0:0:0:0:
64,192,146727,128,0,147129:0:0:0:0:
192,192,146727,128,0,146985:0:0:0:0:
320,192,146727,128,0,146834:0:0:0:0:
448,192,146899,1,0,0:0:0:0:
320,192,146899,128,0,146985:0:0:0:0:
192,192,147071,128,0,147287:0:0:0:0:
320,192,147071,128,0,147136:0:0:0:0:
64,192,147244,128,0,147459:0:0:0:0:
448,192,147244,128,0,147330:0:0:0:0:
320,192,147244,128,0,147287:0:0:0:0:
192,192,147416,128,0,147503:0:0:0:0:
320,192,147589,128,0,147653:0:0:0:0:
64,192,147589,128,0,147847:0:0:0:0:
192,192,147589,128,0,148041:0:0:0:0:
320,192,147761,128,0,147847:0:0:0:0:
448,192,147761,1,0,0:0:0:0:
320,192,147934,128,0,148041:0:0:0:0:
64,192,147934,1,0,0:0:0:0:
192,192,148106,128,0,148214:0:0:0:0:
448,192,148106,128,0,148365:0:0:0:0:
320,192,148106,128,0,148278:0:0:0:0:
192,192,148278,128,0,148365:0:0:0:0:
64,192,148278,1,0,0:0:0:0:
320,192,148365,128,0,148515:0:0:0:0:
192,192,148451,128,0,148515:0:0:0:0:
448,192,148451,128,0,148666:0:0:0:0:
192,192,148623,128,0,148666:0:0:0:0:
64,192,148623,128,0,148709:0:0:0:0:
320,192,148623,128,0,148839:0:0:0:0:
448,192,148796,128,0,148882:0:0:0:0:
192,192,148968,128,0,149033:0:0:0:0:
320,192,148968,128,0,149227:0:0:0:0:
448,192,148968,128,0,149421:0:0:0:0:
192,192,149140,128,0,149227:0:0:0:0:
64,192,149140,1,0,0:0:0:0:
192,192,149313,128,0,149421:0:0:0:0:
320,192,149313,1,0,0:0:0:0:
448,192,149485,128,0,149600:0:0:0:0:
64,192,149485,128,0,149744:0:0:0:0:
192,192,149485,128,0,149895:0:0:0:0:
448,192,149658,128,0,149744:0:0:0:0:
320,192,149658,1,0,0:0:0:0:
448,192,149830,128,0,149895:0:0:0:0:
64,192,149830,128,0,150046:0:0:0:0:
448,192,150003,128,0,150046:0:0:0:0:
320,192,150003,128,0,150089:0:0:0:0:
192,192,150003,128,0,150218:0:0:0:0:
64,192,150175,128,0,150261:0:0:0:0:
448,192,150347,128,0,150412:0:0:0:0:
192,192,150347,128,0,150606:0:0:0:0:
64,192,150347,128,0,150800:0:0:0:0:
448,192,150520,128,0,150606:0:0:0:0:
320,192,150520,1,0,0:0:0:0:
448,192,150692,128,0,150800:0:0:0:0:
192,192,150692,1,0,0:0:0:0:
64,192,150865,128,0,150972:0:0:0:0:
320,192,150865,128,0,151123:0:0:0:0:
448,192,150865,128,0,151274:0:0:0:0:
64,192,151037,128,0,151123:0:0:0:0:
192,192,151037,1,0,0:0:0:0:
64,192,151209,128,0,151274:0:0:0:0:
320,192,151209,128,0,151425:0:0:0:0:
64,192,151382,128,0,151425:0:0:0:0:
192,192,151382,128,0,151468:0:0:0:0:
448,192,151382,128,0,151597:0:0:0:0:
320,192,151554,128,0,151640:0:0:0:0:
320,192,151727,128,0,152179:0:0:0:0:
448,192,151727,128,0,151985:0:0:0:0:
64,192,151727,128,0,151791:0:0:0:0:
192,192,151899,1,0,0:0:0:0:
64,192,151899,128,0,151985:0:0:0:0:
448,192,152071,1,0,0:0:0:0:
64,192,152071,128,0,152179:0:0:0:0:
64,192,152244,128,0,152653:0:0:0:0:
192,192,152244,128,0,152503:0:0:0:0:
320,192,152244,128,0,152352:0:0:0:0:
448,192,152416,1,0,0:0:0:0:
320,192,152416,128,0,152503:0:0:0:0:
192,192,152589,128,0,152804:0:0:0:0:
320,192,152589,128,0,152653:0:0:0:0:
64,192,152761,128,0,152977:0:0:0:0:
448,192,152761,128,0,152847:0:0:0:0:
320,192,152761,128,0,152804:0:0:0:0:
192,192,152934,128,0,153020:0:0:0:0:
320,192,153106,128,0,153171:0:0:0:0:
64,192,153106,128,0,153365:0:0:0:0:
192,192,153106,128,0,153559:0:0:0:0:
320,192,153278,128,0,153365:0:0:0:0:
448,192,153278,1,0,0:0:0:0:
320,192,153451,128,0,153559:0:0:0:0:
192,192,153623,128,0,153731:0:0:0:0:
320,192,153623,128,0,153796:0:0:0:0:
448,192,153709,1,0,0:0:0:0:
192,192,153796,128,0,153882:0:0:0:0:
320,192,153882,128,0,154033:0:0:0:0:
192,192,153968,128,0,154033:0:0:0:0:
448,192,153968,128,0,154184:0:0:0:0:
192,192,154140,128,0,154184:0:0:0:0:
64,192,154140,128,0,154227:0:0:0:0:
320,192,154140,128,0,154356:0:0:0:0:
448,192,154313,128,0,154399:0:0:0:0:
64,192,154399,1,0,0:0:0:0:
192,192,154485,1,0,0:0:0:0:
448,192,154485,1,0,0:0:0:0:
320,192,154658,1,0,0:0:0:0:
192,192,154830,1,0,0:0:0:0:
448,192,155003,128,0,155520:0:0:0:0:
192,192,155175,1,0,0:0:0:0:
192,192,155520,1,0,0:0:0:0:
64,192,155692,1,0,0:0:0:0:
320,192,155865,1,0,0:0:0:0:
192,192,156037,1,0,0:0:0:0:
320,192,156209,1,0,0:0:0:0:
64,192,156382,128,0,156899:0:0:0:0:
320,192,156554,1,0,0:0:0:0:
320,192,156899,1,0,0:0:0:0:
448,192,157071,1,0,0:0:0:0:
192,192,157244,1,0,0:0:0:0:
320,192,157416,1,0,0:0:0:0:
192,192,157589,1,0,0:0:0:0:
448,192,157761,128,0,157934:0:0:0:0:
192,192,157934,1,0,0:0:0:0:
192,192,158278,1,0,0:0:0:0:
64,192,158451,1,0,0:0:0:0:
320,192,158623,1,0,0:0:0:0:
192,192,158796,1,0,0:0:0:0:
320,192,158968,1,0,0:0:0:0:
64,192,159140,1,0,0:0:0:0:
448,192,159227,1,0,0:0:0:0:
320,192,159313,1,0,0:0:0:0:
192,192,159399,1,0,0:0:0:0:
448,192,159485,1,0,0:0:0:0:
320,192,159658,1,0,0:0:0:0:
448,192,159830,1,0,0:0:0:0:
64,192,160003,1,0,0:0:0:0:
64,192,160347,1,0,0:0:0:0:
320,192,160520,1,0,0:0:0:0:
64,192,160692,1,0,0:0:0:0:
64,192,161037,1,0,0:0:0:0:
64,192,161209,1,0,0:0:0:0:
192,192,161296,1,0,0:0:0:0:
448,192,161382,1,0,0:0:0:0:
64,192,161554,1,0,0:0:0:0:
192,192,161640,1,0,0:0:0:0:
448,192,161727,1,0,0:0:0:0:
320,192,161899,1,0,0:0:0:0:
448,192,162071,1,0,0:0:0:0:
448,192,162416,1,0,0:0:0:0:
448,192,162589,1,0,0:0:0:0:
192,192,162675,1,0,0:0:0:0:
64,192,162761,1,0,0:0:0:0:
320,192,162847,1,0,0:0:0:0:
64,192,162934,1,0,0:0:0:0:
64,192,163106,1,0,0:0:0:0:
320,192,163278,1,0,0:0:0:0:
64,192,163451,1,0,0:0:0:0:
64,192,163796,1,0,0:0:0:0:
192,192,163882,1,0,0:0:0:0:
448,192,163968,1,0,0:0:0:0:
448,192,164140,1,0,0:0:0:0:
320,192,164313,1,0,0:0:0:0:
64,192,164399,1,0,0:0:0:0:
448,192,164485,1,0,0:0:0:0:
192,192,164571,1,0,0:0:0:0:
320,192,164658,1,0,0:0:0:0:
64,192,164744,1,0,0:0:0:0:
192,192,164830,1,0,0:0:0:0:
192,192,165003,1,0,0:0:0:0:
64,192,165089,1,0,0:0:0:0:
320,192,165175,1,0,0:0:0:0:
192,192,165261,1,0,0:0:0:0:
448,192,165347,1,0,0:0:0:0:
448,192,165520,1,0,0:0:0:0:
320,192,165606,1,0,0:0:0:0:
448,192,165692,1,0,0:0:0:0:
64,192,165778,1,0,0:0:0:0:
192,192,165865,1,0,0:0:0:0:
320,192,165951,1,0,0:0:0:0:
64,192,166037,1,0,0:0:0:0:
64,192,166209,1,0,0:0:0:0:
448,192,166296,1,0,0:0:0:0:
192,192,166382,1,0,0:0:0:0:
320,192,166468,1,0,0:0:0:0:
448,192,166554,1,0,0:0:0:0:
320,192,166640,1,0,0:0:0:0:
192,192,166727,1,0,0:0:0:0:
192,192,166899,1,0,0:0:0:0:
64,192,166985,1,0,0:0:0:0:
192,192,167071,1,0,0:0:0:0:
448,192,167158,1,0,0:0:0:0:
320,192,167244,1,0,0:0:0:0:
64,192,167330,1,0,0:0:0:0:
448,192,167416,1,0,0:0:0:0:
448,192,167589,1,0,0:0:0:0:
192,192,167675,1,0,0:0:0:0:
320,192,167761,1,0,0:0:0:0:
64,192,167847,1,0,0:0:0:0:
192,192,167934,1,0,0:0:0:0:
64,192,168020,1,0,0:0:0:0:
320,192,168106,1,0,0:0:0:0:
320,192,168278,1,0,0:0:0:0:
448,192,168365,1,0,0:0:0:0:
320,192,168451,1,0,0:0:0:0:
64,192,168537,1,0,0:0:0:0:
192,192,168623,1,0,0:0:0:0:
448,192,168709,1,0,0:0:0:0:
64,192,168796,1,0,0:0:0:0:
64,192,168968,1,0,0:0:0:0:
320,192,169054,1,0,0:0:0:0:
192,192,169140,1,0,0:0:0:0:
448,192,169227,1,0,0:0:0:0:
320,192,169313,1,0,0:0:0:0:
448,192,169399,1,0,0:0:0:0:
64,192,169485,1,0,0:0:0:0:
64,192,169658,1,0,0:0:0:0:
192,192,169744,1,0,0:0:0:0:
64,192,169830,1,0,0:0:0:0:
448,192,169916,1,0,0:0:0:0:
320,192,170003,1,0,0:0:0:0:
192,192,170089,1,0,0:0:0:0:
448,192,170175,1,0,0:0:0:0:
64,192,170261,1,0,0:0:0:0:
448,192,170347,1,0,0:0:0:0:
448,192,170520,1,0,0:0:0:0:
320,192,170606,1,0,0:0:0:0:
64,192,170692,1,0,0:0:0:0:
320,192,170778,1,0,0:0:0:0:
192,192,170865,1,0,0:0:0:0:
64,192,170951,1,0,0:0:0:0:
192,192,171037,1,0,0:0:0:0:
448,192,171123,1,0,0:0:0:0:
192,192,171209,1,0,0:0:0:0:
320,192,171296,1,0,0:0:0:0:
448,192,171382,1,0,0:0:0:0:
64,192,171468,1,0,0:0:0:0:
320,192,171554,1,0,0:0:0:0:
64,192,171640,1,0,0:0:0:0:
448,192,171727,1,0,0:0:0:0:
192,192,171784,1,0,0:0:0:0:
320,192,171842,1,0,0:0:0:0:
448,192,171899,1,0,0:0:0:0:
320,192,171985,1,0,0:0:0:0:
192,192,172071,1,0,0:0:0:0:
448,192,172158,1,0,0:0:0:0:
64,192,172244,1,0,0:0:0:0:
192,192,172330,1,0,0:0:0:0:
64,192,172416,1,0,0:0:0:0:
320,192,172503,1,0,0:0:0:0:
64,192,172589,1,0,0:0:0:0:
448,192,172675,1,0,0:0:0:0:
192,192,172761,1,0,0:0:0:0:
320,192,172847,1,0,0:0:0:0:
64,192,172934,1,0,0:0:0:0:
320,192,173020,1,0,0:0:0:0:
192,192,173106,1,0,0:0:0:0:
448,192,173163,1,0,0:0:0:0:
64,192,173221,1,0,0:0:0:0:
192,192,173278,1,0,0:0:0:0:
64,192,173365,1,0,0:0:0:0:
448,192,173451,1,0,0:0:0:0:
192,192,173537,1,0,0:0:0:0:
320,192,173623,1,0,0:0:0:0:
448,192,173709,1,0,0:0:0:0:
320,192,173796,1,0,0:0:0:0:
64,192,173882,1,0,0:0:0:0:
320,192,173968,1,0,0:0:0:0:
192,192,174054,1,0,0:0:0:0:
64,192,174140,1,0,0:0:0:0:
448,192,174227,1,0,0:0:0:0:
192,192,174313,1,0,0:0:0:0:
448,192,174399,1,0,0:0:0:0:
64,192,174485,1,0,0:0:0:0:
320,192,174543,1,0,0:0:0:0:
192,192,174600,1,0,0:0:0:0:
64,192,174658,1,0,0:0:0:0:
192,192,174744,1,0,0:0:0:0:
320,192,174830,1,0,0:0:0:0:
64,192,174916,1,0,0:0:0:0:
448,192,175003,1,0,0:0:0:0:
320,192,175089,1,0,0:0:0:0:
448,192,175175,1,0,0:0:0:0:
192,192,175175,1,0,0:0:0:0:
64,192,175261,1,0,0:0:0:0:
320,192,175347,1,0,0:0:0:0:
64,192,175434,5,0,0:0:0:0:
192,192,175520,1,0,0:0:0:0:
448,192,175520,1,0,0:0:0:0:
448,192,175692,1,0,0:0:0:0:
192,192,175778,1,0,0:0:0:0:
320,192,175865,1,0,0:0:0:0:
64,192,175865,1,0,0:0:0:0:
192,192,176037,1,0,0:0:0:0:
64,192,176037,1,0,0:0:0:0:
320,192,176123,1,0,0:0:0:0:
448,192,176209,1,0,0:0:0:0:
192,192,176209,1,0,0:0:0:0:
64,192,176209,1,0,0:0:0:0:
448,192,176554,5,0,0:0:0:0:
320,192,176612,1,0,0:0:0:0:
448,192,176669,1,0,0:0:0:0:
64,192,176727,1,0,0:0:0:0:
192,192,176784,1,0,0:0:0:0:
320,192,176842,1,0,0:0:0:0:
64,192,176899,1,0,0:0:0:0:
192,192,176957,1,0,0:0:0:0:
64,192,177014,1,0,0:0:0:0:
448,192,177071,1,0,0:0:0:0:
320,192,177129,1,0,0:0:0:0:
192,192,177186,1,0,0:0:0:0:
448,192,177244,1,0,0:0:0:0:
192,192,177301,1,0,0:0:0:0:
320,192,177359,1,0,0:0:0:0:
448,192,177416,1,0,0:0:0:0:
64,192,177474,1,0,0:0:0:0:
320,192,177531,1,0,0:0:0:0:
192,192,177589,1,0,0:0:0:0:
64,192,177589,1,0,0:0:0:0:
64,192,177934,1,0,0:0:0:0:
192,192,177991,1,0,0:0:0:0:
64,192,178048,1,0,0:0:0:0:
320,192,178106,1,0,0:0:0:0:
448,192,178163,1,0,0:0:0:0:
192,192,178221,1,0,0:0:0:0:
320,192,178278,1,0,0:0:0:0:
448,192,178336,1,0,0:0:0:0:
320,192,178393,1,0,0:0:0:0:
64,192,178451,1,0,0:0:0:0:
192,192,178508,1,0,0:0:0:0:
448,192,178566,1,0,0:0:0:0:
64,192,178623,1,0,0:0:0:0:
448,192,178681,1,0,0:0:0:0:
192,192,178738,1,0,0:0:0:0:
64,192,178796,1,0,0:0:0:0:
320,192,178853,1,0,0:0:0:0:
192,192,178911,1,0,0:0:0:0:
448,192,178968,1,0,0:0:0:0:
320,192,178968,1,0,0:0:0:0:
448,192,179313,1,0,0:0:0:0:
320,192,179370,1,0,0:0:0:0:
448,192,179428,1,0,0:0:0:0:
64,192,179485,1,0,0:0:0:0:
192,192,179543,1,0,0:0:0:0:
320,192,179600,1,0,0:0:0:0:
64,192,179658,1,0,0:0:0:0:
192,192,179715,1,0,0:0:0:0:
64,192,179773,1,0,0:0:0:0:
448,192,179830,1,0,0:0:0:0:
320,192,179888,1,0,0:0:0:0:
192,192,179945,1,0,0:0:0:0:
448,192,180003,1,0,0:0:0:0:
192,192,180060,1,0,0:0:0:0:
320,192,180117,1,0,0:0:0:0:
448,192,180175,1,0,0:0:0:0:
64,192,180232,1,0,0:0:0:0:
320,192,180290,1,0,0:0:0:0:
64,192,180347,1,0,0:0:0:0:
192,192,180347,1,0,0:0:0:0:
192,192,180692,1,0,0:0:0:0:
64,192,180750,1,0,0:0:0:0:
192,192,180807,1,0,0:0:0:0:
448,192,180865,1,0,0:0:0:0:
320,192,180922,1,0,0:0:0:0:
64,192,180980,1,0,0:0:0:0:
448,192,181037,1,0,0:0:0:0:
320,192,181094,1,0,0:0:0:0:
448,192,181152,1,0,0:0:0:0:
192,192,181209,1,0,0:0:0:0:
64,192,181267,1,0,0:0:0:0:
320,192,181324,1,0,0:0:0:0:
192,192,181382,1,0,0:0:0:0:
448,192,181439,1,0,0:0:0:0:
192,192,181497,1,0,0:0:0:0:
64,192,181554,1,0,0:0:0:0:
320,192,181612,1,0,0:0:0:0:
448,192,181669,1,0,0:0:0:0:
320,192,181727,1,0,0:0:0:0:
64,192,181727,1,0,0:0:0:0:
448,192,181899,1,0,0:0:0:0:
64,192,182071,1,0,0:0:0:0:
192,192,182129,1,0,0:0:0:0:
64,192,182186,1,0,0:0:0:0:
448,192,182244,1,0,0:0:0:0:
320,192,182301,1,0,0:0:0:0:
192,192,182359,1,0,0:0:0:0:
448,192,182416,1,0,0:0:0:0:
320,192,182474,1,0,0:0:0:0:
448,192,182531,1,0,0:0:0:0:
64,192,182589,1,0,0:0:0:0:
192,192,182646,1,0,0:0:0:0:
320,192,182704,1,0,0:0:0:0:
64,192,182761,1,0,0:0:0:0:
320,192,182819,1,0,0:0:0:0:
192,192,182876,1,0,0:0:0:0:
64,192,182934,1,0,0:0:0:0:
448,192,182991,1,0,0:0:0:0:
192,192,183048,1,0,0:0:0:0:
320,192,183106,1,0,0:0:0:0:
448,192,183106,1,0,0:0:0:0:
448,192,183451,1,0,0:0:0:0:
320,192,183508,1,0,0:0:0:0:
448,192,183566,1,0,0:0:0:0:
192,192,183623,1,0,0:0:0:0:
64,192,183681,1,0,0:0:0:0:
320,192,183738,1,0,0:0:0:0:
192,192,183796,1,0,0:0:0:0:
64,192,183853,1,0,0:0:0:0:
192,192,183911,1,0,0:0:0:0:
448,192,183968,1,0,0:0:0:0:
320,192,184025,1,0,0:0:0:0:
64,192,184083,1,0,0:0:0:0:
448,192,184140,1,0,0:0:0:0:
64,192,184198,1,0,0:0:0:0:
320,192,184255,1,0,0:0:0:0:
448,192,184313,1,0,0:0:0:0:
192,192,184370,1,0,0:0:0:0:
320,192,184428,1,0,0:0:0:0:
64,192,184485,1,0,0:0:0:0:
192,192,184485,1,0,0:0:0:0:
64,192,184830,1,0,0:0:0:0:
192,192,184888,1,0,0:0:0:0:
64,192,184945,1,0,0:0:0:0:
448,192,185003,1,0,0:0:0:0:
320,192,185060,1,0,0:0:0:0:
192,192,185117,1,0,0:0:0:0:
448,192,185175,1,0,0:0:0:0:
320,192,185232,1,0,0:0:0:0:
448,192,185290,1,0,0:0:0:0:
64,192,185347,1,0,0:0:0:0:
192,192,185405,1,0,0:0:0:0:
320,192,185462,1,0,0:0:0:0:
64,192,185520,1,0,0:0:0:0:
320,192,185577,1,0,0:0:0:0:
192,192,185635,1,0,0:0:0:0:
64,192,185692,1,0,0:0:0:0:
448,192,185750,1,0,0:0:0:0:
192,192,185807,1,0,0:0:0:0:
448,192,185865,1,0,0:0:0:0:
320,192,185865,1,0,0:0:0:0:
320,192,186209,1,0,0:0:0:0:
448,192,186267,1,0,0:0:0:0:
320,192,186324,1,0,0:0:0:0:
64,192,186382,1,0,0:0:0:0:
192,192,186439,1,0,0:0:0:0:
448,192,186497,1,0,0:0:0:0:
64,192,186554,1,0,0:0:0:0:
192,192,186612,1,0,0:0:0:0:
64,192,186669,1,0,0:0:0:0:
320,192,186727,1,0,0:0:0:0:
448,192,186784,1,0,0:0:0:0:
192,192,186842,1,0,0:0:0:0:
320,192,186899,1,0,0:0:0:0:
64,192,186957,1,0,0:0:0:0:
320,192,187014,1,0,0:0:0:0:
448,192,187071,1,0,0:0:0:0:
192,192,187129,1,0,0:0:0:0:
64,192,187186,1,0,0:0:0:0:
192,192,187244,1,0,0:0:0:0:
448,192,187244,1,0,0:0:0:0:
320,192,187416,1,0,0:0:0:0:
192,192,187589,1,0,0:0:0:0:
64,192,187646,1,0,0:0:0:0:
192,192,187704,1,0,0:0:0:0:
320,192,187761,1,0,0:0:0:0:
448,192,187819,1,0,0:0:0:0:
64,192,187876,1,0,0:0:0:0:
192,192,187934,1,0,0:0:0:0:
320,192,187991,1,0,0:0:0:0:
192,192,188048,1,0,0:0:0:0:
64,192,188106,1,0,0:0:0:0:
448,192,188163,1,0,0:0:0:0:
320,192,188221,1,0,0:0:0:0:
192,192,188278,1,0,0:0:0:0:
448,192,188336,1,0,0:0:0:0:
192,192,188393,1,0,0:0:0:0:
320,192,188451,1,0,0:0:0:0:
448,192,188508,1,0,0:0:0:0:
64,192,188566,1,0,0:0:0:0:
448,192,188623,1,0,0:0:0:0:
192,192,188623,1,0,0:0:0:0:
448,192,188968,1,0,0:0:0:0:
320,192,189025,1,0,0:0:0:0:
448,192,189083,1,0,0:0:0:0:
192,192,189140,1,0,0:0:0:0:
64,192,189198,1,0,0:0:0:0:
320,192,189255,1,0,0:0:0:0:
448,192,189313,1,0,0:0:0:0:
192,192,189370,1,0,0:0:0:0:
448,192,189428,1,0,0:0:0:0:
320,192,189485,1,0,0:0:0:0:
64,192,189543,1,0,0:0:0:0:
192,192,189600,1,0,0:0:0:0:
448,192,189658,1,0,0:0:0:0:
64,192,189715,1,0,0:0:0:0:
448,192,189773,1,0,0:0:0:0:
192,192,189830,1,0,0:0:0:0:
64,192,189888,1,0,0:0:0:0:
320,192,189945,1,0,0:0:0:0:
64,192,190003,1,0,0:0:0:0:
448,192,190003,1,0,0:0:0:0:
64,192,190347,1,0,0:0:0:0:
192,192,190405,1,0,0:0:0:0:
64,192,190462,1,0,0:0:0:0:
448,192,190520,1,0,0:0:0:0:
320,192,190577,1,0,0:0:0:0:
192,192,190635,1,0,0:0:0:0:
64,192,190692,1,0,0:0:0:0:
448,192,190750,1,0,0:0:0:0:
64,192,190807,1,0,0:0:0:0:
192,192,190865,1,0,0:0:0:0:
320,192,190922,1,0,0:0:0:0:
448,192,190980,1,0,0:0:0:0:
64,192,191037,1,0,0:0:0:0:
320,192,191094,1,0,0:0:0:0:
64,192,191152,1,0,0:0:0:0:
448,192,191209,1,0,0:0:0:0:
320,192,191267,1,0,0:0:0:0:
192,192,191324,1,0,0:0:0:0:
64,192,191382,1,0,0:0:0:0:
320,192,191382,1,0,0:0:0:0:
320,192,191727,1,0,0:0:0:0:
448,192,191784,1,0,0:0:0:0:
320,192,191842,1,0,0:0:0:0:
64,192,191899,1,0,0:0:0:0:
192,192,191957,1,0,0:0:0:0:
448,192,192014,1,0,0:0:0:0:
320,192,192071,1,0,0:0:0:0:
64,192,192129,1,0,0:0:0:0:
320,192,192186,1,0,0:0:0:0:
448,192,192244,1,0,0:0:0:0:
192,192,192301,1,0,0:0:0:0:
64,192,192359,1,0,0:0:0:0:
320,192,192416,1,0,0:0:0:0:
192,192,192474,1,0,0:0:0:0:
448,192,192531,1,0,0:0:0:0:
64,192,192589,1,0,0:0:0:0:
448,192,192646,1,0,0:0:0:0:
192,192,192704,1,0,0:0:0:0:
64,192,192761,1,0,0:0:0:0:
320,192,192761,1,0,0:0:0:0:
192,192,192934,1,0,0:0:0:0:
320,192,193106,1,0,0:0:0:0:
448,192,193163,1,0,0:0:0:0:
320,192,193221,1,0,0:0:0:0:
192,192,193278,1,0,0:0:0:0:
64,192,193336,1,0,0:0:0:0:
448,192,193393,1,0,0:0:0:0:
320,192,193451,1,0,0:0:0:0:
192,192,193508,1,0,0:0:0:0:
320,192,193566,1,0,0:0:0:0:
448,192,193623,1,0,0:0:0:0:
64,192,193681,1,0,0:0:0:0:
192,192,193738,1,0,0:0:0:0:
320,192,193796,1,0,0:0:0:0:
64,192,193853,1,0,0:0:0:0:
320,192,193911,1,0,0:0:0:0:
192,192,193968,1,0,0:0:0:0:
64,192,194025,1,0,0:0:0:0:
448,192,194083,1,0,0:0:0:0:
64,192,194140,1,0,0:0:0:0:
320,192,194140,1,0,0:0:0:0:
64,192,194485,1,0,0:0:0:0:
192,192,194543,1,0,0:0:0:0:
64,192,194600,1,0,0:0:0:0:
320,192,194658,1,0,0:0:0:0:
448,192,194715,1,0,0:0:0:0:
192,192,194773,1,0,0:0:0:0:
64,192,194830,1,0,0:0:0:0:
320,192,194888,1,0,0:0:0:0:
64,192,194945,1,0,0:0:0:0:
192,192,195003,1,0,0:0:0:0:
448,192,195060,1,0,0:0:0:0:
320,192,195117,1,0,0:0:0:0:
64,192,195175,1,0,0:0:0:0:
448,192,195232,1,0,0:0:0:0:
64,192,195290,1,0,0:0:0:0:
320,192,195347,1,0,0:0:0:0:
448,192,195405,1,0,0:0:0:0:
192,192,195462,1,0,0:0:0:0:
448,192,195520,1,0,0:0:0:0:
64,192,195520,1,0,0:0:0:0:
448,192,195865,1,0,0:0:0:0:
320,192,195922,1,0,0:0:0:0:
448,192,195980,1,0,0:0:0:0:
64,192,196037,1,0,0:0:0:0:
192,192,196094,1,0,0:0:0:0:
320,192,196152,1,0,0:0:0:0:
448,192,196209,1,0,0:0:0:0:
64,192,196267,1,0,0:0:0:0:
448,192,196324,1,0,0:0:0:0:
320,192,196382,1,0,0:0:0:0:
192,192,196439,1,0,0:0:0:0:
64,192,196497,1,0,0:0:0:0:
448,192,196554,1,0,0:0:0:0:
192,192,196612,1,0,0:0:0:0:
448,192,196669,1,0,0:0:0:0:
64,192,196727,1,0,0:0:0:0:
192,192,196784,1,0,0:0:0:0:
320,192,196842,1,0,0:0:0:0:
448,192,196899,1,0,0:0:0:0:
192,192,196899,1,0,0:0:0:0:
192,192,197244,1,0,0:0:0:0:
64,192,197301,1,0,0:0:0:0:
192,192,197359,1,0,0:0:0:0:
64,192,197416,1,0,0:0:0:0:
448,192,197474,1,0,0:0:0:0:
320,192,197531,1,0,0:0:0:0:
192,192,197589,1,0,0:0:0:0:
448,192,197646,1,0,0:0:0:0:
192,192,197704,1,0,0:0:0:0:
64,192,197761,1,0,0:0:0:0:
320,192,197819,1,0,0:0:0:0:
64,192,197876,1,0,0:0:0:0:
448,192,197934,1,0,0:0:0:0:
320,192,197991,1,0,0:0:0:0:
448,192,198048,1,0,0:0:0:0:
320,192,198106,1,0,0:0:0:0:
192,192,198163,1,0,0:0:0:0:
64,192,198221,1,0,0:0:0:0:
448,192,198278,1,0,0:0:0:0:
320,192,198278,1,0,0:0:0:0:
448,192,198451,1,0,0:0:0:0:
64,192,198623,1,0,0:0:0:0:
320,192,198681,1,0,0:0:0:0:
192,192,198738,1,0,0:0:0:0:
448,192,198796,1,0,0:0:0:0:
192,192,198853,1,0,0:0:0:0:
64,192,198911,1,0,0:0:0:0:
320,192,198968,1,0,0:0:0:0:
64,192,199025,1,0,0:0:0:0:
192,192,199083,1,0,0:0:0:0:
448,192,199140,1,0,0:0:0:0:
192,192,199198,1,0,0:0:0:0:
320,192,199255,1,0,0:0:0:0:
64,192,199313,1,0,0:0:0:0:
320,192,199370,1,0,0:0:0:0:
448,192,199428,1,0,0:0:0:0:
64,192,199485,1,0,0:0:0:0:
448,192,199543,1,0,0:0:0:0:
64,192,199600,1,0,0:0:0:0:
192,192,199658,1,0,0:0:0:0:
448,192,199658,1,0,0:0:0:0:
64,192,199830,1,0,0:0:0:0:
448,192,200003,1,0,0:0:0:0:
192,192,200060,1,0,0:0:0:0:
320,192,200117,1,0,0:0:0:0:
64,192,200175,1,0,0:0:0:0:
320,192,200232,1,0,0:0:0:0:
448,192,200290,1,0,0:0:0:0:
192,192,200347,1,0,0:0:0:0:
448,192,200405,1,0,0:0:0:0:
320,192,200462,1,0,0:0:0:0:
64,192,200520,1,0,0:0:0:0:
320,192,200577,1,0,0:0:0:0:
192,192,200635,1,0,0:0:0:0:
64,192,200692,1,0,0:0:0:0:
448,192,200750,1,0,0:0:0:0:
320,192,200807,1,0,0:0:0:0:
192,192,200865,1,0,0:0:0:0:
64,192,200922,1,0,0:0:0:0:
192,192,200980,1,0,0:0:0:0:
64,192,201037,1,0,0:0:0:0:
448,192,201037,1,0,0:0:0:0:
192,192,201209,1,0,0:0:0:0:
64,192,201267,1,0,0:0:0:0:
192,192,201324,1,0,0:0:0:0:
320,192,201382,1,0,0:0:0:0:
448,192,201439,1,0,0:0:0:0:
320,192,201497,1,0,0:0:0:0:
448,192,201554,1,0,0:0:0:0:
64,192,201612,1,0,0:0:0:0:
192,192,201669,1,0,0:0:0:0:
320,192,201727,1,0,0:0:0:0:
192,192,201784,1,0,0:0:0:0:
64,192,201842,1,0,0:0:0:0:
448,192,201899,1,0,0:0:0:0:
320,192,201957,1,0,0:0:0:0:
448,192,202014,1,0,0:0:0:0:
320,192,202071,1,0,0:0:0:0:
192,192,202129,1,0,0:0:0:0:
64,192,202186,1,0,0:0:0:0:
448,192,202244,1,0,0:0:0:0:
320,192,202301,1,0,0:0:0:0:
448,192,202359,1,0,0:0:0:0:
192,192,202416,1,0,0:0:0:0:
64,192,202416,1,0,0:0:0:0:
64,192,202589,1,0,0:0:0:0:
192,192,202646,1,0,0:0:0:0:
64,192,202704,1,0,0:0:0:0:
192,192,202761,1,0,0:0:0:0:
448,192,202819,1,0,0:0:0:0:
320,192,202876,1,0,0:0:0:0:
64,192,202934,1,0,0:0:0:0:
320,192,202991,1,0,0:0:0:0:
448,192,203048,1,0,0:0:0:0:
192,192,203106,1,0,0:0:0:0:
64,192,203163,1,0,0:0:0:0:
192,192,203221,1,0,0:0:0:0:
64,192,203278,1,0,0:0:0:0:
320,192,203336,1,0,0:0:0:0:
448,192,203393,1,0,0:0:0:0:
320,192,203451,1,0,0:0:0:0:
192,192,203508,1,0,0:0:0:0:
64,192,203566,1,0,0:0:0:0:
448,192,203623,1,0,0:0:0:0:
192,192,203681,1,0,0:0:0:0:
448,192,203738,1,0,0:0:0:0:
64,192,203796,1,0,0:0:0:0:
320,192,203796,1,0,0:0:0:0:
448,192,203968,1,0,0:0:0:0:
192,192,204025,1,0,0:0:0:0:
448,192,204083,1,0,0:0:0:0:
64,192,204140,1,0,0:0:0:0:
320,192,204198,1,0,0:0:0:0:
192,192,204255,1,0,0:0:0:0:
448,192,204313,1,0,0:0:0:0:
192,192,204370,1,0,0:0:0:0:
64,192,204428,1,0,0:0:0:0:
320,192,204485,1,0,0:0:0:0:
64,192,204543,1,0,0:0:0:0:
192,192,204600,1,0,0:0:0:0:
448,192,204658,1,0,0:0:0:0:
192,192,204715,1,0,0:0:0:0:
320,192,204773,1,0,0:0:0:0:
64,192,204830,1,0,0:0:0:0:
320,192,204888,1,0,0:0:0:0:
448,192,204945,1,0,0:0:0:0:
64,192,205003,1,0,0:0:0:0:
448,192,205060,1,0,0:0:0:0:
64,192,205117,1,0,0:0:0:0:
192,192,205175,1,0,0:0:0:0:
320,192,205175,1,0,0:0:0:0:
448,192,205347,1,0,0:0:0:0:
64,192,205520,1,0,0:0:0:0:
320,192,205577,1,0,0:0:0:0:
192,192,205635,1,0,0:0:0:0:
448,192,205692,1,0,0:0:0:0:
192,192,205750,1,0,0:0:0:0:
64,192,205807,1,0,0:0:0:0:
320,192,205865,1,0,0:0:0:0:
64,192,205922,1,0,0:0:0:0:
192,192,205980,1,0,0:0:0:0:
448,192,206037,1,0,0:0:0:0:
192,192,206094,1,0,0:0:0:0:
320,192,206152,1,0,0:0:0:0:
448,192,206209,1,0,0:0:0:0:
64,192,206267,1,0,0:0:0:0:
192,192,206324,1,0,0:0:0:0:
320,192,206382,1,0,0:0:0:0:
448,192,206439,1,0,0:0:0:0:
320,192,206497,1,0,0:0:0:0:
448,192,206554,1,0,0:0:0:0:
64,192,206554,1,0,0:0:0:0:
320,192,206727,1,0,0:0:0:0:
448,192,206784,1,0,0:0:0:0:
320,192,206842,1,0,0:0:0:0:
192,192,206899,1,0,0:0:0:0:
64,192,206957,1,0,0:0:0:0:
192,192,207014,1,0,0:0:0:0:
64,192,207071,1,0,0:0:0:0:
448,192,207129,1,0,0:0:0:0:
320,192,207186,1,0,0:0:0:0:
192,192,207244,1,0,0:0:0:0:
320,192,207301,1,0,0:0:0:0:
448,192,207359,1,0,0:0:0:0:
64,192,207416,1,0,0:0:0:0:
192,192,207474,1,0,0:0:0:0:
64,192,207531,1,0,0:0:0:0:
192,192,207589,1,0,0:0:0:0:
320,192,207646,1,0,0:0:0:0:
448,192,207704,1,0,0:0:0:0:
64,192,207761,1,0,0:0:0:0:
320,192,207819,1,0,0:0:0:0:
64,192,207876,1,0,0:0:0:0:
192,192,207934,1,0,0:0:0:0:
448,192,207934,1,0,0:0:0:0:
448,192,208106,1,0,0:0:0:0:
320,192,208163,1,0,0:0:0:0:
448,192,208221,1,0,0:0:0:0:
320,192,208278,1,0,0:0:0:0:
64,192,208336,1,0,0:0:0:0:
192,192,208393,1,0,0:0:0:0:
448,192,208451,1,0,0:0:0:0:
192,192,208508,1,0,0:0:0:0:
320,192,208566,1,0,0:0:0:0:
64,192,208623,1,0,0:0:0:0:
320,192,208681,1,0,0:0:0:0:
448,192,208738,1,0,0:0:0:0:
192,192,208796,1,0,0:0:0:0:
64,192,208853,1,0,0:0:0:0:
320,192,208911,1,0,0:0:0:0:
64,192,208968,1,0,0:0:0:0:
448,192,209025,1,0,0:0:0:0:
320,192,209083,1,0,0:0:0:0:
192,192,209140,1,0,0:0:0:0:
64,192,209198,1,0,0:0:0:0:
192,192,209255,1,0,0:0:0:0:
448,192,209313,1,0,0:0:0:0:
320,192,209313,1,0,0:0:0:0:
64,192,209485,1,0,0:0:0:0:
192,192,209543,1,0,0:0:0:0:
64,192,209600,1,0,0:0:0:0:
448,192,209658,1,0,0:0:0:0:
192,192,209715,1,0,0:0:0:0:
320,192,209773,1,0,0:0:0:0:
64,192,209830,1,0,0:0:0:0:
320,192,209888,1,0,0:0:0:0:
448,192,209945,1,0,0:0:0:0:
192,192,210003,1,0,0:0:0:0:
448,192,210060,1,0,0:0:0:0:
320,192,210117,1,0,0:0:0:0:
64,192,210175,1,0,0:0:0:0:
320,192,210232,1,0,0:0:0:0:
192,192,210290,1,0,0:0:0:0:
448,192,210347,1,0,0:0:0:0:
192,192,210405,1,0,0:0:0:0:
64,192,210462,1,0,0:0:0:0:
448,192,210520,1,0,0:0:0:0:
64,192,210577,1,0,0:0:0:0:
448,192,210635,1,0,0:0:0:0:
320,192,210692,1,0,0:0:0:0:
192,192,210692,1,0,0:0:0:0:
64,192,210778,1,0,0:0:0:0:
448,192,210865,1,0,0:0:0:0:
320,192,210951,1,0,0:0:0:0:
64,192,211037,1,0,0:0:0:0:
448,192,211094,1,0,0:0:0:0:
192,192,211152,1,0,0:0:0:0:
320,192,211209,1,0,0:0:0:0:
192,192,211267,1,0,0:0:0:0:
64,192,211324,1,0,0:0:0:0:
320,192,211382,1,0,0:0:0:0:
64,192,211439,1,0,0:0:0:0:
192,192,211497,1,0,0:0:0:0:
448,192,211554,1,0,0:0:0:0:
192,192,211612,1,0,0:0:0:0:
320,192,211669,1,0,0:0:0:0:
448,192,211727,1,0,0:0:0:0:
64,192,211784,1,0,0:0:0:0:
192,192,211842,1,0,0:0:0:0:
320,192,211899,1,0,0:0:0:0:
448,192,211957,1,0,0:0:0:0:
320,192,212014,1,0,0:0:0:0:
448,192,212071,1,0,0:0:0:0:
64,192,212071,1,0,0:0:0:0:
192,192,212158,1,0,0:0:0:0:
320,192,212244,1,0,0:0:0:0:
448,192,212301,1,0,0:0:0:0:
320,192,212359,1,0,0:0:0:0:
192,192,212416,1,0,0:0:0:0:
64,192,212474,1,0,0:0:0:0:
192,192,212531,1,0,0:0:0:0:
64,192,212589,1,0,0:0:0:0:
448,192,212646,1,0,0:0:0:0:
320,192,212704,1,0,0:0:0:0:
192,192,212761,1,0,0:0:0:0:
320,192,212819,1,0,0:0:0:0:
448,192,212876,1,0,0:0:0:0:
64,192,212934,1,0,0:0:0:0:
192,192,212991,1,0,0:0:0:0:
64,192,213048,1,0,0:0:0:0:
192,192,213106,1,0,0:0:0:0:
320,192,213163,1,0,0:0:0:0:
448,192,213221,1,0,0:0:0:0:
64,192,213278,1,0,0:0:0:0:
192,192,213336,1,0,0:0:0:0:
64,192,213393,1,0,0:0:0:0:
320,192,213451,1,0,0:0:0:0:
448,192,213451,1,0,0:0:0:0:
192,192,213537,1,0,0:0:0:0:
448,192,213623,1,0,0:0:0:0:
320,192,213681,1,0,0:0:0:0:
448,192,213738,1,0,0:0:0:0:
320,192,213796,1,0,0:0:0:0:
64,192,213853,1,0,0:0:0:0:
192,192,213911,1,0,0:0:0:0:
448,192,213968,1,0,0:0:0:0:
192,192,214025,1,0,0:0:0:0:
64,192,214083,1,0,0:0:0:0:
320,192,214140,1,0,0:0:0:0:
448,192,214198,1,0,0:0:0:0:
320,192,214255,1,0,0:0:0:0:
448,192,214313,1,0,0:0:0:0:
192,192,214370,1,0,0:0:0:0:
64,192,214428,1,0,0:0:0:0:
192,192,214485,1,0,0:0:0:0:
320,192,214543,1,0,0:0:0:0:
448,192,214600,1,0,0:0:0:0:
64,192,214658,1,0,0:0:0:0:
320,192,214715,1,0,0:0:0:0:
64,192,214773,1,0,0:0:0:0:
448,192,214830,1,0,0:0:0:0:
192,192,214830,1,0,0:0:0:0:
320,192,214916,1,0,0:0:0:0:
64,192,215003,1,0,0:0:0:0:
192,192,215060,1,0,0:0:0:0:
64,192,215117,1,0,0:0:0:0:
448,192,215175,1,0,0:0:0:0:
192,192,215232,1,0,0:0:0:0:
320,192,215290,1,0,0:0:0:0:
64,192,215347,1,0,0:0:0:0:
320,192,215405,1,0,0:0:0:0:
448,192,215462,1,0,0:0:0:0:
192,192,215520,1,0,0:0:0:0:
448,192,215577,1,0,0:0:0:0:
320,192,215635,1,0,0:0:0:0:
64,192,215692,1,0,0:0:0:0:
320,192,215750,1,0,0:0:0:0:
192,192,215807,1,0,0:0:0:0:
448,192,215865,1,0,0:0:0:0:
192,192,215922,1,0,0:0:0:0:
64,192,215980,1,0,0:0:0:0:
448,192,216037,1,0,0:0:0:0:
64,192,216094,1,0,0:0:0:0:
448,192,216152,1,0,0:0:0:0:
320,192,216209,1,0,0:0:0:0:
192,192,216209,1,0,0:0:0:0:
64,192,216296,1,0,0:0:0:0:
320,192,216382,1,0,0:0:0:0:
192,192,216468,1,0,0:0:0:0:
448,192,216554,1,0,0:0:0:0:
64,192,216612,1,0,0:0:0:0:
320,192,216669,1,0,0:0:0:0:
192,192,216727,1,0,0:0:0:0:
320,192,216784,1,0,0:0:0:0:
448,192,216842,1,0,0:0:0:0:
192,192,216899,1,0,0:0:0:0:
448,192,216957,1,0,0:0:0:0:
320,192,217014,1,0,0:0:0:0:
64,192,217071,1,0,0:0:0:0:
320,192,217129,1,0,0:0:0:0:
192,192,217186,1,0,0:0:0:0:
64,192,217244,1,0,0:0:0:0:
448,192,217301,1,0,0:0:0:0:
320,192,217359,1,0,0:0:0:0:
192,192,217416,1,0,0:0:0:0:
64,192,217474,1,0,0:0:0:0:
192,192,217531,1,0,0:0:0:0:
64,192,217589,1,0,0:0:0:0:
448,192,217589,1,0,0:0:0:0:
320,192,217675,1,0,0:0:0:0:
192,192,217761,1,0,0:0:0:0:
64,192,217819,1,0,0:0:0:0:
192,192,217876,1,0,0:0:0:0:
320,192,217934,1,0,0:0:0:0:
448,192,217991,1,0,0:0:0:0:
320,192,218048,1,0,0:0:0:0:
448,192,218106,1,0,0:0:0:0:
64,192,218163,1,0,0:0:0:0:
192,192,218221,1,0,0:0:0:0:
320,192,218278,1,0,0:0:0:0:
192,192,218336,1,0,0:0:0:0:
64,192,218393,1,0,0:0:0:0:
448,192,218451,1,0,0:0:0:0:
320,192,218508,1,0,0:0:0:0:
448,192,218566,1,0,0:0:0:0:
320,192,218623,1,0,0:0:0:0:
192,192,218681,1,0,0:0:0:0:
64,192,218738,1,0,0:0:0:0:
448,192,218796,1,0,0:0:0:0:
192,192,218853,1,0,0:0:0:0:
448,192,218911,1,0,0:0:0:0:
192,192,218968,1,0,0:0:0:0:
64,192,218968,1,0,0:0:0:0:
320,192,219054,1,0,0:0:0:0:
64,192,219140,1,0,0:0:0:0:
192,192,219198,1,0,0:0:0:0:
64,192,219255,1,0,0:0:0:0:
192,192,219313,1,0,0:0:0:0:
448,192,219370,1,0,0:0:0:0:
320,192,219428,1,0,0:0:0:0:
64,192,219485,1,0,0:0:0:0:
320,192,219543,1,0,0:0:0:0:
192,192,219600,1,0,0:0:0:0:
448,192,219658,1,0,0:0:0:0:
192,192,219715,1,0,0:0:0:0:
64,192,219773,1,0,0:0:0:0:
320,192,219830,1,0,0:0:0:0:
448,192,219888,1,0,0:0:0:0:
192,192,219945,1,0,0:0:0:0:
448,192,220003,1,0,0:0:0:0:
64,192,220060,1,0,0:0:0:0:
192,192,220117,1,0,0:0:0:0:
320,192,220175,1,0,0:0:0:0:
448,192,220232,1,0,0:0:0:0:
320,192,220290,1,0,0:0:0:0:
64,192,220347,1,0,0:0:0:0:
448,192,220347,1,0,0:0:0:0:
192,192,220434,1,0,0:0:0:0:
320,192,220520,1,0,0:0:0:0:
448,192,220577,1,0,0:0:0:0:
320,192,220635,1,0,0:0:0:0:
192,192,220692,1,0,0:0:0:0:
64,192,220692,128,0,225692:0:0:0:0:
320,192,225692,1,0,0:0:0:0:
448,192,225692,1,0,0:0:0:0:
448,192,225778,128,0,226209:0:0:0:0:
192,192,226209,1,0,0:0:0:0:
64,192,226209,1,0,0:0:0:0:
64,192,226296,128,0,231209:0:0:0:0:
320,192,231209,1,0,0:0:0:0:
448,192,231209,1,0,0:0:0:0:
448,192,231296,128,0,231727:0:0:0:0:
192,192,231727,1,0,0:0:0:0:
64,192,231727,1,0,0:0:0:0:
64,192,231813,1,0,0:0:0:0:
448,192,231899,1,0,0:0:0:0:
320,192,232071,1,0,0:0:0:0:
192,192,232244,1,0,0:0:0:0:
64,192,232416,1,0,0:0:0:0:
192,192,232589,1,0,0:0:0:0:
320,192,232761,1,0,0:0:0:0:
448,192,232934,1,0,0:0:0:0:
64,192,233106,1,0,0:0:0:0:
448,192,233278,1,0,0:0:0:0:
320,192,233451,1,0,0:0:0:0:
192,192,233623,1,0,0:0:0:0:
64,192,233796,1,0,0:0:0:0:
192,192,233968,1,0,0:0:0:0:
320,192,234140,1,0,0:0:0:0:
448,192,234313,1,0,0:0:0:0:
192,192,234485,1,0,0:0:0:0:
192,192,234571,1,0,0:0:0:0:
448,192,234658,1,0,0:0:0:0:
320,192,234830,1,0,0:0:0:0:
192,192,235003,1,0,0:0:0:0:
64,192,235175,1,0,0:0:0:0:
192,192,235347,1,0,0:0:0:0:
320,192,235520,1,0,0:0:0:0:
448,192,235692,1,0,0:0:0:0:
448,192,235778,1,0,0:0:0:0:
64,192,235865,1,0,0:0:0:0:
448,192,236037,1,0,0:0:0:0:
320,192,236209,1,0,0:0:0:0:
192,192,236382,1,0,0:0:0:0:
64,192,236554,1,0,0:0:0:0:
320,192,236727,1,0,0:0:0:0:
448,192,236727,1,0,0:0:0:0:
448,192,236813,1,0,0:0:0:0:
192,192,236899,1,0,0:0:0:0:
320,192,237071,1,0,0:0:0:0:
192,192,237244,1,0,0:0:0:0:
64,192,237244,1,0,0:0:0:0:
64,192,237330,1,0,0:0:0:0:
448,192,237416,1,0,0:0:0:0:
320,192,237589,1,0,0:0:0:0:
64,192,237589,1,0,0:0:0:0:
192,192,237761,1,0,0:0:0:0:
64,192,237934,1,0,0:0:0:0:
448,192,237934,1,0,0:0:0:0:
192,192,238106,1,0,0:0:0:0:
320,192,238278,1,0,0:0:0:0:
448,192,238278,1,0,0:0:0:0:
448,192,238451,1,0,0:0:0:0:
64,192,238623,1,0,0:0:0:0:
192,192,238623,1,0,0:0:0:0:
448,192,238796,1,0,0:0:0:0:
320,192,238968,1,0,0:0:0:0:
64,192,238968,1,0,0:0:0:0:
192,192,239140,1,0,0:0:0:0:
64,192,239313,1,0,0:0:0:0:
448,192,239313,1,0,0:0:0:0:
192,192,239485,1,0,0:0:0:0:
320,192,239658,1,0,0:0:0:0:
448,192,239658,1,0,0:0:0:0:
448,192,239830,1,0,0:0:0:0:
192,192,240003,1,0,0:0:0:0:
192,192,240089,128,0,241382:0:0:0:0:
320,192,241382,1,0,0:0:0:0:
192,192,241554,1,0,0:0:0:0:
64,192,241554,1,0,0:0:0:0:
192,192,241727,1,0,0:0:0:0:
448,192,241727,1,0,0:0:0:0:
448,192,241899,1,0,0:0:0:0:
320,192,241899,1,0,0:0:0:0:
64,192,242071,1,0,0:0:0:0:
320,192,242071,1,0,0:0:0:0:
320,192,242158,1,0,0:0:0:0:
448,192,242244,1,0,0:0:0:0:
192,192,242330,1,0,0:0:0:0:
64,192,242416,1,0,0:0:0:0:
320,192,242416,1,0,0:0:0:0:
64,192,242503,1,0,0:0:0:0:
448,192,242589,1,0,0:0:0:0:
448,192,242675,1,0,0:0:0:0:
64,192,242761,1,0,0:0:0:0:
320,192,242761,1,0,0:0:0:0:
192,192,242847,1,0,0:0:0:0:
320,192,242934,1,0,0:0:0:0:
448,192,242934,1,0,0:0:0:0:
320,192,243106,1,0,0:0:0:0:
64,192,243106,1,0,0:0:0:0:
192,192,243192,1,0,0:0:0:0:
64,192,243278,1,0,0:0:0:0:
448,192,243278,1,0,0:0:0:0:
320,192,243451,1,0,0:0:0:0:
192,192,243451,1,0,0:0:0:0:
448,192,243537,1,0,0:0:0:0:
192,192,243623,1,0,0:0:0:0:
64,192,243623,1,0,0:0:0:0:
320,192,243796,1,0,0:0:0:0:
192,192,243796,1,0,0:0:0:0:
448,192,243882,1,0,0:0:0:0:
64,192,243968,1,0,0:0:0:0:
320,192,243968,1,0,0:0:0:0:
448,192,244140,1,0,0:0:0:0:
192,192,244140,1,0,0:0:0:0:
64,192,244227,1,0,0:0:0:0:
320,192,244313,1,0,0:0:0:0:
448,192,244313,1,0,0:0:0:0:
448,192,244485,1,0,0:0:0:0:
192,192,244485,1,0,0:0:0:0:
64,192,244571,1,0,0:0:0:0:
192,192,244658,1,0,0:0:0:0:
320,192,244658,1,0,0:0:0:0:
448,192,244830,1,0,0:0:0:0:
64,192,244830,1,0,0:0:0:0:
320,192,244916,1,0,0:0:0:0:
64,192,245003,1,0,0:0:0:0:
192,192,245003,1,0,0:0:0:0:
448,192,245175,1,0,0:0:0:0:
64,192,245175,1,0,0:0:0:0:
320,192,245261,1,0,0:0:0:0:
192,192,245347,1,0,0:0:0:0:
448,192,245347,1,0,0:0:0:0:
320,192,245520,1,0,0:0:0:0:
64,192,245520,1,0,0:0:0:0:
192,192,245606,1,0,0:0:0:0:
64,192,245692,1,0,0:0:0:0:
448,192,245692,1,0,0:0:0:0:
64,192,245865,1,0,0:0:0:0:
320,192,245865,1,0,0:0:0:0:
192,192,245951,1,0,0:0:0:0:
320,192,246037,1,0,0:0:0:0:
448,192,246037,1,0,0:0:0:0:
192,192,246209,1,0,0:0:0:0:
64,192,246209,1,0,0:0:0:0:
320,192,246296,1,0,0:0:0:0:
448,192,246382,1,0,0:0:0:0:
192,192,246382,1,0,0:0:0:0:
192,192,246554,1,0,0:0:0:0:
64,192,246554,1,0,0:0:0:0:
320,192,246640,1,0,0:0:0:0:
448,192,246727,1,0,0:0:0:0:
64,192,246727,1,0,0:0:0:0:
320,192,246899,1,0,0:0:0:0:
192,192,246899,1,0,0:0:0:0:
448,192,246985,1,0,0:0:0:0:
64,192,247071,1,0,0:0:0:0:
320,192,247071,1,0,0:0:0:0:
192,192,247244,1,0,0:0:0:0:
320,192,247244,1,0,0:0:0:0:
448,192,247330,1,0,0:0:0:0:
64,192,247416,1,0,0:0:0:0:
192,192,247416,1,0,0:0:0:0:
320,192,247589,1,0,0:0:0:0:
448,192,247589,1,0,0:0:0:0:
192,192,247675,1,0,0:0:0:0:
64,192,247761,1,0,0:0:0:0:
448,192,247761,1,0,0:0:0:0:
320,192,247934,1,0,0:0:0:0:
448,192,247934,1,0,0:0:0:0:
192,192,248020,1,0,0:0:0:0:
64,192,248106,1,0,0:0:0:0:
320,192,248106,1,0,0:0:0:0:
448,192,248278,1,0,0:0:0:0:
192,192,248278,1,0,0:0:0:0:
448,192,248365,1,0,0:0:0:0:
192,192,248451,1,0,0:0:0:0:
64,192,248451,1,0,0:0:0:0:
320,192,248623,1,0,0:0:0:0:
192,192,248623,1,0,0:0:0:0:
448,192,248709,1,0,0:0:0:0:
320,192,248796,1,0,0:0:0:0:
64,192,248796,1,0,0:0:0:0:
320,192,248968,1,0,0:0:0:0:
192,192,248968,1,0,0:0:0:0:
64,192,249054,1,0,0:0:0:0:
192,192,249140,1,0,0:0:0:0:
448,192,249140,1,0,0:0:0:0:
448,192,249313,1,0,0:0:0:0:
320,192,249313,1,0,0:0:0:0:
64,192,249399,1,0,0:0:0:0:
64,192,249485,1,0,0:0:0:0:
320,192,249485,1,0,0:0:0:0:
192,192,249658,1,0,0:0:0:0:
448,192,249658,1,0,0:0:0:0:
448,192,249830,1,0,0:0:0:0:
64,192,249830,1,0,0:0:0:0:
320,192,249916,1,0,0:0:0:0:
320,192,250003,1,0,0:0:0:0:
64,192,250003,1,0,0:0:0:0:
448,192,250175,1,0,0:0:0:0:
64,192,250175,1,0,0:0:0:0:
192,192,250347,1,0,0:0:0:0:
320,192,250347,1,0,0:0:0:0:
448,192,250520,1,0,0:0:0:0:
64,192,250520,1,0,0:0:0:0:
448,192,250692,1,0,0:0:0:0:
192,192,250692,1,0,0:0:0:0:
192,192,250778,1,0,0:0:0:0:
64,192,250865,1,0,0:0:0:0:
448,192,250865,1,0,0:0:0:0:
64,192,251037,1,0,0:0:0:0:
320,192,251037,1,0,0:0:0:0:
64,192,251123,1,0,0:0:0:0:
320,192,251209,1,0,0:0:0:0:
448,192,251209,1,0,0:0:0:0:
192,192,251382,1,0,0:0:0:0:
320,192,251382,1,0,0:0:0:0:
64,192,251468,1,0,0:0:0:0:
192,192,251554,1,0,0:0:0:0:
448,192,251554,1,0,0:0:0:0:
192,192,251727,1,0,0:0:0:0:
320,192,251727,1,0,0:0:0:0:
448,192,251813,1,0,0:0:0:0:
320,192,251899,1,0,0:0:0:0:
64,192,251899,1,0,0:0:0:0:
64,192,252071,1,0,0:0:0:0:
192,192,252071,1,0,0:0:0:0:
448,192,252158,1,0,0:0:0:0:
448,192,252244,1,0,0:0:0:0:
192,192,252244,1,0,0:0:0:0:
320,192,252416,1,0,0:0:0:0:
64,192,252416,1,0,0:0:0:0:
64,192,252589,1,0,0:0:0:0:
448,192,252589,1,0,0:0:0:0:
192,192,252675,1,0,0:0:0:0:
192,192,252761,1,0,0:0:0:0:
448,192,252761,1,0,0:0:0:0:
320,192,252934,1,0,0:0:0:0:
192,192,252934,1,0,0:0:0:0:
448,192,253106,1,0,0:0:0:0:
64,192,253106,1,0,0:0:0:0:
192,192,253278,1,0,0:0:0:0:
320,192,253278,1,0,0:0:0:0:
320,192,253451,1,0,0:0:0:0:
64,192,253451,1,0,0:0:0:0:
320,192,253537,1,0,0:0:0:0:
448,192,253623,1,0,0:0:0:0:
64,192,253623,1,0,0:0:0:0:
448,192,253796,1,0,0:0:0:0:
192,192,253796,1,0,0:0:0:0:
192,192,253882,1,0,0:0:0:0:
448,192,253968,1,0,0:0:0:0:
320,192,253968,1,0,0:0:0:0:
320,192,254140,1,0,0:0:0:0:
192,192,254140,1,0,0:0:0:0:
64,192,254227,1,0,0:0:0:0:
192,192,254313,1,0,0:0:0:0:
448,192,254313,1,0,0:0:0:0:
320,192,254485,1,0,0:0:0:0:
192,192,254485,1,0,0:0:0:0:
64,192,254571,1,0,0:0:0:0:
192,192,254658,1,0,0:0:0:0:
448,192,254658,1,0,0:0:0:0:
192,192,254830,1,0,0:0:0:0:
64,192,254830,1,0,0:0:0:0:
448,192,254916,1,0,0:0:0:0:
448,192,255003,1,0,0:0:0:0:
64,192,255003,1,0,0:0:0:0:
320,192,255175,1,0,0:0:0:0:
192,192,255175,1,0,0:0:0:0:
448,192,255347,1,0,0:0:0:0:
192,192,255347,1,0,0:0:0:0:
64,192,255434,1,0,0:0:0:0:
64,192,255520,1,0,0:0:0:0:
320,192,255520,1,0,0:0:0:0:
64,192,255692,1,0,0:0:0:0:
320,192,255692,1,0,0:0:0:0:
192,192,255865,1,0,0:0:0:0:
320,192,255865,1,0,0:0:0:0:
192,192,256037,1,0,0:0:0:0:
448,192,256037,1,0,0:0:0:0:
192,192,256209,1,0,0:0:0:0:
448,192,256209,1,0,0:0:0:0:
448,192,256296,1,0,0:0:0:0:
64,192,256382,1,0,0:0:0:0:
320,192,256382,1,0,0:0:0:0:
192,192,256554,1,0,0:0:0:0:
320,192,256554,1,0,0:0:0:0:
320,192,256640,1,0,0:0:0:0:
192,192,256727,1,0,0:0:0:0:
64,192,256727,1,0,0:0:0:0:
64,192,256899,1,0,0:0:0:0:
320,192,256899,1,0,0:0:0:0:
448,192,256985,1,0,0:0:0:0:
320,192,257071,1,0,0:0:0:0:
192,192,257071,1,0,0:0:0:0:
64,192,257244,1,0,0:0:0:0:
320,192,257244,1,0,0:0:0:0:
448,192,257330,1,0,0:0:0:0:
320,192,257416,1,0,0:0:0:0:
192,192,257416,1,0,0:0:0:0:
320,192,257589,1,0,0:0:0:0:
448,192,257589,1,0,0:0:0:0:
192,192,257675,1,0,0:0:0:0:
192,192,257761,1,0,0:0:0:0:
448,192,257761,1,0,0:0:0:0:
64,192,257934,1,0,0:0:0:0:
320,192,257934,1,0,0:0:0:0:
192,192,258106,1,0,0:0:0:0:
320,192,258106,1,0,0:0:0:0:
448,192,258192,1,0,0:0:0:0:
448,192,258278,1,0,0:0:0:0:
64,192,258278,1,0,0:0:0:0:
448,192,258451,1,0,0:0:0:0:
64,192,258451,1,0,0:0:0:0:
320,192,258623,1,0,0:0:0:0:
64,192,258623,1,0,0:0:0:0:
320,192,258796,1,0,0:0:0:0:
192,192,258796,1,0,0:0:0:0:
320,192,258968,1,0,0:0:0:0:
192,192,258968,1,0,0:0:0:0:
192,192,259054,1,0,0:0:0:0:
448,192,259140,1,0,0:0:0:0:
64,192,259140,1,0,0:0:0:0:
320,192,259313,1,0,0:0:0:0:
64,192,259313,1,0,0:0:0:0:
64,192,259399,1,0,0:0:0:0:
320,192,259485,1,0,0:0:0:0:
448,192,259485,1,0,0:0:0:0:
448,192,259658,1,0,0:0:0:0:
64,192,259658,1,0,0:0:0:0:
192,192,259744,1,0,0:0:0:0:
64,192,259830,1,0,0:0:0:0:
320,192,259830,1,0,0:0:0:0:
448,192,260003,1,0,0:0:0:0:
64,192,260003,1,0,0:0:0:0:
192,192,260089,1,0,0:0:0:0:
64,192,260175,1,0,0:0:0:0:
320,192,260175,1,0,0:0:0:0:
64,192,260347,1,0,0:0:0:0:
192,192,260347,1,0,0:0:0:0:
320,192,260434,1,0,0:0:0:0:
320,192,260520,1,0,0:0:0:0:
192,192,260520,1,0,0:0:0:0:
448,192,260692,1,0,0:0:0:0:
64,192,260692,1,0,0:0:0:0:
320,192,260865,1,0,0:0:0:0:
64,192,260865,1,0,0:0:0:0:
192,192,260951,1,0,0:0:0:0:
192,192,261037,1,0,0:0:0:0:
448,192,261037,1,0,0:0:0:0:
192,192,261209,1,0,0:0:0:0:
448,192,261209,1,0,0:0:0:0:
64,192,261382,1,0,0:0:0:0:
448,192,261382,1,0,0:0:0:0:
64,192,261554,1,0,0:0:0:0:
320,192,261554,1,0,0:0:0:0:
64,192,261727,1,0,0:0:0:0:
320,192,261727,1,0,0:0:0:0:
320,192,261813,1,0,0:0:0:0:
192,192,261899,1,0,0:0:0:0:
448,192,261899,1,0,0:0:0:0:
64,192,262071,1,0,0:0:0:0:
448,192,262071,1,0,0:0:0:0:
448,192,262158,1,0,0:0:0:0:
64,192,262244,1,0,0:0:0:0:
192,192,262244,1,0,0:0:0:0:
192,192,262416,1,0,0:0:0:0:
448,192,262416,1,0,0:0:0:0:
320,192,262503,1,0,0:0:0:0:
448,192,262589,1,0,0:0:0:0:
64,192,262589,1,0,0:0:0:0:
192,192,262761,1,0,0:0:0:0:
448,192,262761,1,0,0:0:0:0:
320,192,262847,1,0,0:0:0:0:
448,192,262934,1,0,0:0:0:0:
64,192,262934,1,0,0:0:0:0:
448,192,263106,1,0,0:0:0:0:
320,192,263106,1,0,0:0:0:0:
64,192,263192,1,0,0:0:0:0:
64,192,263278,1,0,0:0:0:0:
320,192,263278,1,0,0:0:0:0:
192,192,263451,1,0,0:0:0:0:
448,192,263451,1,0,0:0:0:0:
192,192,263623,1,0,0:0:0:0:
320,192,263796,5,0,0:0:0:0:
448,192,263968,1,0,0:0:0:0:
192,192,264140,1,0,0:0:0:0:
64,192,264140,1,0,0:0:0:0:
64,192,264313,1,0,0:0:0:0:
192,192,264485,1,0,0:0:0:0:
320,192,264485,1,0,0:0:0:0:
448,192,264485,1,0,0:0:0:0:
448,192,264571,1,0,0:0:0:0:
192,192,264658,1,0,0:0:0:0:
320,192,264830,5,0,0:0:0:0:
64,192,264830,1,0,0:0:0:0:
64,192,264916,1,0,0:0:0:0:
320,192,265003,1,0,0:0:0:0:
448,192,265003,1,0,0:0:0:0:
192,192,265175,1,0,0:0:0:0:
448,192,265175,1,0,0:0:0:0:
448,192,265261,1,0,0:0:0:0:
192,192,265347,1,0,0:0:0:0:
64,192,265347,1,0,0:0:0:0:
320,192,265520,1,0,0:0:0:0:
64,192,265520,1,0,0:0:0:0:
64,192,265606,1,0,0:0:0:0:
320,192,265692,1,0,0:0:0:0:
448,192,265692,1,0,0:0:0:0:
320,192,265865,1,0,0:0:0:0:
192,192,265865,1,0,0:0:0:0:
448,192,265951,1,0,0:0:0:0:
448,192,266037,1,0,0:0:0:0:
192,192,266037,1,0,0:0:0:0:
320,192,266209,1,0,0:0:0:0:
64,192,266209,1,0,0:0:0:0:
64,192,266382,1,0,0:0:0:0:
448,192,266382,1,0,0:0:0:0:
192,192,266468,1,0,0:0:0:0:
192,192,266554,1,0,0:0:0:0:
320,192,266554,1,0,0:0:0:0:
320,192,266640,1,0,0:0:0:0:
448,192,266727,1,0,0:0:0:0:
64,192,266727,1,0,0:0:0:0:
320,192,266899,1,0,0:0:0:0:
192,192,266899,1,0,0:0:0:0:
448,192,267071,1,0,0:0:0:0:
192,192,267071,1,0,0:0:0:0:
320,192,267158,1,0,0:0:0:0:
320,192,267244,1,0,0:0:0:0:
64,192,267244,1,0,0:0:0:0:
64,192,267330,1,0,0:0:0:0:
192,192,267416,1,0,0:0:0:0:
448,192,267416,1,0,0:0:0:0:
448,192,267589,1,0,0:0:0:0:
64,192,267589,1,0,0:0:0:0:
448,192,267675,1,0,0:0:0:0:
320,192,267761,1,0,0:0:0:0:
64,192,267761,1,0,0:0:0:0:
320,192,267934,1,0,0:0:0:0:
192,192,267934,1,0,0:0:0:0:
192,192,268020,1,0,0:0:0:0:
320,192,268106,1,0,0:0:0:0:
64,192,268106,1,0,0:0:0:0:
448,192,268278,1,0,0:0:0:0:
64,192,268278,1,0,0:0:0:0:
448,192,268365,1,0,0:0:0:0:
320,192,268451,1,0,0:0:0:0:
64,192,268451,1,0,0:0:0:0:
64,192,268623,1,0,0:0:0:0:
448,192,268623,1,0,0:0:0:0:
192,192,268709,1,0,0:0:0:0:
192,192,268796,1,0,0:0:0:0:
448,192,268796,1,0,0:0:0:0:
448,192,268968,1,0,0:0:0:0:
64,192,268968,1,0,0:0:0:0:
448,192,269140,1,0,0:0:0:0:
192,192,269140,1,0,0:0:0:0:
320,192,269227,1,0,0:0:0:0:
320,192,269313,1,0,0:0:0:0:
64,192,269313,1,0,0:0:0:0:
64,192,269399,1,0,0:0:0:0:
192,192,269485,1,0,0:0:0:0:
320,192,269485,1,0,0:0:0:0:
64,192,269658,1,0,0:0:0:0:
448,192,269658,1,0,0:0:0:0:
448,192,269830,1,0,0:0:0:0:
192,192,269830,1,0,0:0:0:0:
64,192,269916,1,0,0:0:0:0:
64,192,270003,1,0,0:0:0:0:
320,192,270003,1,0,0:0:0:0:
320,192,270089,1,0,0:0:0:0:
448,192,270175,1,0,0:0:0:0:
64,192,270175,1,0,0:0:0:0:
192,192,270347,5,0,0:0:0:0:
448,192,270347,1,0,0:0:0:0:
448,192,270434,1,0,0:0:0:0:
192,192,270520,1,0,0:0:0:0:
64,192,270520,1,0,0:0:0:0:
320,192,270692,1,0,0:0:0:0:
64,192,270692,1,0,0:0:0:0:
64,192,270778,1,0,0:0:0:0:
320,192,270865,1,0,0:0:0:0:
448,192,270865,1,0,0:0:0:0:
192,192,271037,1,0,0:0:0:0:
448,192,271037,1,0,0:0:0:0:
448,192,271123,1,0,0:0:0:0:
192,192,271209,1,0,0:0:0:0:
64,192,271209,1,0,0:0:0:0:
192,192,271382,1,0,0:0:0:0:
320,192,271382,1,0,0:0:0:0:
64,192,271468,1,0,0:0:0:0:
64,192,271554,1,0,0:0:0:0:
320,192,271554,1,0,0:0:0:0:
192,192,271727,1,0,0:0:0:0:
448,192,271727,1,0,0:0:0:0:
448,192,271899,1,0,0:0:0:0:
64,192,271899,1,0,0:0:0:0:
320,192,271985,1,0,0:0:0:0:
320,192,272071,1,0,0:0:0:0:
192,192,272071,1,0,0:0:0:0:
192,192,272158,1,0,0:0:0:0:
64,192,272244,1,0,0:0:0:0:
448,192,272244,1,0,0:0:0:0:
192,192,272416,1,0,0:0:0:0:
320,192,272416,1,0,0:0:0:0:
64,192,272589,1,0,0:0:0:0:
320,192,272589,1,0,0:0:0:0:
192,192,272675,1,0,0:0:0:0:
192,192,272761,1,0,0:0:0:0:
448,192,272761,1,0,0:0:0:0:
448,192,272847,1,0,0:0:0:0:
64,192,272934,1,0,0:0:0:0:
192,192,272934,1,0,0:0:0:0:
64,192,273106,1,0,0:0:0:0:
320,192,273106,1,0,0:0:0:0:
64,192,273192,1,0,0:0:0:0:
192,192,273278,1,0,0:0:0:0:
320,192,273278,1,0,0:0:0:0:
192,192,273451,1,0,0:0:0:0:
448,192,273451,1,0,0:0:0:0:
448,192,273537,1,0,0:0:0:0:
320,192,273623,1,0,0:0:0:0:
192,192,273623,1,0,0:0:0:0:
64,192,273796,1,0,0:0:0:0:
320,192,273796,1,0,0:0:0:0:
64,192,273882,1,0,0:0:0:0:
320,192,273968,1,0,0:0:0:0:
192,192,273968,1,0,0:0:0:0:
320,192,274140,1,0,0:0:0:0:
64,192,274140,1,0,0:0:0:0:
448,192,274227,1,0,0:0:0:0:
448,192,274313,1,0,0:0:0:0:
64,192,274313,1,0,0:0:0:0:
192,192,274485,1,0,0:0:0:0:
448,192,274485,1,0,0:0:0:0:
64,192,274658,1,0,0:0:0:0:
448,192,274658,1,0,0:0:0:0:
192,192,274744,1,0,0:0:0:0:
192,192,274830,1,0,0:0:0:0:
320,192,274830,1,0,0:0:0:0:
320,192,274916,1,0,0:0:0:0:
64,192,275003,1,0,0:0:0:0:
448,192,275003,1,0,0:0:0:0:
192,192,275175,1,0,0:0:0:0:
448,192,275175,1,0,0:0:0:0:
64,192,275347,1,0,0:0:0:0:
320,192,275347,1,0,0:0:0:0:
448,192,275434,1,0,0:0:0:0:
448,192,275520,1,0,0:0:0:0:
192,192,275520,1,0,0:0:0:0:
192,192,275606,1,0,0:0:0:0:
320,192,275692,1,0,0:0:0:0:
64,192,275692,1,0,0:0:0:0:
192,192,275865,5,0,0:0:0:0:
448,192,275865,1,0,0:0:0:0:
448,192,275951,1,0,0:0:0:0:
192,192,276037,1,0,0:0:0:0:
64,192,276037,1,0,0:0:0:0:
320,192,276209,1,0,0:0:0:0:
64,192,276209,1,0,0:0:0:0:
192,192,276209,1,0,0:0:0:0:
64,192,276296,1,0,0:0:0:0:
320,192,276382,1,0,0:0:0:0:
448,192,276382,1,0,0:0:0:0:
192,192,276554,1,0,0:0:0:0:
448,192,276554,1,0,0:0:0:0:
448,192,276640,1,0,0:0:0:0:
192,192,276727,1,0,0:0:0:0:
64,192,276727,1,0,0:0:0:0:
192,192,276899,1,0,0:0:0:0:
320,192,276899,1,0,0:0:0:0:
448,192,276899,1,0,0:0:0:0:
64,192,276985,1,0,0:0:0:0:
64,192,277071,1,0,0:0:0:0:
320,192,277071,1,0,0:0:0:0:
192,192,277244,1,0,0:0:0:0:
448,192,277244,1,0,0:0:0:0:
448,192,277416,1,0,0:0:0:0:
64,192,277416,1,0,0:0:0:0:
320,192,277503,1,0,0:0:0:0:
320,192,277589,1,0,0:0:0:0:
192,192,277589,1,0,0:0:0:0:
192,192,277675,1,0,0:0:0:0:
64,192,277761,1,0,0:0:0:0:
448,192,277761,1,0,0:0:0:0:
192,192,277934,1,0,0:0:0:0:
320,192,277934,1,0,0:0:0:0:
64,192,278106,1,0,0:0:0:0:
448,192,278106,1,0,0:0:0:0:
192,192,278192,1,0,0:0:0:0:
192,192,278278,1,0,0:0:0:0:
448,192,278278,1,0,0:0:0:0:
320,192,278278,1,0,0:0:0:0:
448,192,278365,1,0,0:0:0:0:
320,192,278451,1,0,0:0:0:0:
64,192,278451,1,0,0:0:0:0:
64,192,278623,1,0,0:0:0:0:
448,192,278623,1,0,0:0:0:0:
64,192,278709,1,0,0:0:0:0:
192,192,278796,1,0,0:0:0:0:
448,192,278796,1,0,0:0:0:0:
192,192,278968,1,0,0:0:0:0:
320,192,278968,1,0,0:0:0:0:
64,192,278968,1,0,0:0:0:0:
320,192,279054,1,0,0:0:0:0:
448,192,279140,1,0,0:0:0:0:
192,192,279140,1,0,0:0:0:0:
64,192,279313,1,0,0:0:0:0:
448,192,279313,1,0,0:0:0:0:
64,192,279399,1,0,0:0:0:0:
192,192,279485,1,0,0:0:0:0:
448,192,279485,1,0,0:0:0:0:
448,192,279658,1,0,0:0:0:0:
64,192,279658,1,0,0:0:0:0:
192,192,279658,1,0,0:0:0:0:
320,192,279744,1,0,0:0:0:0:
320,192,279830,1,0,0:0:0:0:
192,192,279830,1,0,0:0:0:0:
64,192,280003,1,0,0:0:0:0:
448,192,280003,1,0,0:0:0:0:
64,192,280175,1,0,0:0:0:0:
320,192,280175,1,0,0:0:0:0:
192,192,280261,1,0,0:0:0:0:
192,192,280347,1,0,0:0:0:0:
448,192,280347,1,0,0:0:0:0:
448,192,280434,1,0,0:0:0:0:
320,192,280520,1,0,0:0:0:0:
192,192,280520,1,0,0:0:0:0:
448,192,280692,1,0,0:0:0:0:
64,192,280692,1,0,0:0:0:0:
64,192,280865,1,0,0:0:0:0:
320,192,280865,1,0,0:0:0:0:
448,192,280951,1,0,0:0:0:0:
448,192,281037,1,0,0:0:0:0:
192,192,281037,1,0,0:0:0:0:
64,192,281037,1,0,0:0:0:0:
192,192,281123,1,0,0:0:0:0:
64,192,281209,1,0,0:0:0:0:
448,192,281209,1,0,0:0:0:0:
192,192,281382,1,0,0:0:0:0:
448,192,281382,1,0,0:0:0:0:
192,192,281468,1,0,0:0:0:0:
448,192,281554,1,0,0:0:0:0:
320,192,281554,1,0,0:0:0:0:
64,192,281727,1,0,0:0:0:0:
320,192,281727,1,0,0:0:0:0:
448,192,281727,1,0,0:0:0:0:
320,192,281813,1,0,0:0:0:0:
64,192,281899,1,0,0:0:0:0:
192,192,281899,1,0,0:0:0:0:
448,192,282071,1,0,0:0:0:0:
192,192,282071,1,0,0:0:0:0:
192,192,282158,1,0,0:0:0:0:
448,192,282244,1,0,0:0:0:0:
320,192,282244,1,0,0:0:0:0:
448,192,282416,1,0,0:0:0:0:
64,192,282416,1,0,0:0:0:0:
192,192,282416,1,0,0:0:0:0:
320,192,282503,1,0,0:0:0:0:
320,192,282589,1,0,0:0:0:0:
64,192,282589,1,0,0:0:0:0:
448,192,282761,1,0,0:0:0:0:
192,192,282761,1,0,0:0:0:0:
192,192,282934,1,0,0:0:0:0:
320,192,282934,1,0,0:0:0:0:
64,192,283020,1,0,0:0:0:0:
64,192,283106,1,0,0:0:0:0:
448,192,283106,1,0,0:0:0:0:
448,192,283192,1,0,0:0:0:0:
320,192,283278,1,0,0:0:0:0:
192,192,283278,1,0,0:0:0:0:
448,192,283451,1,0,0:0:0:0:
64,192,283451,1,0,0:0:0:0:
320,192,283623,1,0,0:0:0:0:
64,192,283623,1,0,0:0:0:0:
448,192,283709,1,0,0:0:0:0:
448,192,283796,1,0,0:0:0:0:
192,192,283796,1,0,0:0:0:0:
64,192,283796,1,0,0:0:0:0:
192,192,283882,1,0,0:0:0:0:
320,192,283968,1,0,0:0:0:0:
448,192,283968,1,0,0:0:0:0:
448,192,284140,1,0,0:0:0:0:
192,192,284140,1,0,0:0:0:0:
448,192,284227,1,0,0:0:0:0:
192,192,284313,1,0,0:0:0:0:
320,192,284313,1,0,0:0:0:0:
320,192,284485,1,0,0:0:0:0:
64,192,284485,1,0,0:0:0:0:
448,192,284485,1,0,0:0:0:0:
64,192,284571,1,0,0:0:0:0:
320,192,284658,1,0,0:0:0:0:
192,192,284658,1,0,0:0:0:0:
448,192,284830,1,0,0:0:0:0:
192,192,284830,1,0,0:0:0:0:
448,192,284916,1,0,0:0:0:0:
320,192,285003,1,0,0:0:0:0:
192,192,285003,1,0,0:0:0:0:
192,192,285175,1,0,0:0:0:0:
448,192,285175,1,0,0:0:0:0:
320,192,285175,1,0,0:0:0:0:
64,192,285261,1,0,0:0:0:0:
64,192,285347,1,0,0:0:0:0:
448,192,285347,1,0,0:0:0:0:
320,192,285520,1,0,0:0:0:0:
64,192,285520,1,0,0:0:0:0:
192,192,285520,1,0,0:0:0:0:
448,192,285692,1,0,0:0:0:0:
64,192,285692,1,0,0:0:0:0:
320,192,285865,1,0,0:0:0:0:
192,192,285865,1,0,0:0:0:0:
64,192,285865,1,0,0:0:0:0:
64,192,286037,1,0,0:0:0:0:
320,192,286037,1,0,0:0:0:0:
64,192,286209,1,0,0:0:0:0:
448,192,286382,1,0,0:0:0:0:
320,192,286468,1,0,0:0:0:0:
192,192,286554,1,0,0:0:0:0:
320,192,286554,1,0,0:0:0:0:
192,192,286640,1,0,0:0:0:0:
448,192,286727,1,0,0:0:0:0:
64,192,286727,1,0,0:0:0:0:
320,192,286899,5,0,0:0:0:0:
64,192,286899,1,0,0:0:0:0:
192,192,286899,1,0,0:0:0:0:
64,192,286985,1,0,0:0:0:0:
320,192,287071,1,0,0:0:0:0:
448,192,287071,1,0,0:0:0:0:
192,192,287244,1,0,0:0:0:0:
448,192,287244,1,0,0:0:0:0:
320,192,287244,1,0,0:0:0:0:
448,192,287330,1,0,0:0:0:0:
192,192,287416,1,0,0:0:0:0:
64,192,287416,1,0,0:0:0:0:
320,192,287589,1,0,0:0:0:0:
64,192,287589,1,0,0:0:0:0:
192,192,287589,1,0,0:0:0:0:
64,192,287675,1,0,0:0:0:0:
320,192,287761,1,0,0:0:0:0:
448,192,287761,1,0,0:0:0:0:
320,192,287934,1,0,0:0:0:0:
192,192,287934,1,0,0:0:0:0:
64,192,287934,1,0,0:0:0:0:
448,192,288020,1,0,0:0:0:0:
448,192,288106,1,0,0:0:0:0:
192,192,288106,1,0,0:0:0:0:
64,192,288192,1,0,0:0:0:0:
320,192,288278,1,0,0:0:0:0:
192,192,288278,1,0,0:0:0:0:
64,192,288451,1,0,0:0:0:0:
448,192,288451,1,0,0:0:0:0:
320,192,288451,1,0,0:0:0:0:
192,192,288537,1,0,0:0:0:0:
192,192,288623,1,0,0:0:0:0:
320,192,288623,1,0,0:0:0:0:
320,192,288709,1,0,0:0:0:0:
448,192,288796,1,0,0:0:0:0:
64,192,288796,1,0,0:0:0:0:
320,192,288968,1,0,0:0:0:0:
192,192,288968,1,0,0:0:0:0:
448,192,289140,1,0,0:0:0:0:
192,192,289140,1,0,0:0:0:0:
64,192,289140,1,0,0:0:0:0:
320,192,289227,1,0,0:0:0:0:
320,192,289313,1,0,0:0:0:0:
64,192,289313,1,0,0:0:0:0:
64,192,289399,1,0,0:0:0:0:
192,192,289485,1,0,0:0:0:0:
448,192,289485,1,0,0:0:0:0:
320,192,289571,1,0,0:0:0:0:
448,192,289658,1,0,0:0:0:0:
64,192,289658,1,0,0:0:0:0:
192,192,289658,1,0,0:0:0:0:
192,192,289744,1,0,0:0:0:0:
64,192,289830,1,0,0:0:0:0:
320,192,289830,1,0,0:0:0:0:
448,192,290003,1,0,0:0:0:0:
192,192,290003,1,0,0:0:0:0:
64,192,290003,1,0,0:0:0:0:
448,192,290089,1,0,0:0:0:0:
64,192,290175,1,0,0:0:0:0:
320,192,290175,1,0,0:0:0:0:
448,192,290347,1,0,0:0:0:0:
320,192,290347,1,0,0:0:0:0:
192,192,290347,1,0,0:0:0:0:
192,192,290434,1,0,0:0:0:0:
320,192,290520,1,0,0:0:0:0:
64,192,290520,1,0,0:0:0:0:
192,192,290692,1,0,0:0:0:0:
64,192,290692,1,0,0:0:0:0:
320,192,290692,1,0,0:0:0:0:
448,192,290778,1,0,0:0:0:0:
192,192,290865,1,0,0:0:0:0:
448,192,290865,1,0,0:0:0:0:
64,192,290951,1,0,0:0:0:0:
320,192,291037,1,0,0:0:0:0:
192,192,291037,1,0,0:0:0:0:
192,192,291209,1,0,0:0:0:0:
320,192,291209,1,0,0:0:0:0:
448,192,291209,1,0,0:0:0:0:
64,192,291296,1,0,0:0:0:0:
64,192,291382,1,0,0:0:0:0:
320,192,291382,1,0,0:0:0:0:
320,192,291468,1,0,0:0:0:0:
448,192,291554,1,0,0:0:0:0:
192,192,291554,1,0,0:0:0:0:
64,192,291727,1,0,0:0:0:0:
448,192,291727,1,0,0:0:0:0:
64,192,291899,1,0,0:0:0:0:
448,192,291899,1,0,0:0:0:0:
320,192,291899,1,0,0:0:0:0:
192,192,291985,1,0,0:0:0:0:
192,192,292071,1,0,0:0:0:0:
320,192,292071,1,0,0:0:0:0:
320,192,292158,1,0,0:0:0:0:
192,192,292244,1,0,0:0:0:0:
448,192,292244,1,0,0:0:0:0:
64,192,292330,1,0,0:0:0:0:
192,192,292416,5,0,0:0:0:0:
448,192,292416,1,0,0:0:0:0:
320,192,292416,1,0,0:0:0:0:
448,192,292503,1,0,0:0:0:0:
192,192,292589,1,0,0:0:0:0:
64,192,292589,1,0,0:0:0:0:
320,192,292761,1,0,0:0:0:0:
64,192,292761,1,0,0:0:0:0:
192,192,292761,1,0,0:0:0:0:
64,192,292847,1,0,0:0:0:0:
320,192,292934,1,0,0:0:0:0:
448,192,292934,1,0,0:0:0:0:
192,192,293106,1,0,0:0:0:0:
448,192,293106,1,0,0:0:0:0:
320,192,293106,1,0,0:0:0:0:
448,192,293192,1,0,0:0:0:0:
192,192,293278,1,0,0:0:0:0:
64,192,293278,1,0,0:0:0:0:
192,192,293451,1,0,0:0:0:0:
320,192,293451,1,0,0:0:0:0:
448,192,293451,1,0,0:0:0:0:
64,192,293537,1,0,0:0:0:0:
64,192,293623,1,0,0:0:0:0:
320,192,293623,1,0,0:0:0:0:
448,192,293709,1,0,0:0:0:0:
192,192,293796,1,0,0:0:0:0:
320,192,293796,1,0,0:0:0:0:
448,192,293968,1,0,0:0:0:0:
64,192,293968,1,0,0:0:0:0:
192,192,293968,1,0,0:0:0:0:
320,192,294054,1,0,0:0:0:0:
320,192,294140,1,0,0:0:0:0:
192,192,294140,1,0,0:0:0:0:
192,192,294227,1,0,0:0:0:0:
64,192,294313,1,0,0:0:0:0:
448,192,294313,1,0,0:0:0:0:
192,192,294485,1,0,0:0:0:0:
320,192,294485,1,0,0:0:0:0:
320,192,294658,1,0,0:0:0:0:
448,192,294658,1,0,0:0:0:0:
192,192,294658,1,0,0:0:0:0:
64,192,294744,1,0,0:0:0:0:
448,192,294830,1,0,0:0:0:0:
64,192,294830,1,0,0:0:0:0:
448,192,294916,1,0,0:0:0:0:
320,192,295003,1,0,0:0:0:0:
192,192,295003,1,0,0:0:0:0:
64,192,295089,1,0,0:0:0:0:
320,192,295175,1,0,0:0:0:0:
448,192,295175,1,0,0:0:0:0:
192,192,295175,1,0,0:0:0:0:
320,192,295261,1,0,0:0:0:0:
448,192,295347,1,0,0:0:0:0:
192,192,295347,1,0,0:0:0:0:
64,192,295520,1,0,0:0:0:0:
320,192,295520,1,0,0:0:0:0:
448,192,295520,1,0,0:0:0:0:
64,192,295606,1,0,0:0:0:0:
448,192,295692,1,0,0:0:0:0:
192,192,295692,1,0,0:0:0:0:
64,192,295865,1,0,0:0:0:0:
320,192,295865,1,0,0:0:0:0:
192,192,295865,1,0,0:0:0:0:
320,192,295951,1,0,0:0:0:0:
192,192,296037,1,0,0:0:0:0:
448,192,296037,1,0,0:0:0:0:
448,192,296209,1,0,0:0:0:0:
192,192,296209,1,0,0:0:0:0:
320,192,296209,1,0,0:0:0:0:
64,192,296296,1,0,0:0:0:0:
320,192,296382,1,0,0:0:0:0:
64,192,296382,1,0,0:0:0:0:
448,192,296468,1,0,0:0:0:0:
192,192,296554,1,0,0:0:0:0:
320,192,296554,1,0,0:0:0:0:
64,192,296727,1,0,0:0:0:0:
448,192,296727,1,0,0:0:0:0:
320,192,296727,1,0,0:0:0:0:
192,192,296813,1,0,0:0:0:0:
192,192,296899,1,0,0:0:0:0:
320,192,296899,1,0,0:0:0:0:
320,192,296985,1,0,0:0:0:0:
64,192,297071,1,0,0:0:0:0:
448,192,297071,1,0,0:0:0:0:
192,192,297244,1,0,0:0:0:0:
448,192,297244,1,0,0:0:0:0:
64,192,297416,1,0,0:0:0:0:
320,192,297416,1,0,0:0:0:0:
192,192,297416,1,0,0:0:0:0:
448,192,297503,1,0,0:0:0:0:
448,192,297589,1,0,0:0:0:0:
192,192,297589,1,0,0:0:0:0:
192,192,297675,1,0,0:0:0:0:
320,192,297761,1,0,0:0:0:0:
64,192,297761,1,0,0:0:0:0:
448,192,297847,1,0,0:0:0:0:
320,192,297934,1,0,0:0:0:0:
192,192,297934,1,0,0:0:0:0:
64,192,297934,1,0,0:0:0:0:
64,192,298020,1,0,0:0:0:0:
320,192,298106,1,0,0:0:0:0:
448,192,298106,1,0,0:0:0:0:
320,192,298278,1,0,0:0:0:0:
192,192,298278,1,0,0:0:0:0:
64,192,298278,1,0,0:0:0:0:
64,192,298365,1,0,0:0:0:0:
320,192,298451,1,0,0:0:0:0:
448,192,298451,1,0,0:0:0:0:
320,192,298623,1,0,0:0:0:0:
192,192,298623,1,0,0:0:0:0:
64,192,298623,1,0,0:0:0:0:
64,192,298709,1,0,0:0:0:0:
320,192,298796,1,0,0:0:0:0:
448,192,298796,1,0,0:0:0:0:
448,192,298968,1,0,0:0:0:0:
192,192,298968,1,0,0:0:0:0:
64,192,298968,1,0,0:0:0:0:
320,192,299054,1,0,0:0:0:0:
320,192,299140,1,0,0:0:0:0:
192,192,299140,1,0,0:0:0:0:
64,192,299227,1,0,0:0:0:0:
192,192,299313,1,0,0:0:0:0:
448,192,299313,1,0,0:0:0:0:
320,192,299485,1,0,0:0:0:0:
192,192,299485,1,0,0:0:0:0:
448,192,299485,1,0,0:0:0:0:
64,192,299571,1,0,0:0:0:0:
64,192,299658,1,0,0:0:0:0:
320,192,299658,1,0,0:0:0:0:
320,192,299744,1,0,0:0:0:0:
448,192,299830,1,0,0:0:0:0:
192,192,299830,1,0,0:0:0:0:
64,192,299916,1,0,0:0:0:0:
320,192,300003,1,0,0:0:0:0:
192,192,300003,1,0,0:0:0:0:
448,192,300175,1,0,0:0:0:0:
320,192,300175,1,0,0:0:0:0:
64,192,300175,1,0,0:0:0:0:
192,192,300261,1,0,0:0:0:0:
192,192,300347,1,0,0:0:0:0:
448,192,300347,1,0,0:0:0:0:
448,192,300434,1,0,0:0:0:0:
320,192,300520,1,0,0:0:0:0:
64,192,300520,1,0,0:0:0:0:
192,192,300606,1,0,0:0:0:0:
448,192,300692,1,0,0:0:0:0:
64,192,300692,1,0,0:0:0:0:
320,192,300692,1,0,0:0:0:0:
320,192,300778,1,0,0:0:0:0:
448,192,300865,1,0,0:0:0:0:
192,192,300865,1,0,0:0:0:0:
192,192,301037,1,0,0:0:0:0:
64,192,301037,1,0,0:0:0:0:
320,192,301037,1,0,0:0:0:0:
320,192,301123,1,0,0:0:0:0:
192,192,301209,1,0,0:0:0:0:
448,192,301209,1,0,0:0:0:0:
64,192,301382,1,0,0:0:0:0:
320,192,301382,1,0,0:0:0:0:
192,192,301382,1,0,0:0:0:0:
320,192,301468,1,0,0:0:0:0:
192,192,301554,1,0,0:0:0:0:
448,192,301554,1,0,0:0:0:0:
448,192,301727,1,0,0:0:0:0:
320,192,301727,1,0,0:0:0:0:
192,192,301727,1,0,0:0:0:0:
64,192,301813,1,0,0:0:0:0:
64,192,301899,1,0,0:0:0:0:
320,192,301899,1,0,0:0:0:0:
448,192,301985,1,0,0:0:0:0:
320,192,302071,1,0,0:0:0:0:
192,192,302071,1,0,0:0:0:0:
320,192,302244,1,0,0:0:0:0:
192,192,302244,1,0,0:0:0:0:
64,192,302244,1,0,0:0:0:0:
448,192,302330,1,0,0:0:0:0:
448,192,302416,1,0,0:0:0:0:
64,192,302416,1,0,0:0:0:0:
64,192,302503,1,0,0:0:0:0:
192,192,302589,1,0,0:0:0:0:
320,192,302589,1,0,0:0:0:0:
448,192,302675,1,0,0:0:0:0:
320,192,302761,1,0,0:0:0:0:
64,192,302761,1,0,0:0:0:0:
64,192,302934,1,0,0:0:0:0:
320,192,302934,1,0,0:0:0:0:
448,192,302934,1,0,0:0:0:0:
192,192,303020,1,0,0:0:0:0:
192,192,303106,1,0,0:0:0:0:
320,192,303106,1,0,0:0:0:0:
320,192,303192,1,0,0:0:0:0:
64,192,303278,1,0,0:0:0:0:
448,192,303278,1,0,0:0:0:0:
192,192,303365,1,0,0:0:0:0:
64,192,303451,1,0,0:0:0:0:
448,192,303451,1,0,0:0:0:0:
320,192,303451,1,0,0:0:0:0:
448,192,303537,1,0,0:0:0:0:
64,192,303623,1,0,0:0:0:0:
192,192,303623,1,0,0:0:0:0:
64,192,303796,1,0,0:0:0:0:
448,192,303796,1,0,0:0:0:0:
320,192,303796,1,0,0:0:0:0:
448,192,303882,1,0,0:0:0:0:
64,192,303968,1,0,0:0:0:0:
192,192,303968,1,0,0:0:0:0:
64,192,304140,1,0,0:0:0:0:
448,192,304140,1,0,0:0:0:0:
320,192,304140,1,0,0:0:0:0:
448,192,304227,1,0,0:0:0:0:
64,192,304313,1,0,0:0:0:0:
192,192,304313,1,0,0:0:0:0:
192,192,304485,1,0,0:0:0:0:
448,192,304485,1,0,0:0:0:0:
320,192,304485,1,0,0:0:0:0:
64,192,304571,1,0,0:0:0:0:
64,192,304658,1,0,0:0:0:0:
320,192,304658,1,0,0:0:0:0:
448,192,304744,1,0,0:0:0:0:
320,192,304830,1,0,0:0:0:0:
192,192,304830,1,0,0:0:0:0:
64,192,305003,1,0,0:0:0:0:
320,192,305003,1,0,0:0:0:0:
192,192,305003,1,0,0:0:0:0:
448,192,305089,1,0,0:0:0:0:
448,192,305175,1,0,0:0:0:0:
64,192,305175,1,0,0:0:0:0:
64,192,305261,1,0,0:0:0:0:
192,192,305347,1,0,0:0:0:0:
320,192,305347,1,0,0:0:0:0:
448,192,305434,1,0,0:0:0:0:
64,192,305520,1,0,0:0:0:0:
320,192,305520,1,0,0:0:0:0:
64,192,305692,1,0,0:0:0:0:
448,192,305692,1,0,0:0:0:0:
192,192,305692,1,0,0:0:0:0:
320,192,305778,1,0,0:0:0:0:
64,192,305865,1,0,0:0:0:0:
320,192,305865,1,0,0:0:0:0:
64,192,305951,1,0,0:0:0:0:
448,192,306037,1,0,0:0:0:0:
192,192,306037,1,0,0:0:0:0:
320,192,306123,1,0,0:0:0:0:
448,192,306209,1,0,0:0:0:0:
192,192,306209,1,0,0:0:0:0:
64,192,306209,1,0,0:0:0:0:
192,192,306296,1,0,0:0:0:0:
64,192,306382,1,0,0:0:0:0:
320,192,306382,1,0,0:0:0:0:
192,192,306554,1,0,0:0:0:0:
320,192,306554,1,0,0:0:0:0:
448,192,306554,1,0,0:0:0:0:
192,192,306640,1,0,0:0:0:0:
64,192,306727,1,0,0:0:0:0:
320,192,306727,1,0,0:0:0:0:
320,192,306899,1,0,0:0:0:0:
448,192,306899,1,0,0:0:0:0:
192,192,306899,1,0,0:0:0:0:
192,192,306985,1,0,0:0:0:0:
64,192,307071,1,0,0:0:0:0:
320,192,307071,1,0,0:0:0:0:
192,192,307244,1,0,0:0:0:0:
448,192,307244,1,0,0:0:0:0:
64,192,307244,1,0,0:0:0:0:
320,192,307330,1,0,0:0:0:0:
320,192,307416,1,0,0:0:0:0:
448,192,307416,1,0,0:0:0:0:
192,192,307503,1,0,0:0:0:0:
448,192,307589,1,0,0:0:0:0:
64,192,307589,1,0,0:0:0:0:
320,192,307589,1,0,0:0:0:0:
64,192,307761,1,0,0:0:0:0:
192,192,307761,1,0,0:0:0:0:
64,192,307934,1,0,0:0:0:0:
448,192,307934,1,0,0:0:0:0:
320,192,307934,1,0,0:0:0:0:
64,192,308106,1,0,0:0:0:0:
320,192,308192,1,0,0:0:0:0:
64,192,308278,1,0,0:0:0:0:
320,192,308278,1,0,0:0:0:0:
448,192,308278,1,0,0:0:0:0:
192,192,308451,1,0,0:0:0:0:
64,192,308451,1,0,0:0:0:0:
192,192,308623,1,0,0:0:0:0:
64,192,308623,1,0,0:0:0:0:
448,192,308623,1,0,0:0:0:0:
320,192,308623,1,0,0:0:0:0:
192,192,308796,1,0,0:0:0:0:
64,192,308796,1,0,0:0:0:0:
448,192,308968,1,0,0:0:0:0:
320,192,308968,1,0,0:0:0:0:
192,192,308968,1,0,0:0:0:0:
448,192,309054,1,0,0:0:0:0:
320,192,309140,1,0,0:0:0:0:
64,192,309140,1,0,0:0:0:0:
192,192,309227,1,0,0:0:0:0:
320,192,309313,1,0,0:0:0:0:
448,192,309313,1,0,0:0:0:0:
64,192,309313,1,0,0:0:0:0:
448,192,309399,1,0,0:0:0:0:
320,192,309485,1,0,0:0:0:0:
192,192,309485,1,0,0:0:0:0:
64,192,309571,1,0,0:0:0:0:
192,192,309658,1,0,0:0:0:0:
320,192,309658,1,0,0:0:0:0:
448,192,309658,1,0,0:0:0:0:
448,192,309744,1,0,0:0:0:0:
320,192,309830,1,0,0:0:0:0:
64,192,309830,1,0,0:0:0:0:
448,192,310003,1,0,0:0:0:0:
320,192,310003,1,0,0:0:0:0:
64,192,310003,1,0,0:0:0:0:
192,192,310089,1,0,0:0:0:0:
192,192,310175,1,0,0:0:0:0:
448,192,310175,1,0,0:0:0:0:
64,192,310261,1,0,0:0:0:0:
320,192,310347,1,0,0:0:0:0:
448,192,310347,1,0,0:0:0:0:
448,192,310520,1,0,0:0:0:0:
320,192,310520,1,0,0:0:0:0:
64,192,310520,1,0,0:0:0:0:
192,192,310606,1,0,0:0:0:0:
192,192,310692,1,0,0:0:0:0:
448,192,310692,1,0,0:0:0:0:
448,192,310778,1,0,0:0:0:0:
320,192,310865,1,0,0:0:0:0:
64,192,310865,1,0,0:0:0:0:
192,192,310951,1,0,0:0:0:0:
320,192,311037,1,0,0:0:0:0:
64,192,311037,1,0,0:0:0:0:
64,192,311209,1,0,0:0:0:0:
192,192,311209,1,0,0:0:0:0:
320,192,311209,1,0,0:0:0:0:
448,192,311296,1,0,0:0:0:0:
448,192,311382,1,0,0:0:0:0:
64,192,311382,1,0,0:0:0:0:
64,192,311468,1,0,0:0:0:0:
192,192,311554,1,0,0:0:0:0:
448,192,311554,1,0,0:0:0:0:
320,192,311640,1,0,0:0:0:0:
64,192,311727,1,0,0:0:0:0:
192,192,311727,1,0,0:0:0:0:
448,192,311727,1,0,0:0:0:0:
192,192,311813,1,0,0:0:0:0:
64,192,311899,1,0,0:0:0:0:
320,192,311899,1,0,0:0:0:0:
448,192,311985,1,0,0:0:0:0:
192,192,312071,1,0,0:0:0:0:
64,192,312071,1,0,0:0:0:0:
320,192,312071,1,0,0:0:0:0:
192,192,312158,1,0,0:0:0:0:
64,192,312244,1,0,0:0:0:0:
448,192,312244,1,0,0:0:0:0:
320,192,312330,1,0,0:0:0:0:
448,192,312416,1,0,0:0:0:0:
192,192,312416,1,0,0:0:0:0:
64,192,312416,1,0,0:0:0:0:
192,192,312503,1,0,0:0:0:0:
64,192,312589,1,0,0:0:0:0:
320,192,312589,1,0,0:0:0:0:
320,192,312761,1,0,0:0:0:0:
64,192,312761,1,0,0:0:0:0:
192,192,312761,1,0,0:0:0:0:
448,192,312847,1,0,0:0:0:0:
448,192,312934,1,0,0:0:0:0:
192,192,312934,1,0,0:0:0:0:
320,192,313020,1,0,0:0:0:0:
192,192,313106,1,0,0:0:0:0:
64,192,313106,1,0,0:0:0:0:
192,192,313278,1,0,0:0:0:0:
64,192,313278,1,0,0:0:0:0:
320,192,313278,1,0,0:0:0:0:
448,192,313365,1,0,0:0:0:0:
448,192,313451,1,0,0:0:0:0:
192,192,313451,1,0,0:0:0:0:
192,192,313537,1,0,0:0:0:0:
320,192,313623,1,0,0:0:0:0:
64,192,313623,1,0,0:0:0:0:
448,192,313709,1,0,0:0:0:0:
320,192,313796,1,0,0:0:0:0:
64,192,313796,1,0,0:0:0:0:
320,192,313968,1,0,0:0:0:0:
64,192,313968,1,0,0:0:0:0:
448,192,313968,1,0,0:0:0:0:
192,192,314054,1,0,0:0:0:0:
192,192,314140,1,0,0:0:0:0:
448,192,314140,1,0,0:0:0:0:
448,192,314227,1,0,0:0:0:0:
64,192,314313,1,0,0:0:0:0:
320,192,314313,1,0,0:0:0:0:
192,192,314399,1,0,0:0:0:0:
320,192,314485,1,0,0:0:0:0:
448,192,314485,1,0,0:0:0:0:
64,192,314485,1,0,0:0:0:0:
320,192,314571,1,0,0:0:0:0:
448,192,314658,1,0,0:0:0:0:
192,192,314658,1,0,0:0:0:0:
64,192,314744,1,0,0:0:0:0:
448,192,314830,1,0,0:0:0:0:
320,192,314830,1,0,0:0:0:0:
192,192,314830,1,0,0:0:0:0:
320,192,314916,1,0,0:0:0:0:
448,192,315003,1,0,0:0:0:0:
64,192,315003,1,0,0:0:0:0:
192,192,315089,1,0,0:0:0:0:
64,192,315175,1,0,0:0:0:0:
448,192,315175,1,0,0:0:0:0:
320,192,315175,1,0,0:0:0:0:
320,192,315261,1,0,0:0:0:0:
448,192,315347,1,0,0:0:0:0:
192,192,315347,1,0,0:0:0:0:
320,192,315520,1,0,0:0:0:0:
448,192,315520,1,0,0:0:0:0:
192,192,315520,1,0,0:0:0:0:
64,192,315606,1,0,0:0:0:0:
64,192,315692,1,0,0:0:0:0:
320,192,315692,1,0,0:0:0:0:
192,192,315778,1,0,0:0:0:0:
448,192,315865,1,0,0:0:0:0:
320,192,315865,1,0,0:0:0:0:
320,192,316037,1,0,0:0:0:0:
448,192,316037,1,0,0:0:0:0:
192,192,316037,1,0,0:0:0:0:
64,192,316123,1,0,0:0:0:0:
64,192,316209,1,0,0:0:0:0:
320,192,316209,1,0,0:0:0:0:
320,192,316296,1,0,0:0:0:0:
448,192,316382,1,0,0:0:0:0:
192,192,316382,1,0,0:0:0:0:
64,192,316468,1,0,0:0:0:0:
448,192,316554,1,0,0:0:0:0:
192,192,316554,1,0,0:0:0:0:
192,192,316727,1,0,0:0:0:0:
64,192,316727,1,0,0:0:0:0:
448,192,316727,1,0,0:0:0:0:
320,192,316813,1,0,0:0:0:0:
320,192,316899,1,0,0:0:0:0:
64,192,316899,1,0,0:0:0:0:
64,192,316985,1,0,0:0:0:0:
192,192,317071,1,0,0:0:0:0:
448,192,317071,1,0,0:0:0:0:
320,192,317158,1,0,0:0:0:0:
192,192,317244,1,0,0:0:0:0:
64,192,317244,1,0,0:0:0:0:
448,192,317244,1,0,0:0:0:0:
64,192,317330,1,0,0:0:0:0:
192,192,317416,1,0,0:0:0:0:
320,192,317416,1,0,0:0:0:0:
448,192,317503,1,0,0:0:0:0:
64,192,317589,1,0,0:0:0:0:
192,192,317589,1,0,0:0:0:0:
320,192,317589,1,0,0:0:0:0:
64,192,317675,1,0,0:0:0:0:
192,192,317761,1,0,0:0:0:0:
448,192,317761,1,0,0:0:0:0:
320,192,317847,1,0,0:0:0:0:
448,192,317934,1,0,0:0:0:0:
64,192,317934,1,0,0:0:0:0:
192,192,317934,1,0,0:0:0:0:
64,192,318020,1,0,0:0:0:0:
192,192,318106,1,0,0:0:0:0:
320,192,318106,1,0,0:0:0:0:
320,192,318278,1,0,0:0:0:0:
192,192,318278,1,0,0:0:0:0:
64,192,318278,1,0,0:0:0:0:
448,192,318365,1,0,0:0:0:0:
448,192,318451,1,0,0:0:0:0:
64,192,318451,1,0,0:0:0:0:
320,192,318537,1,0,0:0:0:0:
64,192,318623,1,0,0:0:0:0:
192,192,318623,1,0,0:0:0:0:
64,192,318796,1,0,0:0:0:0:
192,192,318796,1,0,0:0:0:0:
320,192,318796,1,0,0:0:0:0:
448,192,318882,1,0,0:0:0:0:
448,192,318968,1,0,0:0:0:0:
64,192,318968,1,0,0:0:0:0:
64,192,319054,1,0,0:0:0:0:
320,192,319140,1,0,0:0:0:0:
192,192,319140,1,0,0:0:0:0:
448,192,319227,1,0,0:0:0:0:
320,192,319313,1,0,0:0:0:0:
192,192,319313,1,0,0:0:0:0:
320,192,319485,1,0,0:0:0:0:
192,192,319485,1,0,0:0:0:0:
448,192,319485,1,0,0:0:0:0:
64,192,319571,1,0,0:0:0:0:
64,192,319658,1,0,0:0:0:0:
448,192,319658,1,0,0:0:0:0:
448,192,319744,1,0,0:0:0:0:
64,192,319830,1,0,0:0:0:0:
320,192,319830,1,0,0:0:0:0:
192,192,319916,1,0,0:0:0:0:
448,192,320003,1,0,0:0:0:0:
320,192,320003,1,0,0:0:0:0:
320,192,320089,1,0,0:0:0:0:
64,192,320175,1,0,0:0:0:0:
192,192,320175,1,0,0:0:0:0:
192,192,320347,1,0,0:0:0:0:
64,192,320347,1,0,0:0:0:0:
192,192,320434,1,0,0:0:0:0:
320,192,320520,1,0,0:0:0:0:
448,192,320520,1,0,0:0:0:0:
320,192,320692,1,0,0:0:0:0:
448,192,320692,1,0,0:0:0:0:
320,192,320778,1,0,0:0:0:0:
192,192,320865,1,0,0:0:0:0:
64,192,320865,1,0,0:0:0:0:
320,192,321037,1,0,0:0:0:0:
192,192,321037,1,0,0:0:0:0:
64,192,321123,1,0,0:0:0:0:
448,192,321209,1,0,0:0:0:0:
64,192,321209,1,0,0:0:0:0:
320,192,321296,1,0,0:0:0:0:
448,192,321382,1,0,0:0:0:0:
192,192,321382,1,0,0:0:0:0:
320,192,321554,1,0,0:0:0:0:
64,192,321554,1,0,0:0:0:0:
448,192,321640,1,0,0:0:0:0:
448,192,321727,1,0,0:0:0:0:
192,192,321727,1,0,0:0:0:0:
192,192,321813,1,0,0:0:0:0:
64,192,321899,1,0,0:0:0:0:
320,192,321899,1,0,0:0:0:0:
320,192,322071,1,0,0:0:0:0:
192,192,322071,1,0,0:0:0:0:
192,192,322244,1,0,0:0:0:0:
448,192,322244,1,0,0:0:0:0:
320,192,322330,1,0,0:0:0:0:
320,192,322416,1,0,0:0:0:0:
64,192,322416,1,0,0:0:0:0:
64,192,322503,1,0,0:0:0:0:
448,192,322589,1,0,0:0:0:0:
192,192,322589,1,0,0:0:0:0:
320,192,322675,1,0,0:0:0:0:
192,192,322761,1,0,0:0:0:0:
64,192,322761,1,0,0:0:0:0:
192,192,322847,1,0,0:0:0:0:
448,192,322934,1,0,0:0:0:0:
320,192,322934,1,0,0:0:0:0:
320,192,323106,1,0,0:0:0:0:
448,192,323106,1,0,0:0:0:0:
320,192,323192,1,0,0:0:0:0:
192,192,323278,1,0,0:0:0:0:
64,192,323278,1,0,0:0:0:0:
192,192,323451,1,0,0:0:0:0:
64,192,323451,1,0,0:0:0:0:
192,192,323537,1,0,0:0:0:0:
320,192,323623,1,0,0:0:0:0:
448,192,323623,1,0,0:0:0:0:
192,192,323796,1,0,0:0:0:0:
320,192,323796,1,0,0:0:0:0:
448,192,323882,1,0,0:0:0:0:
64,192,323968,1,0,0:0:0:0:
448,192,323968,1,0,0:0:0:0:
192,192,324054,1,0,0:0:0:0:
64,192,324140,1,0,0:0:0:0:
320,192,324140,1,0,0:0:0:0:
192,192,324313,1,0,0:0:0:0:
448,192,324313,1,0,0:0:0:0:
64,192,324399,1,0,0:0:0:0:
64,192,324485,1,0,0:0:0:0:
320,192,324485,1,0,0:0:0:0:
320,192,324571,1,0,0:0:0:0:
448,192,324658,1,0,0:0:0:0:
192,192,324658,1,0,0:0:0:0:
192,192,324830,1,0,0:0:0:0:
320,192,324830,1,0,0:0:0:0:
320,192,325003,1,0,0:0:0:0:
64,192,325003,1,0,0:0:0:0:
192,192,325089,1,0,0:0:0:0:
192,192,325175,1,0,0:0:0:0:
320,192,325175,1,0,0:0:0:0:
320,192,325261,1,0,0:0:0:0:
64,192,325347,1,0,0:0:0:0:
448,192,325347,1,0,0:0:0:0:
192,192,325434,1,0,0:0:0:0:
448,192,325520,1,0,0:0:0:0:
320,192,325520,1,0,0:0:0:0:
448,192,325606,1,0,0:0:0:0:
192,192,325692,1,0,0:0:0:0:
64,192,325692,1,0,0:0:0:0:
64,192,325865,1,0,0:0:0:0:
192,192,325865,1,0,0:0:0:0:
64,192,325951,1,0,0:0:0:0:
448,192,326037,1,0,0:0:0:0:
320,192,326037,1,0,0:0:0:0:
448,192,326209,1,0,0:0:0:0:
320,192,326209,1,0,0:0:0:0:
448,192,326296,1,0,0:0:0:0:
64,192,326382,1,0,0:0:0:0:
192,192,326382,1,0,0:0:0:0:
448,192,326554,1,0,0:0:0:0:
64,192,326554,1,0,0:0:0:0:
192,192,326640,1,0,0:0:0:0:
320,192,326727,1,0,0:0:0:0:
192,192,326727,1,0,0:0:0:0:
448,192,326813,1,0,0:0:0:0:
320,192,326899,1,0,0:0:0:0:
64,192,326899,1,0,0:0:0:0:
448,192,327071,1,0,0:0:0:0:
192,192,327071,1,0,0:0:0:0:
320,192,327158,1,0,0:0:0:0:
320,192,327244,1,0,0:0:0:0:
64,192,327244,1,0,0:0:0:0:
64,192,327330,1,0,0:0:0:0:
192,192,327416,1,0,0:0:0:0:
448,192,327416,1,0,0:0:0:0:
448,192,327589,1,0,0:0:0:0:
64,192,327589,1,0,0:0:0:0:
64,192,327761,1,0,0:0:0:0:
320,192,327761,1,0,0:0:0:0:
448,192,327847,1,0,0:0:0:0:
448,192,327934,1,0,0:0:0:0:
192,192,327934,1,0,0:0:0:0:
192,192,328020,1,0,0:0:0:0:
320,192,328106,1,0,0:0:0:0:
64,192,328106,1,0,0:0:0:0:
448,192,328192,1,0,0:0:0:0:
64,192,328278,1,0,0:0:0:0:
192,192,328278,1,0,0:0:0:0:
64,192,328365,1,0,0:0:0:0:
320,192,328451,1,0,0:0:0:0:
448,192,328451,1,0,0:0:0:0:
448,192,328623,1,0,0:0:0:0:
320,192,328623,1,0,0:0:0:0:
448,192,328709,1,0,0:0:0:0:
64,192,328796,1,0,0:0:0:0:
192,192,328796,1,0,0:0:0:0:
64,192,328968,1,0,0:0:0:0:
192,192,328968,1,0,0:0:0:0:
64,192,329054,1,0,0:0:0:0:
448,192,329140,1,0,0:0:0:0:
320,192,329140,1,0,0:0:0:0:
64,192,329313,1,0,0:0:0:0:
448,192,329313,1,0,0:0:0:0:
320,192,329399,1,0,0:0:0:0:
192,192,329485,1,0,0:0:0:0:
320,192,329485,1,0,0:0:0:0:
64,192,329571,1,0,0:0:0:0:
192,192,329658,1,0,0:0:0:0:
448,192,329658,1,0,0:0:0:0:
320,192,329658,1,0,0:0:0:0:
448,192,329830,1,0,0:0:0:0:
64,192,329830,1,0,0:0:0:0:
448,192,330003,1,0,0:0:0:0:
320,192,330003,1,0,0:0:0:0:
192,192,330003,1,0,0:0:0:0:
320,192,330175,1,0,0:0:0:0:
64,192,330175,1,0,0:0:0:0:
448,192,330347,1,0,0:0:0:0:
64,192,330520,1,0,0:0:0:0:
192,192,330520,1,0,0:0:0:0:
64,192,330692,1,0,0:0:0:0:
192,192,330692,1,0,0:0:0:0:
320,192,330692,1,0,0:0:0:0:
448,192,330692,1,0,0:0:0:0:
64,192,330865,1,0,0:0:0:0:
192,192,330865,1,0,0:0:0:0:
320,192,331037,1,0,0:0:0:0:
448,192,331037,1,0,0:0:0:0:
448,192,331123,1,0,0:0:0:0:
192,192,331209,1,0,0:0:0:0:
64,192,331209,1,0,0:0:0:0:
192,192,331382,1,0,0:0:0:0:
64,192,331382,1,0,0:0:0:0:
64,192,331468,1,0,0:0:0:0:
320,192,331554,1,0,0:0:0:0:
448,192,331554,1,0,0:0:0:0:
448,192,331727,1,0,0:0:0:0:
320,192,331727,1,0,0:0:0:0:
448,192,331813,1,0,0:0:0:0:
64,192,331899,1,0,0:0:0:0:
192,192,331899,1,0,0:0:0:0:
192,192,332071,1,0,0:0:0:0:
64,192,332071,1,0,0:0:0:0:
448,192,332071,1,0,0:0:0:0:
64,192,332158,1,0,0:0:0:0:
320,192,332244,1,0,0:0:0:0:
448,192,332244,1,0,0:0:0:0:
448,192,332416,1,0,0:0:0:0:
320,192,332416,1,0,0:0:0:0:
192,192,332503,1,0,0:0:0:0:
64,192,332589,1,0,0:0:0:0:
320,192,332589,1,0,0:0:0:0:
64,192,332761,1,0,0:0:0:0:
320,192,332761,1,0,0:0:0:0:
192,192,332847,1,0,0:0:0:0:
320,192,332934,1,0,0:0:0:0:
448,192,332934,1,0,0:0:0:0:
448,192,333106,1,0,0:0:0:0:
320,192,333106,1,0,0:0:0:0:
192,192,333192,1,0,0:0:0:0:
320,192,333278,1,0,0:0:0:0:
64,192,333278,1,0,0:0:0:0:
320,192,333451,1,0,0:0:0:0:
64,192,333451,1,0,0:0:0:0:
448,192,333451,1,0,0:0:0:0:
192,192,333537,1,0,0:0:0:0:
320,192,333623,1,0,0:0:0:0:
448,192,333623,1,0,0:0:0:0:
192,192,333796,1,0,0:0:0:0:
64,192,333796,1,0,0:0:0:0:
448,192,333882,1,0,0:0:0:0:
320,192,333968,1,0,0:0:0:0:
64,192,333968,1,0,0:0:0:0:
320,192,334140,1,0,0:0:0:0:
64,192,334140,1,0,0:0:0:0:
448,192,334227,1,0,0:0:0:0:
64,192,334313,1,0,0:0:0:0:
192,192,334313,1,0,0:0:0:0:
192,192,334485,1,0,0:0:0:0:
64,192,334485,1,0,0:0:0:0:
448,192,334571,1,0,0:0:0:0:
320,192,334658,1,0,0:0:0:0:
64,192,334658,1,0,0:0:0:0:
192,192,334830,1,0,0:0:0:0:
320,192,334830,1,0,0:0:0:0:
64,192,334830,1,0,0:0:0:0:
448,192,334916,1,0,0:0:0:0:
192,192,335003,1,0,0:0:0:0:
64,192,335003,1,0,0:0:0:0:
448,192,335175,1,0,0:0:0:0:
320,192,335175,1,0,0:0:0:0:
192,192,335347,1,0,0:0:0:0:
448,192,335347,1,0,0:0:0:0:
320,192,335520,1,0,0:0:0:0:
448,192,335520,1,0,0:0:0:0:
448,192,335692,1,0,0:0:0:0:
192,192,335692,1,0,0:0:0:0:
320,192,335778,1,0,0:0:0:0:
192,192,335865,1,0,0:0:0:0:
64,192,335865,1,0,0:0:0:0:
448,192,336037,1,0,0:0:0:0:
320,192,336037,1,0,0:0:0:0:
448,192,336209,1,0,0:0:0:0:
320,192,336209,1,0,0:0:0:0:
64,192,336209,1,0,0:0:0:0:
320,192,336382,1,0,0:0:0:0:
448,192,336382,1,0,0:0:0:0:
192,192,336554,1,0,0:0:0:0:
64,192,336554,1,0,0:0:0:0:
64,192,336727,1,0,0:0:0:0:
448,192,336727,1,0,0:0:0:0:
64,192,336899,1,0,0:0:0:0:
320,192,336899,1,0,0:0:0:0:
192,192,337071,1,0,0:0:0:0:
448,192,337071,1,0,0:0:0:0:
448,192,337244,1,0,0:0:0:0:
320,192,337244,1,0,0:0:0:0:
192,192,337416,1,0,0:0:0:0:
320,192,337416,1,0,0:0:0:0:
448,192,337589,1,0,0:0:0:0:
64,192,337589,1,0,0:0:0:0:
192,192,337589,1,0,0:0:0:0:
64,192,337761,1,0,0:0:0:0:
192,192,337761,1,0,0:0:0:0:
448,192,337934,1,0,0:0:0:0:
320,192,337934,1,0,0:0:0:0:
192,192,338106,1,0,0:0:0:0:
64,192,338106,1,0,0:0:0:0:
64,192,338278,1,0,0:0:0:0:
320,192,338278,1,0,0:0:0:0:
192,192,338451,1,0,0:0:0:0:
448,192,338451,1,0,0:0:0:0:
448,192,338623,1,0,0:0:0:0:
320,192,338623,1,0,0:0:0:0:
320,192,338796,1,0,0:0:0:0:
192,192,338796,1,0,0:0:0:0:
448,192,338968,1,0,0:0:0:0:
192,192,338968,1,0,0:0:0:0:
64,192,338968,1,0,0:0:0:0:
192,192,339140,1,0,0:0:0:0:
64,192,339140,1,0,0:0:0:0:
448,192,339313,1,0,0:0:0:0:
320,192,339313,1,0,0:0:0:0:
192,192,339485,1,0,0:0:0:0:
64,192,339485,1,0,0:0:0:0:
320,192,339658,1,0,0:0:0:0:
64,192,339658,1,0,0:0:0:0:
192,192,339830,1,0,0:0:0:0:
448,192,339830,1,0,0:0:0:0:
448,192,340003,1,0,0:0:0:0:
320,192,340003,1,0,0:0:0:0:
320,192,340175,1,0,0:0:0:0:
192,192,340175,1,0,0:0:0:0:
448,192,340347,1,0,0:0:0:0:
192,192,340347,1,0,0:0:0:0:
64,192,340347,1,0,0:0:0:0:
192,192,340520,1,0,0:0:0:0:
64,192,340520,1,0,0:0:0:0:
448,192,340692,1,0,0:0:0:0:
320,192,340692,1,0,0:0:0:0:
192,192,340865,1,0,0:0:0:0:
64,192,340865,1,0,0:0:0:0:
448,192,340951,1,0,0:0:0:0:
320,192,341037,1,0,0:0:0:0:
64,192,341037,1,0,0:0:0:0:
448,192,341209,1,0,0:0:0:0:
192,192,341209,1,0,0:0:0:0:
64,192,341296,1,0,0:0:0:0:
320,192,341382,1,0,0:0:0:0:
448,192,341382,1,0,0:0:0:0:
192,192,341554,1,0,0:0:0:0:
64,192,341554,1,0,0:0:0:0:
320,192,341640,1,0,0:0:0:0:
448,192,341727,1,0,0:0:0:0:
192,192,341727,1,0,0:0:0:0:
64,192,341727,1,0,0:0:0:0:
192,192,341899,1,0,0:0:0:0:
64,192,341899,1,0,0:0:0:0:
448,192,342071,1,0,0:0:0:0:
320,192,342071,1,0,0:0:0:0:
64,192,342244,1,0,0:0:0:0:
320,192,342244,1,0,0:0:0:0:
192,192,342416,1,0,0:0:0:0:
320,192,342416,1,0,0:0:0:0:
320,192,342589,1,0,0:0:0:0:
448,192,342589,1,0,0:0:0:0:
320,192,342761,1,0,0:0:0:0:
64,192,342761,1,0,0:0:0:0:
64,192,342934,1,0,0:0:0:0:
192,192,342934,1,0,0:0:0:0:
448,192,343106,1,0,0:0:0:0:
64,192,343106,1,0,0:0:0:0:
320,192,343106,1,0,0:0:0:0:
192,192,343278,1,0,0:0:0:0:
64,192,343278,1,0,0:0:0:0:
320,192,343451,1,0,0:0:0:0:
448,192,343451,1,0,0:0:0:0:
192,192,343623,1,0,0:0:0:0:
448,192,343623,1,0,0:0:0:0:
64,192,343796,1,0,0:0:0:0:
448,192,343796,1,0,0:0:0:0:
448,192,343968,1,0,0:0:0:0:
320,192,343968,1,0,0:0:0:0:
448,192,344140,1,0,0:0:0:0:
192,192,344140,1,0,0:0:0:0:
192,192,344313,1,0,0:0:0:0:
64,192,344313,1,0,0:0:0:0:
320,192,344485,1,0,0:0:0:0:
448,192,344485,1,0,0:0:0:0:
192,192,344485,1,0,0:0:0:0:
64,192,344658,1,0,0:0:0:0:
448,192,344658,1,0,0:0:0:0:
320,192,344830,1,0,0:0:0:0:
192,192,344830,1,0,0:0:0:0:
320,192,345003,1,0,0:0:0:0:
448,192,345003,1,0,0:0:0:0:
320,192,345175,1,0,0:0:0:0:
192,192,345175,1,0,0:0:0:0:
320,192,345347,1,0,0:0:0:0:
448,192,345347,1,0,0:0:0:0:
320,192,345520,1,0,0:0:0:0:
64,192,345520,1,0,0:0:0:0:
64,192,345692,1,0,0:0:0:0:
448,192,345692,1,0,0:0:0:0:
64,192,345865,1,0,0:0:0:0:
320,192,345865,1,0,0:0:0:0:
192,192,345865,1,0,0:0:0:0:
448,192,346037,1,0,0:0:0:0:
64,192,346037,1,0,0:0:0:0:
448,192,346209,1,0,0:0:0:0:
320,192,346209,1,0,0:0:0:0:
64,192,346382,1,0,0:0:0:0:
448,192,346382,1,0,0:0:0:0:
64,192,346554,1,0,0:0:0:0:
192,192,346554,1,0,0:0:0:0:
64,192,346727,1,0,0:0:0:0:
320,192,346727,1,0,0:0:0:0:
192,192,346813,1,0,0:0:0:0:
320,192,346899,1,0,0:0:0:0:
448,192,346899,1,0,0:0:0:0:
192,192,347071,1,0,0:0:0:0:
64,192,347071,1,0,0:0:0:0:
192,192,347244,1,0,0:0:0:0:
64,192,347244,1,0,0:0:0:0:
448,192,347244,1,0,0:0:0:0:
192,192,347416,1,0,0:0:0:0:
64,192,347416,1,0,0:0:0:0:
320,192,347589,1,0,0:0:0:0:
448,192,347589,1,0,0:0:0:0:
192,192,347761,1,0,0:0:0:0:
448,192,347761,1,0,0:0:0:0:
64,192,347934,1,0,0:0:0:0:
448,192,347934,1,0,0:0:0:0:
448,192,348106,1,0,0:0:0:0:
320,192,348106,1,0,0:0:0:0:
448,192,348278,1,0,0:0:0:0:
192,192,348278,1,0,0:0:0:0:
192,192,348451,1,0,0:0:0:0:
64,192,348451,1,0,0:0:0:0:
320,192,348623,1,0,0:0:0:0:
192,192,348623,1,0,0:0:0:0:
448,192,348623,1,0,0:0:0:0:
64,192,348796,1,0,0:0:0:0:
192,192,348796,1,0,0:0:0:0:
448,192,348968,1,0,0:0:0:0:
320,192,348968,1,0,0:0:0:0:
64,192,349140,1,0,0:0:0:0:
320,192,349140,1,0,0:0:0:0:
192,192,349313,1,0,0:0:0:0:
320,192,349313,1,0,0:0:0:0:
320,192,349485,1,0,0:0:0:0:
448,192,349485,1,0,0:0:0:0:
320,192,349658,1,0,0:0:0:0:
64,192,349658,1,0,0:0:0:0:
64,192,349830,1,0,0:0:0:0:
192,192,349830,1,0,0:0:0:0:
448,192,350003,1,0,0:0:0:0:
320,192,350003,1,0,0:0:0:0:
64,192,350003,1,0,0:0:0:0:
192,192,350175,1,0,0:0:0:0:
320,192,350175,1,0,0:0:0:0:
448,192,350347,1,0,0:0:0:0:
64,192,350347,1,0,0:0:0:0:
448,192,350520,1,0,0:0:0:0:
320,192,350520,1,0,0:0:0:0:
448,192,350692,1,0,0:0:0:0:
64,192,350692,1,0,0:0:0:0:
448,192,350865,1,0,0:0:0:0:
320,192,350865,1,0,0:0:0:0:
448,192,351037,1,0,0:0:0:0:
192,192,351037,1,0,0:0:0:0:
192,192,351209,1,0,0:0:0:0:
320,192,351209,1,0,0:0:0:0:
192,192,351382,1,0,0:0:0:0:
448,192,351382,1,0,0:0:0:0:
64,192,351382,1,0,0:0:0:0:
320,192,351554,1,0,0:0:0:0:
192,192,351554,1,0,0:0:0:0:
320,192,351727,1,0,0:0:0:0:
448,192,351727,1,0,0:0:0:0:
192,192,351899,1,0,0:0:0:0:
320,192,351899,1,0,0:0:0:0:
192,192,352071,1,0,0:0:0:0:
64,192,352071,1,0,0:0:0:0:
192,192,352244,1,0,0:0:0:0:
448,192,352244,1,0,0:0:0:0:
64,192,352330,1,0,0:0:0:0:
448,192,352416,1,0,0:0:0:0:
320,192,352416,1,0,0:0:0:0:
64,192,352589,1,0,0:0:0:0:
192,192,352589,1,0,0:0:0:0:
64,192,352761,1,0,0:0:0:0:
192,192,352761,1,0,0:0:0:0:
320,192,352761,1,0,0:0:0:0:
192,192,352934,1,0,0:0:0:0:
448,192,352934,1,0,0:0:0:0:
320,192,353106,5,0,0:0:0:0:
448,192,353106,1,0,0:0:0:0:
320,192,353278,1,0,0:0:0:0:
64,192,353278,1,0,0:0:0:0:
320,192,353451,1,0,0:0:0:0:
192,192,353451,1,0,0:0:0:0:
192,192,353623,1,0,0:0:0:0:
64,192,353623,1,0,0:0:0:0:
192,192,353796,1,0,0:0:0:0:
320,192,353796,1,0,0:0:0:0:
320,192,353968,1,0,0:0:0:0:
64,192,353968,1,0,0:0:0:0:
320,192,354140,1,0,0:0:0:0:
448,192,354140,1,0,0:0:0:0:
192,192,354140,1,0,0:0:0:0:
64,192,354485,1,0,0:0:0:0:
192,192,354485,1,0,0:0:0:0:
192,192,354658,1,0,0:0:0:0:
448,192,354658,1,0,0:0:0:0:
192,192,354830,1,0,0:0:0:0:
320,192,354830,1,0,0:0:0:0:
448,192,355003,1,0,0:0:0:0:
320,192,355003,1,0,0:0:0:0:
192,192,355175,1,0,0:0:0:0:
320,192,355175,1,0,0:0:0:0:
192,192,355347,1,0,0:0:0:0:
448,192,355347,1,0,0:0:0:0:
64,192,355520,1,0,0:0:0:0:
320,192,355520,1,0,0:0:0:0:
192,192,355520,1,0,0:0:0:0:
448,192,355865,1,0,0:0:0:0:
320,192,355865,1,0,0:0:0:0:
448,192,356037,1,0,0:0:0:0:
192,192,356037,1,0,0:0:0:0:
448,192,356209,1,0,0:0:0:0:
64,192,356209,1,0,0:0:0:0:
192,192,356382,1,0,0:0:0:0:
64,192,356382,1,0,0:0:0:0:
448,192,356554,1,0,0:0:0:0:
64,192,356554,1,0,0:0:0:0:
448,192,356727,1,0,0:0:0:0:
192,192,356727,1,0,0:0:0:0:
448,192,356899,1,0,0:0:0:0:
320,192,356899,1,0,0:0:0:0:
64,192,356899,1,0,0:0:0:0:
64,192,357244,1,0,0:0:0:0:
192,192,357244,1,0,0:0:0:0:
64,192,357416,1,0,0:0:0:0:
320,192,357416,1,0,0:0:0:0:
64,192,357589,1,0,0:0:0:0:
448,192,357589,1,0,0:0:0:0:
448,192,357761,1,0,0:0:0:0:
320,192,357847,1,0,0:0:0:0:
448,192,357934,1,0,0:0:0:0:
64,192,357934,1,0,0:0:0:0:
320,192,358106,1,0,0:0:0:0:
64,192,358106,1,0,0:0:0:0:
64,192,358278,1,0,0:0:0:0:
448,192,358278,1,0,0:0:0:0:
192,192,358278,1,0,0:0:0:0:
320,192,358451,1,0,0:0:0:0:
448,192,358451,1,0,0:0:0:0:
192,192,358623,1,0,0:0:0:0:
64,192,358623,1,0,0:0:0:0:
64,192,358796,1,0,0:0:0:0:
448,192,358796,1,0,0:0:0:0:
64,192,358968,1,0,0:0:0:0:
320,192,358968,1,0,0:0:0:0:
320,192,359140,1,0,0:0:0:0:
448,192,359140,1,0,0:0:0:0:
320,192,359313,1,0,0:0:0:0:
64,192,359313,1,0,0:0:0:0:
64,192,359485,1,0,0:0:0:0:
448,192,359485,1,0,0:0:0:0:
64,192,359658,1,0,0:0:0:0:
192,192,359658,1,0,0:0:0:0:
320,192,359658,1,0,0:0:0:0:
320,192,360003,1,0,0:0:0:0:
448,192,360003,1,0,0:0:0:0:
448,192,360175,1,0,0:0:0:0:
64,192,360175,1,0,0:0:0:0:
448,192,360347,1,0,0:0:0:0:
192,192,360347,1,0,0:0:0:0:
192,192,360520,1,0,0:0:0:0:
64,192,360520,1,0,0:0:0:0:
192,192,360692,1,0,0:0:0:0:
448,192,360692,1,0,0:0:0:0:
448,192,360865,1,0,0:0:0:0:
64,192,360865,1,0,0:0:0:0:
448,192,361037,1,0,0:0:0:0:
320,192,361037,1,0,0:0:0:0:
192,192,361037,1,0,0:0:0:0:
448,192,361209,1,0,0:0:0:0:
320,192,361209,1,0,0:0:0:0:
192,192,361382,1,0,0:0:0:0:
64,192,361382,1,0,0:0:0:0:
192,192,361554,1,0,0:0:0:0:
448,192,361554,1,0,0:0:0:0:
192,192,361727,1,0,0:0:0:0:
320,192,361727,1,0,0:0:0:0:
320,192,361899,1,0,0:0:0:0:
448,192,361899,1,0,0:0:0:0:
320,192,362071,1,0,0:0:0:0:
192,192,362071,1,0,0:0:0:0:
192,192,362244,1,0,0:0:0:0:
448,192,362244,1,0,0:0:0:0:
64,192,362416,1,0,0:0:0:0:
192,192,362416,1,0,0:0:0:0:
320,192,362416,1,0,0:0:0:0:
320,192,362761,1,0,0:0:0:0:
448,192,362761,1,0,0:0:0:0:
320,192,362934,1,0,0:0:0:0:
64,192,362934,1,0,0:0:0:0:
320,192,363106,1,0,0:0:0:0:
192,192,363106,1,0,0:0:0:0:
320,192,363278,1,0,0:0:0:0:
448,192,363365,1,0,0:0:0:0:
64,192,363451,1,0,0:0:0:0:
192,192,363451,1,0,0:0:0:0:
320,192,363623,1,0,0:0:0:0:
64,192,363623,1,0,0:0:0:0:
320,192,363796,1,0,0:0:0:0:
64,192,363796,1,0,0:0:0:0:
192,192,363796,1,0,0:0:0:0:
448,192,363968,1,0,0:0:0:0:
320,192,363968,1,0,0:0:0:0:
192,192,364140,5,0,0:0:0:0:
64,192,364140,1,0,0:0:0:0:
192,192,364313,1,0,0:0:0:0:
192,192,364485,1,0,0:0:0:0:
320,192,364485,1,0,0:0:0:0:
320,192,364658,1,0,0:0:0:0:
320,192,364830,1,0,0:0:0:0:
192,192,364830,1,0,0:0:0:0:
192,192,365003,1,0,0:0:0:0:
192,192,365175,1,0,0:0:0:0:
64,192,365175,1,0,0:0:0:0:
320,192,365175,1,0,0:0:0:0:
448,192,365520,1,0,0:0:0:0:
320,192,365520,1,0,0:0:0:0:
320,192,365692,1,0,0:0:0:0:
320,192,365865,1,0,0:0:0:0:
192,192,365865,1,0,0:0:0:0:
192,192,366037,1,0,0:0:0:0:
320,192,366209,1,0,0:0:0:0:
192,192,366209,1,0,0:0:0:0:
320,192,366382,1,0,0:0:0:0:
448,192,366554,1,0,0:0:0:0:
192,192,366554,1,0,0:0:0:0:
320,192,366554,1,0,0:0:0:0:
64,192,366899,1,0,0:0:0:0:
192,192,366899,1,0,0:0:0:0:
64,192,367071,1,0,0:0:0:0:
64,192,367244,1,0,0:0:0:0:
448,192,367244,1,0,0:0:0:0:
448,192,367416,1,0,0:0:0:0:
64,192,367589,1,0,0:0:0:0:
448,192,367589,1,0,0:0:0:0:
64,192,367761,1,0,0:0:0:0:
64,192,367934,1,0,0:0:0:0:
192,192,367934,1,0,0:0:0:0:
448,192,367934,1,0,0:0:0:0:
448,192,368278,1,0,0:0:0:0:
320,192,368278,1,0,0:0:0:0:
448,192,368451,1,0,0:0:0:0:
448,192,368623,1,0,0:0:0:0:
64,192,368623,1,0,0:0:0:0:
64,192,368796,1,0,0:0:0:0:
192,192,368882,1,0,0:0:0:0:
64,192,368968,1,0,0:0:0:0:
448,192,368968,1,0,0:0:0:0:
192,192,369140,1,0,0:0:0:0:
448,192,369140,1,0,0:0:0:0:
448,192,369313,1,0,0:0:0:0:
64,192,369313,1,0,0:0:0:0:
320,192,369313,1,0,0:0:0:0:
192,192,369485,1,0,0:0:0:0:
64,192,369485,1,0,0:0:0:0:
320,192,369658,1,0,0:0:0:0:
448,192,369658,1,0,0:0:0:0:
320,192,369830,1,0,0:0:0:0:
448,192,370003,1,0,0:0:0:0:
192,192,370003,1,0,0:0:0:0:
64,192,370175,1,0,0:0:0:0:
192,192,370347,1,0,0:0:0:0:
448,192,370347,1,0,0:0:0:0:
320,192,370520,1,0,0:0:0:0:
448,192,370692,1,0,0:0:0:0:
320,192,370692,1,0,0:0:0:0:
192,192,370692,1,0,0:0:0:0:
192,192,371037,1,0,0:0:0:0:
64,192,371037,1,0,0:0:0:0:
192,192,371209,1,0,0:0:0:0:
64,192,371382,1,0,0:0:0:0:
320,192,371382,1,0,0:0:0:0:
448,192,371554,1,0,0:0:0:0:
320,192,371727,1,0,0:0:0:0:
64,192,371727,1,0,0:0:0:0:
192,192,371899,1,0,0:0:0:0:
64,192,372071,1,0,0:0:0:0:
192,192,372071,1,0,0:0:0:0:
320,192,372071,1,0,0:0:0:0:
320,192,372244,1,0,0:0:0:0:
320,192,372416,1,0,0:0:0:0:
64,192,372416,1,0,0:0:0:0:
64,192,372589,1,0,0:0:0:0:
448,192,372761,1,0,0:0:0:0:
192,192,372761,1,0,0:0:0:0:
320,192,372934,1,0,0:0:0:0:
192,192,373106,1,0,0:0:0:0:
448,192,373106,1,0,0:0:0:0:
64,192,373278,1,0,0:0:0:0:
64,192,373451,1,0,0:0:0:0:
320,192,373451,1,0,0:0:0:0:
192,192,373451,1,0,0:0:0:0:
192,192,373796,1,0,0:0:0:0:
448,192,373796,1,0,0:0:0:0:
448,192,373968,1,0,0:0:0:0:
320,192,374140,1,0,0:0:0:0:
64,192,374140,1,0,0:0:0:0:
192,192,374313,1,0,0:0:0:0:
448,192,374399,1,0,0:0:0:0:
320,192,374485,1,0,0:0:0:0:
64,192,374485,1,0,0:0:0:0:
448,192,374658,1,0,0:0:0:0:
448,192,374830,1,0,0:0:0:0:
320,192,374830,1,0,0:0:0:0:
192,192,374830,1,0,0:0:0:0:
64,192,374830,1,0,0:0:0:0:
192,192,375003,1,0,0:0:0:0:
64,192,375003,1,0,0:0:0:0:
