osu file format v14

[General]
AudioFilename: audio.mp3
AudioLeadIn: 0
PreviewTime: 64678
Countdown: 0
SampleSet: Soft
StackLeniency: 0.4
Mode: 0
LetterboxInBreaks: 0
WidescreenStoryboard: 0

[Editor]
Bookmarks: 81178,85844,208844
DistanceSpacing: 1.2
BeatDivisor: 4
GridSize: 32
TimelineZoom: 2.099999

[Metadata]
Title:Gate One (Extended)
TitleUnicode:Gate One (Extended)
Artist:aran
ArtistUnicode:aran
Creator:RafaelXDP
Version:Primordial
Source:
Tags:ARTFCT instrumental electronic HARDCORE TANO*C WACCA techno j-core jcore j core video game groove coaster coaster: wai wai party!!!! 2 original style グルーヴコースター ワイワイパーティー!!!! 4max diamond galaxy arm-005 aranmusic
BeatmapID:4463442
BeatmapSetID:2123845

[Difficulty]
HPDrainRate:5
CircleSize:4.5
OverallDifficulty:9
ApproachRate:9.2
SliderMultiplier:1.8
SliderTickRate:1

[Events]
//Background and Video events
0,0,"bg1.png",0,0
//Break Periods
//Storyboard Layer 0 (Background)
//Storyboard Layer 1 (Fail)
//Storyboard Layer 2 (Pass)
//Storyboard Layer 3 (Foreground)
//Storyboard Layer 4 (Overlay)
//Storyboard Sound Samples

[TimingPoints]
845,333.333333333333,4,2,1,40,1,0
845,-200,4,2,1,40,0,0
11511,-166.666666666667,4,2,1,50,0,0
22178,-133.333333333333,4,2,1,60,0,0
41511,-133.333333333333,4,2,1,50,0,0
42178,-133.333333333333,4,2,1,40,0,0
42845,-200,4,2,1,70,0,0
43512,-133.333333333333,4,2,1,70,0,0
43844,-133.333333333333,4,2,1,40,0,0
44678,-200,4,2,1,40,0,0
46178,-133.333333333333,4,2,1,40,0,0
47345,-200,4,2,1,40,0,0
48012,-133.333333333333,4,2,1,40,0,0
48845,-166.666666666667,4,2,1,50,0,0
54178,-166.666666666667,4,2,1,55,0,0
59178,-133.333333333333,4,2,1,60,0,0
64345,-200,4,2,1,50,0,0
64845,-66.6666666666667,4,2,1,50,0,0
65178,-83.3333333333333,4,2,1,50,0,0
65678,-200,4,2,1,50,0,0
65762,-200,4,2,1,5,0,0
65845,-200,4,2,1,50,0,0
66178,-83.3333333333333,4,2,1,70,0,0
66845,-100,4,2,1,70,0,0
67178,-80,4,2,1,70,0,0
67512,-76.9230769230769,4,2,1,70,0,0
68845,-66.6666666666667,4,2,1,70,0,0
69345,-133.333333333333,4,2,1,70,0,0
70345,-66.6666666666667,4,2,1,70,0,0
70512,-80,4,2,1,70,0,0
70845,-76.9230769230769,4,2,1,70,0,0
72178,-83.3333333333333,4,2,1,70,0,0
72512,-71.4285714285714,4,2,1,70,0,0
72845,-66.6666666666667,4,2,1,70,0,0
73512,-80,4,2,1,70,0,0
74178,-100,4,2,1,70,0,0
74262,-100,4,2,1,5,0,0
74345,-100,4,2,1,70,0,0
74428,-100,4,2,1,5,0,0
74512,-100,4,2,1,70,0,0
74595,-100,4,2,1,5,0,0
74678,-100,4,2,1,70,0,0
74762,-100,4,2,1,5,0,0
74845,-80,4,2,1,70,0,0
75178,-100,4,2,1,70,0,0
75512,-80,4,2,1,70,0,0
77512,-100,4,2,1,70,0,0
77845,-100,4,2,1,70,0,0
78178,-80,4,2,1,70,0,0
79512,-66.6666666666667,4,2,1,70,0,0
79845,-100,4,2,1,70,0,0
80012,-100,4,2,1,70,0,0
80178,-66.6666666666667,4,2,1,70,0,0
80678,-100,4,2,1,70,0,0
81178,-80,4,2,1,70,0,0
84845,-80,4,2,1,60,0,0
85178,-80,4,2,1,70,0,0
85220,-80,4,2,1,45,0,0
85512,-80,4,2,1,70,0,0
86344,-200,4,2,1,70,0,0
86511,-80,4,2,1,70,0,0
86844,-76.9230769230769,4,2,1,70,0,0
88178,-83.3333333333333,4,2,1,70,0,0
88511,-71.4285714285714,4,2,1,70,0,0
88844,-66.6666666666667,4,2,1,70,0,0
89511,-76.9230769230769,4,2,1,70,0,0
90178,-66.6666666666667,4,2,1,70,0,0
90678,-133.333333333333,4,2,1,70,0,0
91678,-66.6666666666667,4,2,1,70,0,0
91844,-80,4,2,1,70,0,0
92177,-76.9230769230769,4,2,1,70,0,0
93510,-83.3333333333333,4,2,1,70,0,0
93844,-71.4285714285714,4,2,1,70,0,0
94177,-66.6666666666667,4,2,1,70,0,0
94844,-80,4,2,1,70,0,0
95510,-66.6666666666667,4,2,1,70,0,0
96510,-100,4,2,1,70,0,0
96844,-80,4,2,1,70,0,0
98844,-100,4,2,1,70,0,0
99177,-100,4,2,1,70,0,0
99510,-80,4,2,1,70,0,0
100844,-66.6666666666667,4,2,1,70,0,0
101177,-100,4,2,1,70,0,0
101344,-100,4,2,1,70,0,0
101510,-66.6666666666667,4,2,1,70,0,0
102010,-100,4,2,1,70,0,0
102177,-66.6666666666667,4,2,1,70,0,0
102510,-80,4,2,1,70,0,0
106177,-80,4,2,1,60,0,0
106510,-80,4,2,1,70,0,0
106552,-80,4,2,1,45,0,0
107176,-133.333333333333,4,2,1,70,0,0
107509,-76.9230769230769,4,2,1,70,0,0
107843,-100,4,2,1,70,0,0
108009,-66.6666666666667,4,2,1,70,0,0
108509,-200,4,2,1,70,0,0
108843,-66.6666666666667,4,2,1,70,0,0
109009,-200,4,2,1,70,0,0
109176,-66.6666666666667,4,2,1,70,0,0
109343,-200,4,2,1,70,0,0
109509,-66.6666666666667,4,2,1,70,0,0
109676,-200,4,2,1,70,0,0
109843,-66.6666666666667,4,2,1,70,0,0
110009,-200,4,2,1,70,0,0
110176,-80,4,2,1,70,0,0
111509,-133.333333333333,4,2,1,70,0,0
112176,-80,4,2,1,70,0,0
113176,-133.333333333333,4,2,1,70,0,0
113843,-200,4,2,1,70,0,0
114176,-133.333333333333,4,2,1,70,0,0
114509,-100,4,2,1,70,0,0
114843,-133.333333333333,4,2,1,70,0,0
115176,-100,4,2,1,70,0,0
115843,-133.333333333333,4,2,1,70,0,0
116843,-80,4,2,1,70,0,0
117509,-133.333333333333,4,2,1,70,0,0
117843,-100,4,2,1,70,0,0
118178,-100,4,2,1,60,0,0
118509,-80,4,2,1,60,0,0
127843,-80,4,2,1,50,0,0
128093,-80,4,2,1,30,0,0
128509,-133.333333333333,4,2,1,70,0,0
128843,-133.333333333333,4,2,1,70,0,0
132844,-400,4,2,1,5,0,0
133678,-400,4,2,1,40,0,0
150178,-200,4,2,1,45,0,0
160844,-200,4,2,1,60,0,0
165094,-200,4,2,1,5,0,0
165178,-200,4,2,1,50,0,0
166178,-200,4,2,1,55,0,0
166844,-333.333333333333,4,2,1,55,0,0
167511,-200,4,2,1,55,0,0
168178,-333.333333333333,4,2,1,55,0,0
168844,-200,4,2,1,55,0,0
171511,-166.666666666667,4,2,1,50,0,0
176344,-200,4,2,1,50,0,0
176844,-66.6666666666667,4,2,1,50,0,0
177178,-133.333333333333,4,2,1,50,0,0
179178,-133.333333333333,4,2,1,60,0,0
179511,-80,4,2,1,70,0,0
181511,-66.6666666666667,4,2,1,70,0,0
182511,-80,4,2,1,70,0,0
183511,-71.4285714285714,4,2,1,70,0,0
186178,-62.5,4,2,1,70,0,0
187178,-100,4,2,1,70,0,0
187511,-80,4,2,1,70,0,0
192178,-66.6666666666667,4,2,1,70,0,0
192844,-100,4,2,1,70,0,0
193178,-133.333333333333,4,2,1,60,0,0
193511,-166.666666666667,4,2,1,55,0,0
193844,-166.666666666667,4,2,1,50,0,0
194178,-166.666666666667,4,2,1,45,0,0
194511,-250.000000000001,4,2,1,40,0,0
194844,-333.333333333334,4,2,1,35,0,0
195178,-333.333333333334,4,2,1,30,0,0
195511,-166.666666666667,4,2,1,40,0,0
195844,-125,4,2,1,50,0,0
196178,-83.3333333333333,4,2,1,60,0,0
196511,-83.3333333333333,4,2,1,65,0,0
196844,-83.3333333333333,4,2,1,70,0,0
198178,-333.333333333333,4,2,1,70,0,0
198344,-100,4,2,1,70,0,0
198511,-80,4,2,1,70,0,0
204844,-100,4,2,1,70,0,0
206178,-133.333333333333,4,2,1,70,0,0
206844,-100,4,2,1,70,0,0
207511,-80,4,2,1,70,0,0
214178,-76.9230769230769,4,2,1,70,0,0
216844,-100,4,2,1,70,0,0
218844,-133.333333333333,4,2,1,70,0,0
219511,-133.333333333333,4,2,1,40,0,0
219844,-200,4,2,1,40,0,0
230178,-133.333333333333,4,2,1,55,0,0
239511,-100,4,2,1,60,0,0
240511,-200,4,2,1,60,0,0
241011,-80,4,2,1,70,0,0
247511,-100,4,2,1,70,0,0
248844,-133.333333333333,4,2,1,70,0,0
249511,-100,4,2,1,70,0,0
250178,-80,4,2,1,70,0,0
256844,-76.9230769230769,4,2,1,70,0,0
261511,-133.333333333333,4,2,1,70,0,0
262344,-133.333333333333,4,2,1,60,0,0
262844,-100,4,2,1,60,0,0
271511,-133.333333333333,4,2,1,60,0,0
272178,-100,4,2,1,60,0,0
272844,-133.333333333333,4,2,1,60,0,0
283511,-133.333333333333,4,2,1,60,0,0
299511,-133.333333333333,4,2,1,55,0,0
299844,-200,4,2,1,55,0,0
300178,-250,4,2,1,55,0,0
300511,-333.333333333333,4,2,1,55,0,0
300844,-133.333333333333,4,2,1,55,0,0
301178,-200,4,2,1,55,0,0
301511,-250,4,2,1,55,0,0
301844,-333.333333333333,4,2,1,55,0,0
302178,-100,4,2,1,55,0,0
304178,-200,4,2,1,55,0,0
304844,-333.333333333333,4,2,1,70,0,0
306178,-333.333333333333,4,2,1,5,0,0

[Colours]
Combo1 : 140,176,167
Combo2 : 204,236,238
Combo3 : 162,224,232
Combo4 : 182,205,199

[HitObjects]
408,117,845,6,0,L|451:105,2,45,4|0|0,1:0|0:0|1:0,0:0:0:0:
318,167,1344,2,0,P|350:182|368:202,1,45,0|0,0:0|1:0,0:0:0:0:
302,245,1678,1,0,0:0:0:0:
286,46,2011,6,0,L|299:95,1,45,0|0,0:0|1:0,0:0:0:0:
216,108,2344,2,0,L|204:64,1,45,0|0,0:0|1:0,0:0:0:0:
297,89,2678,1,0,0:0:0:0:
84,77,3011,6,0,P|115:90|135:108,1,45,0|0,0:0|1:0,0:0:0:0:
67,161,3344,2,0,P|36:174|16:192,1,45,0|0,0:0|1:0,0:0:0:0:
84,77,3678,6,0,P|115:90|135:108,1,45,0|0,0:0|1:0,0:0:0:0:
67,161,4011,2,0,P|36:174|16:192,1,45,0|0,0:0|1:0,0:0:0:0:
81,244,4344,1,0,0:0:0:0:
100,373,4678,6,0,L|111:317,1,45,0|0,0:0|1:0,0:0:0:0:
29,312,5011,2,0,L|20:356,1,45,0|0,0:0|1:0,0:0:0:0:
108,328,5344,1,0,0:0:0:0:
188,274,5678,6,0,L|177:218,1,45,0|0,0:0|1:0,0:0:0:0:
259,213,6011,2,0,L|267:257,1,45,0|0,0:0|1:0,0:0:0:0:
188,274,6344,6,0,L|177:218,1,45,0|0,0:0|1:0,0:0:0:0:
259,213,6677,2,0,L|267:257,1,45,0|0,0:0|1:0,0:0:0:0:
179,229,7011,1,0,0:0:0:0:
310,147,7344,6,0,P|291:135|270:131,1,45,0|0,0:0|1:0,0:0:0:0:
390,211,7678,2,0,P|368:215|349:227,1,45,0|0,0:0|1:0,0:0:0:0:
403,294,8011,1,0,0:0:0:0:
488,190,8344,6,0,L|477:233,1,45,0|0,0:0|1:0,0:0:0:0:
410,88,8678,2,0,L|420:131,1,45,0|0,0:0|1:0,0:0:0:0:
488,190,9011,6,0,L|477:233,1,45,0|0,0:0|1:0,0:0:0:0:
410,88,9345,2,0,L|420:131,1,45,0|0,0:0|1:0,0:0:0:0:
488,190,9678,1,0,0:0:0:0:
387,9,10011,6,0,P|365:16|348:31,1,45,0|0,0:0|1:0,0:0:0:0:
252,69,10344,2,0,P|273:76|290:91,1,45,0|0,0:0|1:0,0:0:0:0:
231,144,10678,1,0,0:0:0:0:
0,132,11011,5,8,2:0:0:0:
0,132,11094,1,8,2:0:0:0:
130,73,11344,1,8,2:0:0:0:
101,248,11511,6,0,P|91:222|77:199,1,53.9999983520508,4|0,1:2|0:0,0:0:0:0:
190,299,11844,2,0,P|199:273|213:250,1,53.9999983520508,8|0,2:0|0:0,0:0:0:0:
57,351,12178,2,0,L|108:335,1,53.9999983520508,0|0,1:0|0:0,0:0:0:0:
273,305,12511,2,0,L|324:320,1,53.9999983520508,8|0,2:0|0:0,0:0:0:0:
466,325,12844,6,0,P|443:339|417:348,1,53.9999983520508,0|0,1:0|0:0,0:0:0:0:
382,253,13178,2,0,P|404:238|430:229,1,53.9999983520508,8|0,2:0|0:0,0:0:0:0:
253,187,13511,2,0,P|275:201|301:210,1,53.9999983520508,0|0,1:0|0:0,0:0:0:0:
337,115,13845,2,0,P|314:100|288:91,1,53.9999983520508,8|0,2:0|0:0,0:0:0:0:
187,58,14178,6,0,L|200:110,1,53.9999983520508,0|0,1:0|0:0,0:0:0:0:
106,78,14511,2,0,L|119:130,1,53.9999983520508,8|0,2:0|0:0,0:0:0:0:
81,263,14844,2,0,L|94:210,1,53.9999983520508,0|0,1:0|0:0,0:0:0:0:
0,243,15177,2,0,L|13:190,1,53.9999983520508,8|0,2:0|0:0,0:0:0:0:
141,324,15511,6,0,P|120:340|94:348,1,53.9999983520508,0|0,1:0|0:0,0:0:0:0:
227,328,15844,2,0,P|224:354|211:378,1,53.9999983520508,8|0,2:0|0:0,0:0:0:0:
290,270,16178,2,0,P|306:290|314:316,1,53.9999983520508,0|0,1:0|0:0,0:0:0:0:
293,184,16511,2,0,P|319:186|343:199,1,53.9999983520508,8|0,2:0|0:0,0:0:0:0:
256,192,16844,12,4,20844,1:2:0:0:
256,192,20928,12,0,22094,0:0:0:0:
80,202,22178,6,0,L|94:285,1,67.5000025749208,4|0,1:2|0:0,0:0:0:0:
172,253,22511,2,0,L|160:186,1,67.5000025749208,8|0,2:0|0:0,0:0:0:0:
250,309,22844,2,0,L|264:226,1,67.5000025749208,0|0,1:0|0:0,0:0:0:0:
342,258,23177,2,0,L|330:324,1,67.5000025749208,8|0,2:0|0:0,0:0:0:0:
392,135,23511,2,0,L|406:218,1,67.5000025749208,0|0,1:0|0:0,0:0:0:0:
484,186,23844,2,0,L|472:119,1,67.5000025749208,8|0,2:0|0:0,0:0:0:0:
313,80,24178,5,0,1:0:0:0:
313,80,24344,2,0,L|279:71,1,33.7500012874604,2|0,2:0|0:0,0:0:0:0:
241,173,24511,2,0,L|265:148,1,33.7500012874604,10|0,2:0|0:0,0:0:0:0:
198,64,24678,2,0,L|207:97,1,33.7500012874604,2|0,2:0|0:0,0:0:0:0:
305,273,24844,6,0,P|277:258|239:255,1,67.5000025749208,0|0,1:0|0:0,0:0:0:0:
224,338,25178,2,0,P|252:353|289:355,1,67.5000025749208,8|0,2:0|0:0,0:0:0:0:
392,214,25511,2,0,P|420:199|457:196,1,67.5000025749208,0|0,1:0|0:0,0:0:0:0:
415,322,25844,2,0,P|400:312|391:298,1,33.7500012874604,8|0,2:0|0:0,0:0:0:0:
502,265,26011,2,0,P|501:281|493:296,1,33.7500012874604,0|0,1:0|0:0,0:0:0:0:
317,155,26178,6,0,P|302:185|300:218,1,67.5000025749208,0|0,1:0|0:0,0:0:0:0:
212,191,26511,2,0,P|226:160|228:127,1,67.5000025749208,8|0,2:0|0:0,0:0:0:0:
29,208,26844,2,0,P|43:238|45:271,1,67.5000025749208,0|0,1:0|0:0,0:0:0:0:
147,275,27177,2,0,P|136:261|131:244,1,33.7500012874604,10|0,2:0|0:0,0:0:0:0:
111,173,27344,2,0,P|113:155|121:139,1,33.7500012874604,2|0,2:0|0:0,0:0:0:0:
282,46,27511,6,0,L|216:29,1,67.5000025749208,0|0,1:0|0:0,0:0:0:0:
197,107,27844,2,0,L|262:123,1,67.5000025749208,8|0,2:0|0:0,0:0:0:0:
418,259,28178,2,0,L|352:275,1,67.5000025749208,0|0,1:0|0:0,0:0:0:0:
333,198,28511,2,0,L|398:181,1,67.5000025749208,8|0,2:0|0:0,0:0:0:0:
282,46,28844,6,0,L|216:29,1,67.5000025749208,0|0,1:0|0:0,0:0:0:0:
197,107,29178,2,0,L|262:123,1,67.5000025749208,8|0,2:0|0:0,0:0:0:0:
418,259,29511,2,0,L|352:275,1,67.5000025749208,0|0,1:0|0:0,0:0:0:0:
291,207,29844,2,0,L|323:198,1,33.7500012874604,10|0,2:0|0:0,0:0:0:0:
406,180,30011,6,0,L|416:160,2,22.5000008583069,2|0|0,2:0|1:0|1:0,0:0:0:0:
406,180,30178,2,0,L|438:171,1,33.7500012874604,0|0,1:0|0:0,0:0:0:0:
512,107,30344,2,0,L|479:98,1,33.7500012874604,0|0,1:0|0:0,0:0:0:0:
388,64,30511,6,0,P|404:36|431:16,1,67.5000025749208,8|0,2:0|0:0,0:0:0:0:
321,125,30844,2,0,P|304:95|300:62,1,67.5000025749208,0|0,1:0|0:0,0:0:0:0:
162,178,31178,2,0,P|145:149|118:129,1,67.5000025749208,8|0,2:0|1:0,0:0:0:0:
253,182,31428,1,0,1:0:0:0:
253,182,31511,2,0,P|251:198|244:213,1,33.7500012874604,0|0,1:0|0:0,0:0:0:0:
163,270,31678,2,0,P|146:267|131:260,1,33.7500012874604,0|0,1:0|0:0,0:0:0:0:
118,129,31844,1,8,2:0:0:0:
246,303,32011,6,0,L|258:321,2,22.5000008583069,0|0|0,1:0|1:0|1:0,0:0:0:0:
246,303,32178,2,0,L|237:335,1,33.7500012874604,0|0,1:0|0:0,0:0:0:0:
175,384,32344,1,2,2:0:0:0:
333,341,32511,1,10,2:0:0:0:
396,264,32678,6,0,L|384:285,2,22.5000008583069,2|8|8,2:0|2:0|2:0,0:0:0:0:
396,264,32845,2,0,L|412:329,1,67.5000025749208,4|0,1:2|0:0,0:0:0:0:
509,198,33178,2,0,L|492:263,1,67.5000025749208,8|0,2:0|0:0,0:0:0:0:
277,176,33511,2,0,L|293:241,1,67.5000025749208,0|0,1:0|0:0,0:0:0:0:
390,110,33844,2,0,L|373:175,1,67.5000025749208,8|0,2:0|0:0,0:0:0:0:
412,329,34178,6,0,L|396:264,1,67.5000025749208,0|0,1:0|0:0,0:0:0:0:
492,263,34511,2,0,L|509:198,1,67.5000025749208,8|0,2:0|0:0,0:0:0:0:
293,241,34844,1,0,1:0:0:0:
293,241,35011,2,0,L|285:208,1,33.7500012874604,2|0,2:0|0:0,0:0:0:0:
373,175,35178,2,0,L|381:142,1,33.7500012874604,10|0,2:0|0:0,0:0:0:0:
256,97,35344,2,0,L|264:129,1,33.7500012874604,2|0,2:0|0:0,0:0:0:0:
134,213,35511,6,0,P|157:189|189:180,1,67.5000025749208,0|0,1:0|0:0,0:0:0:0:
118,305,35844,2,0,P|85:296|61:273,1,67.5000025749208,8|0,2:0|0:0,0:0:0:0:
204,273,36178,2,0,P|213:305|205:337,1,67.5000025749208,0|0,1:0|0:0,0:0:0:0:
134,213,36511,2,0,P|157:189|189:180,1,67.5000025749208,8|0,2:0|0:0,0:0:0:0:
118,305,36844,2,0,P|85:296|61:273,1,67.5000025749208,0|0,1:0|0:0,0:0:0:0:
204,273,37178,2,0,P|213:305|205:337,1,67.5000025749208,8|0,2:0|0:0,0:0:0:0:
134,213,37511,2,0,P|157:189|189:180,1,67.5000025749208,0|2,1:0|2:0,0:0:0:0:
118,305,37844,6,0,P|97:302|71:279,1,33.7500012874604,10|0,2:0|0:0,0:0:0:0:
228,314,38011,2,0,P|214:330|181:341,1,33.7500012874604,2|0,2:0|0:0,0:0:0:0:
302,222,38178,6,0,L|295:256,7,33.7500012874604,4|0|0|0|8|0|0|0,1:2|0:0|0:0|0:0|2:0|0:0|0:0|0:0,0:0:0:0:
379,235,38844,2,0,L|372:269,7,33.7500012874604,0|0|0|0|8|0|0|0,1:0|0:0|0:0|0:0|2:0|0:0|0:0|0:0,0:0:0:0:
475,207,39511,5,4,1:2:0:0:
473,198,39594,1,0,0:0:0:0:
471,190,39677,1,0,0:0:0:0:
469,182,39761,1,0,0:0:0:0:
468,173,39844,2,0,L|461:139,3,33.7500012874604,8|0|0|0,2:0|0:0|0:0|0:0,0:0:0:0:
365,167,40178,5,0,1:0:0:0:
367,176,40261,1,0,0:0:0:0:
369,184,40344,1,0,0:0:0:0:
371,192,40428,1,0,0:0:0:0:
372,201,40511,2,0,L|379:235,3,33.7500012874604,8|0|0|0,2:0|0:0|0:0|0:0,0:0:0:0:
378,68,40844,5,4,1:2:0:0:
348,64,40927,1,8,2:0:0:0:
319,60,41010,1,8,2:0:0:0:
290,56,41094,1,8,2:0:0:0:
260,53,41177,1,8,2:0:0:0:
231,49,41260,1,8,2:0:0:0:
202,45,41344,1,8,2:0:0:0:
172,42,41427,1,8,2:0:0:0:
143,38,41510,5,12,2:0:0:0:
115,44,41594,1,8,2:0:0:0:
97,63,41678,1,8,2:0:0:0:
99,84,41761,1,8,2:0:0:0:
109,94,41844,1,8,2:0:0:0:
119,95,41928,1,8,2:0:0:0:
129,91,42011,1,8,2:0:0:0:
130,84,42094,1,8,2:0:0:0:
127,79,42178,6,0,P|142:84|155:95,7,33.7500012874604,12|8|8|8|8|8|8|8,2:0|2:0|2:0|2:0|2:0|2:0|2:0|2:0,0:0:0:0:
92,163,42845,6,0,L|109:251,1,90,8|0,2:0|0:0,0:0:0:0:
227,295,43512,6,0,B|201:262|167:275|171:280|134:292|109:251,1,135.000005149842,4|0,1:0|0:0,0:0:0:0:
275,214,44012,1,2,2:0:0:0:
275,214,44178,2,0,P|326:171|392:169,1,135.000005149842
445,372,44678,2,0,B|456:279|360:250|360:250|303:329|359:383|359:383|362:355|380:335,1,360,2|0,2:0|0:0,0:0:0:0:
455,53,46178,6,0,B|451:85|418:111|418:111|405:143|423:173,1,135.000005149842,2|0,2:0|0:0,0:0:0:0:
183,2,46678,2,0,B|229:48|278:23|275:19|310:-7|371:37,1,202.500007724762,2|0,2:0|0:0,0:0:0:0:
278,231,47345,2,0,L|308:99,1,135,2|0,2:0|0:0,0:0:0:0:
169,207,48012,2,0,L|199:338,1,135,2|0,2:0|0:0,0:0:0:0:
199,338,48512,1,0,0:0:0:0:
221,142,48845,6,0,P|196:128|152:127,1,53.9999983520508,2|0,2:0|0:0,0:0:0:0:
0,152,49178,1,2,2:0:0:0:
91,141,49345,1,2,2:0:0:0:
91,141,49512,1,2,2:0:0:0:
68,313,49845,5,2,2:0:0:0:
57,222,50012,1,2,2:0:0:0:
68,313,50178,1,2,2:0:0:0:
57,222,50345,1,2,2:0:0:0:
247,275,50512,2,0,L|140:257,1,107.999996704102,2|0,2:0|0:0,0:0:0:0:
457,58,51178,5,2,2:0:0:0:
477,125,51345,1,2,2:0:0:0:
379,164,51512,2,0,P|385:137|400:115,1,53.9999983520508,2|0,2:0|0:0,0:0:0:0:
426,297,51845,5,2,2:0:0:0:
452,210,52012,1,2,2:0:0:0:
400,384,52178,1,2,2:0:0:0:
294,154,52512,5,2,2:0:0:0:
329,272,52678,1,2,2:0:0:0:
294,154,52845,1,2,2:0:0:0:
329,272,53012,1,2,2:0:0:0:
257,12,53178,2,0,B|264:41|248:76|248:76|224:90|215:118,1,107.999996704102,2|0,2:0|0:0,0:0:0:0:
167,209,53678,5,2,2:0:0:0:
133,91,53845,1,2,2:0:0:0:
15,125,54012,1,2,2:0:0:0:
30,293,54178,6,0,L|49:243,1,53.9999983520508,6|0,1:2|0:0,0:0:0:0:
114,40,54678,2,0,L|132:90,1,53.9999983520508,6|2,1:2|2:0,0:0:0:0:
238,275,55178,5,2,2:0:0:0:
238,275,55345,1,2,2:0:0:0:
197,181,55512,2,0,P|173:197|151:227,1,53.9999983520508,6|2,1:2|2:0,0:0:0:0:
233,7,56011,6,0,P|259:11|283:24,1,53.9999983520508,6|0,1:2|0:0,0:0:0:0:
254,104,56344,2,0,P|228:91|191:87,1,53.9999983520508,6|2,1:2|2:0,0:0:0:0:
512,62,56845,6,0,L|459:75,1,53.9999983520508,6|0,1:2|0:0,0:0:0:0:
296,173,57345,2,0,L|348:186,1,53.9999983520508,6|2,1:2|2:0,0:0:0:0:
451,287,57845,5,2,2:0:0:0:
451,287,58012,1,2,2:0:0:0:
316,346,58178,2,0,P|342:352|364:367,1,53.9999983520508,6|2,1:2|2:0,0:0:0:0:
289,265,58678,2,0,P|249:279|224:301,1,53.9999983520508,6|0,1:2|0:0,0:0:0:0:
180,344,59012,1,2,2:0:0:0:
0,378,59178,6,0,B|30:359|30:359|43:294,1,101.250003862381,6|0,1:2|0:0,0:0:0:0:
43,294,59512,1,2,1:2:0:0:
140,268,59678,1,8,2:0:0:0:
97,175,59845,1,2,1:2:0:0:
193,200,60012,1,10,2:0:0:0:
203,98,60178,1,2,1:2:0:0:
273,167,60345,1,8,2:0:0:0:
333,84,60512,1,2,1:2:0:0:
359,180,60678,1,10,2:2:0:0:
272,364,60845,5,6,1:2:0:0:
243,281,61012,1,10,2:2:0:0:
326,252,61178,1,2,1:2:0:0:
354,335,61345,1,8,2:0:0:0:
430,189,61512,5,2,1:2:0:0:
401,272,61678,1,8,2:0:0:0:
484,301,61845,1,2,1:2:0:0:
512,218,62012,1,2,2:0:0:0:
494,102,62178,5,6,1:2:0:0:
464,85,62261,1,0,1:2:0:0:
431,78,62344,1,0,1:2:0:0:
398,81,62428,1,0,1:2:0:0:
367,95,62511,1,2,1:2:0:0:
342,117,62594,1,0,1:2:0:0:
325,146,62678,1,2,1:2:0:0:
317,178,62761,1,0,1:2:0:0:
319,212,62844,5,6,1:2:0:0:
319,246,62928,1,0,1:2:0:0:
306,277,63011,1,0,1:2:0:0:
277,302,63094,1,0,1:2:0:0:
234,321,63178,1,2,1:2:0:0:
179,313,63261,1,0,1:2:0:0:
135,281,63344,1,2,1:2:0:0:
118,225,63428,1,0,1:2:0:0:
142,172,63511,6,0,L|125:115,1,33.7500012874604,6|0,1:2|1:2,0:0:0:0:
223,235,63678,2,0,L|240:178,1,33.7500012874604,2|0,1:2|1:2,0:0:0:0:
72,81,63844,6,0,P|84:70|99:64,1,33.7500012874604,2|0,1:2|1:2,0:0:0:0:
293,144,64011,2,0,P|280:132|265:126,1,33.7500012874604,0|0,1:2|1:2,0:0:0:0:
36,287,64178,1,0,1:2:0:0:
36,287,64345,6,0,L|24:243,2,45,2|2|2,2:0|2:0|2:0,0:0:0:0:
305,384,64845,6,0,B|268:349|211:367|211:367|155:384|115:335,1,202.500007724762,2|0,1:2|0:0,0:0:0:0:
118,81,65178,2,0,P|217:160|189:285,1,269.999991760254,2|0,1:2|0:0,0:0:0:0:
95,237,65678,6,0,P|83:237|72:243,1,22.5,2|0,1:2|0:0,0:0:0:0:
55,272,65845,2,0,P|82:252|119:251,1,67.5,10|0,2:2|0:0,0:0:0:0:
187,286,66178,6,0,P|240:291|281:257,1,107.999996704102,6|0,1:2|0:0,0:0:0:0:
333,115,66428,1,0,0:0:0:0:
333,115,66512,2,0,L|352:199,1,53.9999983520508,10|0,2:2|0:0,0:0:0:0:
424,149,66678,2,0,L|412:96,1,53.9999983520508,2|0,2:0|0:0,0:0:0:0:
510,292,66845,6,0,B|484:266|484:266|374:239,1,135,2|0,1:2|0:0,0:0:0:0:
339,328,67178,2,0,B|313:354|313:354|176:387,1,168.75,10|0,2:2|0:0,0:0:0:0:
39,301,67512,2,0,B|23:357|23:357|80:372|80:372|95:316,1,175.499991966248,2|0,1:2|0:0,0:0:0:0:
28,201,67845,6,0,P|57:202|84:193,1,58.4999973220826,10|0,2:2|0:0,0:0:0:0:
191,289,68012,2,0,P|178:263|157:244,1,58.4999973220826,2|0,2:0|0:0,0:0:0:0:
227,63,68178,2,0,P|184:102|164:156,1,116.999994644165,2|0,1:2|0:0,0:0:0:0:
84,102,68428,1,0,0:0:0:0:
84,102,68512,2,0,P|66:46|28:2,1,116.999994644165,10|0,2:2|0:0,0:0:0:0:
490,129,68845,6,0,L|291:168,1,202.500007724762,6|0,1:2|0:0,0:0:0:0:
278,234,69178,2,0,L|291:167,1,67.5000025749208,14|0,2:2|0:0,0:0:0:0:
470,29,69345,2,0,L|489:128,1,101.250003862381,6|0,1:2|0:0,0:0:0:0:
368,240,69678,2,0,L|349:340,1,101.250003862381,6|0,1:2|0:0,0:0:0:0:
491,236,70012,6,0,B|497:257|497:257|475:263|475:263|469:241,1,67.5000025749208,6|0,1:2|0:0,0:0:0:0:
469,241,70345,6,0,B|475:263|475:263|497:257|497:257|491:236,1,67.5000025749208,4|0,1:2|0:0,0:0:0:0:
410,168,70512,2,0,L|244:135,1,168.75,14|0,2:2|0:0,0:0:0:0:
60,200,70845,2,0,B|98:236|152:216|167:185|167:185|146:155|159:124,1,175.499991966248,2|0,1:2|0:0,0:0:0:0:
285,36,71178,2,0,P|283:94|244:135,1,116.999994644165,10|0,2:2|0:0,0:0:0:0:
222,255,71428,1,0,0:0:0:0:
222,255,71512,2,0,P|261:296|263:353,1,116.999994644165,2|0,1:2|0:0,0:0:0:0:
128,347,71762,5,0,0:0:0:0:
128,347,71845,2,0,L|183:328,1,58.4999973220826,10|0,2:2|0:0,0:0:0:0:
0,366,72012,2,0,L|55:384,1,58.4999973220826,2|0,2:0|0:0,0:0:0:0:
1,137,72178,2,0,B|35:163|35:163|53:280,1,161.999995056153,2|0,1:2|0:0,0:0:0:0:
133,266,72512,2,0,B|115:140|115:140|154:85,1,188.999994232178,10|0,2:2|0:0,0:0:0:0:
327,235,72845,6,0,P|261:235|218:186,1,135.000005149842,2|0,1:2|0:0,0:0:0:0:
371,169,73095,1,0,0:0:0:0:
371,169,73178,2,0,P|395:191|407:222,1,67.5000025749208,10|0,2:2|0:0,0:0:0:0:
490,227,73345,2,0,P|483:259|461:285,1,67.5000025749208,2|0,2:0|0:0,0:0:0:0:
512,45,73512,2,0,P|479:90|465:144,1,112.5,2|0,1:2|0:0,0:0:0:0:
264,285,73845,2,0,P|231:239|217:185,1,112.5,10|0,2:2|0:0,0:0:0:0:
11,64,74178,6,0,B|25:81|25:81|20:102,1,45,6|0,1:2|0:0,0:0:0:0:
121,78,74344,2,0,B|106:60|106:60|111:39,1,45,6|0,1:2|0:0,0:0:0:0:
217,185,74511,2,0,B|202:202|202:202|207:223,1,45,6|0,1:2|0:0,0:0:0:0:
111,202,74677,2,0,B|125:184|125:184|120:163,1,45,6|0,1:2|0:0,0:0:0:0:
201,38,74845,2,0,B|227:15|227:15|363:46,1,168.75,6|0,1:2|0:0,0:0:0:0:
512,56,75178,2,0,B|437:77|437:77|425:104|396:120,1,135,10|0,2:0|0:0,0:0:0:0:
280,357,75512,6,0,P|341:301|423:287,1,168.75,6|0,1:2|0:0,0:0:0:0:
217,157,75845,2,0,P|234:238|205:316,1,168.75,10|0,2:2|0:0,0:0:0:0:
396,205,76178,2,0,P|343:188|308:145,1,112.5,2|0,1:2|0:0,0:0:0:0:
244,69,76428,1,0,0:0:0:0:
244,69,76512,2,0,P|162:74|119:143,1,168.75,10|0,2:2|0:0,0:0:0:0:
19,360,76845,6,0,L|0:249,1,112.5,2|0,1:2|0:0,0:0:0:0:
155,233,77095,1,0,0:0:0:0:
155,233,77178,2,0,L|100:219,1,56.25,10|0,2:2|0:0,0:0:0:0:
84,296,77345,2,0,L|138:309,1,56.25,2|0,2:0|0:0,0:0:0:0:
361,277,77512,2,0,B|339:275|321:258|321:258|233:282,1,135,2|0,1:2|0:0,0:0:0:0:
304,384,77845,2,0,L|312:339,1,45,10|0,2:2|0:0,0:0:0:0:
371,156,78012,2,0,L|379:200,1,45,0|0,1:2|0:0,0:0:0:0:
483,307,78178,6,0,B|499:363|499:363|442:378|442:378|427:322,1,168.75,2|0,1:2|0:0,0:0:0:0:
465,215,78512,2,0,P|478:190|501:174,1,56.25,10|0,2:2|0:0,0:0:0:0:
366,101,78678,2,0,P|363:129|371:156,1,56.25,2|0,2:0|0:0,0:0:0:0:
292,238,78845,2,0,P|243:211|211:165,1,112.5,2|0,1:2|0:0,0:0:0:0:
169,353,79095,1,0,0:0:0:0:
169,353,79178,2,0,P|216:323|271:319,1,112.5,10|0,2:2|0:0,0:0:0:0:
60,81,79512,6,0,B|99:103|99:103|141:254,1,202.500007724762,2|0,1:2|0:0,0:0:0:0:
63,366,79845,2,0,L|75:322,1,45,10|0,2:2|0:0,0:0:0:0:
211,165,80012,6,0,L|220:198,2,30,2|0|0,1:2|1:2|1:2,0:0:0:0:
215,151,80178,2,0,L|347:123,1,135.000005149842,4|2,1:2|2:0,0:0:0:0:
512,172,80428,2,0,L|379:199,1,135.000005149842,6|0,1:2|0:0,0:0:0:0:
192,144,80678,2,0,L|201:177,2,30,2|0|0,1:2|1:2|1:2,0:0:0:0:
196,130,80844,2,0,L|328:102,1,135.000005149842,4|0,1:2|0:0,0:0:0:0:
293,217,81178,6,0,P|257:258|246:313,1,112.5,10|0,2:2|0:0,0:0:0:0:
155,370,81428,1,0,0:0:0:0:
155,370,81512,2,0,P|130:291|71:231,1,168.75,2|0,1:2|0:0,0:0:0:0:
9,166,81845,2,0,P|30:147|57:141,1,56.25,10|0,2:2|0:0,0:0:0:0:
48,122,82012,2,0,P|20:127|0:146,1,56.25
203,28,82178,6,0,L|178:137,1,112.5,6|0,1:2|0:0,0:0:0:0:
293,217,82428,1,0,0:0:0:0:
293,217,82512,2,0,L|325:362,1,112.5,10|2,2:2|2:0,0:0:0:0:
502,334,82762,1,0,0:0:0:0:
502,334,82845,2,0,P|436:292|384:279,1,112.5,2|0,1:2|0:0,0:0:0:0:
293,217,83095,1,0,0:0:0:0:
293,217,83178,2,0,P|361:169|444:153,1,168.75,10|0,2:2|0:0,0:0:0:0:
512,70,83512,5,14,1:2:0:0:
491,65,83595,1,8,2:2:0:0:
470,60,83678,1,8,2:2:0:0:
450,56,83762,1,8,2:2:0:0:
429,51,83845,1,10,1:2:0:0:
409,46,83928,1,8,2:2:0:0:
388,42,84012,1,10,2:2:0:0:
367,37,84095,1,8,2:2:0:0:
347,32,84178,5,14,1:2:0:0:
298,31,84262,1,8,2:2:0:0:
253,50,84345,1,8,2:2:0:0:
220,86,84428,1,8,2:2:0:0:
204,133,84512,1,10,1:2:0:0:
209,181,84595,1,8,2:2:0:0:
233,224,84678,1,8,2:2:0:0:
273,252,84762,1,8,2:2:0:0:
321,263,84845,6,0,P|316:276|307:286,1,28.125,14|8,2:2|2:2,0:0:0:0:
337,286,84928,2,0,P|326:295|313:299,1,28.125,8|8,2:2|2:2,0:0:0:0:
339,313,85012,2,0,P|325:316|311:313,1,28.125,8|8,2:2|2:2,0:0:0:0:
327,337,85095,2,0,P|313:332|303:323,1,28.125,8|8,2:2|2:2,0:0:0:0:
304,351,85178,2,0,P|294:340|290:327,1,28.125,10|8,2:2|2:2,0:0:0:0:
277,351,85262,2,0,P|273:337|276:323,1,28.125,10|8,2:2|2:2,0:0:0:0:
253,337,85345,2,0,P|257:323|266:313,1,28.125,10|8,2:2|2:2,0:0:0:0:
239,312,85428,2,0,P|249:302|262:298,1,28.125,10|8,2:2|2:2,0:0:0:0:
239,283,85512,6,0,P|294:274|338:240,1,112.5,2|2,2:2|2:2,0:0:0:0:
512,177,85844,2,0,P|467:143|412:134,1,112.5,2|2,2:2|2:2,0:0:0:0:
435,246,86178,1,2,2:2:0:0:
435,246,86344,6,0,L|424:205,1,22.5,0|0,1:2|0:0,0:0:0:0:
322,1,86511,2,0,B|344:42|344:42|317:161,1,168.75,14|0,2:2|0:0,0:0:0:0:
176,265,86844,2,0,B|222:287|258:278|285:241|285:241|262:235|246:205,1,175.499991966248,2|0,1:2|0:0,0:0:0:0:
150,55,87178,6,0,L|170:170,1,116.999994644165,10|0,2:2|0:0,0:0:0:0:
70,269,87428,1,0,0:0:0:0:
70,269,87511,2,0,L|49:384,1,116.999994644165,2|0,1:2|0:0,0:0:0:0:
7,194,87761,5,0,0:0:0:0:
7,194,87844,2,0,P|29:176|57:166,1,58.4999973220826,10|0,2:2|0:0,0:0:0:0:
176,265,88011,2,0,P|198:282|226:292,1,58.4999973220826,2|0,2:0|0:0,0:0:0:0:
512,327,88178,6,0,B|479:304|479:304|360:332,1,161.999995056153,2|0,1:2|0:0,0:0:0:0:
295,230,88511,2,0,B|328:253|328:253|485:215,1,188.999994232178,10|0,2:2|0:0,0:0:0:0:
462,9,88844,2,0,B|428:147|428:147|473:107,1,202.500007724762,2|0,1:2|0:0,0:0:0:0:
256,35,89178,6,0,L|273:100,1,67.5000025749208,10|0,2:2|0:0,0:0:0:0:
360,78,89344,2,0,L|342:12,1,67.5000025749208,2|0,2:0|0:0,0:0:0:0:
59,56,89511,2,0,P|116:53|166:83,1,116.999994644165,2|0,1:2|0:0,0:0:0:0:
350,188,89761,1,0,0:0:0:0:
350,188,89844,2,0,P|300:217|236:213,1,116.999994644165,10|0,2:2|0:0,0:0:0:0:
124,384,90178,6,0,L|83:185,1,202.500007724762,6|0,1:2|0:0,0:0:0:0:
58,369,90511,2,0,L|123:383,1,67.5000025749208,14|0,2:2|0:0,0:0:0:0:
182,163,90678,2,0,L|83:185,1,101.250003862381,6|0,1:2|0:0,0:0:0:0:
205,304,91011,2,0,L|303:326,1,101.250003862381,6|0,1:2|0:0,0:0:0:0:
378,230,91344,2,0,B|357:236|357:236|351:214|351:214|373:208,1,67.5000025749208,6|0,1:2|0:0,0:0:0:0:
373,208,91678,6,0,B|351:214|351:214|357:236|357:236|378:230,1,67.5000025749208,4|0,1:2|0:0,0:0:0:0:
512,145,91844,2,0,L|347:106,1,168.75,14|0,2:2|0:0,0:0:0:0:
142,115,92178,2,0,B|209:132|251:90|251:90|257:57|284:39,1,175.499991966248,2|0,1:2|0:0,0:0:0:0:
279,189,92511,2,0,L|261:305,1,116.999994644165,10|0,2:2|0:0,0:0:0:0:
59,368,92761,1,0,0:0:0:0:
59,368,92844,2,0,L|41:252,1,116.999994644165,2|0,1:2|0:0,0:0:0:0:
182,281,93094,5,0,0:0:0:0:
182,281,93178,2,0,P|158:263|130:257,1,58.4999973220826,10|0,2:2|0:0,0:0:0:0:
322,361,93344,2,0,P|298:378|270:384,1,58.4999973220826,2|0,2:0|0:0,0:0:0:0:
512,88,93511,6,0,B|485:111|485:111|462:259,1,161.999995056153,2|0,1:2|0:0,0:0:0:0:
342,271,93844,2,0,B|377:240|377:240|399:100,1,188.999994232178,10|0,2:2|0:0,0:0:0:0:
64,61,94178,6,0,P|129:26|200:23,1,135.000005149842,2|0,1:2|0:0,0:0:0:0:
311,113,94428,1,0,0:0:0:0:
311,113,94511,2,0,P|278:107|255:82,1,67.5000025749208,10|0,2:2|0:0,0:0:0:0:
292,0,94678,2,0,P|324:5|347:30,1,67.5000025749208,2|0,2:0|0:0,0:0:0:0:
114,244,94844,6,0,P|126:189|159:144,1,112.5,2|0,1:2|0:0,0:0:0:0:
45,384,95178,2,0,P|32:329|0:284,1,112.5,10|0,2:2|0:0,0:0:0:0:
352,351,95511,6,0,B|320:353|298:324|298:324|160:340,1,202.500007724762,6|0,1:2|0:0,0:0:0:0:
273,100,95844,2,0,B|291:127|277:161|277:161|360:272,1,202.500007724762,6|0,1:2|0:0,0:0:0:0:
95,294,96178,2,0,B|109:264|145:259|145:259|200:132,1,202.500007724762,6|0,1:2|0:0,0:0:0:0:
242,247,96511,1,10,2:0:0:0:
242,247,96678,1,0,0:0:0:0:
498,346,96844,6,0,P|440:286|359:271,1,168.75,6|0,1:2|0:0,0:0:0:0:
225,359,97178,2,0,P|304:334|358:271,1,168.75,10|0,2:2|0:0,0:0:0:0:
403,66,97511,2,0,L|378:175,1,112.5,2|0,1:2|0:0,0:0:0:0:
242,247,97761,1,0,0:0:0:0:
242,247,97844,2,0,B|217:120|217:120|245:147,1,168.75,10|0,2:2|0:0,0:0:0:0:
162,319,98178,6,0,P|116:355|45:360,1,112.5,2|0,1:2|0:0,0:0:0:0:
67,215,98428,1,0,0:0:0:0:
67,215,98511,2,0,L|87:288,1,56.25,10|0,2:2|0:0,0:0:0:0:
149,64,98678,2,0,L|129:137,1,56.25,2|0,2:0|0:0,0:0:0:0:
5,0,98844,2,0,L|40:130,1,135,2|0,1:2|0:0,0:0:0:0:
162,319,99178,2,0,L|236:338,1,45,10|0,2:2|0:0,0:0:0:0:
296,354,99344,2,0,L|370:373,1,45
499,352,99511,6,0,B|443:368|443:368|428:311|428:311|484:296,1,168.75,2|0,1:2|0:0,0:0:0:0:
476,155,99844,2,0,P|456:175|443:200,1,56.25,10|0,2:2|0:0,0:0:0:0:
335,204,100011,2,0,P|342:230|357:254,1,56.25,2|0,2:0|0:0,0:0:0:0:
319,21,100178,2,0,P|360:57|383:108,1,112.5,2|0,1:2|0:0,0:0:0:0:
171,116,100428,1,0,0:0:0:0:
171,116,100511,2,0,P|223:98|279:104,1,112.5,10|0,2:2|0:0,0:0:0:0:
234,187,100761,5,0,0:0:0:0:
234,187,100844,2,0,L|220:253,1,67.5000025749208,6|0,1:2|0:0,0:0:0:0:
12,384,101011,2,0,L|-1:317,1,67.5000025749208,2|0,1:2|0:0,0:0:0:0:
228,346,101178,2,0,L|184:336,1,45,10|0,2:2|0:0,0:0:0:0:
24,216,101344,6,0,L|31:249,2,30,2|0|0,1:2|1:2|1:2,0:0:0:0:
35,215,101511,2,0,B|97:229|97:229|154:186,1,135.000005149842,4|2,1:2|2:0,0:0:0:0:
119,28,101761,2,0,B|57:14|57:14|0:56,1,135.000005149842,6|0,1:2|0:0,0:0:0:0:
79,115,102011,2,0,L|86:150,2,30,2|0|0,1:2|1:2|1:2,0:0:0:0:
88,113,102178,2,0,L|222:85,1,135.000005149842,4|0,1:2|0:0,0:0:0:0:
512,106,102511,6,0,P|479:161|466:237,1,112.5,10|0,2:2|0:0,0:0:0:0:
389,341,102761,1,0,0:0:0:0:
389,341,102844,2,0,P|374:258|323:192,1,168.75,2|0,1:2|0:0,0:0:0:0:
39,244,103178,6,0,P|46:217|64:196,1,56.25,10|0,2:2|0:0,0:0:0:0:
117,123,103344,2,0,P|138:142|148:169,1,56.25
253,318,103511,6,0,L|143:343,1,112.5,6|0,1:2|0:0,0:0:0:0:
126,258,103761,1,0,0:0:0:0:
126,258,103844,2,0,L|235:232,1,112.5,10|2,2:2|1:2,0:0:0:0:
355,182,104094,5,2,1:2:0:0:
355,182,104178,2,0,P|308:142|258:129,1,112.5,2|2,1:2|1:2,0:0:0:0:
240,42,104428,1,0,0:0:0:0:
240,42,104511,2,0,P|156:44|85:87,1,168.75,10|0,2:2|0:0,0:0:0:0:
62,195,104844,5,14,1:2:0:0:
60,208,104927,1,8,2:2:0:0:
58,222,105010,1,8,2:2:0:0:
57,236,105093,1,8,2:2:0:0:
55,250,105177,1,10,1:2:0:0:
53,264,105260,1,8,2:2:0:0:
52,278,105343,1,10,2:2:0:0:
50,292,105427,1,8,2:2:0:0:
49,307,105511,5,14,1:2:0:0:
69,344,105594,1,8,2:2:0:0:
104,365,105678,1,8,2:2:0:0:
146,366,105761,1,8,2:2:0:0:
183,345,105844,1,10,1:2:0:0:
204,309,105928,1,8,2:2:0:0:
204,268,106011,1,8,2:2:0:0:
184,232,106094,1,8,2:2:0:0:
148,211,106178,6,0,L|154:184,1,28.125,14|8,2:2|2:2,0:0:0:0:
122,195,106261,2,0,L|141:175,1,28.125,8|8,2:2|2:2,0:0:0:0:
107,169,106344,2,0,L|133:161,1,28.125,8|8,2:2|2:2,0:0:0:0:
107,139,106428,2,0,L|134:146,1,28.125,8|8,2:2|2:2,0:0:0:0:
122,114,106511,2,0,L|142:134,1,28.125,10|8,2:2|2:2,0:0:0:0:
147,100,106594,2,0,L|155:127,1,28.125,10|8,2:2|2:2,0:0:0:0:
176,101,106678,2,0,L|169:129,1,28.125,10|8,2:2|2:2,0:0:0:0:
200,116,106761,2,0,L|180:137,1,28.125,10|8,2:2|2:2,0:0:0:0:
219,160,106844,6,0,P|223:173|227:164,6,28.125,2|0|0|0|0|0|0,2:2|0:0|0:0|0:0|0:0|0:0|0:0,0:0:0:0:
92,299,107178,6,0,P|46:280|16:240,1,101.250003862381,2|0,2:0|0:0,0:0:0:0:
109,23,107511,2,0,P|34:70|7:157,1,175.499991966248,6|0,1:2|0:0,0:0:0:0:
170,149,107845,2,0,P|153:147|169:152,1,45
338,198,108011,2,0,P|360:173|369:141,1,67.5000025749208,6|0,1:2|0:0,0:0:0:0:
269,132,108178,2,0,P|258:100|235:76,1,67.5000025749208,6|0,1:2|0:0,0:0:0:0:
170,149,108345,1,0,0:0:0:0:
15,258,108511,6,0,L|19:236,1,22.5,2|0,2:2|0:0,0:0:0:0:
88,278,108678,2,0,L|92:256,1,22.5,2|0,2:2|0:0,0:0:0:0:
54,95,108845,6,0,P|53:128|66:159,1,67.5000025749208,6|0,1:2|0:0,0:0:0:0:
81,286,109011,2,0,L|85:264,1,22.5,2|0,2:2|0:0,0:0:0:0:
183,59,109178,6,0,P|153:75|133:102,1,67.5000025749208,6|0,1:2|0:0,0:0:0:0:
74,294,109345,2,0,L|78:272,1,22.5,2|0,2:2|0:0,0:0:0:0:
278,152,109511,6,0,P|249:134|215:130,1,67.5000025749208,6|0,1:2|0:0,0:0:0:0:
67,302,109678,2,0,L|71:280,1,22.5,2|0,2:2|0:0,0:0:0:0:
244,280,109845,6,0,P|244:246|231:215,1,67.5000025749208,6|0,1:2|0:0,0:0:0:0:
60,310,110011,2,0,L|64:288,1,22.5,2|2,2:2|2:2,0:0:0:0:
157,259,110178,5,6,1:2:0:0:
331,298,110345,1,0,0:0:0:0:
331,298,110428,1,6,1:2:0:0:
331,297,110511,2,0,P|344:272|364:253,1,56.25,2|0,2:2|0:0,0:0:0:0:
503,351,110678,5,6,1:2:0:0:
461,337,110761,1,0,1:2:0:0:
419,324,110845,1,2,1:2:0:0:
257,184,111011,5,0,0:0:0:0:
257,184,111178,1,10,2:2:0:0:
257,184,111345,1,2,2:2:0:0:
0,164,111511,6,0,L|32:154,1,33.7500012874604,6|0,1:2|0:0,0:0:0:0:
82,210,111678,2,0,L|114:219,1,33.7500012874604,0|0,1:2|0:0,0:0:0:0:
158,145,111845,2,0,L|190:135,1,33.7500012874604,12|0,2:2|0:0,0:0:0:0:
257,184,112011,1,0,1:2:0:0:
501,199,112178,6,0,L|390:179,1,112.5,4|0,1:2|1:2,0:0:0:0:
328,257,112428,1,0,0:0:0:0:
328,257,112511,2,0,L|217:276,1,112.5,12|0,2:2|0:0,0:0:0:0:
20,299,112845,2,0,P|74:306|113:345,1,112.5,4|0,1:2|0:0,0:0:0:0:
16,52,113178,6,0,L|-5:138,1,67.5000025749208,2|0,2:2|0:0,0:0:0:0:
250,68,113511,2,0,L|229:-18,1,67.5000025749208,2|0,2:2|0:0,0:0:0:0:
159,39,113761,5,0,0:0:0:0:
159,38,113845,2,0,P|128:53|105:78,1,67.5,6|0,1:2|0:0,0:0:0:0:
175,216,114178,2,0,P|160:168|172:119,1,101.250003862381,6|0,1:2|0:0,0:0:0:0:
344,233,114511,2,0,P|279:219|240:166,1,135,6|0,1:2|0:0,0:0:0:0:
323,323,114845,2,0,P|373:318|413:288,1,101.250003862381,6|0,1:2|0:0,0:0:0:0:
442,166,115178,2,0,P|426:181|418:202,1,45,6|0,1:2|0:0,0:0:0:0:
511,279,115345,2,0,P|506:257|493:240,1,45,0|0,1:2|0:0,0:0:0:0:
413,288,115511,1,0,0:0:0:0:
413,288,115845,6,0,P|373:318|323:323,1,101.250003862381,2|0,2:2|0:0,0:0:0:0:
250,305,116178,2,0,P|200:310|160:340,1,101.250003862381,2|0,2:2|0:0,0:0:0:0:
160,340,116511,1,0,0:0:0:0:
58,384,116678,5,0,1:2:0:0:
49,334,116761,1,0,1:2:0:0:
40,283,116845,2,0,P|31:257|9:241,1,56.25,6|0,1:2|0:0,0:0:0:0:
240,142,117011,2,0,P|223:165|198:175,1,56.25,0|0,1:2|0:0,0:0:0:0:
97,197,117178,2,0,P|108:171|104:144,1,56.25,8|0,2:2|0:0,0:0:0:0:
327,148,117344,5,0,1:2:0:0:
327,148,117428,1,0,1:2:0:0:
327,148,117511,2,0,P|348:102|386:68,1,101.250003862381,4|0,1:2|0:0,0:0:0:0:
501,223,117845,2,0,L|490:179,1,45,8|0,2:2|0:0,0:0:0:0:
415,194,118011,2,0,L|426:238,1,45,0|0,1:2|0:0,0:0:0:0:
480,308,118178,5,6,1:2:0:0:
284,230,118345,1,0,0:0:0:0:
405,360,118511,2,0,P|364:324|309:316,1,112.5,8|0,2:2|0:0,0:0:0:0:
113,384,118845,2,0,P|167:376|209:339,1,112.5,0|0,1:2|0:0,0:0:0:0:
30,269,119178,1,8,2:2:0:0:
30,269,119345,1,0,0:0:0:0:
61,161,119511,6,0,B|103:175|103:175|136:295,1,168.75,0|0,1:2|0:0,0:0:0:0:
239,95,119845,2,0,B|205:124|205:124|85:92,1,168.75,8|0,2:2|0:0,0:0:0:0:
207,282,120178,2,0,B|198:238|198:238|285:150,1,168.75,2|0,1:2|0:0,0:0:0:0:
338,284,120511,6,0,L|285:264,1,56.25,8|0,2:2|0:0,0:0:0:0:
258,341,120678,2,0,L|311:361,1,56.25,2|0,1:2|0:0,0:0:0:0:
30,269,120845,5,2,1:2:0:0:
95,19,121011,1,0,0:0:0:0:
85,205,121178,2,0,L|54:96,1,112.5,8|0,2:2|0:0,0:0:0:0:
310,244,121511,2,0,L|340:135,1,112.5,0|0,1:2|0:0,0:0:0:0:
203,184,121845,5,10,2:2:0:0:
431,107,122011,1,2,2:2:0:0:
203,184,122178,5,2,1:2:0:0:
142,291,122345,1,2,2:2:0:0:
249,352,122511,1,10,2:2:0:0:
310,244,122678,1,2,2:2:0:0:
127,108,122845,6,0,P|175:135|202:183,1,112.5,6|0,1:2|0:0,0:0:0:0:
28,144,123095,2,0,P|27:88|55:41,1,112.5,6|0,1:2|0:0,0:0:0:0:
109,212,123345,1,6,1:2:0:0:
109,212,123428,1,0,1:2:0:0:
109,212,123511,6,0,L|0:241,1,112.5,6|0,2:2|0:0,0:0:0:0:
0,241,123761,2,0,L|29:349,1,112.5,8|0,2:2|0:0,0:0:0:0:
29,349,124011,2,0,L|137:319,1,112.5,8|0,2:2|0:0,0:0:0:0:
137,318,124261,2,0,L|245:348,1,112.5,8|0,2:2|0:0,0:0:0:0:
257,379,124511,6,0,L|310:364,1,56.25,8|0,2:2|0:0,0:0:0:0:
438,329,124678,2,0,L|384:343,1,56.25
316,241,124845,6,0,P|344:169|383:141,1,112.5,12|0,2:2|0:0,0:0:0:0:
369,147,125095,2,0,P|309:98|294:52,1,112.5,8|0,2:2|0:0,0:0:0:0:
296,66,125345,2,0,P|231:107|183:107,1,112.5,8|0,2:2|0:0,0:0:0:0:
197,109,125595,2,0,P|216:183|201:229,1,112.5,8|0,2:2|0:0,0:0:0:0:
208,216,125845,5,8,2:2:0:0:
383,60,126011,1,0,0:0:0:0:
81,55,126178,5,12,2:2:0:0:
73,72,126261,1,8,2:2:0:0:
127,172,126428,1,8,2:2:0:0:
119,155,126511,1,8,2:2:0:0:
53,266,126678,1,12,2:2:0:0:
61,249,126761,1,8,2:2:0:0:
136,326,126928,1,8,2:2:0:0:
144,343,127011,1,8,2:2:0:0:
405,372,127178,6,0,L|350:357,1,56.25,12|8,2:2|2:2,0:0:0:0:
222,307,127345,2,0,L|276:292,1,56.25,8|8,2:2|2:2,0:0:0:0:
391,267,127511,5,12,2:2:0:0:
434,232,127595,1,8,2:2:0:0:
452,179,127678,1,8,2:2:0:0:
439,125,127761,1,8,2:2:0:0:
399,87,127845,1,8,2:2:0:0:
355,70,127928,1,8,2:2:0:0:
313,79,128011,1,8,2:2:0:0:
288,110,128095,1,8,2:2:0:0:
290,144,128178,1,8,2:2:0:0:
310,162,128261,1,8,2:2:0:0:
332,158,128345,1,8,2:2:0:0:
334,145,128428,1,8,2:2:0:0:
329,139,128511,6,0,P|345:137|357:148,1,33.7500012874604,2|0,0:0|0:0,0:0:0:0:
434,232,128678,2,0,P|418:234|406:223,1,33.7500012874604,2|0,0:0|0:0,0:0:0:0:
449,149,128845,1,4,2:1:0:0:
256,192,128928,12,0,132844,0:0:0:0:
198,158,133678,5,2,2:2:0:0:
289,134,133844,1,2,2:2:0:0:
313,225,134011,1,2,2:2:0:0:
222,249,134178,1,2,2:2:0:0:
198,158,134844,5,2,2:2:0:0:
313,225,135511,1,2,2:2:0:0:
289,134,136178,1,2,2:2:0:0:
222,249,136844,2,0,B|158:262|117:201|144:141|144:141|190:97|171:35|171:35|165:63|143:84,1,337.5,2|0,2:2|0:0,0:0:0:0:
71,36,139511,6,0,L|92:31,1,22.5
54,114,139844,2,0,L|75:109,1,22.5
95,192,140178,2,0,L|116:187,1,22.5
78,270,140511,2,0,L|99:265,1,22.5
234,329,140844,6,0,L|212:333,1,22.5
251,251,141177,2,0,L|229:255,1,22.5
210,172,141511,2,0,L|188:176,1,22.5
227,94,141844,2,0,L|205:98,1,22.5
313,4,142178,6,0,L|334:0,1,22.5
296,82,142511,2,0,L|317:77,1,22.5
337,160,142845,2,0,L|358:155,1,22.5
320,238,143178,2,0,L|341:233,1,22.5
476,297,143511,6,0,L|454:301,1,22.5
493,219,143844,2,0,L|471:223,1,22.5
415,150,144178,5,0,0:0:0:0:
415,150,144344,1,2,2:2:0:0:
393,71,144510,1,2,2:2:0:0:
471,50,144677,1,2,2:2:0:0:
493,128,144844,1,2,2:2:0:0:
393,71,145511,5,2,2:2:0:0:
493,128,146178,1,2,2:2:0:0:
471,50,146844,1,2,2:2:0:0:
415,150,147511,6,0,B|327:173|327:173|305:210|305:210|217:234,1,225,2|0,2:2|0:0,0:0:0:0:
83,280,149511,5,2,2:2:0:0:
140,235,149678,2,0,L|135:216,5,11.25
63,176,150178,5,4,1:1:0:0:
63,176,150344,1,0,0:0:0:0:
6,113,150511,1,0,0:0:0:0:
6,113,150677,1,0,0:0:0:0:
88,67,150844,2,0,P|75:48|56:36,1,45,8|0,2:2|0:0,0:0:0:0:
152,116,151178,2,0,P|162:96|163:73,1,45
220,177,151511,5,0,1:2:0:0:
220,177,151678,1,0,0:0:0:0:
295,122,151844,1,0,0:0:0:0:
295,122,152011,1,0,0:0:0:0:
310,250,152178,2,0,L|297:206,1,45,8|0,2:2|0:0,0:0:0:0:
380,292,152511,2,0,L|368:336,1,45
435,221,152844,5,0,1:2:0:0:
435,221,153011,1,0,0:0:0:0:
512,180,153178,1,0,0:0:0:0:
512,180,153345,1,0,0:0:0:0:
443,93,153511,2,0,L|434:139,1,45,8|0,2:2|0:0,0:0:0:0:
359,10,153844,2,0,L|368:56,1,45
310,119,154178,5,0,1:2:0:0:
283,133,154344,1,0,0:0:0:0:
209,76,154511,1,0,0:0:0:0:
182,62,154677,1,0,0:0:0:0:
124,167,154844,2,0,P|157:152|180:150,1,45,8|0,2:2|0:0,0:0:0:0:
33,144,155178,2,0,P|54:114|72:101,1,45
62,226,155511,6,0,P|79:255|97:312,1,90,2|2,1:2|2:2,0:0:0:0:
39,376,156011,1,2,2:2:0:0:
39,376,156178,1,10,2:2:0:0:
216,356,156511,6,0,P|196:344|175:335,3,45,2|2|2|2,2:2|2:2|1:2|2:2,0:0:0:0:
62,226,157178,1,2,2:2:0:0:
62,226,157511,1,8,2:2:0:0:
318,343,157844,5,2,2:2:0:0:
329,317,158011,1,2,2:2:0:0:
262,216,158178,2,0,L|271:260,1,45,2|0,1:2|0:0,0:0:0:0:
389,243,158511,5,2,2:2:0:0:
363,232,158678,1,2,2:2:0:0:
506,178,158844,2,0,L|451:192,1,45,8|0,2:2|0:0,0:0:0:0:
351,98,159178,2,0,P|365:116|376:136,3,45,2|2|2|2,2:2|2:2|1:2|2:2,0:0:0:0:
466,71,159844,1,2,2:2:0:0:
466,71,160344,5,2,2:2:0:0:
441,57,160511,1,2,2:2:0:0:
376,136,160678,1,2,2:2:0:0:
148,101,160844,6,0,P|209:67|275:63,1,135,6|2,1:2|2:2,0:0:0:0:
288,158,161511,2,0,P|254:143|231:141,1,45,10|0,2:2|0:0,0:0:0:0:
5,92,161844,5,2,2:2:0:0:
31,84,162011,1,2,2:2:0:0:
96,167,162178,1,2,2:2:0:0:
70,159,162345,1,2,2:2:0:0:
29,307,162511,6,0,P|16:273|-8:237,1,67.5,2|0,1:2|0:0,0:0:0:0:
140,305,162844,2,0,P|114:342|100:384,1,90,8|2,2:2|2:2,0:0:0:0:
257,279,163344,5,2,2:2:0:0:
346,344,163511,2,0,L|214:372,1,135,2|2,1:2|2:2,0:0:0:0:
380,256,164178,2,0,L|423:265,1,45,10|0,2:2|0:0,0:0:0:0:
445,375,164511,5,2,1:2:0:0:
437,347,164678,1,2,2:2:0:0:
502,242,164844,1,2,2:2:0:0:
510,214,165011,6,0,L|488:208,1,22.5,2|0,1:2|0:0,0:0:0:0:
324,178,165178,2,0,L|389:163,1,67.5,2|0,1:2|0:0,0:0:0:0:
504,115,165511,2,0,L|456:104,1,45,8|2,2:2|2:2,0:0:0:0:
233,86,165844,5,2,1:2:0:0:
240,115,166011,1,2,2:2:0:0:
351,45,166178,2,0,L|323:177,1,135,6|2,1:2|2:2,0:0:0:0:
251,210,166844,2,0,P|283:186|322:177,1,80.9999975280763,10|2,2:2|2:2,0:0:0:0:
151,374,167511,2,0,L|178:241,1,135,2|0,1:2|0:0,0:0:0:0:
251,210,168178,2,0,P|218:233|179:242,1,80.9999975280763,8|2,2:2|2:2,0:0:0:0:
34,239,168844,6,0,L|77:229,1,45,6|0,1:2|0:0,0:0:0:0:
64,158,169178,2,0,L|20:167,1,45,2|2,1:2|2:2,0:0:0:0:
137,87,169511,2,0,L|180:96,1,45,8|0,2:2|0:0,0:0:0:0:
194,25,169845,2,0,L|150:15,1,45,2|2,1:2|2:2,0:0:0:0:
197,193,170178,5,14,2:2:0:0:
319,159,170344,1,2,1:2:0:0:
353,281,170511,1,2,1:2:0:0:
231,315,170678,1,0,1:2:0:0:
163,199,170844,5,8,1:2:0:0:
312,125,171010,1,2,1:2:0:0:
386,274,171177,1,2,1:2:0:0:
237,348,171344,1,2,1:2:0:0:
237,348,171428,1,0,1:2:0:0:
237,348,171511,6,0,L|248:281,1,53.9999983520508,6|0,1:2|0:0,0:0:0:0:
320,71,171844,2,0,L|309:138,1,53.9999983520508,0|0,1:2|0:0,0:0:0:0:
165,305,172178,2,0,L|176:238,1,53.9999983520508,8|0,2:2|0:0,0:0:0:0:
391,110,172511,2,0,L|380:177,1,53.9999983520508,0|0,1:2|0:0,0:0:0:0:
113,197,172844,6,0,P|134:180|160:171,1,53.9999983520508,4|0,1:2|0:0,0:0:0:0:
367,247,173178,2,0,P|341:237|320:220,1,53.9999983520508,0|0,1:2|0:0,0:0:0:0:
31,189,173511,2,0,P|41:164|58:143,1,53.9999983520508,8|0,2:2|0:0,0:0:0:0:
396,324,173844,2,0,P|369:327|342:324,1,53.9999983520508,0|0,1:2|0:0,0:0:0:0:
0,349,174178,5,4,1:2:0:0:
4,329,174261,1,0,1:2:0:0:
13,311,174344,1,0,1:2:0:0:
27,296,174428,1,0,1:2:0:0:
45,286,174511,1,0,1:2:0:0:
64,281,174594,1,0,1:2:0:0:
84,281,174678,1,0,1:2:0:0:
104,286,174761,1,0,1:2:0:0:
121,296,174844,5,4,1:2:0:0:
143,301,174928,1,0,1:2:0:0:
169,297,175012,1,0,1:2:0:0:
193,285,175095,1,0,1:2:0:0:
214,267,175178,1,0,1:2:0:0:
228,238,175262,1,0,1:2:0:0:
233,205,175345,1,0,1:2:0:0:
228,168,175428,1,0,1:2:0:0:
204,135,175511,5,4,1:2:0:0:
36,190,175678,1,0,1:2:0:0:
297,113,175844,1,0,1:2:0:0:
141,215,176011,1,0,1:2:0:0:
143,28,176178,5,0,1:2:0:0:
143,28,176344,2,0,L|138:54,1,22.5,2|0,2:2|0:0,0:0:0:0:
204,135,176511,2,0,L|208:112,1,22.5,2|0,1:2|0:0,0:0:0:0:
110,137,176678,1,2,2:2:0:0:
378,130,176844,6,0,B|373:189|306:210|306:210|259:197|223:226,1,202.500007724762,4|0,2:1|0:0,0:0:0:0:
263,364,177178,2,0,L|279:283,1,67.5000025749208,2|0,2:2|0:0,0:0:0:0:
146,244,177511,2,0,L|162:325,1,67.5000025749208,2|0,2:2|0:0,0:0:0:0:
503,320,177844,5,2,2:2:0:0:
436,306,178010,1,2,2:2:0:0:
369,319,178178,2,0,L|450:303,1,67.5000025749208,2|0,2:2|0:0,0:0:0:0:
512,199,178511,2,0,L|431:183,1,67.5000025749208,2|0,2:2|0:0,0:0:0:0:
356,101,178844,2,0,L|437:85,1,67.5000025749208,2|0,2:2|0:0,0:0:0:0:
496,10,179178,5,6,1:2:0:0:
356,101,179344,1,2,2:2:0:0:
127,104,179511,2,0,B|171:138|171:138|282:156,1,168.75,6|0,1:2|0:0,0:0:0:0:
393,270,179844,2,0,L|371:380,1,112.5,10|0,2:2|0:0,0:0:0:0:
237,359,180094,1,0,0:0:0:0:
237,359,180178,2,0,L|215:248,1,112.5,2|0,1:2|0:0,0:0:0:0:
91,29,180511,6,0,P|67:44|51:66,1,56.25,10|0,2:2|0:0,0:0:0:0:
87,271,180678,2,0,L|65:160,1,112.5,2|0,2:2|1:2,0:0:0:0:
221,27,181011,1,2,2:2:0:0:
168,156,181178,1,10,2:2:0:0:
453,76,181344,1,2,2:2:0:0:
505,216,181511,6,0,P|417:165|320:136,1,202.500007724762,2|0,1:2|0:0,0:0:0:0:
155,337,181844,2,0,P|242:286|339:257,1,202.500007724762,2|0,1:2|0:0,0:0:0:0:
420,353,182178,1,2,2:2:0:0:
420,353,182344,6,0,L|437:265,1,67.5000025749208,6|0,1:2|0:0,0:0:0:0:
453,76,182511,2,0,B|473:42|473:42|489:114,1,112.5,14|0,2:2|0:0,0:0:0:0:
360,124,182761,1,0,0:0:0:0:
360,124,182844,2,0,B|332:79|332:79|299:222,1,168.75,2|0,1:2|0:0,0:0:0:0:
279,344,183178,6,0,P|275:316|260:292,1,56.25,10|0,2:2|0:0,0:0:0:0:
132,212,183344,2,0,P|159:211|185:222,1,56.25,2|0,2:2|0:0,0:0:0:0:
50,366,183511,2,0,P|104:335|165:321,1,125.999996154785,2|0,1:2|0:0,0:0:0:0:
254,136,183761,1,0,0:0:0:0:
254,136,183844,2,0,P|199:104|138:90,1,125.999996154785,10|0,2:2|0:0,0:0:0:0:
50,366,184094,1,0,0:0:0:0:
50,366,184178,2,0,L|15:180,1,188.999994232178,2|0,1:2|0:0,0:0:0:0:
153,28,184511,6,0,L|138:89,1,62.9999980773926,10|0,2:2|0:0,0:0:0:0:
241,307,184678,2,0,L|226:245,1,62.9999980773926,2|0,2:2|0:0,0:0:0:0:
396,11,184844,2,0,B|377:38|377:38|399:128,1,125.999996154785,2|0,1:2|0:0,0:0:0:0:
490,310,185094,1,0,0:0:0:0:
490,310,185178,2,0,B|509:283|509:283|486:192,1,125.999996154785,10|0,2:2|0:0,0:0:0:0:
241,307,185428,1,0,0:0:0:0:
241,307,185511,2,0,B|307:233|307:233|395:245,1,188.999994232178,2|0,1:2|0:0,0:0:0:0:
373,350,185844,5,10,2:2:0:0:
364,366,185928,1,2,2:2:0:0:
345,364,186011,1,2,2:2:0:0:
342,345,186094,1,2,2:2:0:0:
360,343,186178,6,0,B|325:313|325:313|282:148,1,216,6|0,1:2|0:0,0:0:0:0:
52,354,186511,2,0,B|95:338|95:338|259:384,1,216,6|0,1:2|0:0,0:0:0:0:
196,82,186844,2,0,B|187:127|187:127|66:246,1,216,6|0,1:2|0:0,0:0:0:0:
232,290,187178,6,0,B|217:223|217:223|167:268,1,135,2|0,1:2|0:0,0:0:0:0:
334,224,187511,6,0,P|375:187|429:173,1,112.5,6|0,1:2|0:0,0:0:0:0:
511,97,187761,1,0,0:0:0:0:
511,97,187844,2,0,P|445:47|363:31,1,168.75,10|0,2:2|0:0,0:0:0:0:
214,97,188178,2,0,P|296:80|362:30,1,168.75,2|0,1:2|0:0,0:0:0:0:
154,30,188511,6,0,P|134:49|124:75,1,56.25,10|0,2:2|0:0,0:0:0:0:
69,154,188678,2,0,P|49:134|39:108,1,56.25,2|0,2:2|0:0,0:0:0:0:
126,333,188844,2,0,L|161:167,1,168.75,2|0,1:2|0:0,0:0:0:0:
214,377,189178,2,0,L|237:266,1,112.5,10|0,2:2|0:0,0:0:0:0:
469,199,189428,1,0,0:0:0:0:
469,199,189511,2,0,L|492:309,1,112.5,2|0,1:2|0:0,0:0:0:0:
79,361,189844,6,0,P|99:341|125:332,1,56.25,10|0,2:2|0:0,0:0:0:0:
337,289,190011,2,0,P|357:308|383:317,1,56.25,10|0,2:2|0:0,0:0:0:0:
46,253,190178,2,0,L|78:360,1,112.5,2|0,1:2|0:0,0:0:0:0:
184,125,190428,1,0,0:0:0:0:
184,125,190511,2,0,L|151:232,1,112.5,10|0,2:2|0:0,0:0:0:0:
84,78,190761,1,0,0:0:0:0:
84,78,190844,2,0,P|144:22|227:19,1,168.75,2|0,1:2|0:0,0:0:0:0:
341,78,191178,6,0,P|321:97|294:99,1,56.25,10|0,2:2|0:0,0:0:0:0:
446,46,191344,2,0,P|442:101|418:152,1,112.5,2|0,2:2|1:2,0:0:0:0:
359,384,191678,5,2,2:2:0:0:
321,184,191844,1,10,2:2:0:0:
469,305,192011,6,0,L|465:343,2,37.5,2|0|0,1:2|1:2|1:2,0:0:0:0:
469,305,192178,2,0,L|335:283,1,135.000005149842,6|0,1:2|0:0,0:0:0:0:
246,363,192428,2,0,L|112:384,1,135.000005149842,4|0,1:2|0:0,0:0:0:0:
21,315,192678,6,0,L|10:267,2,45.0000017166138,0|0|0,1:2|1:2|1:2,0:0:0:0:
21,315,192844,2,0,P|64:304|101:279,1,90,4|0,1:2|0:0,0:0:0:0:
247,218,193178,2,0,P|219:199|187:191,1,67.5000025749208,2|0,1:2|0:0,0:0:0:0:
24,126,193511,2,0,L|38:179,1,53.9999983520508,2|0,1:2|0:0,0:0:0:0:
225,25,193844,5,2,1:2:0:0:
143,60,194011,1,2,2:2:0:0:
143,60,194178,2,0,L|129:113,1,53.9999983520508,2|0,1:2|0:0,0:0:0:0:
186,190,194511,2,0,L|195:225,1,36,2|0,1:2|0:0,0:0:0:0:
153,290,194844,2,0,L|146:316,1,26.9999991760254,2|0,1:2|0:0,0:0:0:0:
194,376,195178,5,2,1:2:0:0:
194,376,195344,1,2,2:2:0:0:
146,316,195511,6,0,L|153:290,3,26.9999991760254,10|0|0|0,1:2|1:2|1:2|1:2,0:0:0:0:
195,225,195844,2,0,L|186:190,3,36,10|0|0|0,1:2|1:2|1:2|1:2,0:0:0:0:
129,113,196178,2,0,L|143:60,3,53.9999983520508,10|0|0|0,1:2|1:2|1:2|1:2,0:0:0:0:
227,6,196511,1,10,1:2:0:0:
281,184,196678,5,2,1:2:0:0:
281,184,196761,1,2,1:2:0:0:
281,184,196844,2,0,L|440:153,1,161.999995056153,14|0,1:2|0:0,0:0:0:0:
512,230,197178,2,0,L|352:260,1,161.999995056153,12|0,1:2|0:0,0:0:0:0:
322,359,197511,2,0,L|481:328,1,161.999995056153,12|0,1:2|0:0,0:0:0:0:
481,328,197844,1,8,1:2:0:0:
352,260,198011,1,0,0:0:0:0:
229,353,198178,6,0,L|232:339,1,13.4999995880127,2|0,2:2|0:0,0:0:0:0:
182,218,198344,2,0,L|189:263,1,45,4|0,1:2|0:0,0:0:0:0:
22,288,198511,2,0,L|188:262,1,168.75,12|0,2:2|0:0,0:0:0:0:
271,248,198844,2,0,L|253:136,1,112.5,2|0,1:2|0:0,0:0:0:0:
0,83,199178,2,0,L|17:194,1,112.5,8|0,2:2|0:0,0:0:0:0:
355,59,199511,2,0,B|317:98|317:98|148:123,2,225,2|8|0,1:2|2:2|1:2,0:0:0:0:
355,59,200344,1,0,0:0:0:0:
468,384,200511,6,0,P|431:344|377:345,1,112.5,10|2,2:2|2:2,0:0:0:0:
203,268,200761,1,2,2:2:0:0:
203,268,200844,2,0,P|268:354|375:346,1,225,0|8,1:2|2:2,0:0:0:0:
355,59,201344,1,0,0:0:0:0:
257,31,201511,2,0,B|274:127|274:127|292:149|292:149|314:245,1,225,2|8,1:2|2:2,0:0:0:0:
156,65,202011,1,0,0:0:0:0:
69,116,202178,2,0,B|228:87|228:87|256:31,1,225,2|8,1:2|2:2,0:0:0:0:
100,241,202678,1,0,0:0:0:0:
187,190,202844,2,0,B|28:219|28:219|0:275,1,225,2|8,1:2|2:2,0:0:0:0:
45,384,203344,5,0,0:0:0:0:
100,241,203511,1,2,1:2:0:0:
357,328,203677,1,2,2:2:0:0:
288,150,203844,1,10,2:2:0:0:
197,380,204011,2,0,L|216:269,1,112.5,2|0,2:2|1:2,0:0:0:0:
454,174,204344,2,0,L|473:284,1,112.5,2|8,2:2|2:2,0:0:0:0:
287,380,204678,5,2,2:2:0:0:
216,269,204844,2,0,P|179:243|136:232,1,90,0|0,1:2|0:0,0:0:0:0:
41,379,205178,2,0,P|77:353|120:342,1,90,8|0,2:2|0:0,0:0:0:0:
214,250,205511,2,0,P|177:224|134:213,1,90,2|0,1:2|0:0,0:0:0:0:
39,360,205845,2,0,P|75:334|118:323,1,90,8|0,2:2|0:0,0:0:0:0:
23,163,206178,6,0,L|38:228,1,67.5000025749208,2|0,1:2|0:0,0:0:0:0:
173,57,206511,2,0,L|157:122,1,67.5000025749208,8|0,2:2|0:0,0:0:0:0:
0,63,206844,2,0,P|48:42|88:36,1,90,2|0,1:2|0:0,0:0:0:0:
235,164,207178,2,0,P|283:185|323:191,1,90,8|0,2:2|0:0,0:0:0:0:
471,55,207511,2,0,L|305:88,1,168.75,6|0,1:2|0:0,0:0:0:0:
305,88,207844,1,0,0:0:0:0:
463,327,208011,5,8,2:2:0:0:
459,317,208094,1,8,2:2:0:0:
455,307,208178,2,0,L|489:142,1,168.75,4|0,1:2|0:0,0:0:0:0:
319,190,208511,2,0,L|353:355,1,168.75,4|0,1:2|0:0,0:0:0:0:
162,296,208844,6,0,B|214:233|214:233|192:148,1,168.75,4|0,1:2|0:0,0:0:0:0:
73,34,209178,2,0,B|107:76|107:76|93:132,1,112.5,8|0,2:2|0:0,0:0:0:0:
91,369,209511,2,0,B|56:326|56:326|70:270,1,112.5,2|0,1:2|0:0,0:0:0:0:
196,61,209844,5,8,2:2:0:0:
93,132,210011,1,0,0:0:0:0:
385,235,210178,2,0,B|358:187|358:187|192:148,2,225,2|8|0,1:2|2:2|1:2,0:0:0:0:
385,235,211011,1,0,0:0:0:0:
481,378,211178,6,0,P|440:340|386:324,1,112.5,10|2,2:2|2:2,0:0:0:0:
272,326,211428,1,2,2:2:0:0:
272,326,211511,2,0,P|177:380|67:367,1,225,2|8,1:2|2:2,0:0:0:0:
118,139,212011,5,0,0:0:0:0:
61,65,212178,2,0,L|103:286,1,225,2|8,1:2|2:2,0:0:0:0:
306,295,212678,1,0,0:0:0:0:
249,368,212845,2,0,L|290:146,1,225,2|8,1:2|2:2,0:0:0:0:
476,103,213344,1,0,0:0:0:0:
419,29,213511,2,0,L|460:250,1,225,2|8,1:2|2:2,0:0:0:0:
490,380,214011,5,0,0:0:0:0:
490,380,214178,2,0,P|394:318|278:314,1,233.999989288331,6|10,1:2|2:2,0:0:0:0:
131,384,214678,2,0,P|159:377|182:360,1,58.4999973220826,6|0,1:2|0:0,0:0:0:0:
182,360,214844,1,0,0:0:0:0:
318,202,215011,2,0,P|346:208|369:225,1,58.4999973220826,6|0,1:2|0:0,0:0:0:0:
369,225,215178,1,8,2:2:0:0:
193,235,215344,6,0,L|166:121,1,116.999994644165,6|0,1:2|0:0,0:0:0:0:
101,0,215678,2,0,L|87:56,1,58.4999973220826,4|0,1:2|0:0,0:0:0:0:
87,56,215844,1,8,2:2:0:0:
265,136,216011,1,4,1:2:0:0:
271,164,216094,1,0,1:2:0:0:
278,192,216178,2,0,P|323:159|397:154,2,116.999994644165,0|0|8,1:2|0:0|2:2,0:0:0:0:
357,245,216678,1,0,0:0:0:0:
512,360,216844,5,14,1:2:0:0:
497,356,216927,1,0,1:2:0:0:
483,353,217010,1,0,1:2:0:0:
469,350,217094,1,0,1:2:0:0:
454,347,217177,1,8,1:2:0:0:
440,343,217260,1,0,1:2:0:0:
426,340,217344,1,0,1:2:0:0:
412,337,217427,1,0,1:2:0:0:
397,334,217511,6,0,L|353:345,3,45,12|0|0|0,1:2|1:2|1:2|1:2,0:0:0:0:
282,289,217844,2,0,L|238:277,3,45,8|0|0|0,1:2|1:2|1:2|1:2,0:0:0:0:
186,347,218178,5,14,1:2:0:0:
145,364,218261,1,0,1:2:0:0:
111,357,218344,1,0,1:2:0:0:
90,334,218428,1,0,1:2:0:0:
90,309,218511,1,8,1:2:0:0:
102,296,218594,1,0,1:2:0:0:
114,294,218678,1,0,1:2:0:0:
120,298,218761,1,0,1:2:0:0:
122,303,218844,6,0,P|119:270|95:244,1,67.5000025749208,8|0,1:2|0:0,0:0:0:0:
0,280,219178,1,0,0:0:0:0:
25,108,219511,6,0,B|51:81|51:81|34:177,1,135.000005149842,2|0,2:2|0:0,0:0:0:0:
97,245,220011,1,2,2:2:0:0:
174,197,220178,2,0,L|240:209,1,67.5,2|0,2:2|0:0,0:0:0:0:
240,209,220511,2,0,L|248:164,3,45,2|2|2|2,2:2|2:2|2:2|2:2,0:0:0:0:
293,271,221178,5,2,2:2:0:0:
293,271,221511,1,0,0:0:0:0:
507,246,221844,6,0,L|482:237,3,22.5,2|0|2|0,2:2|0:0|2:2|0:0,0:0:0:0:
424,287,222178,2,0,P|448:326|460:369,1,90,2|0,2:2|0:0,0:0:0:0:
331,280,222678,1,2,2:2:0:0:
331,280,222844,2,0,P|337:258|348:239,1,45,2|0,2:2|0:0,0:0:0:0:
436,147,223178,2,0,P|430:169|419:188,3,45,2|2|2|2,2:2|2:2|2:2|2:2,0:0:0:0:
344,136,223844,5,2,2:2:0:0:
344,136,224178,1,0,0:0:0:0:
255,207,224344,6,0,L|212:220,1,45,2|2,2:2|2:2,0:0:0:0:
159,156,224678,1,2,2:2:0:0:
159,156,224844,2,0,L|117:143,1,45,2|0,2:2|0:0,0:0:0:0:
105,236,225178,1,2,2:2:0:0:
105,236,225344,1,2,2:2:0:0:
30,174,225511,2,0,L|16:107,1,67.5,2|0,2:2|0:0,0:0:0:0:
16,107,225844,2,0,L|25:62,3,45,2|2|2|2,2:2|2:2|2:2|2:2,0:0:0:0:
92,10,226511,5,2,2:2:0:0:
92,10,226844,1,0,0:0:0:0:
0,199,227178,5,2,2:2:0:0:
0,199,227344,1,2,2:2:0:0:
23,290,227511,2,0,P|41:277|62:269,1,45,2|0,2:2|0:0,0:0:0:0:
132,330,227844,1,2,2:2:0:0:
132,330,228011,2,0,P|150:342|171:350,1,45,2|2,2:2|2:2,0:0:0:0:
237,222,228511,2,0,P|217:231|200:245,3,45,2|2|2|2,2:2|2:2|2:2|2:2,0:0:0:0:
260,315,229178,5,2,2:2:0:0:
260,315,229511,1,0,0:0:0:0:
360,375,229678,1,2,2:2:0:0:
360,375,229844,2,0,L|348:315,1,45,2|2,2:2|2:2,0:0:0:0:
418,215,230178,5,14,2:2:0:0:
416,225,230261,1,8,2:2:0:0:
413,236,230344,1,8,2:2:0:0:
410,247,230428,1,8,2:2:0:0:
408,258,230511,2,0,P|420:269|429:283,1,33.7500012874604,10|8,2:2|2:2,0:0:0:0:
260,315,230678,2,0,P|263:298|271:283,1,33.7500012874604,10|8,2:2|2:2,0:0:0:0:
321,192,230844,5,10,2:2:0:0:
320,175,230927,1,8,2:2:0:0:
315,159,231010,1,8,2:2:0:0:
307,144,231094,1,8,2:2:0:0:
295,131,231178,2,0,L|303:98,1,33.7500012874604,10|8,2:2|2:2,0:0:0:0:
385,14,231344,2,0,L|393:46,1,33.7500012874604,10|8,2:2|2:2,0:0:0:0:
201,178,231511,2,0,P|214:187|231:189,1,33.7500012874604,10|8,2:2|2:2,0:0:0:0:
444,134,231678,2,0,P|427:135|413:145,1,33.7500012874604,10|8,2:2|2:2,0:0:0:0:
260,315,231844,5,10,2:2:0:0:
251,333,231927,1,8,2:2:0:0:
238,350,232010,1,8,2:2:0:0:
221,363,232094,1,8,2:2:0:0:
202,372,232177,1,8,2:2:0:0:
182,376,232260,1,8,2:2:0:0:
161,375,232344,1,8,2:2:0:0:
140,370,232427,1,8,2:2:0:0:
122,360,232511,2,0,P|117:343|105:333,1,33.7500012874604,10|8,2:2|2:2,0:0:0:0:
24,269,232678,2,0,P|35:257|38:240,1,33.7500012874604,10|8,2:2|2:2,0:0:0:0:
173,169,232844,5,10,2:2:0:0:
163,182,232927,1,8,2:2:0:0:
154,197,233010,1,8,2:2:0:0:
147,212,233094,1,8,2:2:0:0:
141,228,233178,2,0,L|185:243,1,33.7500012874604,10|8,2:2|2:2,0:0:0:0:
40,153,233344,2,0,L|-4:168,1,33.7500012874604,10|8,2:2|2:2,0:0:0:0:
143,59,233511,5,10,2:2:0:0:
158,64,233594,1,8,2:2:0:0:
174,69,233677,1,8,2:2:0:0:
190,75,233761,1,8,2:2:0:0:
207,79,233844,2,0,L|256:66,1,33.7500012874604,10|8,2:2|2:2,0:0:0:0:
287,213,234011,2,0,L|251:177,1,33.7500012874604,10|8,2:2|2:2,0:0:0:0:
362,77,234178,2,0,L|348:125,1,33.7500012874604,10|8,2:2|2:2,0:0:0:0:
208,96,234344,2,0,L|257:83,1,33.7500012874604,10|8,2:2|2:2,0:0:0:0:
378,196,234511,5,10,2:2:0:0:
386,211,234594,1,8,2:2:0:0:
397,224,234677,1,8,2:2:0:0:
410,235,234761,1,8,2:2:0:0:
426,242,234844,1,8,2:2:0:0:
442,246,234927,1,8,2:2:0:0:
459,246,235011,1,10,2:2:0:0:
475,242,235094,1,8,2:2:0:0:
491,235,235178,2,0,L|501:267,3,33.7500012874604,10|8|10|8,2:2|2:2|2:2|2:2,0:0:0:0:
456,152,235511,5,14,2:2:0:0:
446,138,235594,1,8,2:2:0:0:
434,126,235677,1,8,2:2:0:0:
420,116,235761,1,8,2:2:0:0:
405,109,235844,1,10,2:2:0:0:
388,105,235927,1,8,2:2:0:0:
372,105,236011,1,10,2:2:0:0:
355,107,236094,1,8,2:2:0:0:
339,112,236177,1,10,2:2:0:0:
324,120,236261,1,8,2:2:0:0:
311,131,236344,1,8,2:2:0:0:
300,144,236427,1,8,2:2:0:0:
292,158,236511,1,10,2:2:0:0:
286,174,236594,1,8,2:2:0:0:
284,191,236677,1,10,2:2:0:0:
284,208,236761,5,8,2:2:0:0:
288,224,236844,1,14,2:2:0:0:
293,245,236927,1,8,2:2:0:0:
293,267,237011,1,8,2:2:0:0:
291,288,237094,1,8,2:2:0:0:
283,309,237177,1,10,2:2:0:0:
273,327,237261,1,8,2:2:0:0:
259,343,237344,1,10,2:2:0:0:
242,357,237427,1,8,2:2:0:0:
223,368,237511,1,10,2:2:0:0:
203,374,237594,1,8,2:2:0:0:
181,377,237677,1,8,2:2:0:0:
160,377,237761,1,8,2:2:0:0:
139,371,237844,1,10,2:2:0:0:
120,363,237927,1,8,2:2:0:0:
102,350,238011,1,10,2:2:0:0:
86,334,238094,1,8,2:2:0:0:
74,317,238177,5,6,1:2:0:0:
99,312,238261,1,0,1:2:0:0:
123,306,238344,1,0,1:2:0:0:
148,301,238428,1,0,1:2:0:0:
173,295,238511,1,0,1:2:0:0:
198,290,238594,1,0,1:2:0:0:
222,284,238678,1,0,1:2:0:0:
247,279,238761,1,0,1:2:0:0:
279,256,238844,5,6,1:2:0:0:
303,261,238928,1,0,1:2:0:0:
328,266,239011,1,0,1:2:0:0:
353,272,239095,1,0,1:2:0:0:
377,277,239178,1,0,1:2:0:0:
402,283,239261,1,0,1:2:0:0:
427,288,239345,1,0,1:2:0:0:
451,294,239428,1,0,1:2:0:0:
487,260,239511,6,0,L|460:127,1,135,4|0,1:2|0:0,0:0:0:0:
342,46,239844,2,0,L|368:178,1,135,0|0,1:2|0:0,0:0:0:0:
279,256,240178,2,0,L|252:123,1,135,0|0,1:2|0:0,0:0:0:0:
181,66,240511,6,0,L|174:87,3,22.5
181,66,240844,1,0,0:0:0:0:
385,295,241011,6,0,L|393:321,1,28.125,0|0,1:2|1:2,0:0:0:0:
377,305,241094,2,0,L|385:331,1,28.125,0|0,1:2|1:2,0:0:0:0:
368,315,241178,2,0,P|303:366|221:366,1,168.75,12|0,2:2|0:0,0:0:0:0:
42,374,241511,2,0,P|83:336|137:323,1,112.5,2|0,1:2|0:0,0:0:0:0:
279,256,241844,2,0,P|237:218|183:205,1,112.5,8|0,2:2|0:0,0:0:0:0:
1,47,242178,2,0,B|48:78|48:78|86:242,2,225,2|8|0,1:2|2:2|1:2,0:0:0:0:
1,47,243011,1,0,0:0:0:0:
279,256,243178,6,0,L|304:146,1,112.5,10|2,2:2|2:2,0:0:0:0:
150,19,243428,1,2,2:2:0:0:
150,19,243511,2,0,B|187:178|187:178|211:95,1,225,0|8,1:2|2:2,0:0:0:0:
501,207,244011,5,0,0:0:0:0:
473,325,244178,2,0,B|392:238|392:238|408:133,1,225,2|8,1:2|2:2,0:0:0:0:
184,309,244678,1,0,0:0:0:0:
211,190,244845,2,0,B|292:277|292:277|276:382,1,225,2|8,1:2|2:2,0:0:0:0:
147,7,245344,1,0,0:0:0:0:
75,77,245511,2,0,B|167:102|167:102|210:87|210:87|292:102,1,225,2|8,1:2|2:2,0:0:0:0:
491,69,246011,5,0,0:0:0:0:
295,22,246178,1,2,1:2:0:0:
197,285,246345,1,2,2:2:0:0:
393,238,246511,1,10,2:2:0:0:
1,349,246678,5,2,2:2:0:0:
109,384,246844,2,0,L|84:274,1,112.5,0|2,1:2|2:2,0:0:0:0:
221,175,247178,2,0,L|196:284,1,112.5,8|2,2:2|2:2,0:0:0:0:
39,167,247511,6,0,P|84:169|124:188,1,90,0|0,1:2|0:0,0:0:0:0:
248,50,247844,2,0,P|204:52|164:72,1,90,8|0,2:2|0:0,0:0:0:0:
41,148,248178,2,0,P|85:150|125:169,1,90,2|0,1:2|0:0,0:0:0:0:
250,31,248511,2,0,P|205:33|165:52,1,90,8|0,2:2|0:0,0:0:0:0:
221,175,248844,6,0,L|235:240,1,67.5000025749208,2|0,1:2|0:0,0:0:0:0:
345,50,249178,2,0,L|330:115,1,67.5000025749208,8|0,2:2|0:0,0:0:0:0:
429,259,249511,6,0,P|395:230|351:218,1,90,2|0,1:2|0:0,0:0:0:0:
171,304,249844,2,0,P|187:319|208:326,1,45,8|0,2:2|0:0,0:0:0:0:
94,362,250011,2,0,P|72:369|56:384,1,45,0|0,1:2|0:0,0:0:0:0:
24,111,250178,2,0,P|68:181|79:264,1,168.75,6|0,1:2|0:0,0:0:0:0:
79,264,250511,1,0,0:0:0:0:
218,9,250678,5,8,2:2:0:0:
216,20,250761,1,8,2:2:0:0:
214,31,250844,2,0,L|380:58,1,168.75,4|0,1:2|0:0,0:0:0:0:
339,293,251178,2,0,L|279:135,1,168.75,4|0,1:2|0:0,0:0:0:0:
512,76,251511,6,0,B|483:81|483:81|394:189,1,168.75,4|0,1:2|0:0,0:0:0:0:
243,260,251844,2,0,B|300:253|300:253|338:292,1,112.5,8|0,2:2|0:0,0:0:0:0:
141,333,252178,2,0,B|102:372|102:372|45:365,1,112.5,2|0,1:2|0:0,0:0:0:0:
157,148,252511,5,8,2:2:0:0:
148,27,252678,1,0,0:0:0:0:
31,106,252844,2,0,B|73:270|73:270|95:219,2,225,2|8|0,1:2|2:2|1:2,0:0:0:0:
31,106,253678,1,0,0:0:0:0:
468,127,253844,6,0,P|421:97|365:98,1,112.5,10|2,2:2|2:2,0:0:0:0:
193,208,254094,1,2,2:2:0:0:
193,208,254178,2,0,P|300:187|365:98,1,225,2|8,1:2|2:2,0:0:0:0:
47,247,254678,5,0,0:0:0:0:
87,130,254844,2,0,B|164:211|164:211|138:320,1,225,2|8,1:2|2:2,0:0:0:0:
290,0,255344,1,0,0:0:0:0:
365,98,255510,2,0,B|256:124|256:124|174:47,1,225,2|8,1:2|2:2,0:0:0:0:
376,338,256012,1,0,0:0:0:0:
254,354,256178,2,0,B|285:246|285:246|393:214,1,225,2|8,1:2|2:2,0:0:0:0:
512,89,256678,5,2,1:2:0:0:
512,89,256844,2,0,B|472:103|472:103|290:42,1,233.999989288331,6|10,1:2|2:2,0:0:0:0:
4,114,257344,2,0,L|59:94,1,58.4999973220826,6|0,1:2|0:0,0:0:0:0:
59,94,257511,1,8,2:2:0:0:
379,159,257678,2,0,L|323:139,1,58.4999973220826,6|0,1:2|0:0,0:0:0:0:
323,139,257845,1,8,2:2:0:0:
140,264,258011,6,0,B|156:169|156:169|178:134|178:134|194:39,1,233.999989288331,6|4,1:2|1:2,0:0:0:0:
194,39,258511,1,8,2:2:0:0:
49,209,258678,1,4,1:2:0:0:
49,209,258761,1,0,1:2:0:0:
49,209,258844,2,0,P|105:218|140:264,1,116.999994644165,4|8,1:2|2:2,0:0:0:0:
90,357,259178,2,0,P|34:348|-1:302,1,116.999994644165,8|8,2:2|2:2,0:0:0:0:
196,344,259511,5,14,1:2:0:0:
224,338,259594,1,0,1:2:0:0:
253,333,259677,1,0,1:2:0:0:
282,328,259761,1,0,1:2:0:0:
311,323,259844,1,8,1:2:0:0:
340,318,259927,1,0,1:2:0:0:
368,313,260011,1,0,1:2:0:0:
397,308,260094,1,0,1:2:0:0:
426,303,260177,5,12,1:2:0:0:
457,277,260261,1,0,1:2:0:0:
473,239,260344,1,0,1:2:0:0:
467,200,260428,1,0,1:2:0:0:
443,168,260511,1,8,1:2:0:0:
406,152,260594,1,0,1:2:0:0:
366,156,260678,1,0,1:2:0:0:
333,179,260761,1,0,1:2:0:0:
306,221,260844,5,14,1:2:0:0:
265,250,260927,1,0,1:2:0:0:
215,255,261011,1,0,1:2:0:0:
168,235,261094,1,0,1:2:0:0:
138,195,261177,1,8,1:2:0:0:
131,145,261261,1,0,1:2:0:0:
151,98,261344,1,0,1:2:0:0:
191,67,261428,1,0,1:2:0:0:
238,62,261511,6,0,B|257:158|257:158|226:132,1,135.000005149842,8|0,1:2|0:0,0:0:0:0:
304,1,262178,1,0,0:0:0:0:
385,83,262344,6,0,L|397:72,1,16.8750006437302,0|0,1:2|1:2,0:0:0:0:
385,83,262427,2,0,L|389:67,1,16.8750006437302,0|0,1:2|1:2,0:0:0:0:
385,83,262511,2,0,L|378:46,1,33.7500012874604,12|0,2:2|0:0,0:0:0:0:
471,15,262678,1,2,2:2:0:0:
498,135,262844,6,0,P|472:171|459:214,1,90,2|0,1:2|0:0,0:0:0:0:
427,365,263178,1,10,2:2:0:0:
361,252,263344,1,2,2:2:0:0:
427,365,263511,1,2,1:2:0:0:
384,168,263678,1,2,2:2:0:0:
298,347,263844,2,0,P|272:310|259:267,1,90,10|0,2:2|0:0,0:0:0:0:
149,255,264178,2,0,P|168:214|199:181,1,90,0|0,1:2|0:0,0:0:0:0:
287,169,264511,5,10,2:2:0:0:
287,169,264678,1,2,2:2:0:0:
143,113,264844,2,0,L|41:96,1,90,2|0,1:2|0:0,0:0:0:0:
54,98,265178,1,10,2:2:0:0:
303,22,265344,1,2,2:2:0:0:
303,22,265511,2,0,L|215:37,1,90,2|0,1:2|0:0,0:0:0:0:
512,155,265844,5,10,2:2:0:0:
470,56,266010,1,2,2:2:0:0:
370,98,266177,1,2,1:2:0:0:
413,198,266344,1,2,2:2:0:0:
512,155,266511,2,0,L|494:243,2,90,10|0|0,2:2|0:0|1:2,0:0:0:0:
370,98,267011,5,2,2:2:0:0:
413,198,267178,1,10,2:2:0:0:
370,98,267344,1,2,2:2:0:0:
314,258,267511,2,0,L|225:241,1,90,2|0,1:2|0:0,0:0:0:0:
70,172,267844,5,10,2:2:0:0:
174,142,268011,1,2,2:2:0:0:
70,172,268178,2,0,L|53:261,1,90,2|0,1:2|0:0,0:0:0:0:
168,384,268511,1,10,2:2:0:0:
141,269,268678,1,2,2:2:0:0:
168,384,268844,1,2,1:2:0:0:
230,221,269011,1,2,2:2:0:0:
167,384,269178,2,0,P|193:347|233:328,1,90,10|0,2:2|0:0,0:0:0:0:
320,185,269511,2,0,P|294:148|254:129,1,90,0|0,1:2|0:0,0:0:0:0:
28,109,269844,5,10,2:2:0:0:
28,109,270011,1,2,2:2:0:0:
164,52,270178,2,0,L|141:139,1,90,2|0,1:2|0:0,0:0:0:0:
140,139,270511,1,10,2:2:0:0:
345,18,270678,1,2,2:2:0:0:
345,18,270845,2,0,L|367:105,1,90,2|0,1:2|0:0,0:0:0:0:
406,287,271178,5,10,2:2:0:0:
438,166,271344,2,0,L|427:209,1,45,6|0,1:2|0:0,0:0:0:0:
326,324,271511,2,0,P|373:369|439:368,1,135.000005149842,6|2,1:2|2:2,0:0:0:0:
208,194,272011,1,8,2:2:0:0:
208,194,272094,1,8,2:2:0:0:
208,194,272178,2,0,P|274:193|322:239,1,135.000005149842,4|0,1:2|0:0,0:0:0:0:
142,266,272511,2,0,P|108:209|123:144,1,135.000005149842,6|0,1:2|0:0,0:0:0:0:
237,294,272844,6,0,L|220:359,1,67.5000025749208,14|0,2:2|0:0,0:0:0:0:
124,331,273178,2,0,L|141:266,1,67.5000025749208,10|2,2:2|2:2,0:0:0:0:
224,275,273511,2,0,L|207:340,1,67.5000025749208,10|0,2:2|0:0,0:0:0:0:
111,312,273845,2,0,L|128:247,1,67.5000025749208,10|2,2:2|2:2,0:0:0:0:
286,159,274178,6,0,L|303:224,1,67.5000025749208,10|2,2:2|2:2,0:0:0:0:
399,196,274512,2,0,L|382:131,1,67.5000025749208,10|0,2:2|0:0,0:0:0:0:
299,140,274845,2,0,L|316:205,1,67.5000025749208,8|0,2:2|0:0,0:0:0:0:
412,177,275179,2,0,L|395:112,1,67.5000025749208,10|2,2:2|2:2,0:0:0:0:
174,5,275511,6,0,P|141:11|114:32,1,67.5000025749208,10|0,2:2|0:0,0:0:0:0:
156,125,275844,2,0,P|188:118|215:97,1,67.5000025749208,10|2,2:2|2:2,0:0:0:0:
172,23,276178,2,0,P|139:29|112:50,1,67.5000025749208,10|0,2:2|0:0,0:0:0:0:
154,143,276511,2,0,P|186:136|213:115,1,67.5000025749208,10|2,2:2|2:2,0:0:0:0:
37,217,276844,5,10,2:2:0:0:
130,252,277011,1,2,2:2:0:0:
94,347,277178,1,10,2:2:0:0:
0,310,277344,1,0,0:0:0:0:
0,310,277428,1,8,2:2:0:0:
0,310,277511,5,8,2:2:0:0:
130,252,277678,1,2,2:2:0:0:
188,384,277844,1,10,2:2:0:0:
318,326,278011,1,2,2:2:0:0:
318,326,278094,1,0,0:0:0:0:
318,326,278178,6,0,L|306:286,15,33.7500012874604,14|8|8|8|10|8|10|8|10|8|8|8|10|8|10|8,2:2|2:2|2:2|2:2|2:2|2:2|2:2|2:2|2:2|2:2|2:2|2:2|2:2|2:2|2:2|2:2,0:0:0:0:
229,240,279511,2,0,L|241:200,15,33.7500012874604,14|8|10|8|10|8|8|8|8|8|8|8|10|8|10|8,2:2|2:2|2:2|2:2|2:2|2:2|2:2|2:2|2:2|2:2|2:2|2:2|2:2|2:2|2:2|2:2,0:0:0:0:
343,197,280844,5,14,2:2:0:0:
340,184,280927,1,8,2:2:0:0:
338,172,281010,1,8,2:2:0:0:
336,159,281093,1,8,2:2:0:0:
334,147,281177,1,10,2:2:0:0:
331,134,281260,1,8,2:2:0:0:
329,122,281343,1,10,2:2:0:0:
327,109,281427,1,8,2:2:0:0:
322,95,281511,5,14,2:2:0:0:
313,72,281594,1,8,2:2:0:0:
295,54,281677,1,8,2:2:0:0:
273,43,281760,1,8,2:2:0:0:
248,41,281844,1,10,2:2:0:0:
223,48,281927,1,8,2:2:0:0:
203,63,282010,1,10,2:2:0:0:
190,84,282094,1,8,2:2:0:0:
184,109,282178,5,14,1:2:0:0:
176,143,282261,1,8,1:2:0:0:
158,171,282345,1,8,1:2:0:0:
132,190,282428,1,8,1:2:0:0:
99,200,282511,1,10,1:2:0:0:
66,197,282595,1,8,1:2:0:0:
37,182,282678,1,10,1:2:0:0:
13,158,282761,1,8,1:2:0:0:
2,129,282844,6,0,L|27:21,1,101.250003862381,10|0,1:2|0:0,0:0:0:0:
95,101,283178,1,2,2:2:0:0:
95,101,283344,1,2,2:2:0:0:
117,264,283511,6,0,L|98:199,2,67.5000025749208,4|0|8,1:2|0:0|2:2,0:0:0:0:
117,264,284011,1,0,0:0:0:0:
183,369,284178,2,0,L|202:304,2,67.5000025749208,0|0|8,1:2|0:0|2:2,0:0:0:0:
183,369,284678,1,0,0:0:0:0:
101,259,284844,6,0,L|82:194,2,67.5000025749208,0|0|8,1:2|0:0|2:2,0:0:0:0:
101,259,285344,1,0,0:0:0:0:
167,364,285511,2,0,L|186:299,2,67.5000025749208,0|0|8,1:2|0:0|2:2,0:0:0:0:
167,364,286011,1,0,0:0:0:0:
191,214,286178,6,0,L|269:194,1,67.5000025749208,0|0,1:2|0:0,0:0:0:0:
235,110,286511,2,0,L|169:126,1,67.5000025749208,8|0,2:2|0:0,0:0:0:0:
318,266,286844,2,0,L|385:280,1,67.5000025749208,0|0,1:2|0:0,0:0:0:0:
406,196,287177,2,0,L|341:180,1,67.5000025749208,8|0,2:2|0:0,0:0:0:0:
191,214,287511,6,0,L|269:194,1,67.5000025749208,0|0,1:2|0:0,0:0:0:0:
235,110,287844,2,0,L|169:126,1,67.5000025749208,8|0,2:2|0:0,0:0:0:0:
318,266,288177,2,0,L|385:280,1,67.5000025749208,0|0,1:2|0:0,0:0:0:0:
406,196,288510,2,0,L|341:180,1,67.5000025749208,8|0,2:2|0:0,0:0:0:0:
116,166,288844,6,0,P|144:138|185:123,2,67.5000025749208,0|0|8,1:2|0:0|2:2,0:0:0:0:
116,166,289344,1,0,0:0:0:0:
166,42,289511,2,0,P|204:52|237:80,2,67.5000025749208,0|0|8,1:2|0:0|2:2,0:0:0:0:
166,42,290011,1,0,0:0:0:0:
298,23,290178,6,0,P|308:61|300:104,2,67.5000025749208,0|0|8,1:2|0:0|2:2,0:0:0:0:
298,23,290678,1,0,0:0:0:0:
380,127,290844,2,0,P|352:155|311:169,2,67.5000025749208,0|0|8,1:2|0:0|2:2,0:0:0:0:
380,127,291344,1,0,0:0:0:0:
230,230,291511,6,0,P|263:233|292:250,1,67.5000025749208,0|0,1:2|0:0,0:0:0:0:
151,282,291844,2,0,P|137:252|137:218,1,67.5000025749208,8|0,2:2|0:0,0:0:0:0:
235,324,292178,2,0,P|216:351|187:368,1,67.5000025749208,0|0,1:2|0:0,0:0:0:0:
230,230,292511,2,0,P|263:233|292:250,1,67.5000025749208,8|0,2:2|0:0,0:0:0:0:
394,365,292844,6,0,P|360:362|331:345,1,67.5000025749208,0|0,1:2|0:0,0:0:0:0:
473,314,293177,2,0,P|487:344|487:377,1,67.5000025749208,8|0,2:2|0:0,0:0:0:0:
390,272,293511,2,0,P|408:244|438:227,1,67.5000025749208,0|0,1:2|0:0,0:0:0:0:
393,365,293844,6,0,P|385:365|362:355,5,22.5000008583069,8|8|8|8|8|8,2:2|2:2|2:2|2:2|2:2|2:2,0:0:0:0:
390,272,294178,5,4,1:2:0:0:
377,196,294511,1,8,2:2:0:0:
364,120,294844,1,0,1:2:0:0:
351,44,295178,1,8,2:2:0:0:
315,286,295511,5,0,1:2:0:0:
303,218,295844,1,8,2:2:0:0:
292,151,296177,1,0,1:2:0:0:
280,84,296511,1,8,2:2:0:0:
240,301,296844,5,0,1:2:0:0:
231,253,297177,1,8,2:2:0:0:
223,206,297510,1,0,1:2:0:0:
215,159,297844,1,8,2:2:0:0:
164,321,298178,5,0,1:2:0:0:
157,288,298511,1,8,2:2:0:0:
152,256,298844,1,0,1:2:0:0:
147,224,299178,1,8,2:2:0:0:
82,343,299511,6,0,P|56:321|24:313,1,67.5000025749208,4|0,1:2|0:0,0:0:0:0:
147,224,299844,2,0,P|124:225|106:237,1,45,8|0,2:2|0:0,0:0:0:0:
126,114,300178,2,0,P|114:127|110:145,1,36,0|0,1:2|0:0,0:0:0:0:
41,75,300511,2,0,P|42:88|49:100,1,26.9999991760254,8|0,2:2|0:0,0:0:0:0:
202,67,300844,6,0,L|267:52,1,67.5000025749208,4|0,1:2|0:0,0:0:0:0:
239,186,301178,2,0,L|263:148,1,45,8|0,2:2|0:0,0:0:0:0:
328,242,301511,2,0,L|320:206,1,36,0|0,1:2|0:0,0:0:0:0:
416,225,301844,2,0,L|393:210,1,26.9999991760254,8|0,2:2|0:0,0:0:0:0:
202,67,302178,5,4,1:2:0:0:
179,67,302261,1,8,2:2:0:0:
159,75,302344,1,8,2:2:0:0:
143,91,302427,1,8,2:2:0:0:
134,112,302511,1,8,2:2:0:0:
135,134,302594,1,8,2:2:0:0:
143,154,302677,1,8,2:2:0:0:
159,170,302761,1,8,2:2:0:0:
180,178,302844,5,12,2:2:0:0:
201,200,302928,1,8,2:2:0:0:
212,226,303011,1,8,2:2:0:0:
213,256,303094,1,8,2:2:0:0:
201,284,303178,1,8,2:2:0:0:
180,305,303261,1,8,2:2:0:0:
153,316,303344,1,8,2:2:0:0:
123,317,303427,1,8,2:2:0:0:
99,303,303511,5,12,2:2:0:0:
131,294,303594,1,8,2:2:0:0:
164,286,303677,1,8,2:2:0:0:
196,277,303760,1,8,2:2:0:0:
229,269,303844,1,8,2:2:0:0:
262,260,303927,1,8,2:2:0:0:
294,252,304010,1,8,2:2:0:0:
327,243,304094,1,8,2:2:0:0:
360,235,304178,2,0,L|381:326,1,90,0|8,1:2|2:2,0:0:0:0:
452,243,304844,6,0,B|448:165|489:92|489:92|466:115|440:123,1,215.999993408203,4|0,1:1|0:0,0:0:0:0:
