osu file format v14

[General]
AudioFilename: audio.mp3
AudioLeadIn: 0
PreviewTime: 105167
Countdown: 0
SampleSet: Normal
StackLeniency: 0.7
Mode: 3
LetterboxInBreaks: 0
SpecialStyle: 0
WidescreenStoryboard: 1

[Editor]
Bookmarks: 23735,47008,70281,93553,128463,140099,151735,163372,175008,198281,221553,244826
DistanceSpacing: 1
BeatDivisor: 12
GridSize: 8
TimelineZoom: 1.6

[Metadata]
Title:KALACAKLA
TitleUnicode:KALACAKLA
Artist:aran & lapix
ArtistUnicode:aran & lapix
Creator:-MysticEyes
Version:CELESTIAL
Source:
Tags:featured artist fa mappers' guild mpg mg uk hardcore tano*c tour 2017 hard core tanoc archvs 通常盤 aranmusic project α(アルファ) alpha a(アルファ) aransubfx psytrance tcslcd-0004 electronic instrumental
BeatmapID:4334882
BeatmapSetID:2071593

[Difficulty]
HPDrainRate:8.5
CircleSize:4
OverallDifficulty:7.7
ApproachRate:5
SliderMultiplier:1.4
SliderTickRate:1

[Events]
//Background and Video events
0,0,"aaaaaa.jpg",0,0
//Break Periods
//Storyboard Layer 0 (Background)
//Storyboard Layer 1 (Fail)
//Storyboard Layer 2 (Pass)
//Storyboard Layer 3 (Foreground)
//Storyboard Layer 4 (Overlay)
//Storyboard Sound Samples

[TimingPoints]
463,363.636363636364,4,1,1,80,1,0
24826,-100,4,1,1,25,0,0
28099,-100,4,1,1,35,0,0
29553,-100,4,1,1,80,0,0
36099,-100,4,1,1,60,0,0
38281,-100,4,1,1,65,0,0
39735,-100,4,1,1,70,0,0
40463,-100,4,1,1,80,0,0
96099,-100,4,1,1,25,0,0
99372,-100,4,1,1,40,0,0
101917,-100,4,1,1,80,0,0
105190,-100,4,1,1,80,0,1
128463,-100,4,1,1,50,0,0
129190,-100,4,1,1,30,0,0
131008,-100,4,1,1,25,0,0
139372,-100,4,1,1,40,0,0
139917,-100,4,1,1,80,0,0
169190,-100,4,1,1,100,0,0
175008,-100,4,1,1,100,0,1
196826,-100,4,1,1,100,0,0
198281,-100,4,1,1,100,0,1
221553,-100,4,1,1,100,0,0
244826,-100,4,1,1,80,0,0

[HitObjects]
64,192,281,5,0,0:0:0:0:
320,192,341,1,0,0:0:0:0:
192,192,402,1,0,0:0:0:0:
64,192,463,1,2,0:0:0:0:
448,192,463,1,4,0:0:0:0:
320,192,644,128,0,826:0:0:0:0:
64,192,826,1,2,0:0:0:0:
192,192,826,1,0,0:0:0:0:
320,192,1008,1,0,0:0:0:0:
192,192,1099,1,0,0:0:0:0:
320,192,1190,1,2,0:0:0:0:
448,192,1190,1,0,0:0:0:0:
64,192,1281,1,0,0:0:0:0:
192,192,1372,1,0,0:0:0:0:
448,192,1463,1,0,0:0:0:0:
64,192,1553,1,2,0:0:0:0:
192,192,1553,1,0,0:0:0:0:
320,192,1735,128,0,1917:0:0:0:0:
192,192,1826,128,0,1917:0:0:0:0:
64,192,1917,1,2,0:0:0:0:
448,192,1917,1,0,0:0:0:0:
192,192,2099,1,0,0:0:0:0:
320,192,2281,1,2,0:0:0:0:
448,192,2281,1,0,0:0:0:0:
192,192,2463,1,0,0:0:0:0:
320,192,2523,1,0,0:0:0:0:
448,192,2584,1,0,0:0:0:0:
64,192,2644,1,2,0:0:0:0:
192,192,2644,1,0,0:0:0:0:
448,192,2735,1,0,0:0:0:0:
320,192,2826,1,0,0:0:0:0:
64,192,2917,1,0,0:0:0:0:
320,192,3008,1,2,0:0:0:0:
448,192,3008,1,0,0:0:0:0:
192,192,3190,1,0,0:0:0:0:
320,192,3281,128,0,3372:0:0:0:0:
64,192,3372,1,2,0:0:0:0:
448,192,3372,1,0,0:0:0:0:
320,192,3553,1,0,0:0:0:0:
64,192,3735,1,2,0:0:0:0:
192,192,3735,1,0,0:0:0:0:
320,192,3917,1,0,0:0:0:0:
192,192,4008,1,0,0:0:0:0:
320,192,4099,1,2,0:0:0:0:
448,192,4099,1,0,0:0:0:0:
64,192,4190,1,0,0:0:0:0:
192,192,4281,1,0,0:0:0:0:
64,192,4326,1,0,0:0:0:0:
448,192,4372,1,0,0:0:0:0:
320,192,4417,1,0,0:0:0:0:
64,192,4463,1,2,0:0:0:0:
192,192,4463,1,0,0:0:0:0:
448,192,4553,1,0,0:0:0:0:
192,192,4644,1,0,0:0:0:0:
64,192,4826,1,2,0:0:0:0:
448,192,4826,1,0,0:0:0:0:
192,192,5008,1,0,0:0:0:0:
320,192,5190,1,2,0:0:0:0:
448,192,5190,1,0,0:0:0:0:
192,192,5372,1,0,0:0:0:0:
320,192,5463,1,0,0:0:0:0:
64,192,5553,1,2,0:0:0:0:
192,192,5553,1,0,0:0:0:0:
448,192,5644,1,0,0:0:0:0:
320,192,5735,1,0,0:0:0:0:
64,192,5826,1,0,0:0:0:0:
320,192,5917,1,2,0:0:0:0:
448,192,5917,1,0,0:0:0:0:
192,192,6099,1,0,0:0:0:0:
320,192,6190,128,0,6281:0:0:0:0:
64,192,6281,1,2,0:0:0:0:
448,192,6281,1,0,0:0:0:0:
320,192,6463,1,0,0:0:0:0:
64,192,6644,1,2,0:0:0:0:
192,192,6644,1,0,0:0:0:0:
320,192,6826,1,0,0:0:0:0:
192,192,6917,1,0,0:0:0:0:
320,192,7008,1,2,0:0:0:0:
448,192,7008,1,0,0:0:0:0:
64,192,7099,1,0,0:0:0:0:
192,192,7190,1,0,0:0:0:0:
448,192,7281,1,0,0:0:0:0:
64,192,7372,128,2,7553:0:0:0:0:
192,192,7372,1,0,0:0:0:0:
448,192,7463,128,0,7553:0:0:0:0:
320,192,7553,1,0,0:0:0:0:
192,192,7644,128,0,7735:0:0:0:0:
64,192,7735,1,2,0:0:0:0:
448,192,7735,1,0,0:0:0:0:
192,192,7917,1,0,0:0:0:0:
320,192,8099,1,2,0:0:0:0:
448,192,8099,1,0,0:0:0:0:
192,192,8281,1,0,0:0:0:0:
320,192,8341,1,0,0:0:0:0:
448,192,8402,1,0,0:0:0:0:
64,192,8463,1,2,0:0:0:0:
192,192,8463,1,0,0:0:0:0:
448,192,8553,1,0,0:0:0:0:
320,192,8644,1,0,0:0:0:0:
64,192,8735,1,0,0:0:0:0:
320,192,8826,1,2,0:0:0:0:
448,192,8826,1,0,0:0:0:0:
192,192,9008,128,0,9190:0:0:0:0:
320,192,9099,128,0,9190:0:0:0:0:
64,192,9190,1,2,0:0:0:0:
320,192,9281,128,0,9372:0:0:0:0:
192,192,9372,1,0,0:0:0:0:
448,192,9463,128,0,9553:0:0:0:0:
64,192,9553,1,2,0:0:0:0:
320,192,9553,128,0,9644:0:0:0:0:
192,192,9735,128,0,9826:0:0:0:0:
320,192,9826,128,0,9917:0:0:0:0:
64,192,9917,128,2,10008:0:0:0:0:
448,192,9917,1,0,0:0:0:0:
192,192,10008,128,0,10099:0:0:0:0:
320,192,10099,1,0,0:0:0:0:
64,192,10190,128,0,10281:0:0:0:0:
448,192,10281,128,2,10372:0:0:0:0:
320,192,10372,1,0,0:0:0:0:
192,192,10463,1,0,0:0:0:0:
64,192,10644,1,2,0:0:0:0:
448,192,10644,128,0,10826:0:0:0:0:
192,192,10735,128,0,10826:0:0:0:0:
64,192,10826,128,0,10917:0:0:0:0:
448,192,11008,128,2,11190:0:0:0:0:
320,192,11008,1,0,0:0:0:0:
192,192,11190,1,0,0:0:0:0:
448,192,11281,128,0,11372:0:0:0:0:
64,192,11372,1,2,0:0:0:0:
320,192,11372,1,0,0:0:0:0:
448,192,11463,1,0,0:0:0:0:
192,192,11553,1,0,0:0:0:0:
320,192,11644,1,0,0:0:0:0:
64,192,11735,1,2,0:0:0:0:
192,192,11758,1,0,0:0:0:0:
320,192,11917,1,0,0:0:0:0:
64,192,12099,1,2,0:0:0:0:
192,192,12099,1,4,0:0:0:0:
448,192,12099,1,0,0:0:0:0:
320,192,12281,128,0,12463:0:0:0:0:
448,192,12372,128,0,12463:0:0:0:0:
64,192,12463,1,8,0:0:0:0:
192,192,12463,128,2,12644:0:0:0:0:
320,192,12553,128,0,12644:0:0:0:0:
448,192,12644,128,0,12826:0:0:0:0:
192,192,12735,128,0,12826:0:0:0:0:
64,192,12826,128,2,12917:0:0:0:0:
320,192,12826,1,0,0:0:0:0:
448,192,12917,1,0,0:0:0:0:
192,192,13008,128,0,13190:0:0:0:0:
64,192,13099,128,0,13190:0:0:0:0:
320,192,13190,128,8,13372:0:0:0:0:
448,192,13190,1,2,0:0:0:0:
192,192,13281,128,0,13372:0:0:0:0:
64,192,13372,128,0,13553:0:0:0:0:
320,192,13463,128,0,13553:0:0:0:0:
192,192,13553,1,2,0:0:0:0:
448,192,13553,1,0,0:0:0:0:
192,192,13735,128,0,13917:0:0:0:0:
64,192,13826,128,0,13917:0:0:0:0:
320,192,13917,128,8,14099:0:0:0:0:
448,192,13917,1,2,0:0:0:0:
192,192,14008,128,0,14099:0:0:0:0:
64,192,14099,128,0,14281:0:0:0:0:
320,192,14190,128,0,14281:0:0:0:0:
192,192,14281,1,2,0:0:0:0:
448,192,14281,128,0,14372:0:0:0:0:
64,192,14372,1,0,0:0:0:0:
320,192,14463,128,0,14644:0:0:0:0:
448,192,14553,128,0,14644:0:0:0:0:
64,192,14644,1,8,0:0:0:0:
192,192,14644,128,2,14826:0:0:0:0:
320,192,14735,128,0,14826:0:0:0:0:
448,192,14826,128,0,15008:0:0:0:0:
192,192,14917,128,0,15008:0:0:0:0:
64,192,15008,1,2,0:0:0:0:
320,192,15008,1,0,0:0:0:0:
320,192,15190,128,0,15372:0:0:0:0:
448,192,15281,128,0,15372:0:0:0:0:
64,192,15372,1,2,0:0:0:0:
192,192,15372,128,8,15553:0:0:0:0:
320,192,15463,128,0,15553:0:0:0:0:
448,192,15553,128,0,15735:0:0:0:0:
192,192,15644,128,0,15735:0:0:0:0:
64,192,15735,128,2,15826:0:0:0:0:
320,192,15735,1,0,0:0:0:0:
448,192,15826,1,0,0:0:0:0:
192,192,15917,128,0,16099:0:0:0:0:
64,192,16008,128,0,16099:0:0:0:0:
320,192,16099,128,2,16281:0:0:0:0:
448,192,16099,1,8,0:0:0:0:
192,192,16190,128,0,16281:0:0:0:0:
64,192,16281,128,0,16463:0:0:0:0:
320,192,16372,128,0,16463:0:0:0:0:
192,192,16463,1,2,0:0:0:0:
448,192,16463,1,0,0:0:0:0:
192,192,16644,128,0,16826:0:0:0:0:
64,192,16735,128,0,16826:0:0:0:0:
320,192,16826,128,8,17008:0:0:0:0:
448,192,16826,1,2,0:0:0:0:
192,192,16917,128,0,17008:0:0:0:0:
64,192,17008,128,0,17190:0:0:0:0:
320,192,17099,128,0,17190:0:0:0:0:
192,192,17190,1,2,0:0:0:0:
448,192,17190,128,0,17281:0:0:0:0:
64,192,17281,1,0,0:0:0:0:
320,192,17372,128,0,17553:0:0:0:0:
448,192,17463,128,0,17553:0:0:0:0:
64,192,17553,128,8,17735:0:0:0:0:
192,192,17553,1,2,0:0:0:0:
320,192,17644,128,0,17735:0:0:0:0:
448,192,17735,128,0,17917:0:0:0:0:
64,192,17826,128,0,17917:0:0:0:0:
192,192,17917,1,2,0:0:0:0:
320,192,17917,1,0,0:0:0:0:
64,192,18099,1,0,0:0:0:0:
320,192,18099,128,0,18281:0:0:0:0:
448,192,18190,128,0,18281:0:0:0:0:
64,192,18281,1,2,0:0:0:0:
192,192,18281,128,8,18463:0:0:0:0:
320,192,18372,128,0,18463:0:0:0:0:
448,192,18463,128,0,18644:0:0:0:0:
192,192,18553,128,0,18644:0:0:0:0:
64,192,18644,128,2,18735:0:0:0:0:
320,192,18644,1,0,0:0:0:0:
448,192,18735,1,0,0:0:0:0:
192,192,18826,128,0,19008:0:0:0:0:
64,192,18917,128,0,19008:0:0:0:0:
320,192,19008,128,2,19190:0:0:0:0:
448,192,19008,1,8,0:0:0:0:
192,192,19099,128,0,19190:0:0:0:0:
64,192,19190,128,0,19372:0:0:0:0:
320,192,19281,128,0,19372:0:0:0:0:
192,192,19372,1,2,0:0:0:0:
448,192,19372,1,0,0:0:0:0:
192,192,19553,128,0,19735:0:0:0:0:
64,192,19644,128,0,19735:0:0:0:0:
320,192,19735,128,8,19917:0:0:0:0:
448,192,19735,1,2,0:0:0:0:
192,192,19826,128,0,19917:0:0:0:0:
64,192,19917,128,0,20008:0:0:0:0:
448,192,19963,1,0,0:0:0:0:
320,192,20008,128,0,20099:0:0:0:0:
192,192,20099,1,2,0:0:0:0:
448,192,20099,128,0,20190:0:0:0:0:
64,192,20190,1,0,0:0:0:0:
320,192,20281,128,0,20372:0:0:0:0:
448,192,20372,128,0,20463:0:0:0:0:
64,192,20463,1,8,0:0:0:0:
192,192,20463,128,2,20553:0:0:0:0:
320,192,20553,128,0,20644:0:0:0:0:
448,192,20644,128,0,20735:0:0:0:0:
192,192,20735,128,0,20826:0:0:0:0:
64,192,20826,1,2,0:0:0:0:
320,192,20826,1,0,0:0:0:0:
320,192,21008,128,0,21099:0:0:0:0:
448,192,21099,128,0,21190:0:0:0:0:
64,192,21190,1,2,0:0:0:0:
192,192,21190,128,8,21281:0:0:0:0:
320,192,21281,128,0,21372:0:0:0:0:
448,192,21372,128,0,21463:0:0:0:0:
192,192,21463,128,0,21553:0:0:0:0:
64,192,21553,128,2,21644:0:0:0:0:
320,192,21553,1,0,0:0:0:0:
448,192,21644,1,0,0:0:0:0:
192,192,21735,128,0,21826:0:0:0:0:
64,192,21826,128,0,21917:0:0:0:0:
320,192,21917,128,2,22008:0:0:0:0:
448,192,21917,1,8,0:0:0:0:
192,192,22008,128,0,22099:0:0:0:0:
64,192,22099,128,0,22190:0:0:0:0:
320,192,22190,128,0,22281:0:0:0:0:
64,192,22281,128,2,22735:0:0:0:0:
192,192,22281,128,4,22735:0:0:0:0:
448,192,22281,128,0,22735:0:0:0:0:
64,192,22826,1,2,0:0:0:0:
192,192,22826,1,0,0:0:0:0:
320,192,22917,1,2,0:0:0:0:
448,192,22917,1,0,0:0:0:0:
64,192,23008,1,2,0:0:0:0:
320,192,23008,1,0,0:0:0:80:shortcymbal.wav
448,192,23008,1,0,0:0:0:0:
64,192,23372,1,0,0:0:0:70:loudsnare.wav
448,192,23372,128,0,23644:0:0:0:0:
320,192,23394,128,0,23622:0:0:0:0:
192,192,23417,128,0,23599:0:0:0:0:
192,192,23735,1,4,0:0:0:0:
448,192,23735,128,0,24826:0:0:0:0:
192,192,24826,1,0,0:0:0:0:
192,192,25008,1,0,0:0:0:0:
64,192,25190,1,0,0:0:0:0:
64,192,25463,1,0,0:0:0:0:
64,192,25735,1,0,0:0:0:0:
64,192,25917,1,0,0:0:0:0:
64,192,26190,1,0,0:0:0:0:
320,192,26281,128,0,26644:0:0:0:0:
64,192,26463,1,0,0:0:0:0:
192,192,26553,1,0,0:0:0:0:
64,192,26644,128,0,27735:0:0:0:0:
448,192,26644,1,0,0:0:0:0:
448,192,26917,1,0,0:0:0:0:
448,192,27190,1,0,0:0:0:0:
448,192,27372,1,0,0:0:0:0:
448,192,27644,1,0,0:0:0:0:
192,192,27735,1,0,0:0:0:0:
64,192,27917,1,0,0:0:0:0:
448,192,27917,1,0,0:0:0:0:
192,192,28008,1,0,0:0:0:0:
64,192,28099,1,0,0:0:0:0:
320,192,28099,1,0,0:0:0:0:
64,192,28372,1,0,0:0:0:0:
320,192,28372,1,0,0:0:0:0:
64,192,28644,1,0,0:0:0:0:
320,192,28644,1,0,0:0:0:0:
320,192,28826,1,0,0:0:0:0:
320,192,29099,1,0,0:0:0:0:
192,192,29190,128,0,29553:0:0:0:0:
320,192,29372,1,0,0:0:0:0:
64,192,29553,1,4,0:0:0:0:
448,192,29553,128,2,29917:0:0:0:0:
320,192,29735,1,0,0:0:0:0:
64,192,29917,128,2,30190:0:0:0:0:
320,192,29917,1,0,0:0:0:0:
448,192,30099,1,0,0:0:0:0:
320,192,30190,1,0,0:0:0:0:
64,192,30281,128,2,30644:0:0:0:0:
448,192,30281,1,0,0:0:0:0:
320,192,30463,1,0,0:0:0:0:
192,192,30644,128,2,31008:0:0:0:0:
320,192,30644,1,0,0:0:0:0:
448,192,30826,1,0,0:0:0:0:
320,192,30917,128,0,31008:0:0:0:0:
64,192,31008,128,2,31372:0:0:0:0:
448,192,31008,1,0,0:0:0:0:
192,192,31190,1,0,0:0:0:0:
320,192,31281,1,0,0:0:0:0:
192,192,31372,1,2,0:0:0:0:
448,192,31372,1,0,0:0:0:0:
64,192,31553,1,0,0:0:0:0:
320,192,31553,128,0,32099:0:0:0:0:
192,192,31644,1,0,0:0:0:0:
64,192,31735,1,2,0:0:0:0:
448,192,31735,1,0,0:0:0:0:
192,192,31917,1,0,0:0:0:0:
192,192,32099,1,2,0:0:0:0:
448,192,32099,128,0,32372:0:0:0:0:
64,192,32281,1,0,0:0:0:0:
192,192,32372,128,0,32463:0:0:0:0:
64,192,32463,128,2,33190:0:0:0:0:
448,192,32463,1,4,0:0:0:0:
320,192,32644,1,0,0:0:0:0:
192,192,32826,1,2,0:0:0:0:
320,192,32826,1,0,0:0:0:0:
448,192,33008,1,0,0:0:0:0:
320,192,33099,1,0,0:0:0:0:
448,192,33190,1,0,0:0:0:0:
192,192,33190,1,2,0:0:0:0:
320,192,33372,1,0,0:0:0:0:
320,192,33553,1,2,0:0:0:0:
448,192,33553,1,0,0:0:0:0:
64,192,33735,1,0,0:0:0:0:
192,192,33826,1,0,0:0:0:0:
64,192,33917,1,2,0:0:0:0:
320,192,33917,1,0,0:0:0:80:shortcymbal.wav
448,192,33917,1,0,0:0:0:0:
448,192,34281,1,0,0:0:0:0:
320,192,34372,1,0,0:0:0:0:
448,192,34463,1,0,0:0:0:0:
320,192,34553,1,0,0:0:0:0:
64,192,34644,1,2,0:0:0:0:
192,192,34644,128,0,35372:0:0:0:80:shortcymbal.wav
448,192,34644,1,0,0:0:0:0:
320,192,35008,1,0,0:0:0:0:
320,192,35190,1,0,0:0:0:0:
64,192,35372,128,4,35553:0:0:0:0:
320,192,35372,1,2,0:0:0:0:
448,192,35372,1,0,0:0:0:0:
192,192,35463,128,0,35644:0:0:0:0:
320,192,35553,128,0,35735:0:0:0:0:
448,192,35644,1,0,0:0:0:0:
64,192,35735,128,0,35826:0:0:0:0:
192,192,35826,128,0,35917:0:0:0:0:
320,192,35917,1,0,0:0:0:0:
64,192,36008,128,0,36069:0:0:0:0:
192,192,36099,128,0,36159:0:0:0:0:
448,192,36144,1,0,0:0:0:0:
320,192,36190,1,0,0:0:0:0:
64,192,36281,1,0,0:0:0:0:
192,192,36372,1,0,0:0:0:0:
448,192,36463,1,0,0:0:0:0:
64,192,36553,1,0,0:0:0:0:
320,192,36644,1,0,0:0:0:0:
192,192,36735,1,0,0:0:0:0:
448,192,36826,1,0,0:0:0:0:
192,192,36917,1,0,0:0:0:0:
320,192,37008,1,0,0:0:0:0:
448,192,37099,1,0,0:0:0:0:
64,192,37190,1,0,0:0:0:0:
192,192,37281,1,0,0:0:0:0:
448,192,37372,1,0,0:0:0:0:
64,192,37463,1,0,0:0:0:0:
192,192,37553,1,0,0:0:0:0:
448,192,37599,1,0,0:0:0:0:
320,192,37644,1,0,0:0:0:0:
64,192,37735,1,0,0:0:0:0:
192,192,37826,1,0,0:0:0:0:
448,192,37917,1,0,0:0:0:0:
64,192,38008,1,0,0:0:0:0:
320,192,38099,1,0,0:0:0:0:
192,192,38190,1,0,0:0:0:0:
64,192,38281,1,2,0:0:0:0:
320,192,38281,1,4,0:0:0:0:
448,192,38281,1,0,0:0:0:0:
192,192,38372,1,0,0:0:0:0:
320,192,38463,1,0,0:0:0:0:
448,192,38553,1,0,0:0:0:0:
64,192,38644,1,0,0:0:0:0:
192,192,38735,1,0,0:0:0:0:
448,192,38826,1,0,0:0:0:0:
64,192,38917,1,0,0:0:0:0:
192,192,39008,1,0,0:0:0:0:
448,192,39053,1,0,0:0:0:0:
320,192,39099,1,0,0:0:0:0:
64,192,39190,1,0,0:0:0:0:
192,192,39281,1,0,0:0:0:0:
448,192,39372,1,0,0:0:0:0:
64,192,39463,1,0,0:0:0:0:
192,192,39553,1,0,0:0:0:0:
320,192,39644,1,0,0:0:0:0:
448,192,39735,1,0,0:0:0:0:
192,192,39826,1,0,0:0:0:0:
320,192,39917,1,0,0:0:0:0:
64,192,40008,1,0,0:0:0:0:
448,192,40099,1,0,0:0:0:0:
192,192,40190,1,0,0:0:0:0:
320,192,40281,1,0,0:0:0:0:
64,192,40372,1,0,0:0:0:0:
192,192,40463,1,4,0:0:0:0:
448,192,40508,1,0,0:0:0:0:
320,192,40553,1,0,0:0:0:0:
64,192,40644,1,0,0:0:0:0:
448,192,40735,1,0,0:0:0:0:
192,192,40826,1,0,0:0:0:0:
320,192,40917,1,0,0:0:0:0:
64,192,41008,1,0,0:0:0:0:
448,192,41099,1,0,0:0:0:0:
64,192,41190,1,4,0:0:0:0:
192,192,41190,1,2,0:0:0:0:
64,192,41281,1,2,0:0:0:0:
192,192,41281,1,0,0:0:0:0:
320,192,41372,1,2,0:0:0:0:
448,192,41372,1,0,0:0:0:0:
320,192,41463,1,2,0:0:0:0:
448,192,41463,1,0,0:0:0:0:
64,192,41553,1,2,0:0:0:0:
192,192,41553,1,0,0:0:0:0:
64,192,41644,1,2,0:0:0:0:
192,192,41644,1,0,0:0:0:0:
320,192,41735,1,2,0:0:0:0:
448,192,41735,1,0,0:0:0:0:
320,192,41826,1,2,0:0:0:0:
448,192,41826,1,0,0:0:0:0:
64,192,41917,1,2,0:0:0:0:
192,192,41917,1,0,0:0:0:0:
64,192,42008,1,2,0:0:0:0:
192,192,42008,1,0,0:0:0:0:
320,192,42099,1,2,0:0:0:0:
448,192,42099,1,0,0:0:0:0:
320,192,42190,1,2,0:0:0:0:
448,192,42190,1,0,0:0:0:0:
64,192,42281,1,2,0:0:0:0:
192,192,42281,1,0,0:0:0:0:
64,192,42372,1,2,0:0:0:0:
192,192,42372,1,0,0:0:0:0:
320,192,42463,1,2,0:0:0:0:
448,192,42463,1,0,0:0:0:0:
320,192,42553,1,2,0:0:0:0:
448,192,42553,1,0,0:0:0:0:
64,192,42644,1,2,0:0:0:0:
192,192,42644,1,4,0:0:0:0:
64,192,42735,1,2,0:0:0:0:
192,192,42735,1,0,0:0:0:0:
320,192,42826,1,2,0:0:0:0:
448,192,42826,1,0,0:0:0:0:
320,192,42917,1,2,0:0:0:0:
448,192,42917,1,0,0:0:0:0:
64,192,43008,1,2,0:0:0:0:
192,192,43008,1,0,0:0:0:0:
64,192,43099,1,2,0:0:0:0:
192,192,43099,1,0,0:0:0:0:
320,192,43190,1,2,0:0:0:0:
448,192,43190,1,0,0:0:0:0:
320,192,43281,1,2,0:0:0:0:
448,192,43281,1,0,0:0:0:0:
64,192,43372,1,2,0:0:0:0:
192,192,43372,1,0,0:0:0:0:
64,192,43463,1,2,0:0:0:0:
192,192,43463,1,0,0:0:0:0:
320,192,43553,1,2,0:0:0:0:
448,192,43553,1,0,0:0:0:0:
320,192,43644,1,2,0:0:0:0:
448,192,43644,1,0,0:0:0:0:
64,192,43735,1,2,0:0:0:0:
192,192,43735,1,0,0:0:0:0:
64,192,43826,1,2,0:0:0:0:
192,192,43826,1,0,0:0:0:0:
320,192,43917,1,2,0:0:0:0:
448,192,43917,1,0,0:0:0:0:
320,192,44008,1,2,0:0:0:0:
448,192,44008,1,0,0:0:0:0:
64,192,44099,1,2,0:0:0:0:
192,192,44144,1,2,0:0:0:0:
320,192,44190,1,2,0:0:0:0:
448,192,44235,1,2,0:0:0:0:
64,192,44281,1,2,0:0:0:0:
192,192,44281,1,0,0:0:0:0:
320,192,44372,1,2,0:0:0:0:
448,192,44372,1,0,0:0:0:0:
64,192,44463,1,2,0:0:0:0:
192,192,44463,1,0,0:0:0:0:
320,192,44553,1,2,0:0:0:0:
448,192,44553,1,0,0:0:0:0:
64,192,44644,1,2,0:0:0:0:
192,192,44644,1,0,0:0:0:0:
320,192,44735,1,2,0:0:0:0:
448,192,44735,1,0,0:0:0:0:
64,192,44826,1,2,0:0:0:0:
192,192,44872,1,2,0:0:0:0:
448,192,44917,1,2,0:0:0:0:
320,192,44963,1,2,0:0:0:0:
64,192,45008,1,2,0:0:0:0:
192,192,45008,1,0,0:0:0:0:
320,192,45099,1,2,0:0:0:0:
448,192,45099,1,0,0:0:0:0:
64,192,45190,1,2,0:0:0:0:
192,192,45190,1,0,0:0:0:0:
320,192,45281,1,2,0:0:0:0:
448,192,45281,1,0,0:0:0:0:
64,192,45372,1,2,0:0:0:0:
192,192,45372,1,0,0:0:0:0:
320,192,45463,1,2,0:0:0:0:
448,192,45463,1,0,0:0:0:0:
64,192,45553,1,2,0:0:0:0:
448,192,45599,1,2,0:0:0:0:
192,192,45644,1,2,0:0:0:0:
320,192,45690,1,2,0:0:0:0:
64,192,45735,1,2,0:0:0:0:
448,192,45781,1,2,0:0:0:0:
192,192,45826,1,2,0:0:0:0:
320,192,45872,1,2,0:0:0:0:
448,192,45917,1,2,0:0:0:0:
64,192,45963,1,2,0:0:0:0:
192,192,46008,1,2,0:0:0:0:
320,192,46053,1,2,0:0:0:0:
448,192,46099,1,2,0:0:0:0:
192,192,46144,1,2,0:0:0:0:
320,192,46190,1,2,0:0:0:0:
448,192,46235,1,2,0:0:0:0:
64,192,46281,128,2,46917:0:0:0:0:
192,192,46281,1,0,0:0:0:0:
64,192,47008,128,2,47281:0:0:0:0:
192,192,47008,1,4,0:0:0:0:
320,192,47008,1,0,0:0:0:0:
448,192,47099,1,0,0:0:0:0:
320,192,47190,1,0,0:0:0:0:
192,192,47281,1,0,0:0:0:0:
320,192,47372,128,2,47644:0:0:0:0:
448,192,47372,1,0,0:0:0:0:
192,192,47463,1,0,0:0:0:0:
64,192,47553,1,0,0:0:0:0:
448,192,47644,1,0,0:0:0:0:
64,192,47735,128,2,48008:0:0:0:0:
192,192,47735,1,0,0:0:0:0:
320,192,47826,1,0,0:0:0:0:
448,192,47917,1,0,0:0:0:0:
192,192,48008,1,0,0:0:0:0:
320,192,48099,128,2,48372:0:0:0:0:
448,192,48099,1,0,0:0:0:0:
64,192,48190,1,0,0:0:0:0:
192,192,48281,1,0,0:0:0:0:
448,192,48372,1,0,0:0:0:0:
64,192,48463,128,2,48735:0:0:0:0:
192,192,48463,1,0,0:0:0:0:
448,192,48553,1,0,0:0:0:0:
320,192,48644,1,0,0:0:0:0:
192,192,48735,1,0,0:0:0:0:
320,192,48826,128,2,49099:0:0:0:0:
448,192,48826,1,0,0:0:0:0:
192,192,48917,1,0,0:0:0:0:
64,192,49008,1,0,0:0:0:0:
448,192,49099,1,0,0:0:0:0:
64,192,49190,128,2,49463:0:0:0:0:
192,192,49190,1,0,0:0:0:0:
320,192,49281,1,0,0:0:0:0:
448,192,49372,1,0,0:0:0:0:
192,192,49463,1,0,0:0:0:0:
320,192,49553,128,2,49826:0:0:0:0:
448,192,49553,1,0,0:0:0:0:
64,192,49644,1,0,0:0:0:0:
192,192,49735,1,0,0:0:0:0:
448,192,49826,1,0,0:0:0:0:
64,192,49917,128,2,50190:0:0:0:0:
320,192,49917,1,0,0:0:0:0:
448,192,50008,128,0,50099:0:0:0:0:
192,192,50099,1,0,0:0:0:0:
320,192,50190,128,0,50281:0:0:0:0:
192,192,50281,128,2,50553:0:0:0:0:
448,192,50281,128,0,50372:0:0:0:0:
320,192,50372,128,0,50463:0:0:0:0:
448,192,50463,128,0,50553:0:0:0:0:
64,192,50553,1,0,0:0:0:0:
192,192,50644,128,2,50917:0:0:0:0:
448,192,50644,128,0,50735:0:0:0:0:
320,192,50735,128,0,50826:0:0:0:0:
64,192,50781,1,0,0:0:0:0:
448,192,50826,128,0,50917:0:0:0:0:
320,192,50917,128,0,51008:0:0:0:0:
64,192,51008,128,2,51281:0:0:0:0:
448,192,51008,128,0,51099:0:0:0:0:
320,192,51099,128,0,51190:0:0:0:0:
192,192,51190,1,0,0:0:0:0:
448,192,51235,1,0,0:0:0:0:
320,192,51281,1,0,0:0:0:0:
64,192,51372,128,2,51644:0:0:0:0:
192,192,51372,1,0,0:0:0:0:
448,192,51463,1,0,0:0:0:0:
320,192,51553,1,0,0:0:0:0:
192,192,51644,1,0,0:0:0:0:
320,192,51735,128,2,52008:0:0:0:0:
448,192,51735,1,0,0:0:0:0:
64,192,51781,1,0,0:0:0:0:
192,192,51826,1,0,0:0:0:0:
64,192,51917,1,0,0:0:0:0:
448,192,52008,1,0,0:0:0:0:
64,192,52099,128,2,52372:0:0:0:0:
192,192,52099,1,0,0:0:0:0:
320,192,52144,1,0,0:0:0:0:
448,192,52190,1,0,0:0:0:0:
192,192,52281,1,0,0:0:0:0:
320,192,52326,1,0,0:0:0:0:
448,192,52372,1,0,0:0:0:0:
64,192,52463,1,2,0:0:0:0:
320,192,52463,128,0,52735:0:0:0:0:
192,192,52553,128,0,52644:0:0:0:0:
448,192,52644,1,0,0:0:0:0:
192,192,52735,128,0,52826:0:0:0:0:
64,192,52826,128,2,53190:0:0:0:0:
448,192,52826,1,0,0:0:0:0:
320,192,52917,1,0,0:0:0:0:
448,192,53008,1,0,0:0:0:0:
192,192,53099,1,0,0:0:0:0:
320,192,53190,128,2,53463:0:0:0:0:
448,192,53190,1,0,0:0:0:0:
192,192,53281,128,0,53372:0:0:0:0:
64,192,53372,128,0,53463:0:0:0:0:
192,192,53463,128,0,53553:0:0:0:0:
64,192,53553,128,2,53917:0:0:0:0:
448,192,53553,1,0,0:0:0:0:
320,192,53644,1,0,0:0:0:0:
448,192,53735,1,0,0:0:0:0:
192,192,53826,1,0,0:0:0:0:
320,192,53917,128,2,54190:0:0:0:0:
448,192,53917,1,0,0:0:0:0:
192,192,54008,128,0,54099:0:0:0:0:
64,192,54099,128,0,54190:0:0:0:0:
192,192,54190,128,0,54281:0:0:0:0:
320,192,54281,1,2,0:0:0:0:
448,192,54281,128,0,54553:0:0:0:0:
192,192,54372,1,0,0:0:0:0:
320,192,54463,1,0,0:0:0:0:
192,192,54553,1,0,0:0:0:0:
64,192,54644,128,2,54917:0:0:0:0:
448,192,54644,1,0,0:0:0:0:
192,192,54735,1,0,0:0:0:0:
448,192,54826,1,0,0:0:0:0:
192,192,54917,1,0,0:0:0:0:
64,192,55008,1,2,0:0:0:0:
320,192,55008,128,0,55281:0:0:0:0:
448,192,55099,1,0,0:0:0:0:
64,192,55190,1,0,0:0:0:0:
448,192,55281,1,0,0:0:0:0:
192,192,55372,128,2,55644:0:0:0:0:
320,192,55372,1,0,0:0:0:0:
64,192,55463,1,0,0:0:0:0:
320,192,55553,1,0,0:0:0:0:
64,192,55644,1,0,0:0:0:0:
192,192,55735,128,2,55826:0:0:0:0:
448,192,55735,128,0,56008:0:0:0:0:
320,192,55826,128,0,55917:0:0:0:0:
64,192,55917,1,0,0:0:0:0:
192,192,56008,128,0,56099:0:0:0:0:
64,192,56099,128,2,56372:0:0:0:0:
320,192,56099,128,0,56190:0:0:0:0:
448,192,56190,1,0,0:0:0:0:
192,192,56281,128,0,56372:0:0:0:0:
320,192,56372,128,0,56463:0:0:0:0:
192,192,56463,128,2,56553:0:0:0:0:
448,192,56463,128,0,56735:0:0:0:0:
64,192,56553,128,0,56644:0:0:0:0:
320,192,56599,1,0,0:0:0:0:
192,192,56644,1,0,0:0:0:0:
320,192,56735,128,0,56826:0:0:0:0:
64,192,56826,128,2,57099:0:0:0:0:
192,192,56826,128,0,56917:0:0:0:0:
320,192,56917,1,0,0:0:0:0:
192,192,57008,1,0,0:0:0:0:
448,192,57053,1,0,0:0:0:0:
320,192,57099,1,0,0:0:0:0:
64,192,57190,128,2,57463:0:0:0:0:
192,192,57190,128,0,57372:0:0:0:0:
448,192,57281,1,0,0:0:0:0:
320,192,57372,1,0,0:0:0:0:
448,192,57463,1,0,0:0:0:0:
64,192,57553,1,2,0:0:0:0:
320,192,57553,128,0,57826:0:0:0:0:
192,192,57644,1,0,0:0:0:0:
64,192,57735,1,0,0:0:0:0:
448,192,57826,1,0,0:0:0:0:
64,192,57917,128,2,58099:0:0:0:0:
192,192,57917,128,0,58190:0:0:0:0:
448,192,58008,1,0,0:0:0:0:
320,192,58099,1,0,0:0:0:0:
448,192,58190,1,0,0:0:0:0:
192,192,58281,128,0,58341:0:0:0:0:
64,192,58644,128,2,58917:0:0:0:0:
320,192,58644,1,4,0:0:0:0:
448,192,58644,128,0,58826:0:0:0:0:
192,192,58735,1,0,0:0:0:0:
320,192,58826,128,0,59008:0:0:0:0:
448,192,58917,128,0,59099:0:0:0:0:
64,192,59008,1,2,0:0:0:0:
192,192,59008,128,8,59190:0:0:0:0:
320,192,59099,128,0,59190:0:0:0:0:
448,192,59190,128,0,59281:0:0:0:0:
192,192,59281,128,0,59372:0:0:0:0:
64,192,59372,128,2,59553:0:0:0:0:
320,192,59372,1,0,0:0:0:0:
448,192,59463,1,0,0:0:0:0:
192,192,59553,128,0,59735:0:0:0:0:
64,192,59644,128,0,59826:0:0:0:0:
320,192,59735,128,2,59917:0:0:0:0:
448,192,59735,128,8,59917:0:0:0:0:
192,192,59826,128,0,59917:0:0:0:0:
64,192,59917,128,0,60008:0:0:0:0:
320,192,60008,128,0,60099:0:0:0:0:
192,192,60099,1,2,0:0:0:0:
448,192,60099,1,0,0:0:0:0:
64,192,60190,1,0,0:0:0:0:
320,192,60281,128,0,60463:0:0:0:0:
448,192,60372,128,0,60553:0:0:0:0:
64,192,60463,1,2,0:0:0:0:
192,192,60463,128,8,60644:0:0:0:0:
320,192,60553,128,0,60644:0:0:0:0:
448,192,60644,128,0,60735:0:0:0:0:
192,192,60735,128,0,60826:0:0:0:0:
64,192,60826,128,2,61008:0:0:0:0:
320,192,60826,1,0,0:0:0:0:
448,192,60917,1,0,0:0:0:0:
192,192,61008,128,0,61190:0:0:0:0:
64,192,61099,128,0,61281:0:0:0:0:
320,192,61190,128,2,61372:0:0:0:0:
448,192,61190,128,8,61372:0:0:0:0:
192,192,61281,128,0,61372:0:0:0:0:
64,192,61372,128,0,61463:0:0:0:0:
320,192,61463,128,0,61553:0:0:0:0:
64,192,61553,1,2,0:0:0:0:
192,192,61553,1,0,0:0:0:0:
448,192,61644,128,0,61735:0:0:0:0:
64,192,61735,1,0,0:0:0:0:
448,192,61826,128,0,61917:0:0:0:0:
192,192,61917,1,8,0:0:0:0:
320,192,61917,128,2,62008:0:0:0:0:
448,192,62008,128,0,62190:0:0:0:0:
320,192,62099,128,0,62281:0:0:0:0:
192,192,62190,1,0,0:0:0:0:
64,192,62281,1,2,0:0:0:0:
448,192,62281,128,0,62372:0:0:0:0:
320,192,62372,128,0,62463:0:0:0:0:
448,192,62463,128,0,62553:0:0:0:0:
320,192,62553,128,0,62644:0:0:0:0:
64,192,62644,128,8,62735:0:0:0:0:
448,192,62644,1,2,0:0:0:0:
192,192,62735,128,0,62826:0:0:0:0:
64,192,62826,128,0,62917:0:0:0:0:
192,192,62917,128,0,63008:0:0:0:0:
64,192,63008,128,2,63099:0:0:0:0:
320,192,63008,1,0,0:0:0:0:
192,192,63099,128,0,63281:0:0:0:0:
64,192,63190,128,0,63463:0:0:0:0:
448,192,63281,1,0,0:0:0:0:
192,192,63372,128,8,63553:0:0:0:0:
320,192,63372,1,2,0:0:0:0:
448,192,63463,1,0,0:0:0:0:
64,192,63553,128,0,63644:0:0:0:0:
192,192,63644,128,0,63735:0:0:0:0:
64,192,63735,1,2,0:0:0:0:
448,192,63735,128,0,63826:0:0:0:0:
320,192,63826,128,0,63917:0:0:0:0:
64,192,63917,128,0,64008:0:0:0:0:
192,192,64008,128,0,64099:0:0:0:0:
64,192,64099,128,8,64190:0:0:0:0:
320,192,64099,1,2,0:0:0:0:
192,192,64190,128,0,64281:0:0:0:0:
448,192,64190,1,0,0:0:0:0:
64,192,64281,128,0,64372:0:0:0:0:
320,192,64372,1,0,0:0:0:0:
192,192,64463,1,2,0:0:0:0:
448,192,64463,128,0,64917:0:0:0:0:
320,192,64553,1,0,0:0:0:0:
64,192,64644,1,0,0:0:0:0:
320,192,64735,1,0,0:0:0:0:
64,192,64826,1,2,0:0:0:0:
192,192,64826,1,8,0:0:0:0:
320,192,64917,128,0,65008:0:0:0:0:
448,192,65008,128,0,65099:0:0:0:0:
320,192,65099,128,0,65190:0:0:0:0:
192,192,65190,1,2,0:0:0:0:
448,192,65190,128,0,65644:0:0:0:0:
320,192,65281,1,0,0:0:0:0:
64,192,65372,1,0,0:0:0:0:
320,192,65463,1,0,0:0:0:0:
64,192,65553,1,2,0:0:0:0:
192,192,65553,1,8,0:0:0:0:
320,192,65644,128,0,65735:0:0:0:0:
448,192,65735,128,0,65826:0:0:0:0:
320,192,65826,128,0,65917:0:0:0:0:
64,192,65917,128,2,66190:0:0:0:0:
448,192,65917,1,0,0:0:0:0:
192,192,66008,1,0,0:0:0:0:
320,192,66099,1,0,0:0:0:0:
448,192,66190,1,0,0:0:0:0:
64,192,66281,1,2,0:0:0:0:
192,192,66281,128,8,66553:0:0:0:0:
320,192,66372,1,0,0:0:0:0:
448,192,66463,1,0,0:0:0:0:
64,192,66553,1,0,0:0:0:0:
192,192,66644,1,2,0:0:0:0:
320,192,66644,128,0,66917:0:0:0:0:
448,192,66735,1,0,0:0:0:0:
64,192,66826,1,0,0:0:0:0:
192,192,66917,1,0,0:0:0:0:
64,192,67008,1,2,0:0:0:0:
320,192,67008,128,8,67099:0:0:0:0:
448,192,67099,128,0,67190:0:0:0:0:
320,192,67190,128,0,67281:0:0:0:0:
448,192,67281,128,0,67372:0:0:0:0:
64,192,67372,128,2,67644:0:0:0:0:
192,192,67372,1,4,0:0:0:0:
320,192,67372,1,0,0:0:0:0:
192,192,67553,128,0,67644:0:0:0:0:
448,192,67644,128,0,67735:0:0:0:0:
64,192,67735,128,8,68008:0:0:0:0:
320,192,67735,1,2,0:0:0:0:
192,192,67917,128,0,68008:0:0:0:0:
448,192,68008,128,0,68099:0:0:0:0:
64,192,68099,128,2,68190:0:0:0:0:
320,192,68099,1,0,0:0:0:0:
192,192,68190,128,0,68281:0:0:0:0:
64,192,68281,128,0,68372:0:0:0:0:
192,192,68372,128,0,68463:0:0:0:0:
64,192,68463,1,8,0:0:0:0:
448,192,68463,128,2,68553:0:0:0:0:
320,192,68553,128,0,68644:0:0:0:0:
448,192,68644,128,0,68735:0:0:0:0:
320,192,68735,128,0,68826:0:0:0:0:
64,192,68826,1,0,0:0:0:80:shortcymbal.wav
192,192,68872,1,0,0:0:0:0:
448,192,68917,1,0,0:0:0:0:
320,192,68963,1,0,0:0:0:0:
192,192,69008,1,0,0:0:0:0:
64,192,69099,1,0,0:0:0:0:
448,192,69190,1,0,0:0:0:0:
320,192,69235,1,0,0:0:0:0:
64,192,69281,1,0,0:0:0:0:
192,192,69326,1,0,0:0:0:0:
320,192,69372,1,0,0:0:0:0:
448,192,69463,1,0,0:0:0:0:
64,192,69553,128,0,69735:0:0:0:80:shortcymbal.wav
192,192,69599,1,0,0:0:0:0:
448,192,69644,1,0,0:0:0:0:
320,192,69690,1,0,0:0:0:0:
192,192,69735,1,0,0:0:0:0:
448,192,69826,1,0,0:0:0:0:
64,192,69917,128,0,70053:0:0:0:0:
192,192,69917,128,0,70099:0:0:0:0:
320,192,70008,128,0,70144:0:0:0:0:
448,192,70099,128,0,70190:0:0:0:0:
192,192,70190,1,0,0:0:0:0:
64,192,70281,1,2,0:0:0:0:
320,192,70281,1,0,0:0:0:80:shortcymbal.wav
448,192,70281,128,0,70463:0:0:0:0:
192,192,70372,1,0,0:0:0:0:
320,192,70463,1,0,0:0:0:0:
320,192,70553,1,0,0:0:0:0:
64,192,70644,1,2,0:0:0:0:
192,192,70644,1,8,0:0:0:0:
448,192,70826,1,0,0:0:0:0:
320,192,70887,1,0,0:0:0:0:
192,192,70947,1,0,0:0:0:0:
64,192,71008,128,2,71099:0:0:0:0:
448,192,71008,128,0,71099:0:0:0:0:
320,192,71099,1,0,0:0:0:0:
320,192,71190,1,0,0:0:0:0:
192,192,71281,1,0,0:0:0:0:
192,192,71372,1,2,0:0:0:0:
448,192,71372,128,8,71553:0:0:0:0:
320,192,71463,128,0,71644:0:0:0:0:
192,192,71553,128,0,71735:0:0:0:0:
64,192,71644,128,0,71735:0:0:0:0:
320,192,71735,128,2,71826:0:0:0:0:
448,192,71735,128,0,71796:0:0:0:0:
64,192,71917,1,0,0:0:0:0:
320,192,71963,1,0,0:0:0:0:
64,192,72008,1,0,0:0:0:0:
320,192,72053,1,0,0:0:0:0:
192,192,72099,1,8,0:0:0:0:
448,192,72099,1,2,0:0:0:0:
64,192,72281,1,0,0:0:0:0:
192,192,72341,1,0,0:0:0:0:
320,192,72402,1,0,0:0:0:0:
64,192,72463,1,2,0:0:0:0:
448,192,72463,128,0,72508:0:0:0:0:
192,192,72553,1,0,0:0:0:0:
320,192,72644,128,0,72917:0:0:0:0:
192,192,72735,1,0,0:0:0:0:
64,192,72826,1,8,0:0:0:0:
448,192,72826,128,2,73099:0:0:0:0:
320,192,73008,128,0,73099:0:0:0:0:
192,192,73190,1,2,0:0:0:0:
448,192,73190,1,0,0:0:0:0:
320,192,73281,1,0,0:0:0:0:
64,192,73372,1,0,0:0:0:0:
64,192,73463,1,0,0:0:0:0:
320,192,73553,1,2,0:0:0:0:
448,192,73553,1,8,0:0:0:0:
64,192,73644,1,0,0:0:0:0:
448,192,73690,1,0,0:0:0:0:
192,192,73735,1,0,0:0:0:0:
320,192,73796,1,0,0:0:0:0:
192,192,73856,1,0,0:0:0:0:
64,192,73917,128,2,74008:0:0:0:0:
448,192,73917,128,0,74008:0:0:0:0:
320,192,74008,1,0,0:0:0:0:
320,192,74099,1,0,0:0:0:0:
192,192,74190,1,0,0:0:0:0:
192,192,74281,1,2,0:0:0:0:
448,192,74281,1,8,0:0:0:0:
320,192,74372,1,0,0:0:0:0:
192,192,74463,1,0,0:0:0:0:
192,192,74553,1,0,0:0:0:0:
64,192,74644,1,2,0:0:0:0:
320,192,74644,128,0,74947:0:0:0:0:
448,192,74675,128,0,74917:0:0:0:0:
192,192,74826,128,0,75008:0:0:0:0:
64,192,75008,128,8,75190:0:0:0:0:
448,192,75008,128,2,75311:0:0:0:0:
320,192,75038,128,0,75281:0:0:0:0:
192,192,75190,128,0,75735:0:0:0:0:
64,192,75372,1,2,0:0:0:0:
320,192,75372,128,0,75675:0:0:0:0:
448,192,75402,128,0,75644:0:0:0:0:
64,192,75735,128,8,76008:0:0:0:0:
448,192,75735,128,2,76008:0:0:0:0:
320,192,75766,128,0,76008:0:0:0:0:
64,192,76099,1,2,0:0:0:0:
320,192,76099,1,0,0:0:0:80:shortcymbal.wav
448,192,76099,1,0,0:0:0:0:
192,192,76190,1,0,0:0:0:0:
320,192,76281,1,0,0:0:0:0:
320,192,76372,1,0,0:0:0:0:
64,192,76463,1,2,0:0:0:0:
192,192,76463,1,8,0:0:0:0:
448,192,76644,1,0,0:0:0:0:
320,192,76705,1,0,0:0:0:0:
192,192,76766,1,0,0:0:0:0:
64,192,76826,128,2,76917:0:0:0:0:
448,192,76826,128,0,76917:0:0:0:0:
320,192,76917,1,0,0:0:0:0:
320,192,77008,1,0,0:0:0:0:
192,192,77099,1,0,0:0:0:0:
192,192,77190,1,2,0:0:0:0:
448,192,77190,128,8,77372:0:0:0:0:
320,192,77281,128,0,77463:0:0:0:0:
192,192,77372,128,0,77553:0:0:0:0:
64,192,77463,128,0,77553:0:0:0:0:
320,192,77553,128,2,77644:0:0:0:0:
448,192,77553,128,0,77614:0:0:0:0:
64,192,77735,1,0,0:0:0:0:
320,192,77781,1,0,0:0:0:0:
64,192,77826,1,0,0:0:0:0:
320,192,77872,1,0,0:0:0:0:
192,192,77917,1,2,0:0:0:0:
448,192,77917,1,8,0:0:0:0:
64,192,78099,1,0,0:0:0:0:
192,192,78159,1,0,0:0:0:0:
320,192,78220,1,0,0:0:0:0:
64,192,78281,1,2,0:0:0:0:
448,192,78281,1,0,0:0:0:0:
320,192,78372,1,0,0:0:0:0:
320,192,78463,1,0,0:0:0:0:
192,192,78553,1,0,0:0:0:0:
64,192,78644,1,2,0:0:0:0:
192,192,78644,128,8,78917:0:0:0:0:
64,192,78826,128,2,78917:0:0:0:0:
320,192,78826,128,0,78917:0:0:0:0:
64,192,79008,1,2,0:0:0:0:
448,192,79008,1,0,0:0:0:0:
192,192,79099,1,0,0:0:0:0:
320,192,79190,1,0,0:0:0:0:
320,192,79281,1,0,0:0:0:0:
64,192,79372,1,8,0:0:0:0:
192,192,79372,1,2,0:0:0:0:
448,192,79463,1,0,0:0:0:0:
64,192,79508,1,0,0:0:0:0:
320,192,79553,1,0,0:0:0:0:
192,192,79614,1,0,0:0:0:0:
320,192,79675,1,0,0:0:0:0:
64,192,79735,128,2,79826:0:0:0:0:
448,192,79735,128,0,79826:0:0:0:0:
192,192,79826,1,0,0:0:0:0:
192,192,79917,1,0,0:0:0:0:
320,192,80008,1,0,0:0:0:0:
64,192,80099,1,8,0:0:0:0:
320,192,80099,1,2,0:0:0:0:
192,192,80190,1,0,0:0:0:0:
320,192,80281,1,0,0:0:0:0:
320,192,80372,1,0,0:0:0:0:
64,192,80463,128,0,80735:0:0:0:80:shortcymbal.wav
448,192,80463,128,2,80735:0:0:0:0:
192,192,80485,128,0,80713:0:0:0:0:
64,192,80826,128,2,80917:0:0:0:0:
192,192,80826,128,0,80917:0:0:0:80:shortcymbal.wav
448,192,80826,128,0,80917:0:0:0:0:
64,192,81190,1,2,0:0:0:0:
448,192,81190,1,0,0:0:0:80:shortcymbal.wav
64,192,81281,1,2,0:0:0:0:
448,192,81281,1,0,0:0:0:80:shortcymbal.wav
64,192,81372,1,2,0:0:0:0:
448,192,81372,1,0,0:0:0:80:shortcymbal.wav
192,192,81553,128,0,81644:0:0:0:80:louddrum.wav
320,192,81553,128,0,81675:0:0:0:0:
448,192,81553,128,0,81705:0:0:0:0:
192,192,81735,128,0,81917:0:0:0:0:
320,192,81766,128,0,81826:0:0:0:0:
64,192,81917,1,2,0:0:0:0:
320,192,81917,1,0,0:0:0:80:shortcymbal.wav
448,192,81917,1,0,0:0:0:0:
192,192,82008,1,0,0:0:0:0:
320,192,82099,1,0,0:0:0:0:
320,192,82190,1,0,0:0:0:0:
64,192,82281,1,8,0:0:0:0:
192,192,82281,1,2,0:0:0:0:
448,192,82463,1,0,0:0:0:0:
320,192,82523,1,0,0:0:0:0:
192,192,82584,1,0,0:0:0:0:
64,192,82644,128,2,82735:0:0:0:0:
448,192,82644,128,0,82735:0:0:0:0:
320,192,82735,1,0,0:0:0:0:
320,192,82826,1,0,0:0:0:0:
192,192,82917,1,0,0:0:0:0:
192,192,83008,1,8,0:0:0:0:
448,192,83008,128,2,83190:0:0:0:0:
320,192,83099,128,0,83281:0:0:0:0:
192,192,83190,128,0,83372:0:0:0:0:
64,192,83281,128,0,83372:0:0:0:0:
320,192,83372,128,2,83463:0:0:0:0:
448,192,83372,128,0,83432:0:0:0:0:
64,192,83553,1,0,0:0:0:0:
320,192,83599,1,0,0:0:0:0:
64,192,83644,1,0,0:0:0:0:
320,192,83690,1,0,0:0:0:0:
192,192,83735,1,8,0:0:0:0:
448,192,83735,1,2,0:0:0:0:
64,192,83917,1,0,0:0:0:0:
192,192,83978,1,0,0:0:0:0:
320,192,84038,1,0,0:0:0:0:
64,192,84099,1,2,0:0:0:0:
448,192,84099,1,0,0:0:0:0:
192,192,84190,1,0,0:0:0:0:
320,192,84281,128,0,84553:0:0:0:0:
192,192,84372,1,0,0:0:0:0:
64,192,84463,1,8,0:0:0:0:
448,192,84463,128,2,84735:0:0:0:0:
320,192,84644,128,0,84735:0:0:0:0:
192,192,84826,1,2,0:0:0:0:
448,192,84826,1,0,0:0:0:0:
320,192,84917,1,0,0:0:0:0:
64,192,85008,1,0,0:0:0:0:
64,192,85099,1,0,0:0:0:0:
320,192,85190,1,2,0:0:0:0:
448,192,85190,1,8,0:0:0:0:
64,192,85281,1,0,0:0:0:0:
448,192,85326,1,0,0:0:0:0:
192,192,85372,1,0,0:0:0:0:
320,192,85432,1,0,0:0:0:0:
192,192,85493,1,0,0:0:0:0:
64,192,85553,128,2,85644:0:0:0:0:
448,192,85553,128,0,85644:0:0:0:0:
320,192,85644,1,0,0:0:0:0:
320,192,85735,1,0,0:0:0:0:
192,192,85826,1,0,0:0:0:0:
192,192,85917,1,2,0:0:0:0:
448,192,85917,1,8,0:0:0:0:
320,192,86008,1,0,0:0:0:0:
192,192,86099,1,0,0:0:0:0:
192,192,86190,1,0,0:0:0:0:
64,192,86281,1,2,0:0:0:0:
320,192,86281,128,0,86584:0:0:0:0:
448,192,86311,128,0,86553:0:0:0:0:
192,192,86463,128,0,86644:0:0:0:0:
64,192,86644,128,8,86826:0:0:0:0:
448,192,86644,128,2,86947:0:0:0:0:
320,192,86675,128,0,86917:0:0:0:0:
192,192,86826,128,0,87372:0:0:0:0:
64,192,87008,1,2,0:0:0:0:
320,192,87008,128,0,87311:0:0:0:0:
448,192,87038,128,0,87281:0:0:0:0:
64,192,87372,128,8,87644:0:0:0:0:
448,192,87372,128,2,87644:0:0:0:0:
320,192,87402,128,0,87644:0:0:0:0:
64,192,87735,1,2,0:0:0:0:
320,192,87735,1,0,0:0:0:80:shortcymbal.wav
448,192,87735,1,0,0:0:0:0:
192,192,87826,1,0,0:0:0:0:
448,192,87917,1,0,0:0:0:0:
64,192,87978,1,0,0:0:0:0:
448,192,88038,1,0,0:0:0:0:
64,192,88099,1,8,0:0:0:0:
192,192,88099,1,2,0:0:0:0:
192,192,88281,1,0,0:0:0:0:
320,192,88341,1,0,0:0:0:0:
192,192,88402,1,0,0:0:0:0:
64,192,88463,128,2,88553:0:0:0:0:
448,192,88463,128,0,88553:0:0:0:0:
320,192,88553,1,0,0:0:0:0:
64,192,88644,1,0,0:0:0:0:
448,192,88705,1,0,0:0:0:0:
64,192,88766,1,0,0:0:0:0:
192,192,88826,1,8,0:0:0:0:
448,192,88826,128,2,89008:0:0:0:0:
320,192,88917,128,0,89099:0:0:0:0:
192,192,89008,128,0,89190:0:0:0:0:
64,192,89099,128,0,89190:0:0:0:0:
320,192,89190,128,2,89281:0:0:0:0:
448,192,89190,128,0,89250:0:0:0:0:
64,192,89372,1,0,0:0:0:0:
320,192,89417,1,0,0:0:0:0:
64,192,89463,1,0,0:0:0:0:
320,192,89508,1,0,0:0:0:0:
192,192,89553,1,8,0:0:0:0:
448,192,89553,1,2,0:0:0:0:
64,192,89735,1,0,0:0:0:0:
320,192,89796,1,0,0:0:0:0:
64,192,89856,1,0,0:0:0:0:
192,192,89917,1,2,0:0:0:0:
448,192,89917,1,0,0:0:0:0:
320,192,90008,1,0,0:0:0:0:
448,192,90099,1,0,0:0:0:0:
192,192,90159,1,0,0:0:0:0:
448,192,90220,1,0,0:0:0:0:
64,192,90281,1,8,0:0:0:0:
192,192,90281,128,2,90553:0:0:0:0:
64,192,90463,128,2,90553:0:0:0:0:
320,192,90463,128,0,90553:0:0:0:0:
64,192,90644,1,2,0:0:0:0:
448,192,90644,1,0,0:0:0:0:
192,192,90735,1,0,0:0:0:0:
448,192,90826,1,0,0:0:0:0:
320,192,90887,1,0,0:0:0:0:
448,192,90947,1,0,0:0:0:0:
64,192,91008,1,2,0:0:0:0:
192,192,91008,1,8,0:0:0:0:
448,192,91099,1,0,0:0:0:0:
64,192,91144,1,0,0:0:0:0:
320,192,91190,1,0,0:0:0:0:
192,192,91250,1,0,0:0:0:0:
320,192,91311,1,0,0:0:0:0:
64,192,91372,128,2,91463:0:0:0:0:
448,192,91372,128,0,91463:0:0:0:0:
320,192,91463,1,0,0:0:0:0:
64,192,91553,1,0,0:0:0:0:
192,192,91614,1,0,0:0:0:0:
64,192,91675,1,0,0:0:0:0:
320,192,91735,1,2,0:0:0:0:
448,192,91735,1,8,0:0:0:0:
192,192,91826,1,0,0:0:0:0:
320,192,91917,1,0,0:0:0:0:
448,192,91978,1,0,0:0:0:0:
320,192,92038,1,0,0:0:0:0:
64,192,92099,128,2,92372:0:0:0:0:
192,192,92099,128,0,92402:0:0:0:0:
64,192,92463,128,0,92826:0:0:0:0:
192,192,92493,128,0,92796:0:0:0:0:
448,192,92826,128,0,93099:0:0:0:0:
320,192,92856,128,0,93099:0:0:0:0:
64,192,93190,1,2,0:0:0:0:
448,192,93190,128,0,93463:0:0:0:100:loudsnare.wav
320,192,93213,128,0,93440:0:0:0:0:
192,192,93235,128,0,93394:0:0:0:0:
448,192,93553,128,4,94281:0:0:0:0:
64,192,96099,128,0,96463:0:0:0:0:
448,192,96463,128,2,96705:0:0:0:0:
192,192,96705,1,0,0:0:0:0:
64,192,96826,128,2,97069:0:0:0:0:
320,192,97069,1,0,0:0:0:0:
448,192,97190,128,2,97432:0:0:0:0:
192,192,97432,1,0,0:0:0:0:
64,192,97553,1,2,0:0:0:0:
448,192,97675,1,0,0:0:0:0:
320,192,97796,1,0,0:0:0:0:
448,192,97917,128,2,98159:0:0:0:0:
192,192,98159,1,0,0:0:0:0:
64,192,98281,1,2,0:0:0:0:
448,192,98402,1,0,0:0:0:0:
320,192,98523,1,0,0:0:0:0:
64,192,98644,128,2,98887:0:0:0:0:
320,192,98887,1,0,0:0:0:0:
192,192,99008,128,2,99372:0:0:0:0:
64,192,99372,1,2,0:0:0:0:
320,192,99372,128,4,99614:0:0:0:0:
448,192,99372,128,0,99614:0:0:0:0:
192,192,99614,1,0,0:0:0:0:
64,192,99735,128,10,99978:0:0:0:0:
320,192,99978,1,0,0:0:0:0:
448,192,100099,128,2,100341:0:0:0:0:
192,192,100341,1,0,0:0:0:0:
64,192,100463,1,8,0:0:0:0:
320,192,100463,1,2,0:0:0:0:
448,192,100584,1,0,0:0:0:0:
320,192,100705,1,0,0:0:0:0:
64,192,100826,128,2,101069:0:0:0:0:
192,192,100826,1,0,0:0:0:0:
320,192,101069,1,0,0:0:0:0:
192,192,101190,1,2,0:0:0:0:
448,192,101190,1,8,0:0:0:0:
64,192,101311,1,0,0:0:0:0:
192,192,101432,1,0,0:0:0:0:
320,192,101553,1,2,0:0:0:0:
448,192,101553,128,0,101917:0:0:0:0:
64,192,101917,1,8,0:0:0:0:
192,192,101917,1,2,0:0:0:0:
320,192,101978,1,2,0:0:0:0:
64,192,102038,1,2,0:0:0:0:
448,192,102099,1,2,0:0:0:0:
192,192,102159,1,2,0:0:0:0:
320,192,102220,1,2,0:0:0:0:
64,192,102281,1,2,0:0:0:0:
448,192,102281,128,4,102402:0:0:0:0:
192,192,102402,1,2,0:0:0:0:
320,192,102402,1,0,0:0:0:0:
64,192,102523,1,2,0:0:0:0:
320,192,102523,128,0,102644:0:0:0:0:
64,192,102644,1,8,0:0:0:0:
192,192,102644,1,0,0:0:0:0:
448,192,102766,128,0,102887:0:0:0:0:
192,192,103008,128,2,103129:0:0:0:0:
448,192,103008,1,4,0:0:0:0:
64,192,103129,1,2,0:0:0:0:
320,192,103129,1,0,0:0:0:0:
64,192,103250,128,2,103372:0:0:0:0:
448,192,103250,1,0,0:0:0:0:
320,192,103372,1,8,0:0:0:0:
448,192,103372,1,0,0:0:0:0:
192,192,103493,128,0,103614:0:0:0:0:
64,192,103735,128,2,103856:0:0:0:0:
320,192,103735,128,4,103856:0:0:0:0:
192,192,103856,1,2,0:0:0:0:
448,192,103856,1,0,0:0:0:0:
64,192,103978,1,2,0:0:0:0:
448,192,103978,1,0,0:0:0:0:
192,192,104099,128,2,104220:0:0:0:0:
320,192,104099,128,0,104220:0:0:0:0:
64,192,104220,1,2,0:0:0:0:
448,192,104220,1,0,0:0:0:0:
64,192,104341,1,2,0:0:0:0:
320,192,104341,1,0,0:0:0:0:
192,192,104463,128,2,104584:0:0:0:0:
448,192,104463,128,0,104584:0:0:0:0:
320,192,104584,1,2,0:0:0:0:
192,192,104705,1,2,0:0:0:0:
320,192,104705,1,0,0:0:0:0:
64,192,104826,1,2,0:0:0:0:
192,192,104826,1,0,0:0:0:80:loudsnare.wav
320,192,104887,1,0,0:0:0:0:
448,192,104947,1,0,0:0:0:0:
64,192,105008,1,0,0:0:0:0:
192,192,105069,1,0,0:0:0:0:
320,192,105129,1,0,0:0:0:0:
64,192,105190,128,4,105432:0:0:0:0:
192,192,105190,128,2,105311:0:0:0:0:
448,192,105190,128,0,105432:0:0:0:0:
320,192,105311,1,0,0:0:0:0:
192,192,105432,1,0,0:0:0:0:
320,192,105553,1,2,0:0:0:0:
448,192,105553,1,8,0:0:0:0:
320,192,105675,128,0,105796:0:0:0:0:
448,192,105675,128,0,105796:0:0:0:0:
192,192,105796,1,0,0:0:0:0:
64,192,105917,128,2,106159:0:0:0:0:
448,192,105917,128,0,106038:0:0:0:0:
320,192,106038,1,0,0:0:0:0:
320,192,106159,1,0,0:0:0:0:
64,192,106281,1,2,0:0:0:0:
192,192,106281,1,8,0:0:0:0:
64,192,106402,128,0,106523:0:0:0:0:
192,192,106402,128,0,106523:0:0:0:0:
448,192,106402,1,0,0:0:0:0:
320,192,106523,1,0,0:0:0:0:
64,192,106644,128,2,106766:0:0:0:0:
448,192,106644,128,0,106887:0:0:0:0:
192,192,106766,1,0,0:0:0:0:
192,192,106887,1,0,0:0:0:0:
320,192,107008,1,8,0:0:0:0:
448,192,107008,1,2,0:0:0:0:
320,192,107129,128,0,107250:0:0:0:0:
448,192,107129,128,0,107250:0:0:0:0:
64,192,107250,1,0,0:0:0:0:
192,192,107372,128,2,107614:0:0:0:0:
448,192,107372,128,0,107493:0:0:0:0:
320,192,107493,1,0,0:0:0:0:
320,192,107614,1,0,0:0:0:0:
64,192,107735,1,2,0:0:0:0:
192,192,107735,1,8,0:0:0:0:
320,192,107808,1,0,0:0:0:0:
448,192,107881,1,0,0:0:0:0:
64,192,107953,1,0,0:0:0:0:
192,192,108026,1,0,0:0:0:0:
64,192,108099,128,2,108341:0:0:0:0:
448,192,108099,128,0,108220:0:0:0:0:
320,192,108220,1,0,0:0:0:0:
320,192,108341,1,0,0:0:0:0:
64,192,108463,128,8,108705:0:0:0:0:
448,192,108463,128,2,108705:0:0:0:0:
192,192,108584,1,0,0:0:0:0:
192,192,108705,1,0,0:0:0:0:
64,192,108826,128,2,109069:0:0:0:0:
448,192,108826,128,0,108947:0:0:0:0:
320,192,108947,1,0,0:0:0:0:
320,192,109069,1,0,0:0:0:0:
64,192,109190,1,2,0:0:0:0:
192,192,109190,1,8,0:0:0:0:
64,192,109311,128,0,109432:0:0:0:0:
320,192,109311,128,0,109432:0:0:0:0:
192,192,109311,1,0,0:0:0:0:
448,192,109432,1,0,0:0:0:0:
192,192,109553,128,2,109644:0:0:0:0:
320,192,109553,128,0,109796:0:0:0:0:
64,192,109675,1,0,0:0:0:0:
192,192,109735,1,0,0:0:0:0:
64,192,109796,1,0,0:0:0:0:
320,192,109917,1,2,0:0:0:0:
448,192,109917,1,8,0:0:0:0:
192,192,110038,128,0,110159:0:0:0:0:
448,192,110038,128,0,110159:0:0:0:0:
64,192,110159,1,0,0:0:0:0:
192,192,110281,128,2,110523:0:0:0:0:
320,192,110281,128,0,110402:0:0:0:0:
448,192,110402,1,0,0:0:0:0:
448,192,110523,1,0,0:0:0:0:
64,192,110644,1,8,0:0:0:0:
192,192,110644,1,2,0:0:0:0:
320,192,110705,1,0,0:0:0:0:
192,192,110766,1,0,0:0:0:0:
448,192,110826,1,0,0:0:0:0:
320,192,110887,1,0,0:0:0:0:
192,192,110947,1,0,0:0:0:0:
64,192,111008,128,2,111250:0:0:0:0:
448,192,111008,128,0,111129:0:0:0:0:
320,192,111129,1,0,0:0:0:0:
320,192,111250,1,0,0:0:0:0:
64,192,111372,128,2,111614:0:0:0:0:
448,192,111372,128,8,111614:0:0:0:0:
192,192,111493,1,0,0:0:0:0:
192,192,111614,1,0,0:0:0:0:
64,192,111735,128,2,111978:0:0:0:0:
448,192,111735,128,0,111856:0:0:0:0:
320,192,111856,1,0,0:0:0:0:
320,192,111978,1,0,0:0:0:0:
64,192,112099,1,8,0:0:0:0:
192,192,112099,1,2,0:0:0:0:
64,192,112220,128,0,112341:0:0:0:0:
192,192,112220,128,0,112341:0:0:0:0:
448,192,112220,1,0,0:0:0:0:
320,192,112341,1,0,0:0:0:0:
64,192,112463,128,2,112584:0:0:0:0:
448,192,112463,128,0,112705:0:0:0:0:
192,192,112584,1,0,0:0:0:0:
192,192,112705,1,0,0:0:0:0:
320,192,112826,1,8,0:0:0:0:
448,192,112826,1,2,0:0:0:0:
320,192,112947,128,0,113069:0:0:0:0:
448,192,112947,128,0,113069:0:0:0:0:
64,192,113069,1,0,0:0:0:0:
192,192,113190,128,2,113432:0:0:0:0:
448,192,113190,128,0,113311:0:0:0:0:
320,192,113311,1,0,0:0:0:0:
320,192,113432,1,0,0:0:0:0:
64,192,113553,1,8,0:0:0:0:
192,192,113553,1,2,0:0:0:0:
320,192,113626,1,0,0:0:0:0:
448,192,113699,1,0,0:0:0:0:
64,192,113772,1,0,0:0:0:0:
192,192,113844,1,0,0:0:0:0:
64,192,113917,128,2,114159:0:0:0:0:
320,192,113917,1,4,0:0:0:0:
448,192,113917,128,0,114038:0:0:0:0:
192,192,114038,1,0,0:0:0:0:
448,192,114159,128,0,114281:0:0:0:0:
64,192,114281,1,2,0:0:0:0:
192,192,114281,128,8,114523:0:0:0:0:
320,192,114402,128,0,114523:0:0:0:0:
64,192,114523,1,0,0:0:0:0:
320,192,114644,128,2,114766:0:0:0:0:
448,192,114644,128,0,114887:0:0:0:0:
64,192,114766,1,0,0:0:0:0:
192,192,114887,128,0,115008:0:0:0:0:
320,192,115008,128,8,115250:0:0:0:0:
448,192,115008,1,2,0:0:0:0:
64,192,115129,1,0,0:0:0:0:
192,192,115129,128,0,115250:0:0:0:0:
64,192,115372,128,2,115614:0:0:0:0:
192,192,115372,128,0,115493:0:0:0:80:shortcymbal.wav
448,192,115372,1,0,0:0:0:0:
320,192,115493,128,0,115614:0:0:0:0:
192,192,115614,128,0,115735:0:0:0:0:
64,192,115735,128,2,115978:0:0:0:0:
320,192,115735,1,0,0:0:0:80:shortcymbal.wav
448,192,115735,128,0,115856:0:0:0:0:
192,192,115856,128,0,115978:0:0:0:0:
448,192,115978,128,0,116099:0:0:0:0:
64,192,116099,128,2,116341:0:0:0:0:
192,192,116099,1,0,0:0:0:80:shortcymbal.wav
320,192,116099,128,0,116220:0:0:0:0:
448,192,116220,128,0,116341:0:0:0:0:
320,192,116341,128,0,116463:0:0:0:0:
64,192,116463,1,0,0:0:0:80:loudsnare.wav
192,192,116463,1,0,0:0:0:0:
448,192,116514,1,0,0:0:0:0:
192,192,116566,1,0,0:0:0:0:
320,192,116618,1,0,0:0:0:0:
64,192,116670,1,0,0:0:0:0:
192,192,116722,1,0,0:0:0:0:
320,192,116774,1,0,0:0:0:0:
64,192,116826,128,4,116947:0:0:0:0:
448,192,116826,128,2,117069:0:0:0:0:
192,192,116947,1,0,0:0:0:0:
192,192,117069,1,0,0:0:0:0:
64,192,117190,128,2,117432:0:0:0:0:
448,192,117190,128,8,117432:0:0:0:0:
320,192,117311,1,0,0:0:0:0:
320,192,117432,1,0,0:0:0:0:
64,192,117553,128,2,117675:0:0:0:0:
448,192,117553,128,0,117796:0:0:0:0:
192,192,117675,1,0,0:0:0:0:
192,192,117796,1,0,0:0:0:0:
320,192,117917,1,2,0:0:0:0:
448,192,117917,1,8,0:0:0:0:
320,192,118038,128,0,118159:0:0:0:0:
448,192,118038,128,0,118159:0:0:0:0:
64,192,118038,1,0,0:0:0:0:
192,192,118159,1,0,0:0:0:0:
64,192,118281,128,2,118523:0:0:0:0:
448,192,118281,128,0,118402:0:0:0:0:
320,192,118402,1,0,0:0:0:0:
320,192,118523,1,0,0:0:0:0:
64,192,118644,1,8,0:0:0:0:
192,192,118644,1,2,0:0:0:0:
64,192,118766,128,0,118887:0:0:0:0:
192,192,118766,128,0,118887:0:0:0:0:
448,192,118887,1,0,0:0:0:0:
64,192,119008,128,2,119129:0:0:0:0:
320,192,119008,128,0,119250:0:0:0:0:
192,192,119129,1,0,0:0:0:0:
192,192,119250,1,0,0:0:0:0:
320,192,119372,1,2,0:0:0:0:
448,192,119372,1,8,0:0:0:0:
192,192,119444,1,0,0:0:0:0:
64,192,119517,1,0,0:0:0:0:
448,192,119590,1,0,0:0:0:0:
320,192,119663,1,0,0:0:0:0:
64,192,119735,128,2,119856:0:0:0:0:
448,192,119735,128,0,119978:0:0:0:0:
192,192,119856,1,0,0:0:0:0:
192,192,119978,1,0,0:0:0:0:
64,192,120099,128,8,120341:0:0:0:0:
448,192,120099,128,2,120341:0:0:0:0:
320,192,120220,1,0,0:0:0:0:
320,192,120341,1,0,0:0:0:0:
64,192,120463,128,2,120584:0:0:0:0:
448,192,120463,128,0,120705:0:0:0:0:
192,192,120584,1,0,0:0:0:0:
192,192,120705,1,0,0:0:0:0:
320,192,120826,1,2,0:0:0:0:
448,192,120826,1,8,0:0:0:0:
192,192,120947,128,0,121069:0:0:0:0:
448,192,120947,128,0,121069:0:0:0:0:
320,192,120947,1,0,0:0:0:0:
64,192,121069,1,0,0:0:0:0:
192,192,121190,128,2,121432:0:0:0:0:
320,192,121190,128,0,121281:0:0:0:0:
448,192,121311,1,0,0:0:0:0:
320,192,121372,1,0,0:0:0:0:
448,192,121432,1,0,0:0:0:0:
192,192,121553,1,8,0:0:0:0:
64,192,121553,1,2,0:0:0:0:
64,192,121675,128,0,121796:0:0:0:0:
320,192,121675,128,0,121796:0:0:0:0:
448,192,121796,1,0,0:0:0:0:
192,192,121917,128,2,122038:0:0:0:0:
320,192,121917,128,0,122159:0:0:0:0:
64,192,122038,1,0,0:0:0:0:
64,192,122159,1,0,0:0:0:0:
320,192,122281,1,8,0:0:0:0:
448,192,122281,1,2,0:0:0:0:
192,192,122353,1,0,0:0:0:0:
64,192,122426,1,0,0:0:0:0:
320,192,122499,1,0,0:0:0:0:
192,192,122572,1,0,0:0:0:0:
64,192,122644,128,2,122766:0:0:0:0:
320,192,122644,1,4,0:0:0:0:
448,192,122644,128,0,122887:0:0:0:0:
192,192,122766,1,0,0:0:0:0:
192,192,122887,1,0,0:0:0:0:
64,192,123008,128,2,123250:0:0:0:0:
448,192,123008,128,8,123250:0:0:0:0:
320,192,123129,1,0,0:0:0:0:
320,192,123250,1,0,0:0:0:0:
64,192,123372,128,2,123493:0:0:0:0:
448,192,123372,128,0,123614:0:0:0:0:
192,192,123493,1,0,0:0:0:0:
192,192,123614,1,0,0:0:0:0:
320,192,123735,1,8,0:0:0:0:
448,192,123735,1,2,0:0:0:0:
320,192,123856,128,0,123978:0:0:0:0:
448,192,123856,128,0,123978:0:0:0:0:
64,192,123856,1,0,0:0:0:0:
192,192,123978,1,0,0:0:0:0:
64,192,124099,128,2,124341:0:0:0:0:
192,192,124099,1,4,0:0:0:0:
448,192,124099,128,0,124220:0:0:0:0:
320,192,124220,1,0,0:0:0:0:
320,192,124341,1,0,0:0:0:0:
64,192,124463,1,8,0:0:0:0:
192,192,124463,1,2,0:0:0:0:
64,192,124584,128,0,124705:0:0:0:0:
192,192,124584,128,0,124705:0:0:0:0:
448,192,124705,1,0,0:0:0:0:
64,192,124826,128,2,124947:0:0:0:0:
320,192,124826,128,0,125069:0:0:0:0:
192,192,124947,1,0,0:0:0:0:
192,192,125069,1,0,0:0:0:0:
320,192,125190,1,8,0:0:0:0:
448,192,125190,1,2,0:0:0:0:
192,192,125263,1,0,0:0:0:0:
64,192,125335,1,0,0:0:0:0:
320,192,125408,1,0,0:0:0:0:
192,192,125481,1,0,0:0:0:0:
64,192,125553,128,4,125675:0:0:0:0:
320,192,125553,1,2,0:0:0:0:
448,192,125553,128,0,125796:0:0:0:0:
192,192,125675,1,0,0:0:0:0:
64,192,125796,128,0,125917:0:0:0:0:
320,192,125917,128,2,126159:0:0:0:0:
448,192,125917,1,8,0:0:0:0:
192,192,126038,128,0,126159:0:0:0:0:
448,192,126159,1,0,0:0:0:0:
64,192,126281,128,2,126523:0:0:0:0:
192,192,126281,128,4,126402:0:0:0:0:
320,192,126281,1,0,0:0:0:0:
448,192,126402,1,0,0:0:0:0:
320,192,126523,128,0,126644:0:0:0:0:
64,192,126644,1,2,0:0:0:0:
192,192,126644,128,8,126887:0:0:0:0:
320,192,126766,128,0,126887:0:0:0:0:
448,192,126766,1,0,0:0:0:0:
64,192,127008,128,2,127250:0:0:0:0:
192,192,127008,128,0,127129:0:0:0:80:shortcymbal.wav
320,192,127008,1,0,0:0:0:0:
448,192,127129,128,0,127250:0:0:0:0:
192,192,127250,128,2,127372:0:0:0:0:
320,192,127250,128,0,127372:0:0:0:0:
64,192,127372,128,0,127493:0:0:0:80:louddrum.wav
448,192,127372,128,0,127493:0:0:0:0:
192,192,127493,1,0,0:0:0:0:
320,192,127493,1,0,0:0:0:0:
192,192,127614,1,0,0:0:0:0:
320,192,127614,1,0,0:0:0:0:
64,192,127735,1,2,0:0:0:0:
320,192,127735,128,0,127856:0:0:0:80:shortcymbal.wav
448,192,127735,128,0,127978:0:0:0:0:
192,192,127856,128,0,127978:0:0:0:0:
64,192,127978,128,2,128099:0:0:0:0:
320,192,127978,128,0,128099:0:0:0:0:
192,192,128099,128,0,128463:0:0:0:80:loudsnare.wav
448,192,128099,128,0,128463:0:0:0:0:
64,192,128463,128,4,129917:0:0:0:0:
320,192,128463,1,0,0:0:0:0:
320,192,128826,1,0,0:0:0:0:
320,192,129190,1,0,0:0:0:0:
320,192,129553,1,0,0:0:0:0:
448,192,129917,128,0,131372:0:0:0:0:
64,192,131008,128,0,131372:0:0:0:0:
192,192,131372,1,0,0:0:0:0:
320,192,131372,128,0,132826:0:0:0:0:
192,192,132826,1,0,0:0:0:0:
64,192,133008,128,0,133190:0:0:0:0:
192,192,133190,128,0,133372:0:0:0:0:
320,192,133372,128,0,133553:0:0:0:0:
448,192,133553,128,0,133735:0:0:0:0:
320,192,133735,128,0,133917:0:0:0:0:
192,192,133917,128,0,134281:0:0:0:0:
64,192,134099,128,0,134281:0:0:0:0:
320,192,134281,1,0,0:0:0:0:
448,192,134281,128,0,135372:0:0:0:0:
64,192,134644,128,0,135008:0:0:0:0:
192,192,135008,128,0,135372:0:0:0:0:
320,192,135372,128,0,135735:0:0:0:0:
64,192,135735,128,0,136281:0:0:0:0:
192,192,135735,1,0,0:0:0:0:
320,192,136281,128,0,136826:0:0:0:0:
448,192,136826,128,0,137190:0:0:0:0:
64,192,137190,128,0,138644:0:0:0:0:
192,192,137190,128,0,138644:0:0:0:0:
320,192,138644,128,0,138735:0:0:0:0:
448,192,138644,128,0,138735:0:0:0:0:
64,192,139372,128,0,139463:0:0:0:0:
192,192,139372,128,0,139463:0:0:0:0:
448,192,139417,1,0,0:0:0:0:
320,192,139463,1,0,0:0:0:0:
64,192,139917,1,0,0:0:0:0:
192,192,139978,1,0,0:0:0:0:
320,192,140038,1,0,0:0:0:0:
64,192,140099,128,0,141190:0:0:0:0:
448,192,140099,1,0,0:0:0:0:
448,192,140372,1,0,0:0:0:0:
448,192,140644,1,0,0:0:0:0:
448,192,140826,1,0,0:0:0:0:
448,192,141099,1,0,0:0:0:0:
192,192,141190,128,0,141372:0:0:0:0:
320,192,141372,128,0,142644:0:0:0:0:
448,192,141372,1,0,0:0:0:0:
192,192,141553,1,0,0:0:0:0:
192,192,141826,1,0,0:0:0:0:
192,192,142099,1,0,0:0:0:0:
192,192,142281,1,0,0:0:0:0:
192,192,142553,1,0,0:0:0:0:
192,192,142826,1,0,0:0:0:0:
320,192,142826,128,0,142917:0:0:0:0:
448,192,142917,128,0,143008:0:0:0:0:
64,192,143008,1,0,0:0:0:0:
320,192,143008,128,0,143735:0:0:0:0:
64,192,143281,1,0,0:0:0:0:
64,192,143553,1,0,0:0:0:0:
64,192,143735,1,0,0:0:0:0:
192,192,143735,128,0,144463:0:0:0:0:
64,192,144008,1,0,0:0:0:0:
64,192,144281,1,0,0:0:0:0:
64,192,144463,128,0,145190:0:0:0:0:
448,192,144463,1,0,0:0:0:0:
448,192,144735,1,0,0:0:0:0:
448,192,145008,1,0,0:0:0:0:
192,192,145190,128,0,145917:0:0:0:0:
448,192,145190,1,0,0:0:0:0:
448,192,145463,1,0,0:0:0:0:
448,192,145735,1,0,0:0:0:0:
64,192,145917,128,0,146644:0:0:0:0:
320,192,145917,1,0,0:0:0:0:
320,192,146190,1,0,0:0:0:0:
320,192,146463,1,0,0:0:0:0:
320,192,146644,1,0,0:0:0:0:
320,192,146917,1,0,0:0:0:0:
448,192,147008,128,0,147190:0:0:0:0:
64,192,147190,128,0,148463:0:0:0:0:
320,192,147190,1,0,0:0:0:0:
192,192,147372,1,0,0:0:0:0:
192,192,147644,1,0,0:0:0:0:
192,192,147917,1,0,0:0:0:0:
192,192,148099,1,0,0:0:0:0:
192,192,148372,1,0,0:0:0:0:
64,192,148644,128,0,148735:0:0:0:0:
192,192,148644,1,0,0:0:0:0:
320,192,148735,128,0,148826:0:0:0:0:
64,192,148826,1,0,0:0:0:0:
448,192,148826,128,0,150190:0:0:0:0:
64,192,149099,1,0,0:0:0:0:
64,192,149372,1,0,0:0:0:0:
64,192,149553,1,0,0:0:0:0:
64,192,149826,1,0,0:0:0:0:
64,192,150099,1,0,0:0:0:0:
192,192,150099,128,0,150190:0:0:0:0:
320,192,150190,128,0,150281:0:0:0:0:
192,192,150281,128,0,151735:0:0:0:0:
448,192,150281,1,0,0:0:0:0:
448,192,150553,1,0,0:0:0:0:
448,192,150826,1,0,0:0:0:0:
320,192,151008,1,0,0:0:0:0:
320,192,151281,1,0,0:0:0:0:
320,192,151553,1,0,0:0:0:0:
64,192,151735,1,0,0:0:0:0:
448,192,151735,1,0,0:0:0:0:
320,192,151826,1,0,0:0:0:0:
192,192,151917,1,0,0:0:0:0:
448,192,152099,1,0,0:0:0:0:
192,192,152190,1,0,0:0:0:0:
64,192,152281,1,0,0:0:0:0:
320,192,152372,1,0,0:0:0:0:
320,192,152553,1,0,0:0:0:0:
192,192,152644,1,0,0:0:0:0:
448,192,152826,1,0,0:0:0:0:
192,192,152917,1,0,0:0:0:0:
64,192,153008,1,0,0:0:0:0:
320,192,153099,1,0,0:0:0:0:
320,192,153281,1,0,0:0:0:0:
192,192,153372,1,0,0:0:0:0:
320,192,153553,1,0,0:0:0:0:
448,192,153644,1,0,0:0:0:0:
192,192,153735,1,0,0:0:0:0:
320,192,153826,1,0,0:0:0:0:
64,192,153917,1,0,0:0:0:0:
320,192,154008,1,0,0:0:0:0:
192,192,154099,1,0,0:0:0:0:
64,192,154281,1,0,0:0:0:0:
192,192,154372,1,0,0:0:0:0:
320,192,154463,1,0,0:0:0:0:
448,192,154553,1,0,0:0:0:0:
448,192,154735,1,0,0:0:0:0:
320,192,154826,1,0,0:0:0:0:
64,192,155008,1,0,0:0:0:0:
320,192,155099,1,0,0:0:0:0:
192,192,155190,1,0,0:0:0:0:
448,192,155281,1,0,0:0:0:0:
448,192,155463,1,0,0:0:0:0:
320,192,155553,1,0,0:0:0:0:
64,192,155735,1,0,0:0:0:0:
320,192,155826,1,0,0:0:0:0:
192,192,155917,1,0,0:0:0:0:
448,192,156008,1,0,0:0:0:0:
448,192,156190,1,0,0:0:0:0:
320,192,156281,1,0,0:0:0:0:
64,192,156463,1,0,0:0:0:0:
192,192,156553,1,0,0:0:0:0:
320,192,156644,1,0,0:0:0:0:
448,192,156735,1,0,0:0:0:0:
448,192,156917,1,0,0:0:0:0:
192,192,157008,1,0,0:0:0:0:
448,192,157190,1,0,0:0:0:0:
192,192,157281,1,0,0:0:0:0:
320,192,157372,1,0,0:0:0:0:
64,192,157463,1,0,0:0:0:0:
64,192,157644,1,0,0:0:0:0:
448,192,157735,1,0,0:0:0:0:
192,192,157917,1,0,0:0:0:0:
448,192,158008,1,0,0:0:0:0:
320,192,158099,1,0,0:0:0:0:
64,192,158190,1,0,0:0:0:0:
64,192,158372,1,0,0:0:0:0:
448,192,158463,1,0,0:0:0:0:
192,192,158644,1,0,0:0:0:0:
448,192,158735,1,0,0:0:0:0:
320,192,158826,1,0,0:0:0:0:
192,192,158917,1,0,0:0:0:0:
192,192,159099,1,0,0:0:0:0:
448,192,159190,1,0,0:0:0:0:
320,192,159372,1,0,0:0:0:0:
448,192,159463,1,0,0:0:0:0:
64,192,159553,1,0,0:0:0:0:
192,192,159644,1,0,0:0:0:0:
192,192,159826,1,0,0:0:0:0:
64,192,159917,1,0,0:0:0:0:
448,192,160099,1,0,0:0:0:0:
64,192,160190,1,0,0:0:0:0:
192,192,160281,1,0,0:0:0:0:
320,192,160372,1,0,0:0:0:0:
320,192,160553,1,0,0:0:0:0:
192,192,160644,1,0,0:0:0:0:
448,192,160826,1,0,0:0:0:0:
192,192,160917,1,0,0:0:0:0:
64,192,161008,1,0,0:0:0:0:
320,192,161099,1,0,0:0:0:0:
320,192,161281,1,0,0:0:0:0:
192,192,161372,1,0,0:0:0:0:
448,192,161553,1,0,0:0:0:0:
192,192,161644,1,0,0:0:0:0:
64,192,161735,1,0,0:0:0:0:
448,192,161826,1,0,0:0:0:0:
448,192,162008,1,0,0:0:0:0:
192,192,162099,1,0,0:0:0:0:
64,192,162281,1,0,0:0:0:0:
320,192,162372,1,0,0:0:0:0:
448,192,162463,1,0,0:0:0:0:
192,192,162553,1,0,0:0:0:0:
192,192,162735,1,0,0:0:0:0:
64,192,162826,1,0,0:0:0:0:
448,192,163008,1,0,0:0:0:0:
64,192,163099,1,0,0:0:0:0:
192,192,163190,1,0,0:0:0:0:
320,192,163281,1,0,0:0:0:0:
64,192,163372,1,2,0:0:0:0:
192,192,163372,1,4,0:0:0:0:
448,192,163372,1,0,0:0:0:0:
320,192,163463,1,0,0:0:0:0:
64,192,163553,1,2,0:0:0:0:
192,192,163553,1,0,0:0:0:0:
320,192,163735,1,2,0:0:0:0:
448,192,163735,1,0,0:0:0:0:
192,192,163826,1,0,0:0:0:0:
64,192,163917,1,2,0:0:0:0:
448,192,163917,1,0,0:0:0:0:
320,192,164008,1,0,0:0:0:0:
64,192,164099,1,2,0:0:0:0:
448,192,164099,1,0,0:0:0:0:
192,192,164190,1,0,0:0:0:0:
320,192,164281,1,2,0:0:0:0:
448,192,164281,1,0,0:0:0:0:
64,192,164463,1,2,0:0:0:0:
192,192,164463,1,0,0:0:0:0:
320,192,164553,1,0,0:0:0:0:
64,192,164644,1,2,0:0:0:0:
448,192,164644,1,0,0:0:0:0:
192,192,164735,1,0,0:0:0:0:
64,192,164826,1,2,0:0:0:0:
448,192,164826,1,0,0:0:0:0:
320,192,164917,1,0,0:0:0:0:
64,192,165008,1,2,0:0:0:0:
192,192,165008,1,0,0:0:0:0:
320,192,165190,1,2,0:0:0:0:
448,192,165190,1,0,0:0:0:0:
192,192,165281,1,0,0:0:0:0:
64,192,165372,1,2,0:0:0:0:
448,192,165372,1,0,0:0:0:0:
320,192,165463,1,0,0:0:0:0:
64,192,165553,1,2,0:0:0:0:
448,192,165553,1,0,0:0:0:0:
192,192,165644,1,0,0:0:0:0:
320,192,165735,1,2,0:0:0:0:
448,192,165735,1,0,0:0:0:0:
64,192,165917,1,2,0:0:0:0:
192,192,165917,1,0,0:0:0:0:
320,192,166008,1,0,0:0:0:0:
64,192,166099,1,2,0:0:0:0:
448,192,166099,1,0,0:0:0:0:
320,192,166190,1,0,0:0:0:0:
64,192,166281,1,2,0:0:0:0:
192,192,166281,1,4,0:0:0:0:
448,192,166281,1,0,0:0:0:0:
320,192,166372,1,0,0:0:0:0:
64,192,166463,1,2,0:0:0:0:
192,192,166463,1,0,0:0:0:0:
320,192,166644,1,2,0:0:0:0:
448,192,166644,1,0,0:0:0:0:
192,192,166735,1,0,0:0:0:0:
64,192,166826,1,2,0:0:0:0:
448,192,166826,1,0,0:0:0:0:
320,192,166917,1,0,0:0:0:0:
64,192,167008,1,2,0:0:0:0:
448,192,167008,1,0,0:0:0:0:
192,192,167099,1,0,0:0:0:0:
320,192,167190,1,2,0:0:0:0:
448,192,167190,1,0,0:0:0:0:
64,192,167372,1,2,0:0:0:0:
192,192,167372,1,0,0:0:0:0:
320,192,167463,1,0,0:0:0:0:
64,192,167553,1,2,0:0:0:0:
448,192,167553,1,0,0:0:0:0:
192,192,167644,1,0,0:0:0:0:
64,192,167735,1,2,0:0:0:0:
448,192,167735,1,0,0:0:0:0:
320,192,167826,1,0,0:0:0:0:
64,192,167917,1,2,0:0:0:0:
192,192,167917,1,0,0:0:0:0:
320,192,168099,1,2,0:0:0:0:
448,192,168099,1,0,0:0:0:0:
192,192,168190,1,0,0:0:0:0:
64,192,168281,1,2,0:0:0:0:
448,192,168281,1,0,0:0:0:0:
320,192,168372,1,0,0:0:0:0:
64,192,168463,1,2,0:0:0:0:
448,192,168463,1,0,0:0:0:0:
192,192,168553,1,0,0:0:0:0:
320,192,168644,1,2,0:0:0:0:
448,192,168644,1,0,0:0:0:0:
64,192,168826,1,2,0:0:0:0:
192,192,168826,1,0,0:0:0:0:
320,192,168917,1,0,0:0:0:0:
64,192,169008,1,2,0:0:0:0:
448,192,169008,1,0,0:0:0:0:
192,192,169099,1,0,0:0:0:0:
64,192,169190,1,2,0:0:0:0:
448,192,169235,1,2,0:0:0:0:
192,192,169281,1,2,0:0:0:0:
320,192,169281,1,0,0:0:0:0:
64,192,169372,1,2,0:0:0:0:
448,192,169372,1,0,0:0:0:0:
320,192,169463,1,2,0:0:0:0:
64,192,169553,1,2,0:0:0:0:
192,192,169553,1,0,0:0:0:0:
320,192,169644,1,2,0:0:0:0:
448,192,169644,1,0,0:0:0:0:
64,192,169735,1,2,0:0:0:0:
192,192,169735,1,0,0:0:0:0:
64,192,169826,1,2,0:0:0:0:
192,192,169826,1,0,0:0:0:0:
448,192,169917,1,2,0:0:0:0:
64,192,169963,1,2,0:0:0:0:
192,192,170008,1,2,0:0:0:0:
320,192,170008,1,0,0:0:0:0:
64,192,170099,1,2,0:0:0:0:
448,192,170099,1,0,0:0:0:0:
192,192,170190,1,2,0:0:0:0:
320,192,170281,1,2,0:0:0:0:
448,192,170281,1,0,0:0:0:0:
64,192,170372,1,2,0:0:0:0:
192,192,170372,1,0,0:0:0:0:
320,192,170463,1,2,0:0:0:0:
448,192,170463,1,0,0:0:0:0:
320,192,170553,1,2,0:0:0:0:
448,192,170553,1,0,0:0:0:0:
192,192,170644,1,2,0:0:0:0:
320,192,170690,1,2,0:0:0:0:
64,192,170735,1,2,0:0:0:0:
448,192,170735,1,0,0:0:0:0:
192,192,170826,1,2,0:0:0:0:
320,192,170826,1,0,0:0:0:0:
448,192,170917,1,2,0:0:0:0:
64,192,171008,1,2,0:0:0:0:
192,192,171008,1,0,0:0:0:0:
320,192,171099,1,2,0:0:0:0:
448,192,171099,1,0,0:0:0:0:
64,192,171190,1,2,0:0:0:0:
192,192,171190,1,0,0:0:0:0:
64,192,171281,1,2,0:0:0:0:
192,192,171281,1,0,0:0:0:0:
320,192,171372,1,2,0:0:0:0:
192,192,171417,1,2,0:0:0:0:
64,192,171463,1,2,0:0:0:0:
448,192,171463,1,0,0:0:0:0:
192,192,171553,1,2,0:0:0:0:
320,192,171553,1,0,0:0:0:0:
64,192,171644,1,2,0:0:0:0:
320,192,171735,1,2,0:0:0:0:
448,192,171735,1,0,0:0:0:0:
64,192,171826,1,2,0:0:0:0:
192,192,171826,1,0,0:0:0:0:
320,192,171917,1,2,0:0:0:0:
448,192,171917,1,0,0:0:0:0:
320,192,172008,1,2,0:0:0:0:
448,192,172008,1,0,0:0:0:0:
192,192,172099,1,2,0:0:0:0:
64,192,172144,1,2,0:0:0:0:
320,192,172190,1,2,0:0:0:0:
192,192,172235,1,2,0:0:0:0:
448,192,172281,1,2,0:0:0:0:
320,192,172326,1,2,0:0:0:0:
192,192,172372,1,2,0:0:0:0:
64,192,172417,1,2,0:0:0:0:
320,192,172463,1,2,0:0:0:0:
448,192,172508,1,2,0:0:0:0:
192,192,172553,1,2,0:0:0:0:
320,192,172599,1,2,0:0:0:0:
64,192,172644,1,2,0:0:0:0:
192,192,172690,1,2,0:0:0:0:
320,192,172735,1,2,0:0:0:0:
448,192,172781,1,2,0:0:0:0:
192,192,172826,1,0,0:0:0:0:
64,192,172878,1,0,0:0:0:0:
320,192,172930,1,0,0:0:0:0:
192,192,172982,1,0,0:0:0:0:
448,192,173034,1,0,0:0:0:0:
64,192,173086,1,0,0:0:0:0:
192,192,173138,1,0,0:0:0:0:
320,192,173190,1,0,0:0:0:0:
448,192,173242,1,0,0:0:0:0:
192,192,173294,1,0,0:0:0:0:
320,192,173346,1,0,0:0:0:0:
64,192,173398,1,0,0:0:0:0:
448,192,173450,1,0,0:0:0:0:
320,192,173501,1,0,0:0:0:0:
192,192,173553,1,0,0:0:0:0:
64,192,173614,1,0,0:0:0:0:
448,192,173675,1,0,0:0:0:0:
320,192,173735,1,0,0:0:0:0:
192,192,173796,1,0,0:0:0:0:
64,192,173856,1,0,0:0:0:0:
320,192,173917,1,0,0:0:0:0:
448,192,173978,1,0,0:0:0:0:
64,192,174038,1,0,0:0:0:0:
192,192,174099,1,0,0:0:0:0:
320,192,174159,1,0,0:0:0:0:
448,192,174220,1,0,0:0:0:0:
64,192,174281,128,2,174917:0:0:0:0:
192,192,174281,128,0,174917:0:0:0:0:
64,192,175008,128,2,175281:0:0:0:0:
192,192,175008,1,4,0:0:0:0:
448,192,175008,128,0,175281:0:0:0:0:
320,192,175099,128,0,175281:0:0:0:0:
192,192,175190,128,0,175281:0:0:0:0:
64,192,175372,1,2,0:0:0:0:
320,192,175372,1,8,0:0:0:0:
448,192,175372,128,0,176008:0:0:0:0:
192,192,175463,128,0,175644:0:0:0:0:
64,192,175553,128,0,175644:0:0:0:0:
320,192,175644,128,0,175735:0:0:0:0:
64,192,175735,128,2,176008:0:0:0:0:
192,192,175735,1,0,0:0:0:0:
320,192,175826,128,0,176008:0:0:0:0:
192,192,175917,128,0,176008:0:0:0:0:
64,192,176099,1,2,0:0:0:0:
320,192,176099,1,8,0:0:0:0:
448,192,176099,128,0,176735:0:0:0:0:
192,192,176190,128,0,176372:0:0:0:0:
64,192,176281,128,0,176372:0:0:0:0:
320,192,176372,128,0,176463:0:0:0:0:
64,192,176463,128,2,176735:0:0:0:0:
192,192,176463,1,0,0:0:0:0:
320,192,176553,128,0,176735:0:0:0:0:
192,192,176644,128,0,176735:0:0:0:0:
64,192,176826,128,8,177463:0:0:0:0:
192,192,176826,1,2,0:0:0:0:
320,192,176826,128,0,177008:0:0:0:0:
448,192,176917,128,0,177099:0:0:0:0:
192,192,177008,128,0,177099:0:0:0:0:
320,192,177099,128,0,177190:0:0:0:0:
192,192,177190,1,2,0:0:0:0:
448,192,177190,1,0,0:0:0:0:
320,192,177281,128,0,177463:0:0:0:0:
192,192,177372,128,0,177463:0:0:0:0:
64,192,177553,128,8,177826:0:0:0:0:
320,192,177553,1,2,0:0:0:0:
448,192,177553,1,0,0:0:0:0:
192,192,177644,128,0,177826:0:0:0:0:
320,192,177735,128,0,177917:0:0:0:0:
448,192,177826,128,0,177917:0:0:0:0:
64,192,177917,1,2,0:0:0:0:
192,192,177917,128,0,178190:0:0:0:0:
448,192,178008,128,0,178190:0:0:0:0:
320,192,178099,128,0,178190:0:0:0:0:
64,192,178281,128,2,178917:0:0:0:0:
192,192,178281,1,8,0:0:0:0:
448,192,178281,1,0,0:0:0:0:
320,192,178372,128,0,178553:0:0:0:0:
192,192,178463,128,0,178553:0:0:0:0:
448,192,178553,128,0,178644:0:0:0:0:
192,192,178644,128,2,178917:0:0:0:0:
320,192,178644,1,0,0:0:0:0:
448,192,178735,128,0,178917:0:0:0:0:
320,192,178826,128,0,178917:0:0:0:0:
64,192,179008,128,2,179644:0:0:0:0:
192,192,179008,1,8,0:0:0:0:
448,192,179008,1,0,0:0:0:0:
320,192,179099,128,0,179281:0:0:0:0:
192,192,179190,128,0,179281:0:0:0:0:
448,192,179281,128,0,179372:0:0:0:0:
192,192,179372,128,2,179644:0:0:0:0:
320,192,179372,1,0,0:0:0:0:
448,192,179463,128,0,179644:0:0:0:0:
320,192,179553,128,0,179644:0:0:0:0:
64,192,179735,128,2,180372:0:0:0:0:
320,192,179735,1,8,0:0:0:0:
448,192,179735,1,0,0:0:0:0:
192,192,179826,128,0,180008:0:0:0:0:
320,192,179917,128,0,180008:0:0:0:0:
448,192,180008,128,0,180099:0:0:0:0:
192,192,180099,1,2,0:0:0:0:
320,192,180099,1,0,0:0:0:0:
448,192,180190,128,0,180372:0:0:0:0:
192,192,180281,128,0,180372:0:0:0:0:
64,192,180463,1,2,0:0:0:0:
192,192,180463,1,8,0:0:0:0:
320,192,180463,128,0,180735:0:0:0:0:
448,192,180553,128,0,180735:0:0:0:0:
64,192,180644,128,0,180735:0:0:0:0:
192,192,180735,128,0,180826:0:0:0:0:
64,192,180826,128,2,181099:0:0:0:0:
448,192,180826,1,0,0:0:0:0:
320,192,180917,128,0,181099:0:0:0:0:
192,192,181008,128,0,181099:0:0:0:0:
64,192,181190,1,8,0:0:0:0:
320,192,181190,1,2,0:0:0:0:
448,192,181190,128,0,181826:0:0:0:0:
192,192,181281,128,0,181463:0:0:0:0:
64,192,181372,128,0,181463:0:0:0:0:
320,192,181463,128,0,181553:0:0:0:0:
64,192,181553,128,2,181826:0:0:0:0:
192,192,181553,1,0,0:0:0:0:
320,192,181644,128,0,181826:0:0:0:0:
192,192,181735,128,0,181826:0:0:0:0:
64,192,181917,1,8,0:0:0:0:
320,192,181917,1,2,0:0:0:0:
448,192,181917,128,0,182553:0:0:0:0:
192,192,182008,128,0,182190:0:0:0:0:
64,192,182099,128,0,182190:0:0:0:0:
320,192,182190,128,0,182281:0:0:0:0:
64,192,182281,128,2,182553:0:0:0:0:
192,192,182281,1,0,0:0:0:0:
320,192,182372,128,0,182553:0:0:0:0:
192,192,182463,128,0,182553:0:0:0:0:
64,192,182644,128,2,183281:0:0:0:0:
192,192,182644,1,8,0:0:0:0:
320,192,182644,128,0,182826:0:0:0:0:
448,192,182735,128,0,182917:0:0:0:0:
192,192,182826,128,0,182917:0:0:0:0:
320,192,182917,128,0,183008:0:0:0:0:
192,192,183008,1,2,0:0:0:0:
448,192,183008,1,0,0:0:0:0:
320,192,183099,128,0,183281:0:0:0:0:
192,192,183190,128,0,183281:0:0:0:0:
64,192,183372,128,2,183644:0:0:0:0:
320,192,183372,1,8,0:0:0:0:
448,192,183372,1,0,0:0:0:0:
192,192,183463,128,0,183644:0:0:0:0:
320,192,183553,128,0,183735:0:0:0:0:
448,192,183644,128,0,183735:0:0:0:0:
64,192,183735,1,2,0:0:0:0:
192,192,183735,128,0,184008:0:0:0:0:
448,192,183826,128,0,184008:0:0:0:0:
320,192,183917,128,0,184008:0:0:0:0:
64,192,184099,128,2,184281:0:0:0:0:
192,192,184099,1,8,0:0:0:0:
448,192,184099,1,0,0:0:0:0:
320,192,184190,128,0,184372:0:0:0:0:
192,192,184281,128,0,184463:0:0:0:0:
448,192,184372,128,0,184463:0:0:0:0:
64,192,184463,128,2,184735:0:0:0:0:
320,192,184463,1,0,0:0:0:0:
448,192,184553,128,0,184735:0:0:0:0:
192,192,184644,128,0,184735:0:0:0:0:
64,192,184826,1,2,0:0:0:0:
192,192,184826,128,8,185008:0:0:0:0:
448,192,184826,1,0,0:0:0:0:
320,192,184917,128,0,185099:0:0:0:0:
64,192,185008,128,0,185190:0:0:0:0:
448,192,185099,128,0,185190:0:0:0:0:
192,192,185190,128,2,185463:0:0:0:0:
320,192,185190,1,0,0:0:0:0:
448,192,185281,128,0,185463:0:0:0:0:
64,192,185372,128,0,185463:0:0:0:0:
64,192,185553,1,8,0:0:0:0:
192,192,185553,1,2,0:0:0:0:
448,192,185553,128,0,185826:0:0:0:0:
320,192,185644,128,0,185826:0:0:0:0:
192,192,185735,128,0,185917:0:0:0:0:
64,192,185826,128,0,185917:0:0:0:0:
320,192,185917,1,2,0:0:0:0:
448,192,185917,1,0,0:0:0:0:
64,192,186008,128,0,186190:0:0:0:0:
448,192,186099,128,0,186190:0:0:0:0:
192,192,186281,128,0,186372:0:0:0:0:
64,192,186372,128,0,186463:0:0:0:0:
192,192,186463,128,0,186553:0:0:0:0:
320,192,186553,128,0,186644:0:0:0:0:
64,192,186644,128,2,186917:0:0:0:0:
192,192,186644,1,4,0:0:0:0:
448,192,186644,128,0,186917:0:0:0:0:
320,192,186735,128,0,186917:0:0:0:0:
192,192,186826,128,0,186917:0:0:0:0:
64,192,187008,1,2,0:0:0:0:
320,192,187008,1,8,0:0:0:0:
448,192,187008,128,0,187644:0:0:0:0:
192,192,187099,128,0,187281:0:0:0:0:
64,192,187190,128,0,187281:0:0:0:0:
320,192,187281,128,0,187372:0:0:0:0:
64,192,187372,128,2,187644:0:0:0:0:
192,192,187372,1,0,0:0:0:0:
320,192,187463,128,0,187644:0:0:0:0:
192,192,187553,128,0,187644:0:0:0:0:
64,192,187735,1,2,0:0:0:0:
320,192,187735,1,8,0:0:0:0:
448,192,187735,128,0,188372:0:0:0:0:
192,192,187826,128,0,188008:0:0:0:0:
64,192,187917,128,0,188008:0:0:0:0:
320,192,188008,128,0,188099:0:0:0:0:
64,192,188099,128,2,188372:0:0:0:0:
192,192,188099,1,0,0:0:0:0:
320,192,188190,128,0,188372:0:0:0:0:
192,192,188281,128,0,188372:0:0:0:0:
64,192,188463,128,8,189099:0:0:0:0:
192,192,188463,1,2,0:0:0:0:
320,192,188463,128,0,188644:0:0:0:0:
448,192,188553,128,0,188735:0:0:0:0:
192,192,188644,128,0,188735:0:0:0:0:
320,192,188735,128,0,188826:0:0:0:0:
192,192,188826,1,2,0:0:0:0:
448,192,188826,1,0,0:0:0:0:
320,192,188917,128,0,189099:0:0:0:0:
192,192,189008,128,0,189099:0:0:0:0:
64,192,189190,128,8,189463:0:0:0:0:
320,192,189190,1,2,0:0:0:0:
448,192,189190,1,0,0:0:0:0:
192,192,189281,128,0,189463:0:0:0:0:
320,192,189372,128,0,189553:0:0:0:0:
448,192,189463,128,0,189553:0:0:0:0:
64,192,189553,1,2,0:0:0:0:
192,192,189553,128,0,189826:0:0:0:0:
448,192,189644,128,0,189826:0:0:0:0:
320,192,189735,128,0,189826:0:0:0:0:
64,192,189917,128,2,190553:0:0:0:0:
192,192,189917,1,8,0:0:0:0:
448,192,189917,1,0,0:0:0:0:
320,192,190008,128,0,190190:0:0:0:0:
192,192,190099,128,0,190190:0:0:0:0:
448,192,190190,128,0,190281:0:0:0:0:
192,192,190281,128,2,190553:0:0:0:0:
320,192,190281,1,0,0:0:0:0:
448,192,190372,128,0,190553:0:0:0:0:
320,192,190463,128,0,190553:0:0:0:0:
64,192,190644,128,2,191281:0:0:0:0:
192,192,190644,1,8,0:0:0:0:
448,192,190644,1,0,0:0:0:0:
320,192,190735,128,0,190917:0:0:0:0:
192,192,190826,128,0,190917:0:0:0:0:
448,192,190917,128,0,191008:0:0:0:0:
192,192,191008,128,2,191281:0:0:0:0:
320,192,191008,1,0,0:0:0:0:
448,192,191099,128,0,191281:0:0:0:0:
320,192,191190,128,0,191281:0:0:0:0:
64,192,191372,128,8,192008:0:0:0:0:
320,192,191372,1,2,0:0:0:0:
448,192,191372,1,0,0:0:0:0:
192,192,191463,128,0,191644:0:0:0:0:
320,192,191553,128,0,191644:0:0:0:0:
448,192,191644,128,0,191735:0:0:0:0:
192,192,191735,1,2,0:0:0:0:
320,192,191735,1,0,0:0:0:0:
448,192,191826,128,0,192008:0:0:0:0:
192,192,191917,128,0,192008:0:0:0:0:
64,192,192099,1,8,0:0:0:0:
320,192,192099,1,2,0:0:0:0:
448,192,192099,128,0,192463:0:0:0:0:
192,192,192190,128,0,192372:0:0:0:0:
320,192,192281,128,0,192372:0:0:0:0:
64,192,192372,128,0,192463:0:0:0:0:
192,192,192463,1,2,0:0:0:0:
320,192,192463,128,0,192735:0:0:0:0:
64,192,192553,128,0,192735:0:0:0:0:
448,192,192644,128,0,192735:0:0:0:0:
64,192,192826,1,2,0:0:0:0:
192,192,192826,128,8,193463:0:0:0:0:
320,192,192826,1,0,0:0:0:0:
448,192,192917,128,0,193099:0:0:0:0:
320,192,193008,128,0,193099:0:0:0:0:
64,192,193099,128,0,193190:0:0:0:0:
320,192,193190,128,2,193463:0:0:0:0:
448,192,193190,1,0,0:0:0:0:
64,192,193281,128,0,193463:0:0:0:0:
448,192,193372,128,0,193463:0:0:0:0:
64,192,193553,128,2,194190:0:0:0:0:
192,192,193553,1,8,0:0:0:0:
320,192,193553,1,0,0:0:0:0:
448,192,193644,128,0,193826:0:0:0:0:
320,192,193735,128,0,193826:0:0:0:0:
192,192,193826,128,0,193917:0:0:0:0:
320,192,193917,128,2,194190:0:0:0:0:
448,192,193917,1,0,0:0:0:0:
192,192,194008,128,0,194190:0:0:0:0:
448,192,194099,128,0,194190:0:0:0:0:
64,192,194281,1,8,0:0:0:0:
192,192,194281,1,2,0:0:0:0:
320,192,194281,128,0,194917:0:0:0:0:
448,192,194372,128,0,194553:0:0:0:0:
64,192,194463,128,0,194553:0:0:0:0:
192,192,194553,128,0,194644:0:0:0:0:
64,192,194644,1,2,0:0:0:0:
448,192,194644,128,0,194917:0:0:0:0:
192,192,194735,128,0,194917:0:0:0:0:
64,192,194826,128,0,194917:0:0:0:0:
192,192,195008,1,8,0:0:0:0:
320,192,195008,1,2,0:0:0:0:
448,192,195008,128,0,195644:0:0:0:0:
64,192,195099,128,0,195281:0:0:0:0:
192,192,195190,128,0,195281:0:0:0:0:
320,192,195281,128,0,195372:0:0:0:0:
64,192,195372,128,2,195644:0:0:0:0:
192,192,195372,1,0,0:0:0:0:
320,192,195463,128,0,195644:0:0:0:0:
192,192,195553,128,0,195644:0:0:0:0:
64,192,195735,1,2,0:0:0:0:
320,192,195735,1,8,0:0:0:0:
448,192,195735,128,0,196372:0:0:0:0:
192,192,195826,128,0,196008:0:0:0:0:
64,192,195917,128,0,196008:0:0:0:0:
320,192,196008,128,0,196099:0:0:0:0:
64,192,196099,128,2,196372:0:0:0:0:
192,192,196099,1,0,0:0:0:0:
320,192,196190,128,0,196372:0:0:0:0:
192,192,196281,128,0,196372:0:0:0:0:
64,192,196463,1,2,0:0:0:0:
320,192,196463,128,8,196735:0:0:0:0:
448,192,196463,1,0,0:0:0:0:
192,192,196553,128,0,196735:0:0:0:0:
64,192,196644,128,0,196735:0:0:0:0:
448,192,196735,128,0,196826:0:0:0:0:
64,192,196826,1,2,0:0:0:0:
192,192,196826,128,0,197099:0:0:0:100:softsnare.wav
320,192,196826,128,0,197099:0:0:0:0:
448,192,196917,128,0,197099:0:0:0:0:
64,192,197008,1,0,0:0:0:0:
192,192,197190,1,0,0:0:0:0:
64,192,197281,1,0,0:0:0:0:
192,192,197372,1,0,0:0:0:0:
64,192,197463,128,0,197553:0:0:0:0:
192,192,197553,1,2,0:0:0:0:
320,192,197553,1,0,0:0:0:100:softsnare.wav
448,192,197553,1,0,0:0:0:0:
64,192,197644,128,0,197826:0:0:0:0:
448,192,197735,1,0,0:0:0:0:
64,192,197917,1,0,0:0:0:100:loudsnare.wav
192,192,197917,1,0,0:0:0:0:
320,192,197978,1,0,0:0:0:0:
448,192,198038,1,0,0:0:0:0:
64,192,198099,1,0,0:0:0:0:
192,192,198159,1,0,0:0:0:0:
320,192,198220,1,0,0:0:0:0:
64,192,198281,128,2,198553:0:0:0:0:
192,192,198281,1,4,0:0:0:0:
448,192,198281,128,0,198553:0:0:0:0:
320,192,198372,128,0,198553:0:0:0:0:
192,192,198463,128,0,198644:0:0:0:0:
64,192,198644,1,2,0:0:0:0:
320,192,198644,128,8,198826:0:0:0:0:
448,192,198644,128,0,199008:0:0:0:0:
192,192,198735,128,0,198917:0:0:0:0:
64,192,198826,128,0,198917:0:0:0:0:
320,192,198917,128,0,199008:0:0:0:0:
64,192,199008,128,2,199281:0:0:0:0:
192,192,199008,1,0,0:0:0:0:
320,192,199099,128,0,199281:0:0:0:0:
192,192,199190,128,0,199372:0:0:0:0:
64,192,199372,1,2,0:0:0:0:
320,192,199372,128,8,199553:0:0:0:0:
448,192,199372,128,0,199735:0:0:0:0:
192,192,199463,128,0,199644:0:0:0:0:
64,192,199553,128,0,199644:0:0:0:0:
320,192,199644,128,0,199735:0:0:0:0:
64,192,199735,128,2,200008:0:0:0:0:
192,192,199735,1,0,0:0:0:0:
320,192,199826,128,0,200008:0:0:0:0:
192,192,199917,128,0,200099:0:0:0:0:
64,192,200099,128,8,200463:0:0:0:0:
320,192,200099,1,2,0:0:0:0:
448,192,200099,128,0,200281:0:0:0:0:
192,192,200190,128,0,200372:0:0:0:0:
320,192,200281,128,0,200372:0:0:0:0:
448,192,200372,128,0,200463:0:0:0:0:
192,192,200463,128,2,200735:0:0:0:0:
320,192,200463,1,0,0:0:0:0:
448,192,200553,128,0,200735:0:0:0:0:
64,192,200644,128,0,200735:0:0:0:0:
64,192,200826,1,8,0:0:0:0:
192,192,200826,128,2,201008:0:0:0:0:
448,192,200826,128,0,201190:0:0:0:0:
320,192,200917,128,0,201099:0:0:0:0:
64,192,201008,128,0,201099:0:0:0:0:
192,192,201099,128,0,201190:0:0:0:0:
64,192,201190,1,2,0:0:0:0:
320,192,201190,128,0,201463:0:0:0:0:
192,192,201281,128,0,201463:0:0:0:0:
64,192,201372,128,0,201463:0:0:0:0:
64,192,201553,128,2,201917:0:0:0:0:
192,192,201553,128,8,201735:0:0:0:0:
320,192,201553,1,0,0:0:0:0:
448,192,201644,128,0,201826:0:0:0:0:
320,192,201735,128,0,201826:0:0:0:0:
192,192,201826,128,0,201917:0:0:0:0:
320,192,201917,128,2,202190:0:0:0:0:
448,192,201917,1,0,0:0:0:0:
192,192,202008,128,0,202190:0:0:0:0:
64,192,202099,128,0,202190:0:0:0:0:
64,192,202281,128,2,202644:0:0:0:0:
192,192,202281,128,8,202463:0:0:0:0:
320,192,202281,1,0,0:0:0:0:
448,192,202372,128,0,202553:0:0:0:0:
320,192,202463,128,0,202553:0:0:0:0:
192,192,202553,128,0,202644:0:0:0:0:
320,192,202644,128,2,202917:0:0:0:0:
448,192,202644,1,0,0:0:0:0:
192,192,202735,128,0,202917:0:0:0:0:
64,192,202826,128,0,202917:0:0:0:0:
64,192,203008,1,8,0:0:0:0:
192,192,203008,128,2,203190:0:0:0:0:
320,192,203008,128,0,203281:0:0:0:0:
448,192,203099,128,0,203281:0:0:0:0:
64,192,203190,128,0,203281:0:0:0:0:
192,192,203281,128,0,203372:0:0:0:0:
320,192,203372,128,2,203644:0:0:0:0:
448,192,203372,1,0,0:0:0:0:
192,192,203463,128,0,203644:0:0:0:0:
448,192,203553,128,0,203644:0:0:0:0:
64,192,203735,128,8,204008:0:0:0:0:
192,192,203735,128,2,203917:0:0:0:0:
448,192,203735,1,0,0:0:0:0:
320,192,203826,128,0,204008:0:0:0:0:
448,192,203917,128,0,204008:0:0:0:0:
192,192,204008,128,0,204099:0:0:0:0:
64,192,204099,128,2,204372:0:0:0:0:
448,192,204099,1,0,0:0:0:0:
320,192,204190,128,0,204372:0:0:0:0:
192,192,204281,128,0,204463:0:0:0:0:
64,192,204463,1,8,0:0:0:0:
320,192,204463,128,2,204644:0:0:0:0:
448,192,204463,128,0,204826:0:0:0:0:
192,192,204553,128,0,204735:0:0:0:0:
64,192,204644,128,0,204735:0:0:0:0:
320,192,204735,128,0,204826:0:0:0:0:
64,192,204826,128,2,205099:0:0:0:0:
192,192,204826,1,0,0:0:0:0:
320,192,204917,128,0,205099:0:0:0:0:
192,192,205008,128,0,205190:0:0:0:0:
64,192,205190,1,8,0:0:0:0:
320,192,205190,128,2,205372:0:0:0:0:
448,192,205190,128,0,205553:0:0:0:0:
192,192,205281,128,0,205463:0:0:0:0:
64,192,205372,128,0,205463:0:0:0:0:
320,192,205463,128,0,205553:0:0:0:0:
64,192,205553,128,2,205826:0:0:0:0:
192,192,205553,1,0,0:0:0:0:
320,192,205644,128,0,205826:0:0:0:0:
192,192,205735,128,0,205917:0:0:0:0:
64,192,205917,128,2,206281:0:0:0:0:
320,192,205917,1,8,0:0:0:0:
448,192,205917,128,0,206099:0:0:0:0:
192,192,206008,128,0,206190:0:0:0:0:
320,192,206099,128,0,206190:0:0:0:0:
448,192,206190,128,0,206281:0:0:0:0:
192,192,206281,128,2,206553:0:0:0:0:
320,192,206281,1,0,0:0:0:0:
448,192,206372,128,0,206553:0:0:0:0:
64,192,206463,128,0,206553:0:0:0:0:
64,192,206644,1,2,0:0:0:0:
192,192,206644,128,8,206826:0:0:0:0:
448,192,206644,128,0,207008:0:0:0:0:
320,192,206735,128,0,206917:0:0:0:0:
64,192,206826,128,0,206917:0:0:0:0:
192,192,206917,128,0,207008:0:0:0:0:
64,192,207008,1,2,0:0:0:0:
320,192,207008,128,0,207281:0:0:0:0:
192,192,207099,128,0,207281:0:0:0:0:
64,192,207190,128,0,207281:0:0:0:0:
64,192,207372,128,2,207735:0:0:0:0:
192,192,207372,1,8,0:0:0:0:
320,192,207372,128,0,207553:0:0:0:0:
448,192,207463,128,0,207644:0:0:0:0:
192,192,207553,128,0,207644:0:0:0:0:
320,192,207644,128,0,207735:0:0:0:0:
192,192,207735,128,2,208008:0:0:0:0:
448,192,207735,1,0,0:0:0:0:
320,192,207826,128,0,208008:0:0:0:0:
64,192,207917,128,0,208008:0:0:0:0:
192,192,208099,1,2,0:0:0:0:
320,192,208099,128,8,208463:0:0:0:0:
448,192,208099,128,0,208281:0:0:0:0:
64,192,208190,128,0,208372:0:0:0:0:
192,192,208281,128,0,208372:0:0:0:0:
448,192,208372,128,0,208463:0:0:0:0:
64,192,208463,128,2,208735:0:0:0:0:
192,192,208463,1,0,0:0:0:0:
448,192,208553,128,0,208735:0:0:0:0:
192,192,208644,128,0,208735:0:0:0:0:
64,192,208826,128,8,209008:0:0:0:0:
192,192,208826,1,2,0:0:0:0:
448,192,208826,128,0,209190:0:0:0:0:
320,192,208917,128,0,209099:0:0:0:0:
192,192,209008,128,0,209099:0:0:0:0:
64,192,209099,128,0,209190:0:0:0:0:
192,192,209190,1,2,0:0:0:0:
320,192,209190,128,0,209463:0:0:0:0:
64,192,209281,128,0,209463:0:0:0:0:
448,192,209372,128,0,209463:0:0:0:0:
448,192,209553,1,0,0:0:0:0:
320,192,209644,1,0,0:0:0:0:
448,192,209735,1,0,0:0:0:0:
320,192,209826,1,0,0:0:0:0:
64,192,209917,128,2,210190:0:0:0:0:
192,192,209917,1,4,0:0:0:0:
448,192,209917,128,0,210190:0:0:0:0:
320,192,210008,128,0,210190:0:0:0:0:
192,192,210099,128,0,210281:0:0:0:0:
64,192,210281,1,8,0:0:0:0:
320,192,210281,128,2,210463:0:0:0:0:
448,192,210281,128,0,210644:0:0:0:0:
192,192,210372,128,0,210553:0:0:0:0:
64,192,210463,128,0,210553:0:0:0:0:
320,192,210553,128,0,210644:0:0:0:0:
64,192,210644,128,2,210917:0:0:0:0:
192,192,210644,1,0,0:0:0:0:
320,192,210735,128,0,210917:0:0:0:0:
192,192,210826,128,0,211008:0:0:0:0:
64,192,211008,1,8,0:0:0:0:
320,192,211008,128,2,211190:0:0:0:0:
448,192,211008,128,0,211372:0:0:0:0:
192,192,211099,128,0,211281:0:0:0:0:
64,192,211190,128,0,211281:0:0:0:0:
320,192,211281,128,0,211372:0:0:0:0:
64,192,211372,128,2,211644:0:0:0:0:
192,192,211372,1,0,0:0:0:0:
320,192,211463,128,0,211644:0:0:0:0:
192,192,211553,128,0,211735:0:0:0:0:
64,192,211735,128,2,212099:0:0:0:0:
320,192,211735,1,8,0:0:0:0:
448,192,211735,128,0,211917:0:0:0:0:
192,192,211826,128,0,212008:0:0:0:0:
320,192,211917,128,0,212008:0:0:0:0:
448,192,212008,128,0,212099:0:0:0:0:
192,192,212099,128,2,212372:0:0:0:0:
320,192,212099,1,0,0:0:0:0:
448,192,212190,128,0,212372:0:0:0:0:
64,192,212281,128,0,212372:0:0:0:0:
64,192,212463,1,2,0:0:0:0:
192,192,212463,128,8,212644:0:0:0:0:
448,192,212463,128,0,212826:0:0:0:0:
320,192,212553,128,0,212735:0:0:0:0:
64,192,212644,128,0,212735:0:0:0:0:
192,192,212735,128,0,212826:0:0:0:0:
64,192,212826,1,2,0:0:0:0:
320,192,212826,128,0,213099:0:0:0:0:
192,192,212917,128,0,213099:0:0:0:0:
64,192,213008,128,0,213099:0:0:0:0:
64,192,213190,128,2,213553:0:0:0:0:
192,192,213190,128,8,213372:0:0:0:0:
320,192,213190,1,0,0:0:0:0:
448,192,213281,128,0,213463:0:0:0:0:
320,192,213372,128,0,213463:0:0:0:0:
192,192,213463,128,0,213553:0:0:0:0:
320,192,213553,128,2,213826:0:0:0:0:
448,192,213553,1,0,0:0:0:0:
192,192,213644,128,0,213826:0:0:0:0:
64,192,213735,128,0,213826:0:0:0:0:
64,192,213917,128,2,214281:0:0:0:0:
192,192,213917,128,8,214099:0:0:0:0:
320,192,213917,1,0,0:0:0:0:
448,192,214008,128,0,214190:0:0:0:0:
320,192,214099,128,0,214190:0:0:0:0:
192,192,214190,128,0,214281:0:0:0:0:
320,192,214281,128,2,214553:0:0:0:0:
448,192,214281,1,0,0:0:0:0:
192,192,214372,128,0,214553:0:0:0:0:
64,192,214463,128,0,214553:0:0:0:0:
64,192,214644,1,8,0:0:0:0:
192,192,214644,128,2,214826:0:0:0:0:
320,192,214644,128,0,214917:0:0:0:0:
448,192,214735,128,0,214917:0:0:0:0:
64,192,214826,128,0,214917:0:0:0:0:
192,192,214917,128,0,215008:0:0:0:0:
320,192,215008,128,2,215281:0:0:0:0:
448,192,215008,1,0,0:0:0:0:
192,192,215099,128,0,215281:0:0:0:0:
448,192,215190,128,0,215281:0:0:0:0:
64,192,215372,128,8,215553:0:0:0:0:
192,192,215372,128,2,215644:0:0:0:0:
448,192,215372,1,0,0:0:0:0:
320,192,215463,128,0,215644:0:0:0:0:
448,192,215553,128,0,215644:0:0:0:0:
64,192,215644,128,0,215735:0:0:0:0:
192,192,215735,1,2,0:0:0:0:
320,192,215735,128,4,216008:0:0:0:0:
448,192,215735,128,0,216008:0:0:0:0:
64,192,215826,128,0,216008:0:0:0:0:
192,192,215917,128,0,216008:0:0:0:0:
64,192,216099,128,8,216281:0:0:0:0:
192,192,216099,1,2,0:0:0:0:
448,192,216099,128,0,216463:0:0:0:0:
320,192,216190,128,0,216372:0:0:0:0:
192,192,216281,128,0,216372:0:0:0:0:
64,192,216372,128,0,216463:0:0:0:0:
192,192,216463,1,2,0:0:0:0:
320,192,216463,128,0,216735:0:0:0:0:
64,192,216553,128,0,216735:0:0:0:0:
192,192,216644,128,0,216735:0:0:0:0:
64,192,216826,128,8,217099:0:0:0:0:
192,192,216826,1,2,0:0:0:0:
448,192,216826,128,0,217008:0:0:0:0:
320,192,216917,128,0,217099:0:0:0:0:
192,192,217008,128,0,217099:0:0:0:0:
448,192,217099,128,0,217190:0:0:0:0:
64,192,217190,128,2,217463:0:0:0:0:
192,192,217190,128,4,217463:0:0:0:0:
320,192,217190,1,0,0:0:0:0:
448,192,217281,128,0,217463:0:0:0:0:
320,192,217372,128,0,217463:0:0:0:0:
64,192,217553,128,2,217917:0:0:0:0:
320,192,217553,1,8,0:0:0:0:
448,192,217553,128,0,217735:0:0:0:0:
192,192,217644,128,0,217826:0:0:0:0:
320,192,217735,128,0,217826:0:0:0:0:
448,192,217826,128,0,217917:0:0:0:0:
192,192,217917,128,2,218190:0:0:0:0:
320,192,217917,1,0,0:0:0:0:
448,192,218008,128,0,218190:0:0:0:0:
320,192,218099,128,0,218190:0:0:0:0:
64,192,218281,128,2,218553:0:0:0:0:
192,192,218281,128,8,218463:0:0:0:0:
320,192,218372,128,0,218553:0:0:0:0:
448,192,218463,128,0,218553:0:0:0:0:
192,192,218553,128,0,218644:0:0:0:0:
64,192,218644,1,2,0:0:0:0:
320,192,218644,1,0,0:0:0:100:shortcymbal.wav
448,192,218644,1,0,0:0:0:0:
192,192,218735,128,0,218917:0:0:0:0:
64,192,218826,128,0,218917:0:0:0:0:
320,192,218917,1,0,0:0:0:0:
192,192,219008,1,0,0:0:0:0:
448,192,219008,128,0,219190:0:0:0:0:
320,192,219099,128,0,219190:0:0:0:0:
64,192,219190,128,0,219281:0:0:0:0:
192,192,219281,128,0,219372:0:0:0:0:
320,192,219372,1,0,0:0:0:0:
192,192,219463,128,0,219644:0:0:0:0:
64,192,219553,128,0,219644:0:0:0:0:
320,192,219644,1,0,0:0:0:0:
192,192,219735,1,0,0:0:0:0:
448,192,219735,128,0,219917:0:0:0:0:
320,192,219826,128,0,219917:0:0:0:0:
64,192,219917,128,0,220008:0:0:0:0:
320,192,220008,128,0,220099:0:0:0:0:
64,192,220099,1,2,0:0:0:0:
192,192,220099,1,0,0:0:0:100:shortcymbal.wav
448,192,220099,1,0,0:0:0:0:
320,192,220190,128,0,220372:0:0:0:0:
192,192,220281,128,0,220372:0:0:0:0:
64,192,220372,1,0,0:0:0:0:
192,192,220463,128,0,220644:0:0:0:0:
448,192,220463,1,0,0:0:0:0:
320,192,220553,128,0,220644:0:0:0:0:
64,192,220644,128,0,220735:0:0:0:0:
448,192,220735,128,0,220826:0:0:0:0:
64,192,220826,1,2,0:0:0:0:
192,192,220826,1,0,0:0:0:100:shortcymbal.wav
320,192,220826,1,0,0:0:0:0:
448,192,220917,128,0,221099:0:0:0:0:
64,192,221008,128,0,221099:0:0:0:0:
192,192,221190,128,0,221372:0:0:0:0:
320,192,221190,1,0,0:0:0:0:
448,192,221281,128,0,221372:0:0:0:0:
64,192,221372,128,0,221463:0:0:0:0:
320,192,221463,128,0,221553:0:0:0:0:
64,192,221553,1,2,0:0:0:0:
192,192,221553,1,4,0:0:0:0:
448,192,221553,1,0,0:0:0:0:
320,192,221735,1,0,0:0:0:0:
64,192,221826,128,0,221917:0:0:0:0:
320,192,221917,1,2,0:0:0:0:
448,192,221917,1,8,0:0:0:0:
64,192,222099,128,0,222281:0:0:0:0:
320,192,222190,1,0,0:0:0:0:
192,192,222281,1,2,0:0:0:0:
448,192,222281,1,0,0:0:0:0:
320,192,222372,1,0,0:0:0:0:
64,192,222463,1,0,0:0:0:0:
448,192,222553,1,0,0:0:0:0:
192,192,222644,128,2,222735:0:0:0:0:
320,192,222644,128,8,222917:0:0:0:0:
64,192,222735,128,0,222917:0:0:0:0:
192,192,222826,128,0,222917:0:0:0:0:
320,192,223008,128,2,223190:0:0:0:0:
448,192,223008,1,0,0:0:0:0:
64,192,223190,128,0,223372:0:0:0:0:
192,192,223372,1,8,0:0:0:0:
320,192,223372,1,2,0:0:0:0:
448,192,223553,1,0,0:0:0:0:
192,192,223644,1,0,0:0:0:0:
64,192,223735,1,2,0:0:0:0:
320,192,223735,1,0,0:0:0:0:
192,192,223826,1,0,0:0:0:0:
448,192,223872,1,0,0:0:0:0:
320,192,223917,128,0,224190:0:0:0:0:
64,192,224099,1,8,0:0:0:0:
448,192,224099,128,2,224372:0:0:0:0:
320,192,224281,128,0,224372:0:0:0:0:
192,192,224463,1,2,0:0:0:0:
320,192,224463,128,0,224553:0:0:0:0:
448,192,224553,128,0,224644:0:0:0:0:
320,192,224735,128,0,224826:0:0:0:0:
64,192,224826,1,2,0:0:0:0:
448,192,224826,128,8,224917:0:0:0:0:
320,192,224917,128,0,225008:0:0:0:0:
192,192,225008,1,0,0:0:0:0:
448,192,225008,128,0,225099:0:0:0:0:
64,192,225099,1,0,0:0:0:0:
192,192,225190,1,2,0:0:0:0:
448,192,225190,128,0,225281:0:0:0:0:
320,192,225281,128,0,225372:0:0:0:0:
64,192,225372,1,0,0:0:0:0:
448,192,225372,128,0,225463:0:0:0:0:
192,192,225463,1,0,0:0:0:0:
320,192,225463,128,0,225553:0:0:0:0:
64,192,225553,1,2,0:0:0:0:
448,192,225553,128,8,225644:0:0:0:0:
320,192,225644,128,0,225735:0:0:0:0:
192,192,225735,1,0,0:0:0:0:
64,192,225826,1,0,0:0:0:0:
192,192,225872,1,0,0:0:0:0:
320,192,225917,1,2,0:0:0:0:
448,192,225917,1,0,0:0:0:0:
64,192,226099,1,0,0:0:0:0:
448,192,226190,128,0,226281:0:0:0:0:
64,192,226281,1,8,0:0:0:0:
192,192,226281,1,2,0:0:0:0:
448,192,226463,128,0,226644:0:0:0:0:
192,192,226553,1,0,0:0:0:0:
64,192,226644,1,2,0:0:0:0:
320,192,226644,128,0,226735:0:0:0:0:
320,192,226826,128,0,227008:0:0:0:0:
64,192,227008,1,8,0:0:0:0:
448,192,227008,1,2,0:0:0:0:
192,192,227099,128,0,227190:0:0:0:0:
192,192,227281,128,0,227372:0:0:0:0:
64,192,227372,128,2,227644:0:0:0:0:
320,192,227372,128,0,227463:0:0:0:0:
320,192,227553,1,0,0:0:0:0:
448,192,227644,128,0,227735:0:0:0:0:
64,192,227735,1,2,0:0:0:0:
320,192,227735,1,8,0:0:0:0:
192,192,227826,128,0,227917:0:0:0:0:
64,192,227917,128,0,228008:0:0:0:0:
448,192,227917,128,0,228099:0:0:0:0:
192,192,228008,128,0,228099:0:0:0:0:
64,192,228099,128,2,228463:0:0:0:0:
320,192,228099,1,0,0:0:0:0:
448,192,228281,1,0,0:0:0:0:
192,192,228372,1,0,0:0:0:0:
320,192,228463,1,2,0:0:0:0:
448,192,228463,1,8,0:0:0:0:
192,192,228553,128,0,228644:0:0:0:0:
64,192,228644,128,0,228735:0:0:0:0:
192,192,228735,128,0,228826:0:0:0:0:
320,192,228826,128,2,229008:0:0:0:0:
448,192,228826,1,0,0:0:0:0:
448,192,229008,128,0,229190:0:0:0:0:
64,192,229190,1,8,0:0:0:0:
192,192,229190,1,2,0:0:0:0:
320,192,229281,1,0,0:0:0:0:
192,192,229372,1,0,0:0:0:0:
320,192,229463,1,0,0:0:0:0:
64,192,229553,1,2,0:0:0:0:
192,192,229553,1,0,0:0:0:0:
448,192,229644,1,0,0:0:0:0:
64,192,229690,1,0,0:0:0:0:
192,192,229735,1,0,0:0:0:0:
320,192,229826,1,0,0:0:0:0:
192,192,229917,128,8,230190:0:0:0:0:
448,192,229917,1,2,0:0:0:0:
64,192,230099,128,0,230190:0:0:0:0:
320,192,230099,128,0,230190:0:0:0:0:
192,192,230281,1,2,0:0:0:0:
448,192,230281,1,0,0:0:0:0:
64,192,230463,1,0,0:0:0:0:
192,192,230553,1,0,0:0:0:0:
320,192,230644,1,2,0:0:0:0:
448,192,230644,1,8,0:0:0:0:
192,192,230826,1,0,0:0:0:0:
320,192,230872,1,0,0:0:0:0:
64,192,230917,1,0,0:0:0:0:
448,192,230963,1,0,0:0:0:0:
192,192,231008,1,2,0:0:0:0:
320,192,231008,1,0,0:0:0:0:
64,192,231190,1,0,0:0:0:0:
448,192,231235,1,0,0:0:0:0:
192,192,231281,1,0,0:0:0:0:
320,192,231326,1,0,0:0:0:0:
64,192,231372,1,2,0:0:0:0:
448,192,231372,1,8,0:0:0:0:
320,192,231553,1,0,0:0:0:0:
192,192,231644,1,0,0:0:0:0:
448,192,231690,1,0,0:0:0:0:
64,192,231735,1,2,0:0:0:0:
192,192,231735,1,4,0:0:0:0:
320,192,231735,1,0,0:0:0:0:
448,192,231917,1,0,0:0:0:0:
64,192,232008,128,0,232099:0:0:0:0:
192,192,232099,1,8,0:0:0:0:
320,192,232099,1,2,0:0:0:0:
64,192,232281,128,0,232341:0:0:0:0:
448,192,232372,1,0,0:0:0:0:
64,192,232463,1,2,0:0:0:0:
192,192,232463,128,4,232553:0:0:0:0:
320,192,232463,1,0,0:0:0:0:
192,192,232644,128,0,232735:0:0:0:0:
64,192,232826,128,0,232978:0:0:0:100:louddrum.wav
192,192,232826,128,0,232947:0:0:0:0:
320,192,232826,128,0,232917:0:0:0:0:
448,192,232826,128,0,232887:0:0:0:0:
320,192,233008,128,0,233190:0:0:0:0:
192,192,233038,128,0,233099:0:0:0:0:
64,192,233190,1,2,0:0:0:0:
192,192,233190,1,4,0:0:0:0:
448,192,233190,1,0,0:0:0:0:
320,192,233372,1,0,0:0:0:0:
64,192,233463,128,0,233553:0:0:0:0:
320,192,233553,1,2,0:0:0:0:
448,192,233553,1,8,0:0:0:0:
64,192,233735,128,0,233917:0:0:0:0:
320,192,233826,1,0,0:0:0:0:
192,192,233917,1,2,0:0:0:0:
448,192,233917,1,0,0:0:0:0:
320,192,234008,1,0,0:0:0:0:
64,192,234099,1,0,0:0:0:0:
448,192,234190,1,0,0:0:0:0:
192,192,234281,128,2,234372:0:0:0:0:
320,192,234281,128,8,234553:0:0:0:0:
64,192,234372,128,0,234553:0:0:0:0:
192,192,234463,128,0,234553:0:0:0:0:
320,192,234644,128,2,234826:0:0:0:0:
448,192,234644,1,0,0:0:0:0:
64,192,234826,128,0,235008:0:0:0:0:
192,192,235008,1,8,0:0:0:0:
320,192,235008,1,2,0:0:0:0:
448,192,235190,1,0,0:0:0:0:
192,192,235281,1,0,0:0:0:0:
64,192,235372,1,2,0:0:0:0:
320,192,235372,1,0,0:0:0:0:
192,192,235463,1,0,0:0:0:0:
448,192,235508,1,0,0:0:0:0:
320,192,235553,128,0,235826:0:0:0:0:
64,192,235735,1,8,0:0:0:0:
448,192,235735,128,2,236008:0:0:0:0:
320,192,235917,128,0,236008:0:0:0:0:
192,192,236099,1,2,0:0:0:0:
320,192,236099,128,0,236190:0:0:0:0:
448,192,236190,128,0,236281:0:0:0:0:
320,192,236372,128,0,236463:0:0:0:0:
64,192,236463,1,2,0:0:0:0:
448,192,236463,128,8,236553:0:0:0:0:
320,192,236553,128,0,236644:0:0:0:0:
192,192,236644,1,0,0:0:0:0:
448,192,236644,128,0,236735:0:0:0:0:
64,192,236735,1,0,0:0:0:0:
192,192,236826,1,2,0:0:0:0:
448,192,236826,128,0,236917:0:0:0:0:
320,192,236917,128,0,237008:0:0:0:0:
64,192,237008,1,0,0:0:0:0:
448,192,237008,128,0,237099:0:0:0:0:
192,192,237099,1,0,0:0:0:0:
320,192,237099,128,0,237190:0:0:0:0:
64,192,237190,1,2,0:0:0:0:
448,192,237190,128,8,237281:0:0:0:0:
320,192,237281,128,0,237372:0:0:0:0:
192,192,237372,1,0,0:0:0:0:
64,192,237463,1,0,0:0:0:0:
192,192,237508,1,0,0:0:0:0:
320,192,237553,1,2,0:0:0:0:
448,192,237553,1,0,0:0:0:0:
64,192,237735,1,0,0:0:0:0:
448,192,237826,128,0,237917:0:0:0:0:
64,192,237917,1,8,0:0:0:0:
192,192,237917,1,2,0:0:0:0:
448,192,238099,128,0,238281:0:0:0:0:
192,192,238190,1,0,0:0:0:0:
64,192,238281,1,2,0:0:0:0:
320,192,238281,128,0,238372:0:0:0:0:
320,192,238463,128,0,238644:0:0:0:0:
64,192,238644,1,8,0:0:0:0:
448,192,238644,128,2,238766:0:0:0:0:
192,192,238735,128,0,238826:0:0:0:0:
448,192,238826,128,0,239008:0:0:0:0:
192,192,238917,128,0,239008:0:0:0:0:
64,192,239008,128,2,239281:0:0:0:0:
320,192,239008,128,0,239099:0:0:0:0:
320,192,239190,1,0,0:0:0:0:
448,192,239281,128,0,239372:0:0:0:0:
64,192,239372,1,2,0:0:0:0:
320,192,239372,1,8,0:0:0:0:
192,192,239463,128,0,239553:0:0:0:0:
64,192,239553,128,0,239644:0:0:0:0:
448,192,239553,128,0,239735:0:0:0:0:
192,192,239644,128,0,239735:0:0:0:0:
64,192,239735,128,2,240099:0:0:0:0:
320,192,239735,1,0,0:0:0:0:
448,192,239917,1,0,0:0:0:0:
192,192,240008,1,0,0:0:0:0:
320,192,240099,1,2,0:0:0:0:
448,192,240099,1,8,0:0:0:0:
192,192,240190,128,0,240281:0:0:0:0:
64,192,240281,128,0,240372:0:0:0:0:
192,192,240372,128,0,240463:0:0:0:0:
320,192,240463,128,2,240644:0:0:0:0:
448,192,240463,1,0,0:0:0:0:
448,192,240644,128,0,240826:0:0:0:0:
64,192,240826,1,8,0:0:0:0:
192,192,240826,1,2,0:0:0:0:
320,192,240917,1,0,0:0:0:0:
192,192,241008,1,0,0:0:0:0:
320,192,241069,1,0,0:0:0:0:
448,192,241129,1,0,0:0:0:0:
64,192,241190,1,2,0:0:0:0:
192,192,241190,1,0,0:0:0:0:
448,192,241281,1,0,0:0:0:0:
192,192,241326,1,0,0:0:0:0:
64,192,241372,1,0,0:0:0:0:
448,192,241463,1,0,0:0:0:0:
192,192,241553,128,8,241826:0:0:0:0:
320,192,241553,1,2,0:0:0:0:
64,192,241735,128,0,241826:0:0:0:0:
320,192,241735,128,0,241826:0:0:0:0:
192,192,241917,1,2,0:0:0:0:
448,192,241917,1,0,0:0:0:0:
64,192,242008,1,2,0:0:0:0:
320,192,242008,1,0,0:0:0:0:
448,192,242099,1,0,0:0:0:0:
64,192,242190,1,2,0:0:0:0:
192,192,242190,1,0,0:0:0:0:
320,192,242281,1,2,0:0:0:0:
448,192,242281,1,8,0:0:0:0:
192,192,242463,1,0,0:0:0:0:
320,192,242508,1,0,0:0:0:0:
64,192,242553,1,0,0:0:0:0:
448,192,242599,1,0,0:0:0:0:
192,192,242644,1,2,0:0:0:0:
320,192,242644,1,0,0:0:0:0:
64,192,242826,1,0,0:0:0:0:
448,192,242872,1,0,0:0:0:0:
192,192,242917,1,0,0:0:0:0:
320,192,242963,1,0,0:0:0:0:
64,192,243008,1,2,0:0:0:0:
448,192,243008,1,8,0:0:0:0:
192,192,243190,1,0,0:0:0:0:
320,192,243250,1,0,0:0:0:0:
64,192,243311,1,0,0:0:0:0:
192,192,243372,1,4,0:0:0:0:
320,192,243372,1,2,0:0:0:0:
448,192,243372,1,0,0:0:0:0:
64,192,243463,1,0,0:0:0:0:
448,192,243553,1,0,0:0:0:0:
64,192,243644,128,0,243735:0:0:0:0:
320,192,243735,1,0,0:0:0:0:
192,192,243826,1,0,0:0:0:0:
64,192,243917,128,0,244008:0:0:0:0:
320,192,244008,1,0,0:0:0:0:
64,192,244099,1,2,0:0:0:0:
192,192,244099,128,0,244190:0:0:0:100:shortcymbal.wav
448,192,244099,1,0,0:0:0:0:
192,192,244281,128,0,244417:0:0:0:0:
64,192,244463,1,0,0:0:0:100:loudsnare.wav
448,192,244463,128,0,244735:0:0:0:0:
320,192,244485,128,0,244713:0:0:0:0:
192,192,244508,128,0,244690:0:0:0:0:
64,192,244826,1,2,0:0:0:0:
192,192,244826,1,4,0:0:0:0:
448,192,244826,1,0,0:0:0:0:
320,192,245008,1,0,0:0:0:0:
448,192,245099,1,0,0:0:0:0:
64,192,245190,1,2,0:0:0:0:
192,192,245190,1,8,0:0:0:0:
320,192,245281,1,0,0:0:0:0:
448,192,245372,1,0,0:0:0:0:
192,192,245463,1,0,0:0:0:0:
64,192,245553,1,2,0:0:0:0:
320,192,245553,1,0,0:0:0:0:
448,192,245644,1,0,0:0:0:0:
192,192,245735,1,0,0:0:0:0:
64,192,245826,1,0,0:0:0:0:
320,192,245917,1,2,0:0:0:0:
448,192,245917,1,8,0:0:0:0:
192,192,246008,1,0,0:0:0:0:
64,192,246099,1,0,0:0:0:0:
320,192,246190,1,0,0:0:0:0:
192,192,246281,1,2,0:0:0:0:
448,192,246281,1,0,0:0:0:0:
192,192,246463,1,0,0:0:0:0:
64,192,246553,1,0,0:0:0:0:
320,192,246644,1,2,0:0:0:0:
448,192,246644,1,8,0:0:0:0:
192,192,246735,1,0,0:0:0:0:
64,192,246826,1,0,0:0:0:0:
320,192,246917,1,0,0:0:0:0:
192,192,247008,1,2,0:0:0:0:
448,192,247008,1,0,0:0:0:0:
64,192,247099,1,0,0:0:0:0:
320,192,247190,1,0,0:0:0:0:
448,192,247281,1,0,0:0:0:0:
64,192,247372,1,2,0:0:0:0:
192,192,247372,1,8,0:0:0:0:
320,192,247463,1,0,0:0:0:0:
448,192,247553,1,0,0:0:0:0:
192,192,247644,1,0,0:0:0:0:
64,192,247735,1,2,0:0:0:0:
320,192,247735,1,0,0:0:0:0:
448,192,247826,1,0,0:0:0:0:
192,192,247917,1,0,0:0:0:0:
448,192,248008,1,0,0:0:0:0:
64,192,248099,1,8,0:0:0:0:
320,192,248099,1,2,0:0:0:0:
448,192,248190,128,0,248372:0:0:0:0:
320,192,248281,128,0,248463:0:0:0:0:
192,192,248372,1,0,0:0:0:0:
64,192,248463,1,2,0:0:0:0:
448,192,248463,1,0,0:0:0:0:
320,192,248553,1,0,0:0:0:0:
448,192,248644,1,0,0:0:0:0:
320,192,248735,1,0,0:0:0:0:
192,192,248826,1,8,0:0:0:0:
448,192,248826,1,2,0:0:0:0:
320,192,248917,1,0,0:0:0:0:
64,192,249008,1,0,0:0:0:0:
192,192,249099,1,0,0:0:0:0:
64,192,249190,1,2,0:0:0:0:
320,192,249190,1,0,0:0:0:0:
320,192,249372,1,0,0:0:0:0:
448,192,249463,1,0,0:0:0:0:
64,192,249553,1,2,0:0:0:0:
192,192,249553,1,8,0:0:0:0:
320,192,249644,1,0,0:0:0:0:
448,192,249735,1,0,0:0:0:0:
192,192,249826,1,0,0:0:0:0:
64,192,249917,1,2,0:0:0:0:
320,192,249917,1,0,0:0:0:0:
448,192,250008,1,0,0:0:0:0:
192,192,250099,1,0,0:0:0:0:
64,192,250190,1,0,0:0:0:0:
320,192,250281,1,2,0:0:0:0:
448,192,250281,1,8,0:0:0:0:
192,192,250372,1,0,0:0:0:0:
448,192,250463,1,0,0:0:0:0:
192,192,250553,1,0,0:0:0:0:
64,192,250644,128,2,251008:0:0:0:0:
320,192,250644,1,0,0:0:0:0:
448,192,250826,1,0,0:0:0:0:
192,192,250917,1,0,0:0:0:0:
320,192,251008,1,8,0:0:0:0:
448,192,251008,1,2,0:0:0:0:
192,192,251099,1,0,0:0:0:0:
64,192,251190,1,0,0:0:0:0:
192,192,251281,1,0,0:0:0:0:
64,192,251372,128,2,251735:0:0:0:0:
320,192,251372,1,0,0:0:0:0:
448,192,251463,1,0,0:0:0:0:
320,192,251553,1,0,0:0:0:0:
192,192,251644,1,0,0:0:0:0:
320,192,251735,1,8,0:0:0:0:
448,192,251735,1,2,0:0:0:0:
192,192,251826,1,0,0:0:0:0:
64,192,251917,1,0,0:0:0:0:
192,192,252008,1,0,0:0:0:0:
320,192,252099,1,2,0:0:0:0:
448,192,252099,1,0,0:0:0:0:
192,192,252281,1,0,0:0:0:0:
64,192,252372,1,0,0:0:0:0:
320,192,252463,1,2,0:0:0:0:
448,192,252463,1,8,0:0:0:0:
192,192,252553,1,0,0:0:0:0:
64,192,252644,1,0,0:0:0:0:
320,192,252735,1,0,0:0:0:0:
192,192,252826,1,2,0:0:0:0:
448,192,252826,1,0,0:0:0:0:
64,192,252917,1,0,0:0:0:0:
320,192,253008,1,0,0:0:0:0:
448,192,253099,1,0,0:0:0:0:
64,192,253190,1,2,0:0:0:0:
192,192,253190,1,8,0:0:0:0:
320,192,253281,1,0,0:0:0:0:
448,192,253372,1,0,0:0:0:0:
64,192,253463,1,0,0:0:0:0:
192,192,253553,128,2,253644:0:0:0:0:
448,192,253553,1,0,0:0:0:0:
320,192,253644,128,0,253735:0:0:0:0:
64,192,253735,1,0,0:0:0:0:
192,192,253826,128,0,253917:0:0:0:0:
320,192,253917,128,8,254008:0:0:0:0:
448,192,253917,1,2,0:0:0:0:
64,192,254008,1,0,0:0:0:0:
192,192,254099,128,0,254190:0:0:0:0:
320,192,254190,128,0,254281:0:0:0:0:
192,192,254281,128,2,254372:0:0:0:0:
448,192,254281,1,0,0:0:0:0:
64,192,254372,128,0,254463:0:0:0:0:
448,192,254463,1,0,0:0:0:0:
320,192,254553,128,0,254644:0:0:0:0:
64,192,254644,1,8,0:0:0:0:
192,192,254644,128,2,254735:0:0:0:0:
448,192,254735,1,0,0:0:0:0:
320,192,254826,1,0,0:0:0:0:
192,192,254917,1,0,0:0:0:0:
64,192,255008,1,2,0:0:0:0:
448,192,255008,1,0,0:0:0:0:
192,192,255190,1,0,0:0:0:0:
64,192,255281,1,0,0:0:0:0:
320,192,255372,1,2,0:0:0:0:
448,192,255372,1,8,0:0:0:0:
192,192,255463,1,0,0:0:0:0:
64,192,255553,1,0,0:0:0:0:
320,192,255644,1,0,0:0:0:0:
192,192,255735,1,2,0:0:0:0:
448,192,255735,1,0,0:0:0:0:
64,192,255826,1,0,0:0:0:0:
320,192,255917,1,0,0:0:0:0:
448,192,256008,1,0,0:0:0:0:
192,192,256099,1,0,0:0:0:0:
64,192,256122,1,0,0:0:0:0:
320,192,256190,1,0,0:0:0:0:
64,192,256281,1,0,0:0:0:0:
448,192,256372,1,0,0:0:0:0:
64,192,256463,1,2,0:0:0:0:
192,192,256463,1,4,0:0:0:0:
320,192,256463,1,0,0:0:0:0:
320,192,256644,1,0,0:0:0:0:
448,192,256735,1,0,0:0:0:0:
192,192,256826,1,2,0:0:0:0:
320,192,256917,1,0,0:0:0:0:
448,192,257008,1,0,0:0:0:0:
192,192,257099,1,0,0:0:0:0:
64,192,257190,1,2,0:0:0:0:
192,192,257372,1,0,0:0:0:0:
64,192,257463,1,0,0:0:0:0:
320,192,257553,1,2,0:0:0:0:
192,192,257644,1,0,0:0:0:0:
64,192,257735,1,0,0:0:0:0:
320,192,257826,1,0,0:0:0:0:
192,192,257917,1,2,0:0:0:0:
192,192,258099,1,0,0:0:0:0:
64,192,258190,1,0,0:0:0:0:
320,192,258281,1,2,0:0:0:0:
192,192,258372,1,0,0:0:0:0:
64,192,258463,1,0,0:0:0:0:
320,192,258553,1,0,0:0:0:0:
448,192,258644,1,2,0:0:0:0:
320,192,258826,1,0,0:0:0:0:
448,192,258917,1,0,0:0:0:0:
192,192,259008,1,2,0:0:0:0:
320,192,259099,1,0,0:0:0:0:
448,192,259190,1,0,0:0:0:0:
192,192,259281,1,0,0:0:0:0:
64,192,259372,1,2,0:0:0:0:
448,192,259463,1,0,0:0:0:0:
192,192,259553,1,0,0:0:0:0:
448,192,259644,1,0,0:0:0:0:
320,192,259735,1,2,0:0:0:0:
448,192,259826,128,0,260008:0:0:0:0:
320,192,259917,128,0,260099:0:0:0:0:
64,192,260008,1,0,0:0:0:0:
448,192,260099,1,2,0:0:0:0:
320,192,260190,1,0,0:0:0:0:
448,192,260281,1,0,0:0:0:0:
320,192,260372,1,0,0:0:0:0:
448,192,260463,1,2,0:0:0:0:
320,192,260553,1,0,0:0:0:0:
64,192,260644,1,0,0:0:0:0:
192,192,260735,1,0,0:0:0:0:
64,192,260826,1,2,0:0:0:0:
320,192,261008,1,0,0:0:0:0:
448,192,261099,1,0,0:0:0:0:
192,192,261190,1,2,0:0:0:0:
320,192,261281,1,0,0:0:0:0:
448,192,261372,1,0,0:0:0:0:
192,192,261463,1,0,0:0:0:0:
64,192,261553,1,2,0:0:0:0:
192,192,261735,1,0,0:0:0:0:
64,192,261826,1,0,0:0:0:0:
320,192,261917,1,2,0:0:0:0:
192,192,262008,1,0,0:0:0:0:
448,192,262099,1,0,0:0:0:0:
192,192,262190,1,0,0:0:0:0:
64,192,262281,128,2,262644:0:0:0:0:
448,192,262463,1,0,0:0:0:0:
192,192,262553,1,0,0:0:0:0:
320,192,262644,1,2,0:0:0:0:
192,192,262735,1,0,0:0:0:0:
64,192,262826,1,0,0:0:0:0:
192,192,262917,1,0,0:0:0:0:
64,192,263008,128,2,263372:0:0:0:0:
448,192,263099,1,0,0:0:0:0:
320,192,263190,1,0,0:0:0:0:
192,192,263281,1,0,0:0:0:0:
448,192,263372,1,2,0:0:0:0:
192,192,263463,1,0,0:0:0:0:
64,192,263553,1,0,0:0:0:0:
192,192,263644,1,0,0:0:0:0:
448,192,263735,1,2,0:0:0:0:
64,192,263826,1,0,0:0:0:0:
320,192,263917,1,0,0:0:0:0:
192,192,264008,1,0,0:0:0:0:
64,192,264099,1,2,0:0:0:0:
320,192,264190,1,0,0:0:0:0:
192,192,264281,1,0,0:0:0:0:
448,192,264372,1,0,0:0:0:0:
320,192,264463,1,2,0:0:0:0:
192,192,264553,1,0,0:0:0:0:
448,192,264644,1,0,0:0:0:0:
64,192,264735,1,0,0:0:0:0:
192,192,264826,1,2,0:0:0:0:
448,192,264917,1,0,0:0:0:0:
64,192,265008,1,0,0:0:0:0:
320,192,265099,1,0,0:0:0:0:
64,192,265190,1,2,0:0:0:0:
192,192,265190,1,4,0:0:0:0:
448,192,265190,1,0,0:0:0:80:softsnare.wav
320,192,265281,1,0,0:0:0:80:softsnare.wav
64,192,265372,1,0,0:0:0:80:softsnare.wav
320,192,265463,1,0,0:0:0:80:softsnare.wav
448,192,265553,1,0,0:0:0:80:softsnare.wav
192,192,265644,1,0,0:0:0:80:softsnare.wav
448,192,265735,1,0,0:0:0:80:softsnare.wav
192,192,265826,1,0,0:0:0:80:softsnare.wav
64,192,265917,1,0,0:0:0:80:softsnare.wav
448,192,266008,1,0,0:0:0:80:softsnare.wav
64,192,266099,1,0,0:0:0:80:softsnare.wav
448,192,266190,1,0,0:0:0:80:softsnare.wav
192,192,266281,1,0,0:0:0:80:softsnare.wav
320,192,266372,1,0,0:0:0:80:softsnare.wav
192,192,266463,1,0,0:0:0:80:softsnare.wav
320,192,266553,1,0,0:0:0:80:softsnare.wav
64,192,266644,1,2,0:0:0:0:
192,192,266644,1,4,0:0:0:0:
448,192,266644,1,0,0:0:0:80:softsnare.wav
320,192,266735,1,0,0:0:0:80:softsnare.wav
64,192,266826,1,0,0:0:0:80:softsnare.wav
320,192,266917,1,0,0:0:0:80:softsnare.wav
192,192,267008,1,0,0:0:0:80:softsnare.wav
448,192,267099,1,0,0:0:0:80:softsnare.wav
64,192,267190,1,2,0:0:0:0:
192,192,267190,1,0,0:0:0:80:softsnare.wav
320,192,267281,1,2,0:0:0:0:
448,192,267281,1,0,0:0:0:80:softsnare.wav
64,192,267372,128,2,267644:0:0:0:0:
320,192,267372,128,0,267667:0:0:0:70:shortcymbal.wav
448,192,267372,128,0,267644:0:0:0:0:
64,192,267735,1,0,0:0:0:100:loudsnare.wav
448,192,267735,128,0,268008:0:0:0:0:
320,192,267758,128,0,267985:0:0:0:0:
192,192,267781,128,0,267963:0:0:0:0:
64,192,268099,1,0,0:0:0:0:
