osu file format v14

[General]
AudioFilename: audio.mp3
AudioLeadIn: 0
PreviewTime: 67869
Countdown: 0
SampleSet: Normal
StackLeniency: 0.7
Mode: 1
LetterboxInBreaks: 0
WidescreenStoryboard: 1

[Editor]
Bookmarks: 17218,51127,68068,101951,135833,169715,203598,275598,315833
DistanceSpacing: 1.4
BeatDivisor: 4
GridSize: 32
TimelineZoom: 1.6

[Metadata]
Title:Myra's wish on the star
TitleUnicode:マイラの願い
Artist:arai tasuku
ArtistUnicode:arai tasuku
Creator:Ulqui
Version:Dream
Source:
Tags:KLK-2037 kilk records SOC Sin of Children no Negai Japanese
BeatmapID:1749243
BeatmapSetID:835165

[Difficulty]
HPDrainRate:8
CircleSize:2.5
OverallDifficulty:2
ApproachRate:6
SliderMultiplier:1.4
SliderTickRate:1

[Events]
//Background and Video events
0,0,"Konachan.com - 203491 sample.jpg",0,60
//Break Periods
2,264304,268702
2,269952,274349
//Storyboard Layer 0 (Background)
//Storyboard Layer 1 (Fail)
//Storyboard Layer 2 (Pass)
//Storyboard Layer 3 (Foreground)
//Storyboard Layer 4 (Overlay)
//Storyboard Sound Samples

[TimingPoints]
105,705.882352941176,3,1,0,5,1,0
105,-250,3,1,0,5,0,0
1479,-245.454545454545,3,1,0,6,0,0
2185,-241.071428571429,3,1,0,8,0,0
3597,-236.842105263158,3,1,0,9,0,0
4303,-232.758620689655,3,1,0,10,0,0
5362,-228.813559322034,3,1,0,11,0,0
6420,-225,3,1,0,13,0,0
7126,-221.311475409836,3,1,0,14,0,0
7832,-217.741935483871,3,1,0,15,0,0
8538,-214.285714285714,3,1,0,17,0,0
8891,-210.9375,3,1,0,18,0,0
9244,-207.692307692308,3,1,0,19,0,0
9597,-204.545454545455,3,1,0,21,0,0
9950,-201.492537313433,3,1,0,22,0,0
10303,-198.529411764706,3,1,0,23,0,0
10656,-195.652173913043,3,1,0,24,0,0
11009,-192.857142857143,3,1,0,26,0,0
11362,-190.140845070423,3,1,0,27,0,0
11715,-187.5,3,1,0,28,0,0
12067,-184.931506849315,3,1,0,30,0,0
12420,-182.432432432432,3,1,0,31,0,0
12773,-180,3,1,0,32,0,0
13479,-177.631578947368,3,1,0,34,0,0
14185,-175.324675324675,3,1,0,35,0,0
14715,-66.6666666666667,3,1,0,5,0,0
15597,-170.886075949367,3,1,0,37,0,0
16303,-168.75,3,1,0,39,0,0
17009,-166.666666666667,3,1,0,40,0,0
46656,-166.666666666667,3,1,0,40,0,0
47362,-160.714285714286,3,1,0,41,0,0
48067,-155.172413793103,3,1,0,42,0,0
48773,-150,3,1,0,43,0,0
49126,-145.161290322581,3,1,0,44,0,0
49479,-140.625,3,1,0,46,0,0
49832,-136.363636363636,3,1,0,47,0,0
50185,-132.352941176471,3,1,0,48,0,0
50538,-128.571428571429,3,1,0,49,0,0
50717,-128.571428571429,3,1,0,50,0,0
50928,-125,3,1,0,50,0,1
67658,-125,3,1,0,40,0,1
67869,-166.666666666667,3,1,0,40,0,0
131319,-166.666666666667,3,1,0,40,0,0
132025,-160.714285714286,3,1,0,41,0,0
132730,-155.172413793103,3,1,0,42,0,0
133436,-150,3,1,0,43,0,0
133789,-145.161290322581,3,1,0,44,0,0
134142,-140.625,3,1,0,46,0,0
134495,-136.363636363636,3,1,0,47,0,0
134848,-132.352941176471,3,1,0,48,0,0
135201,-128.571428571429,3,1,0,49,0,0
135457,-128.571428571429,3,1,0,50,0,0
135634,-125,3,1,0,50,0,1
150420,-125,3,1,0,50,0,1
150773,-127.659574468085,3,1,0,49,0,1
151126,-130.434782608696,3,1,0,48,0,1
151479,-133.333333333333,3,1,0,48,0,1
151832,-136.363636363636,3,1,0,47,0,1
152185,-139.53488372093,3,1,0,46,0,1
152538,-142.857142857143,3,1,0,45,0,1
152891,-146.341463414634,3,1,0,44,0,1
153244,-150,3,1,0,43,0,1
153597,-153.846153846154,3,1,0,42,0,1
153950,-157.894736842105,3,1,0,42,0,1
154303,-162.162162162162,3,1,0,41,0,1
154516,-162.162162162162,3,1,0,40,0,1
154693,-166.666666666667,3,1,0,40,0,0
180067,-166.666666666667,3,1,0,40,0,0
180773,-172.413793103448,3,1,0,36,0,0
182185,-178.571428571429,3,1,0,32,0,0
184303,-185.185185185185,3,1,0,28,0,0
185009,-192.307692307692,3,1,0,24,0,0
186420,-200,3,1,0,20,0,0
187126,-190.47619047619,3,1,0,22,0,0
187832,-181.818181818182,3,1,0,25,0,0
188538,-173.913043478261,3,1,0,28,0,0
189597,-161.290322580645,3,1,0,30,0,0
189950,-160,3,1,0,32,0,0
190656,-153.846153846154,3,1,0,35,0,0
191362,-148.148148148148,3,1,0,38,0,0
192067,-142.857142857143,3,1,0,40,0,0
192773,-137.931034482759,3,1,0,42,0,0
193479,-133.333333333333,3,1,0,45,0,0
194185,-129.032258064516,3,1,0,48,0,0
194891,-125,3,1,0,50,0,0
195950,-166.666666666667,3,1,0,40,0,0
203222,-166.666666666667,3,1,0,50,0,0
203399,-166.666666666667,3,1,0,50,0,1
204775,-164.835164835165,3,1,0,50,0,1
205481,-163.04347826087,3,1,0,51,0,1
206893,-161.290322580645,3,1,0,51,0,1
207599,-159.574468085106,3,1,0,51,0,1
209011,-157.894736842105,3,1,0,52,0,1
209717,-156.25,3,1,0,52,0,1
211128,-154.639175257732,3,1,0,52,0,1
211834,-153.061224489796,3,1,0,53,0,1
213246,-151.515151515152,3,1,0,53,0,1
213952,-150,3,1,0,53,0,1
214658,-148.514851485149,3,1,0,54,0,1
215364,-147.058823529412,3,1,0,54,0,1
216069,-145.631067961165,3,1,0,54,0,1
218187,-144.230769230769,3,1,0,55,0,1
219599,-142.857142857143,3,1,0,55,0,1
220305,-141.509433962264,3,1,0,55,0,1
221717,-140.18691588785,3,1,0,56,0,1
222422,-138.888888888889,3,1,0,56,0,1
223834,-137.614678899083,3,1,0,56,0,1
224540,-136.363636363636,3,1,0,57,0,1
225952,-135.135135135135,3,1,0,57,0,1
226658,-133.928571428571,3,1,0,57,0,1
228069,-132.743362831858,3,1,0,58,0,1
228775,-131.578947368421,3,1,0,58,0,1
229481,-130.434782608696,3,1,0,58,0,1
230187,-129.310344827586,3,1,0,59,0,1
230893,-128.205128205128,3,1,0,59,0,1
231599,-127.118644067797,3,1,0,59,0,1
232305,-126.050420168067,3,1,0,60,0,1
233011,-125,3,1,0,60,0,1
234422,-123.96694214876,3,1,0,60,0,1
235128,-122.950819672131,3,1,0,61,0,1
235834,-121.951219512195,3,1,0,61,0,1
237246,-120.967741935484,3,1,0,61,0,1
238658,-120,3,1,0,62,0,1
239364,-119.047619047619,3,1,0,62,0,1
240775,-118.110236220472,3,1,0,62,0,1
241481,-117.1875,3,1,0,63,0,1
242893,-116.279069767442,3,1,0,63,0,1
243599,-115.384615384615,3,1,0,63,0,1
244305,-114.503816793893,3,1,0,64,0,1
245011,-113.636363636364,3,1,0,64,0,1
245717,-112.781954887218,3,1,0,64,0,1
247128,-111.940298507463,3,1,0,65,0,1
247834,-111.111111111111,3,1,0,65,0,1
249246,-110.294117647059,3,1,0,65,0,1
249952,-109.489051094891,3,1,0,66,0,1
251011,-108.695652173913,3,1,0,66,0,1
252069,-107.913669064748,3,1,0,66,0,1
253481,-107.142857142857,3,1,0,67,0,1
254187,-106.382978723404,3,1,0,67,0,1
255599,-105.633802816901,3,1,0,67,0,1
256305,-104.895104895105,3,1,0,68,0,1
258422,-104.166666666667,3,1,0,68,0,1
259128,-103.448275862069,3,1,0,68,0,1
259834,-102.739726027397,3,1,0,69,0,1
260540,-102.040816326531,3,1,0,69,0,1
262658,-101.351351351351,3,1,0,69,0,1
264069,-100.671140939597,3,1,0,70,0,1
264775,-100,3,1,0,70,0,1
266928,-125,3,1,0,40,0,0
275187,-125,3,1,0,50,0,0
275399,-125,3,1,0,50,0,1
309281,-166.666666666667,3,1,0,50,0,0
311046,-166.666666666667,3,1,0,5,0,0

[Colours]
Combo1 : 253,234,170
Combo2 : 6,27,57
Combo3 : 255,251,217
Combo4 : 71,83,226

[HitObjects]
213,174,105,5,8,0:0:0:0:
180,118,1516,1,0,0:0:0:0:
180,118,2222,1,8,0:0:0:0:
178,124,3634,1,0,0:0:0:0:
178,124,4340,1,8,0:0:0:0:
182,120,6457,1,8,0:0:0:0:
228,182,8575,1,8,0:0:0:0:
228,182,9281,1,0,0:0:0:0:
154,137,9634,1,8,0:0:0:0:
163,159,11399,1,0,0:0:0:0:
177,108,12810,1,8,0:0:0:0:
181,120,14928,1,8,0:0:0:0:
186,137,17046,1,8,0:0:0:0:
194,152,18457,1,0,0:0:0:0:
194,152,19163,1,8,0:0:0:0:
192,152,20575,1,0,0:0:0:0:
179,162,21281,1,8,0:0:0:0:
190,162,23399,1,8,0:0:0:0:
204,199,25516,1,8,0:0:0:0:
204,199,26222,1,0,0:0:0:0:
213,178,26575,1,8,0:0:0:0:
204,196,28340,1,0,0:0:0:0:
169,191,29752,1,8,0:0:0:0:
172,189,31869,1,8,0:0:0:0:
165,107,32575,1,0,0:0:0:0:
172,189,33987,1,8,0:0:0:0:
166,130,35399,1,0,0:0:0:0:
161,136,36104,1,8,0:0:0:0:
160,136,37516,1,0,0:0:0:0:
160,136,38222,1,8,0:0:0:0:
161,101,40340,1,8,0:0:0:0:
192,128,42457,1,8,0:0:0:0:
192,128,43163,1,0,0:0:0:0:
192,128,43516,1,8,0:0:0:0:
192,128,45281,1,0,0:0:0:0:
192,130,46693,1,8,0:0:0:0:
192,130,48810,1,8,0:0:0:0:
228,84,49516,1,0,0:0:0:0:
198,130,50928,1,8,0:0:0:0:
185,130,51281,1,0,0:0:0:0:
185,130,51634,1,8,0:0:0:0:
185,130,52340,1,0,0:0:0:0:
185,130,53046,1,0,0:0:0:0:
185,130,53399,1,8,0:0:0:0:
185,130,53752,1,8,0:0:0:0:
160,116,54457,1,0,0:0:0:0:
160,116,55163,1,8,0:0:0:0:
160,116,55516,1,0,0:0:0:0:
160,116,55869,1,0,0:0:0:0:
160,116,56575,1,8,0:0:0:0:
160,116,57281,1,8,0:0:0:0:
167,126,59399,1,8,0:0:0:0:
167,126,59752,1,0,0:0:0:0:
167,126,60104,1,8,0:0:0:0:
162,145,60810,1,8,0:0:0:0:
162,145,61516,1,0,0:0:0:0:
162,145,61869,1,8,0:0:0:0:
162,145,62222,1,8,0:0:0:0:
162,108,62928,1,0,0:0:0:0:
162,108,63634,1,8,0:0:0:0:
162,108,64340,1,8,0:0:0:0:
162,108,65046,1,0,0:0:0:0:
162,108,65752,1,8,0:0:0:0:
191,122,67869,1,8,0:0:0:0:
168,129,69281,1,0,0:0:0:0:
168,129,69987,1,8,0:0:0:0:
165,141,71399,1,0,0:0:0:0:
165,141,72104,1,8,0:0:0:0:
172,101,74222,1,8,0:0:0:0:
178,97,76340,1,8,0:0:0:0:
178,97,77046,1,0,0:0:0:0:
177,77,79163,1,0,0:0:0:0:
171,77,80575,1,8,0:0:0:0:
194,108,82693,1,8,0:0:0:0:
194,108,83399,1,0,0:0:0:0:
182,99,84810,1,8,0:0:0:0:
155,117,86222,1,0,0:0:0:0:
155,117,86928,1,8,0:0:0:0:
155,117,88340,1,0,0:0:0:0:
155,117,89046,1,8,0:0:0:0:
160,113,91163,1,8,0:0:0:0:
170,113,93281,1,8,0:0:0:0:
170,113,93987,1,0,0:0:0:0:
170,113,96104,1,0,0:0:0:0:
175,114,97516,1,8,0:0:0:0:
183,114,99634,1,8,0:0:0:0:
183,114,100340,1,0,0:0:0:0:
183,114,101752,1,0,0:0:0:0:
178,72,103163,1,8,0:0:0:0:
178,78,105281,1,8,0:0:0:0:
178,78,105987,1,0,0:0:0:0:
167,98,107046,1,0,0:0:0:0:
167,98,107399,1,8,0:0:0:0:
166,29,107575,1,8,0:0:0:0:
166,29,107752,1,8,0:0:0:0:
166,29,107928,1,8,0:0:0:0:
175,64,109516,1,0,0:0:0:0:
175,64,110222,1,8,0:0:0:0:
172,84,111634,1,0,0:0:0:0:
180,91,113752,1,0,0:0:0:0:
180,91,114457,1,8,0:0:0:0:
173,106,115869,1,0,0:0:0:0:
232,52,117987,1,8,0:0:0:0:
152,117,118693,1,0,0:0:0:0:
154,120,120104,1,8,0:0:0:0:
154,120,122222,1,8,0:0:0:0:
154,120,122928,1,0,0:0:0:0:
152,122,124340,1,8,0:0:0:0:
181,106,127163,1,8,0:0:0:0:
191,123,128222,1,8,0:0:0:0:
191,123,128575,1,0,0:0:0:0:
177,125,130693,1,0,0:0:0:0:
177,125,131399,1,8,0:0:0:0:
178,166,132810,1,0,0:0:0:0:
187,134,135634,1,8,0:0:0:0:
160,179,135987,1,0,0:0:0:0:
160,179,136340,1,8,0:0:0:0:
165,134,137046,1,0,0:0:0:0:
156,137,137752,1,0,0:0:0:0:
156,137,138104,1,8,0:0:0:0:
156,137,138457,1,8,0:0:0:0:
156,137,139163,1,0,0:0:0:0:
161,92,139869,1,8,0:0:0:0:
161,92,140222,1,0,0:0:0:0:
161,92,140575,1,0,0:0:0:0:
161,92,141281,1,8,0:0:0:0:
161,92,141987,1,8,0:0:0:0:
169,99,144104,1,8,0:0:0:0:
169,99,144457,1,0,0:0:0:0:
169,99,144810,1,8,0:0:0:0:
106,243,145516,1,8,0:0:0:0:
106,243,146222,1,0,0:0:0:0:
106,243,146575,1,8,0:0:0:0:
106,243,146928,1,8,0:0:0:0:
106,243,147634,1,0,0:0:0:0:
161,184,148340,1,8,0:0:0:0:
161,184,149046,1,8,0:0:0:0:
181,190,149752,1,0,0:0:0:0:
181,190,150457,1,8,0:0:0:0:
186,179,152575,1,8,0:0:0:0:
186,179,152928,1,0,0:0:0:0:
186,179,153281,1,8,0:0:0:0:
186,179,153987,1,0,0:0:0:0:
186,179,154693,1,0,0:0:0:0:
186,179,155046,1,8,0:0:0:0:
186,179,155399,1,8,0:0:0:0:
186,179,156104,1,0,0:0:0:0:
176,91,156810,1,8,0:0:0:0:
176,91,157163,1,0,0:0:0:0:
176,91,157516,1,0,0:0:0:0:
176,91,158222,1,8,0:0:0:0:
176,91,158928,1,8,0:0:0:0:
177,101,161046,1,8,0:0:0:0:
177,101,161399,1,0,0:0:0:0:
177,101,161752,1,8,0:0:0:0:
177,101,162457,1,8,0:0:0:0:
177,101,163163,1,0,0:0:0:0:
177,101,163516,1,8,0:0:0:0:
177,101,163869,1,8,0:0:0:0:
177,101,164575,1,0,0:0:0:0:
177,101,165281,1,8,0:0:0:0:
177,101,165987,1,8,0:0:0:0:
177,101,166693,1,0,0:0:0:0:
177,101,167399,1,8,0:0:0:0:
136,123,168104,1,0,0:0:0:0:
136,123,168457,1,8,0:0:0:0:
170,86,169516,1,8,0:0:0:0:
192,124,170928,1,0,0:0:0:0:
187,121,171634,1,8,0:0:0:0:
196,160,172693,1,8,0:0:0:0:
196,160,173046,1,0,0:0:0:0:
196,160,173752,1,8,0:0:0:0:
180,177,175869,1,8,0:0:0:0:
201,178,176928,1,8,0:0:0:0:
210,164,177987,1,8,0:0:0:0:
210,164,178693,1,0,0:0:0:0:
211,145,180810,1,0,0:0:0:0:
180,104,182222,1,8,0:0:0:0:
176,111,184340,1,8,0:0:0:0:
176,111,185046,1,0,0:0:0:0:
176,85,186457,1,8,0:0:0:0:
139,150,187869,1,0,0:0:0:0:
139,150,188575,1,8,0:0:0:0:
157,99,189634,1,8,0:0:0:0:
157,99,190693,1,8,0:0:0:0:
204,129,192810,1,8,0:0:0:0:
203,129,194928,1,8,0:0:0:0:
212,152,197752,1,0,0:0:0:0:
198,150,199163,1,8,0:0:0:0:
192,151,201281,1,8,0:0:0:0:
213,124,201987,1,0,0:0:0:0:
186,208,203399,1,0,0:0:0:0:
184,179,204810,1,8,0:0:0:0:
187,130,205516,1,8,0:0:0:0:
183,136,206928,1,8,0:0:0:0:
183,136,207634,1,0,0:0:0:0:
186,107,209046,1,8,0:0:0:0:
202,106,209752,1,8,0:0:0:0:
190,93,211163,1,0,0:0:0:0:
179,88,211869,1,8,0:0:0:0:
183,115,213281,1,0,0:0:0:0:
176,119,214693,1,0,0:0:0:0:
176,119,215399,1,0,0:0:0:0:
176,119,216104,1,8,0:0:0:0:
192,119,218222,1,0,0:0:0:0:
188,120,219634,1,8,0:0:0:0:
188,120,220340,1,0,0:0:0:0:
197,129,221752,1,8,0:0:0:0:
197,129,222457,1,8,0:0:0:0:
186,125,223869,1,8,0:0:0:0:
186,125,224575,1,0,0:0:0:0:
160,136,225987,1,8,0:0:0:0:
160,136,226693,1,8,0:0:0:0:
160,136,228104,1,0,0:0:0:0:
160,118,228810,1,8,0:0:0:0:
172,93,229516,1,8,0:0:0:0:
172,93,230222,1,0,0:0:0:0:
186,88,231634,1,0,0:0:0:0:
186,88,232340,1,0,0:0:0:0:
186,88,233046,1,8,0:0:0:0:
186,88,234457,1,0,0:0:0:0:
186,88,235163,1,8,0:0:0:0:
186,88,235869,1,0,0:0:0:0:
186,88,237281,1,0,0:0:0:0:
160,94,238693,1,8,0:0:0:0:
160,86,240810,1,8,0:0:0:0:
160,86,241516,1,0,0:0:0:0:
175,85,242928,1,8,0:0:0:0:
175,85,244340,1,0,0:0:0:0:
175,85,245046,1,0,0:0:0:0:
175,85,245752,1,8,0:0:0:0:
164,91,247163,1,0,0:0:0:0:
164,91,247869,1,8,0:0:0:0:
187,94,249281,1,0,0:0:0:0:
187,94,249987,1,8,0:0:0:0:
180,97,251046,1,8,0:0:0:0:
180,97,252104,1,0,0:0:0:0:
172,78,253516,1,8,0:0:0:0:
172,78,254222,1,0,0:0:0:0:
201,106,255634,1,8,0:0:0:0:
165,113,256340,1,8,0:0:0:0:
154,78,258457,1,0,0:0:0:0:
163,109,259163,1,8,0:0:0:0:
180,107,259869,1,8,0:0:0:0:
180,107,260575,1,0,0:0:0:0:
172,86,262693,1,8,0:0:0:0:
166,151,264104,1,0,0:0:0:0:
159,168,269752,5,0,0:0:0:0:
181,155,275399,5,8,0:0:0:0:
181,155,275752,1,0,0:0:0:0:
181,155,276104,1,8,0:0:0:0:
184,162,276810,1,0,0:0:0:0:
184,162,277516,1,0,0:0:0:0:
184,162,277869,1,8,0:0:0:0:
184,162,278222,1,8,0:0:0:0:
184,162,278928,1,0,0:0:0:0:
184,162,279634,1,8,0:0:0:0:
184,162,279987,1,0,0:0:0:0:
184,162,280340,1,0,0:0:0:0:
184,162,281046,1,8,0:0:0:0:
184,162,281752,1,8,0:0:0:0:
189,168,283869,1,8,0:0:0:0:
189,168,284222,1,0,0:0:0:0:
189,168,284575,1,8,0:0:0:0:
189,168,285281,1,8,0:0:0:0:
189,168,285987,1,0,0:0:0:0:
189,168,286340,1,8,0:0:0:0:
189,168,286693,1,8,0:0:0:0:
189,168,287399,1,0,0:0:0:0:
189,168,288104,1,8,0:0:0:0:
189,168,288810,1,8,0:0:0:0:
177,177,289516,1,0,0:0:0:0:
163,170,290222,1,8,0:0:0:0:
166,168,292340,1,8,0:0:0:0:
166,168,292693,1,0,0:0:0:0:
166,168,293046,1,8,0:0:0:0:
166,168,293752,1,0,0:0:0:0:
166,168,294457,1,0,0:0:0:0:
166,168,294810,1,8,0:0:0:0:
166,168,295163,1,8,0:0:0:0:
166,168,295869,1,0,0:0:0:0:
166,168,296575,1,8,0:0:0:0:
166,168,296928,1,0,0:0:0:0:
166,168,297281,1,0,0:0:0:0:
166,168,297987,1,8,0:0:0:0:
166,168,298693,1,8,0:0:0:0:
179,178,300810,1,8,0:0:0:0:
179,178,301163,1,0,0:0:0:0:
179,178,301516,1,8,0:0:0:0:
179,178,302222,1,8,0:0:0:0:
179,178,302928,1,0,0:0:0:0:
179,178,303281,1,8,0:0:0:0:
179,178,303634,1,8,0:0:0:0:
179,178,304340,1,0,0:0:0:0:
179,178,305046,1,8,0:0:0:0:
179,178,305752,1,8,0:0:0:0:
179,178,306457,1,0,0:0:0:0:
179,178,307163,1,8,0:0:0:0:
256,192,311399,12,0,315634,0:0:0:0:
