osu file format v14

[General]
AudioFilename: audio.mp3
AudioLeadIn: 0
PreviewTime: 61202
Countdown: 0
SampleSet: Normal
StackLeniency: 0.7
Mode: 1
LetterboxInBreaks: 0
WidescreenStoryboard: 0

[Editor]
Bookmarks: 696,22296,60696,100296,138696,220296
DistanceSpacing: 1.1
BeatDivisor: 16
GridSize: 32
TimelineZoom: 0.8800005

[Metadata]
Title:Aileen's unseen things
TitleUnicode:アイリーンの宝物
Artist:arai tasuku
ArtistUnicode:arai tasuku
Creator:Ulqui
Version:Dream
Source:
Tags:KLK-2037 Sin of Children SOC English no Takaramono
BeatmapID:1841822
BeatmapSetID:880801

[Difficulty]
HPDrainRate:10
CircleSize:5
OverallDifficulty:1
ApproachRate:5
SliderMultiplier:1.4
SliderTickRate:1

[Events]
//Background and Video events
0,0,"bg.jpg",0,0
//Break Periods
2,95002,99602
2,207802,212402
2,213802,219602
//Storyboard Layer 0 (Background)
//Storyboard Layer 1 (Fail)
//Storyboard Layer 2 (Pass)
//Storyboard Layer 3 (Foreground)
//Storyboard Layer 4 (Overlay)
//Storyboard Sound Samples

[TimingPoints]
1202,1200,4,1,0,60,1,0
20402,1200,4,1,0,60,1,8
22802,1200,4,1,0,60,1,0
61202,-100,4,1,0,60,0,1
99602,1200,4,1,0,60,1,8
99602,-100,4,1,0,60,0,0
100802,1200,4,1,0,60,1,0
139202,-100,4,1,0,60,0,1
177602,-100,4,1,0,60,0,1
178802,-100,4,1,0,61,0,1
180002,-100,4,1,0,62,0,1
181202,-100,4,1,0,63,0,1
182402,-100,4,1,0,65,0,1
183602,-100,4,1,0,66,0,1
184802,-100,4,1,0,67,0,1
186002,-100,4,1,0,68,0,1
187202,-100,4,1,0,69,0,1
187802,-100,4,1,0,70,0,1
188402,-100,4,1,0,72,0,1
189002,-100,4,1,0,73,0,1
189602,-100,4,1,0,74,0,1
190802,-100,4,1,0,75,0,1
192002,-100,4,1,0,76,0,1
193202,-100,4,1,0,77,0,1
194402,-100,4,1,0,78,0,1
195602,-100,4,1,0,80,0,1
196802,-100,4,1,0,81,0,1
198002,-100,4,1,0,82,0,1
199202,-100,4,1,0,83,0,1
200402,-100,4,1,0,84,0,1
201602,-100,4,1,0,85,0,1
202802,-100,4,1,0,87,0,1
204002,-100,4,1,0,88,0,1
205202,-100,4,1,0,89,0,1
206402,-100,4,1,0,90,0,1
210002,-100,4,1,0,60,0,0
253270,1224.48979591837,4,1,0,60,1,8
253980,1250,4,1,0,60,1,8
254684,1276.59574468085,4,1,0,60,1,0

[HitObjects]
145,135,1202,5,0,0:0:0:0:
170,179,1802,1,8,0:0:0:0:
170,179,2402,1,8,0:0:0:0:
170,179,3002,1,8,0:0:0:0:
204,69,6002,1,0,0:0:0:0:
197,79,6602,1,0,0:0:0:0:
197,79,7202,1,0,0:0:0:0:
197,79,7802,1,8,0:0:0:0:
206,96,10802,1,0,0:0:0:0:
206,96,11402,1,8,0:0:0:0:
206,96,12002,1,8,0:0:0:0:
206,96,12602,1,8,0:0:0:0:
201,103,14402,1,8,0:0:0:0:
176,119,15002,1,0,0:0:0:0:
176,119,15602,1,8,0:0:0:0:
174,120,16802,1,8,0:0:0:0:
169,118,18002,1,8,0:0:0:0:
225,49,22802,1,0,0:0:0:0:
183,82,23402,1,0,0:0:0:0:
183,82,24002,1,0,0:0:0:0:
183,82,24602,1,8,0:0:0:0:
174,108,27602,1,0,0:0:0:0:
170,119,28202,1,8,0:0:0:0:
170,119,28802,1,8,0:0:0:0:
170,119,29402,1,8,0:0:0:0:
175,101,32402,1,0,0:0:0:0:
175,101,33002,1,0,0:0:0:0:
175,101,33602,1,0,0:0:0:0:
175,101,34202,1,8,0:0:0:0:
181,102,36002,1,8,0:0:0:0:
181,102,36602,1,0,0:0:0:0:
181,102,37202,1,0,0:0:0:0:
164,50,42002,1,0,0:0:0:0:
164,50,42602,1,8,0:0:0:0:
164,50,43202,1,8,0:0:0:0:
164,50,43802,1,8,0:0:0:0:
181,77,46802,1,0,0:0:0:0:
181,77,47402,1,0,0:0:0:0:
181,77,48002,1,0,0:0:0:0:
181,77,48602,1,8,0:0:0:0:
186,84,51602,1,0,0:0:0:0:
186,84,52202,1,8,0:0:0:0:
186,84,52802,1,8,0:0:0:0:
186,84,53402,1,8,0:0:0:0:
192,82,55202,1,8,0:0:0:0:
192,82,55802,1,0,0:0:0:0:
192,82,56402,1,8,0:0:0:0:
176,80,57602,1,8,0:0:0:0:
175,80,58802,1,8,0:0:0:0:
175,136,61202,1,8,0:0:0:0:
174,140,62402,1,0,0:0:0:0:
171,142,63602,1,8,0:0:0:0:
172,138,64802,1,8,0:0:0:0:
172,94,66002,1,0,0:0:0:0:
156,82,67202,1,8,0:0:0:0:
156,82,68402,1,0,0:0:0:0:
156,82,69602,1,8,0:0:0:0:
156,82,70802,1,8,0:0:0:0:
156,82,71402,1,8,0:0:0:0:
156,82,72002,1,8,0:0:0:0:
156,82,72602,1,0,0:0:0:0:
156,82,75602,1,0,0:0:0:0:
159,61,80402,1,8,0:0:0:0:
159,61,81602,1,0,0:0:0:0:
159,61,82802,1,8,0:0:0:0:
158,56,84002,1,0,0:0:0:0:
158,56,84602,1,8,0:0:0:0:
159,56,85202,1,8,0:0:0:0:
147,77,86402,1,0,0:0:0:0:
151,84,87602,1,8,0:0:0:0:
151,84,88202,1,0,0:0:0:0:
151,84,88802,1,0,0:0:0:0:
151,84,89402,1,8,0:0:0:0:
151,84,90002,1,8,0:0:0:0:
191,60,90602,1,0,0:0:0:0:
191,60,91202,1,0,0:0:0:0:
191,60,91802,1,8,0:0:0:0:
175,70,94802,1,0,0:0:0:0:
160,79,100802,5,0,0:0:0:0:
158,72,101402,1,0,0:0:0:0:
162,73,102002,1,0,0:0:0:0:
162,73,102602,1,8,0:0:0:0:
160,84,105602,1,0,0:0:0:0:
160,84,106202,1,8,0:0:0:0:
160,84,106802,1,8,0:0:0:0:
160,84,107402,1,8,0:0:0:0:
162,84,110402,1,0,0:0:0:0:
162,84,111002,1,0,0:0:0:0:
162,84,111602,1,0,0:0:0:0:
162,84,112202,1,8,0:0:0:0:
168,73,114002,1,8,0:0:0:0:
168,73,114602,1,0,0:0:0:0:
168,73,115202,1,0,0:0:0:0:
158,59,120002,1,0,0:0:0:0:
158,59,120602,1,8,0:0:0:0:
158,59,121202,1,8,0:0:0:0:
158,59,121802,1,8,0:0:0:0:
183,116,124802,1,0,0:0:0:0:
183,116,125402,1,0,0:0:0:0:
183,116,126002,1,0,0:0:0:0:
183,116,126602,1,8,0:0:0:0:
180,143,129602,1,0,0:0:0:0:
180,143,130202,1,8,0:0:0:0:
180,143,130802,1,8,0:0:0:0:
180,143,131402,1,8,0:0:0:0:
160,155,133202,1,8,0:0:0:0:
160,155,133802,1,0,0:0:0:0:
160,155,134402,1,8,0:0:0:0:
165,141,135602,1,8,0:0:0:0:
165,141,136802,1,8,0:0:0:0:
167,119,139202,1,8,0:0:0:0:
162,129,140402,1,0,0:0:0:0:
163,126,141602,1,8,0:0:0:0:
163,126,142802,1,8,0:0:0:0:
163,123,144002,1,0,0:0:0:0:
164,125,145202,1,8,0:0:0:0:
165,122,146402,1,0,0:0:0:0:
165,121,147602,1,8,0:0:0:0:
179,96,148802,1,8,0:0:0:0:
179,96,149402,1,8,0:0:0:0:
179,96,150002,1,8,0:0:0:0:
179,96,150602,1,0,0:0:0:0:
151,196,152402,1,8,0:0:0:0:
181,157,153602,1,0,0:0:0:0:
170,161,154802,1,0,0:0:0:0:
177,151,157202,1,0,0:0:0:0:
179,141,158402,1,8,0:0:0:0:
176,141,159602,1,0,0:0:0:0:
176,141,160802,1,8,0:0:0:0:
174,137,162002,1,0,0:0:0:0:
174,137,162602,1,8,0:0:0:0:
174,137,163202,1,8,0:0:0:0:
174,137,164402,1,0,0:0:0:0:
173,136,165602,1,8,0:0:0:0:
173,136,166202,1,0,0:0:0:0:
173,136,166802,1,0,0:0:0:0:
173,136,167402,1,8,0:0:0:0:
173,136,168002,1,8,0:0:0:0:
173,136,168602,1,0,0:0:0:0:
150,141,169202,1,0,0:0:0:0:
150,141,169802,1,8,0:0:0:0:
152,129,171602,1,8,0:0:0:0:
157,88,172802,1,0,0:0:0:0:
167,84,174002,1,0,0:0:0:0:
164,75,176402,1,0,0:0:0:0:
159,81,177602,1,8,0:0:0:0:
165,76,178802,1,0,0:0:0:0:
170,73,180002,1,8,0:0:0:0:
181,92,181202,1,8,0:0:0:0:
181,92,182402,1,0,0:0:0:0:
189,90,183602,1,8,0:0:0:0:
181,96,184802,1,0,0:0:0:0:
181,93,186002,1,8,0:0:0:0:
173,98,187202,1,8,0:0:0:0:
171,83,187802,1,8,0:0:0:0:
171,83,188402,1,8,0:0:0:0:
171,83,189002,1,0,0:0:0:0:
117,68,189602,1,8,0:0:0:0:
171,82,190802,1,8,0:0:0:0:
171,82,192002,1,0,0:0:0:0:
175,47,193202,1,0,0:0:0:0:
171,47,194402,1,8,0:0:0:0:
171,80,195602,1,0,0:0:0:0:
171,79,196802,1,8,0:0:0:0:
154,78,198002,1,0,0:0:0:0:
172,74,199202,1,8,0:0:0:0:
171,75,200402,1,8,0:0:0:0:
171,75,201602,1,0,0:0:0:0:
171,75,202802,1,8,0:0:0:0:
171,75,204002,1,0,0:0:0:0:
171,75,205202,1,8,0:0:0:0:
171,75,206402,1,8,0:0:0:0:
226,63,207602,1,0,0:0:0:0:
166,120,213602,5,0,0:0:0:0:
165,127,220802,5,0,0:0:0:0:
165,139,221402,1,8,0:0:0:0:
165,139,222002,1,8,0:0:0:0:
165,139,222602,1,8,0:0:0:0:
203,47,225602,1,0,0:0:0:0:
185,72,226202,1,0,0:0:0:0:
185,72,226802,1,0,0:0:0:0:
142,69,227402,1,8,0:0:0:0:
181,101,230402,1,0,0:0:0:0:
181,101,231002,1,8,0:0:0:0:
181,101,231602,1,8,0:0:0:0:
181,101,232202,1,8,0:0:0:0:
181,101,232802,1,0,0:0:0:0:
181,101,234002,1,8,0:0:0:0:
181,101,234602,1,0,0:0:0:0:
181,101,235202,1,8,0:0:0:0:
181,101,236402,1,8,0:0:0:0:
181,101,237602,1,8,0:0:0:0:
180,104,240002,1,0,0:0:0:0:
180,104,240602,1,0,0:0:0:0:
180,104,241202,1,0,0:0:0:0:
180,104,241802,1,8,0:0:0:0:
175,104,244802,1,0,0:0:0:0:
175,104,245402,1,8,0:0:0:0:
175,104,246002,1,8,0:0:0:0:
175,104,246602,1,8,0:0:0:0:
170,142,249602,1,0,0:0:0:0:
170,142,250202,1,0,0:0:0:0:
170,142,250802,1,0,0:0:0:0:
170,142,251402,1,8,0:0:0:0:
170,142,252002,1,0,0:0:0:0:
189,95,253270,1,8,0:0:0:0:
170,142,253980,1,0,0:0:0:0:
170,142,254684,1,8,0:0:0:0:
