osu file format v14

[General]
AudioFilename: audio.mp3
AudioLeadIn: 0
PreviewTime: -1
Countdown: 0
SampleSet: None
StackLeniency: 0.7
Mode: 0
LetterboxInBreaks: 0
WidescreenStoryboard: 1

[Editor]
DistanceSpacing: 0.5
BeatDivisor: 2
GridSize: 4
TimelineZoom: 1

[Metadata]
Title:Koi Ni Naritai Aquarium
TitleUnicode:恋になりたいAQUARIUM
Artist:aqours
ArtistUnicode:aqours
Creator:zonorainbow
Version:Normal
Source:Love Live! Sunshine!!
Tags:lovelive sunshine aqours koiaku koininaritai koininaritaiaqourium watanabeyou
BeatmapID:1251416
BeatmapSetID:587522

[Difficulty]
HPDrainRate:5
CircleSize:3.4
OverallDifficulty:4
ApproachRate:6
SliderMultiplier:1.2
SliderTickRate:1

[Events]
//Background and Video events
Video,0,"【試聴動画】Aqours 2ndシングル「恋になりたいAQUARIUM」.avi"
0,0,"bg.png",0,0
//Break Periods
//Storyboard Layer 0 (Background)
//Storyboard Layer 1 (Fail)
//Storyboard Layer 2 (Pass)
//Storyboard Layer 3 (Foreground)
//Storyboard Sound Samples

[TimingPoints]
16809.3041181459,431.654676258993,4,3,1,100,1,0
23735,-83.3333333333333,4,3,1,100,0,0

[Colours]
Combo1 : 255,83,87
Combo2 : 0,202,0
Combo3 : 48,211,252
Combo4 : 240,0,30
Combo5 : 255,192,4
Combo6 : 255,70,251
Combo7 : 141,141,141
Combo8 : 255,145,23

[HitObjects]
20,88,16809,6,0,P|108:52|120:52,1,60
416,220,18535,2,0,P|420:192|412:156,1,60
112,236,20262,2,0,P|160:284|180:288,1,60
432,152,21989,2,0,P|356:112|316:120,1,120
292,236,22852,2,0,P|396:276|456:264,1,120
156,96,23715,6,0,P|132:168|172:232,1,120
296,264,24579,2,0,P|328:220|320:116,1,143.999995605469
164,108,25442,2,0,P|128:184|164:248,1,143.999995605469
332,236,26305,1,0,0:0:0:0:
328,120,26737,1,0,0:0:0:0:
116,140,27169,5,0,0:0:0:0:
168,100,27600,1,0,0:0:0:0:
324,304,28032,2,0,P|360:256|372:168,1,143.999995605469
260,88,28895,2,0,P|216:80|180:104,1,71.9999978027344
160,152,29327,2,0,P|192:172|240:164,2,71.9999978027344
216,152,30406,101,0,0:0:0:0:
280,164,30622,2,0,P|376:204|432:240,1,143.999995605469
248,276,31485,2,0,P|172:248|120:188,1,143.999995605469
272,168,32348,2,0,P|360:160|428:168,2,143.999995605469
96,236,33643,5,0,0:0:0:0:
96,236,34075,2,0,P|140:324|192:344,1,143.999995605469
324,288,34938,2,0,P|312:192|272:136,1,143.999995605469
152,88,35802,1,0,0:0:0:0:
152,88,36233,2,0,P|72:60|-4:76,1,143.999995605469
20,64,37097,1,0,0:0:0:0:
392,240,37528,6,0,P|408:160|368:100,1,143.999995605469
248,120,38392,2,0,P|248:168|280:192,2,71.9999978027344
204,60,39255,2,0,P|120:56|32:112,1,143.999995605469
184,156,40118,2,0,P|224:224|236:284,2,71.9999978027344
300,152,40981,6,0,P|384:172|440:232,1,143.999995605469
308,248,41845,2,0,P|232:232|148:180,1,143.999995605469
124,144,42708,53,0,0:0:0:0:
144,76,43140,1,0,0:0:0:0:
204,56,43571,1,0,0:0:0:0:
360,276,44435,54,0,P|408:288|520:284,1,143.999995605469
496,284,45298,2,0,P|432:292|352:276,1,143.999995605469
352,280,46161,2,0,P|428:248|468:200,1,143.999995605469
400,132,47025,2,0,P|320:140|304:168,2,71.9999978027344
456,192,47888,101,0,0:0:0:0:
448,252,48320,1,0,0:0:0:0:
420,312,48751,2,0,P|392:304|324:216,1,143.999995605469
280,56,49615,1,0,0:0:0:0:
216,64,50046,1,0,0:0:0:0:
164,92,50478,2,0,P|104:144|40:216,1,143.999995605469
228,216,51341,22,0,P|320:232|416:216,1,143.999995605469
284,312,52204,2,0,P|284:240|320:144,1,143.999995605469
368,260,53068,2,0,P|272:252|228:220,2,143.999995605469
132,128,54794,5,0,0:0:0:0:
232,104,55226,1,0,0:0:0:0:
344,112,55658,1,0,0:0:0:0:
308,200,56521,38,0,P|244:268|188:280,2,143.999995605469
104,84,58248,6,0,P|208:96|220:120,1,143.999995605469
152,260,59111,2,0,P|216:240|176:180,1,143.999995605469
304,176,59974,2,0,P|384:244|440:260,3,143.999995605469
488,272,61701,5,0,0:0:0:0:
244,192,62564,1,0,0:0:0:0:
172,256,63428,2,0,P|244:288|312:304,1,143.999995605469
368,208,64291,2,0,P|272:168|220:192,1,143.999995605469
232,272,65154,6,0,P|304:292|376:280,1,143.999995605469
364,192,66017,2,0,P|284:176|224:208,1,143.999995605469
236,120,66881,2,0,P|292:56|376:52,2,143.999995605469
200,224,68176,1,0,0:0:0:0:
136,156,68607,6,0,P|208:120|408:176,1,287.999991210938
224,296,70334,2,0,P|352:328|392:316,1,143.999995605469
480,200,71197,1,0,0:0:0:0:
348,120,71629,1,0,0:0:0:0:
188,120,72061,54,0,B|120:160|124:240|220:296|80:312,1,215.999993408203
72,312,72924,1,0,0:0:0:0:
84,116,73787,2,0,P|144:72|220:80,1,143.999995605469
272,100,74651,1,0,0:0:0:0:
136,88,76377,86,0,P|224:108|264:136,1,107.999996704102
296,152,77025,1,0,0:0:0:0:
280,240,77240,2,0,B|228:288|168:228|108:312,1,143.999995605469
168,220,78104,2,0,B|256:156|308:120|244:72|420:68,1,287.999991210938
432,112,79399,1,0,0:0:0:0:
344,208,79830,6,0,B|256:216|200:260|192:212,2,143.999995605469
432,220,81125,1,0,0:0:0:0:
300,132,81557,1,0,0:0:0:0:
216,112,81989,1,0,0:0:0:0:
132,104,82420,2,0,P|96:104|4:160,2,143.999995605469
256,112,83715,1,0,0:0:0:0:
256,112,84147,6,0,P|340:120|400:168,2,143.999995605469
68,168,85442,1,0,0:0:0:0:
64,172,85874,2,0,P|40:204|32:328,1,143.999995605469
124,332,86737,2,0,P|180:284|176:212,1,143.999995605469
136,140,87600,6,0,P|228:100|368:104,2,215.999993408203
96,244,89327,6,0,P|192:276|248:256,1,143.999995605469
304,232,90190,6,0,P|400:204|472:220,1,143.999995605469
424,316,91053,6,0,P|332:312|288:284,1,143.999995605469
184,192,91917,1,0,0:0:0:0:
200,120,92348,1,0,0:0:0:0:
304,132,92780,2,0,P|348:208|348:288,1,143.999995605469
140,152,93643,6,0,B|180:88|256:132|208:232|328:208|304:112,1,215.999993408203
312,104,94507,1,0,0:0:0:0:
196,72,94938,1,0,0:0:0:0:
196,72,95370,6,0,P|84:104|56:164,1,143.999995605469
136,240,96233,2,0,P|180:240|232:296,1,107.999996704102
272,296,97097,2,0,P|312:288|368:232,1,107.999996704102
408,152,97960,1,0,0:0:0:0:
352,56,98392,6,0,P|272:56|212:96,2,143.999995605469
368,148,99687,2,0,P|344:208|256:272,1,143.999995605469
128,256,100550,2,0,P|80:188|108:124,1,143.999995605469
216,288,101413,1,0,0:0:0:0:
224,288,101845,2,0,P|304:272|420:100,1,287.999991210938
204,244,103140,2,0,P|88:272|56:260,1,143.999995605469
84,192,104003,2,0,P|188:168|256:196,1,143.999995605469
292,280,104866,2,0,P|344:208|272:32,1,287.999991210938
280,36,106161,37,0,0:0:0:0:
152,104,106593,2,0,P|144:200|184:264,2,143.999995605469
156,104,107888,1,0,0:0:0:0:
152,96,108320,2,0,P|272:100|344:132,2,143.999995605469
112,120,109615,1,0,0:0:0:0:
