osu file format v14

[General]
AudioFilename: audio.mp3
AudioLeadIn: 0
PreviewTime: 41757
Countdown: 0
SampleSet: None
StackLeniency: 0.7
Mode: 1
LetterboxInBreaks: 0
WidescreenStoryboard: 0

[Editor]
DistanceSpacing: 0.1
BeatDivisor: 12
GridSize: 32
TimelineZoom: 2.899999

[Metadata]
Title:fex acid
TitleUnicode:fex acid
Artist:aph.exe
ArtistUnicode:aph.exe
Creator:KyouRekii87
Version:putrefaction
Source:
Tags:
BeatmapID:1920395
BeatmapSetID:919524

[Difficulty]
HPDrainRate:5.4
CircleSize:5
OverallDifficulty:7.9
ApproachRate:5
SliderMultiplier:1.4
SliderTickRate:1

[Events]
//Background and Video events
0,0,"1031684_chemistry-science-wallpapers_1032x774_h.jpg",0,0
//Break Periods
//Storyboard Layer 0 (Background)
//Storyboard Layer 1 (Fail)
//Storyboard Layer 2 (Pass)
//Storyboard Layer 3 (Foreground)
//Storyboard Sound Samples

[TimingPoints]
3382,300,4,1,0,100,1,0
3382,-90.9090909090909,4,1,0,100,0,0

[HitObjects]
263,127,3382,5,0,0:0:0:0:
213,239,3682,1,8,0:0:0:0:
213,239,3719,1,8,0:0:0:0:
441,180,3832,1,8,0:0:0:0:
441,180,3907,1,0,0:0:0:0:
441,180,4057,1,0,0:0:0:0:
144,88,4132,1,8,0:0:0:0:
384,145,4282,1,8,0:0:0:0:
384,145,4319,1,8,0:0:0:0:
384,145,4357,1,8,0:0:0:0:
384,145,4394,1,8,0:0:0:0:
384,145,4432,1,8,0:0:0:0:
349,212,4482,1,8,0:0:0:0:
349,212,4532,1,8,0:0:0:0:
349,212,4582,1,0,0:0:0:0:
346,156,4732,1,0,0:0:0:0:
346,156,4807,1,0,0:0:0:0:
346,108,4882,1,8,0:0:0:0:
346,108,4919,1,8,0:0:0:0:
346,108,5032,1,0,0:0:0:0:
333,205,5182,1,0,0:0:0:0:
319,245,5332,1,8,0:0:0:0:
319,245,5369,1,8,0:0:0:0:
319,245,5482,1,0,0:0:0:0:
319,245,5557,1,8,0:0:0:0:
319,245,5632,1,0,0:0:0:0:
323,214,5782,1,0,0:0:0:0:
323,214,5932,1,0,0:0:0:0:
323,214,6007,1,0,0:0:0:0:
323,214,6082,1,8,0:0:0:0:
304,158,6232,1,0,0:0:0:0:
304,158,6307,1,8,0:0:0:0:
304,158,6382,1,0,0:0:0:0:
304,158,6457,1,0,0:0:0:0:
304,158,6532,1,0,0:0:0:0:
326,126,6682,1,8,0:0:0:0:
326,126,6732,1,8,0:0:0:0:
326,126,6782,1,8,0:0:0:0:
350,166,6832,1,8,0:0:0:0:
350,166,6869,1,8,0:0:0:0:
350,166,6907,1,8,0:0:0:0:
350,166,6944,1,8,0:0:0:0:
350,166,6982,1,0,0:0:0:0:
358,143,7132,1,0,0:0:0:0:
358,143,7282,1,8,0:0:0:0:
358,143,7432,1,0,0:0:0:0:
358,143,7582,1,0,0:0:0:0:
358,143,7657,1,8,0:0:0:0:
358,143,7807,1,0,0:0:0:0:
272,151,7882,1,8,0:0:0:0:
272,151,7932,1,8,0:0:0:0:
272,151,7982,1,8,0:0:0:0:
200,214,8032,1,0,0:0:0:0:
287,186,8069,1,0,0:0:0:0:
200,214,8107,1,8,0:0:0:0:
287,186,8144,1,8,0:0:0:0:
200,214,8182,1,0,0:0:0:0:
296,195,8332,1,0,0:0:0:0:
296,195,8482,1,8,0:0:0:0:
296,195,8632,1,0,0:0:0:0:
296,195,8707,1,8,0:0:0:0:
296,195,8782,1,8,0:0:0:0:
296,195,8857,1,0,0:0:0:0:
296,195,8932,1,0,0:0:0:0:
352,160,9082,1,8,0:0:0:0:
352,160,9119,1,8,0:0:0:0:
352,160,9157,1,8,0:0:0:0:
352,160,9232,1,8,0:0:0:0:
352,160,9307,1,8,0:0:0:0:
274,209,9382,1,0,0:0:0:0:
274,209,9532,1,8,0:0:0:0:
274,209,9607,1,0,0:0:0:0:
274,209,9682,1,8,0:0:0:0:
274,209,9832,1,0,0:0:0:0:
274,209,9982,1,0,0:0:0:0:
274,209,10132,1,8,0:0:0:0:
274,209,10282,1,8,0:0:0:0:
274,209,10357,1,0,0:0:0:0:
274,209,10432,1,0,0:0:0:0:
274,209,10582,1,0,0:0:0:0:
274,209,10732,1,8,0:0:0:0:
274,209,10882,1,8,0:0:0:0:
274,209,11032,1,8,0:0:0:0:
274,209,11107,1,0,0:0:0:0:
274,209,11182,1,8,0:0:0:0:
274,209,11257,1,0,0:0:0:0:
274,209,11332,1,0,0:0:0:0:
313,171,11482,1,8,0:0:0:0:
313,171,11519,1,8,0:0:0:0:
313,171,11557,1,8,0:0:0:0:
313,171,11594,1,8,0:0:0:0:
313,171,11632,1,8,0:0:0:0:
313,171,11669,1,8,0:0:0:0:
313,171,11707,1,8,0:0:0:0:
313,171,11744,1,8,0:0:0:0:
313,171,11782,1,0,0:0:0:0:
363,188,11932,1,0,0:0:0:0:
363,188,12082,1,8,0:0:0:0:
205,232,12232,1,0,0:0:0:0:
205,232,12282,1,0,0:0:0:0:
205,232,12332,1,0,0:0:0:0:
205,232,12382,1,0,0:0:0:0:
252,254,12457,1,0,0:0:0:0:
252,254,12532,1,0,0:0:0:0:
252,254,12607,1,0,0:0:0:0:
282,195,12682,1,8,0:0:0:0:
282,195,12757,1,8,0:0:0:0:
282,195,12832,1,8,0:0:0:0:
282,195,12882,1,8,0:0:0:0:
282,195,12932,1,8,0:0:0:0:
282,195,12982,1,0,0:0:0:0:
336,140,13132,1,8,0:0:0:0:
336,140,13207,1,0,0:0:0:0:
336,140,13282,1,8,0:0:0:0:
336,140,13432,1,8,0:0:0:0:
336,140,13507,1,0,0:0:0:0:
336,140,13582,1,8,0:0:0:0:
336,140,13657,1,0,0:0:0:0:
336,140,13732,1,0,0:0:0:0:
296,177,13882,1,8,0:0:0:0:
296,177,13932,1,8,0:0:0:0:
296,177,13982,1,8,0:0:0:0:
262,227,14032,1,8,0:0:0:0:
262,227,14069,1,8,0:0:0:0:
262,227,14107,1,8,0:0:0:0:
262,227,14144,1,8,0:0:0:0:
262,227,14182,1,0,0:0:0:0:
163,298,14332,1,8,0:0:0:0:
163,298,14482,1,8,0:0:0:0:
163,298,14632,1,8,0:0:0:0:
163,298,14707,1,0,0:0:0:0:
163,298,14782,1,0,0:0:0:0:
163,298,14857,1,8,0:0:0:0:
163,298,14932,1,0,0:0:0:0:
237,160,15082,1,0,0:0:0:0:
237,160,15132,1,0,0:0:0:0:
237,160,15182,1,0,0:0:0:0:
247,206,15232,1,8,0:0:0:0:
247,206,15269,1,8,0:0:0:0:
247,206,15307,1,8,0:0:0:0:
244,164,15345,1,8,0:0:0:0:
244,164,15382,1,0,0:0:0:0:
297,154,15457,1,0,0:0:0:0:
297,154,15532,1,0,0:0:0:0:
297,154,15607,1,0,0:0:0:0:
378,201,15682,1,8,0:0:0:0:
378,201,15757,1,8,0:0:0:0:
263,208,15832,1,0,0:0:0:0:
263,208,15882,1,0,0:0:0:0:
263,208,15932,1,0,0:0:0:0:
297,154,16057,1,8,0:0:0:0:
297,154,16132,1,0,0:0:0:0:
297,154,16282,1,8,0:0:0:0:
297,154,16357,1,8,0:0:0:0:
297,154,16432,1,8,0:0:0:0:
297,154,16507,1,8,0:0:0:0:
297,154,16582,1,0,0:0:0:0:
297,154,16732,1,8,0:0:0:0:
297,154,16882,1,8,0:0:0:0:
297,154,17032,1,8,0:0:0:0:
297,154,17107,1,0,0:0:0:0:
297,154,17182,1,8,0:0:0:0:
297,154,17257,1,0,0:0:0:0:
297,154,17332,1,0,0:0:0:0:
297,154,17482,1,8,0:0:0:0:
233,190,17556,1,0,0:0:0:0:
233,190,17594,1,0,0:0:0:0:
233,190,17631,1,0,0:0:0:0:
242,160,17707,1,0,0:0:0:0:
242,160,17782,1,0,0:0:0:0:
218,247,17932,1,8,0:0:0:0:
218,247,18007,1,0,0:0:0:0:
218,247,18082,1,8,0:0:0:0:
218,247,18232,1,8,0:0:0:0:
218,247,18307,1,0,0:0:0:0:
218,247,18382,1,0,0:0:0:0:
218,247,18457,1,8,0:0:0:0:
218,247,18532,1,0,0:0:0:0:
272,249,18682,1,8,0:0:0:0:
310,167,18782,1,8,0:0:0:0:
310,167,18832,1,8,0:0:0:0:
310,167,18882,1,8,0:0:0:0:
310,167,18932,1,8,0:0:0:0:
310,167,18982,1,0,0:0:0:0:
357,133,19132,1,8,0:0:0:0:
357,133,19207,1,0,0:0:0:0:
357,133,19282,1,8,0:0:0:0:
357,133,19432,1,0,0:0:0:0:
357,133,19582,1,8,0:0:0:0:
357,133,19732,1,8,0:0:0:0:
357,133,19882,1,0,0:0:0:0:
357,133,19957,1,8,0:0:0:0:
357,133,20032,1,0,0:0:0:0:
357,133,20182,1,0,0:0:0:0:
357,133,20332,1,8,0:0:0:0:
357,133,20407,1,0,0:0:0:0:
203,241,20482,1,8,0:0:0:0:
203,241,20519,1,8,0:0:0:0:
203,241,20557,1,8,0:0:0:0:
203,241,20594,1,8,0:0:0:0:
203,241,20632,1,0,0:0:0:0:
203,241,20669,1,0,0:0:0:0:
203,241,20707,1,0,0:0:0:0:
203,241,20744,1,0,0:0:0:0:
194,146,20782,1,8,0:0:0:0:
194,146,20832,1,8,0:0:0:0:
194,146,20882,1,8,0:0:0:0:
194,146,20932,1,8,0:0:0:0:
230,348,21007,1,8,0:0:0:0:
230,348,21082,1,8,0:0:0:0:
230,348,21157,1,8,0:0:0:0:
230,348,21232,1,8,0:0:0:0:
230,348,21307,1,8,0:0:0:0:
230,348,21382,1,0,0:0:0:0:
201,110,21532,1,8,0:0:0:0:
201,110,21607,1,0,0:0:0:0:
201,110,21682,1,8,0:0:0:0:
201,110,21832,1,8,0:0:0:0:
201,110,21907,1,0,0:0:0:0:
201,110,21982,1,8,0:0:0:0:
201,110,22057,1,8,0:0:0:0:
201,110,22132,1,0,0:0:0:0:
201,110,22207,1,8,0:0:0:0:
201,110,22282,1,0,0:0:0:0:
201,110,22357,1,8,0:0:0:0:
201,110,22432,1,8,0:0:0:0:
201,110,22507,1,8,0:0:0:0:
201,110,22582,1,0,0:0:0:0:
201,110,22732,1,8,0:0:0:0:
201,110,22807,1,0,0:0:0:0:
201,110,22882,1,8,0:0:0:0:
300,169,23032,1,0,0:0:0:0:
300,169,23082,1,0,0:0:0:0:
300,169,23132,1,0,0:0:0:0:
300,169,23182,1,0,0:0:0:0:
221,214,23257,1,0,0:0:0:0:
221,214,23332,1,0,0:0:0:0:
221,214,23407,1,0,0:0:0:0:
221,214,23482,1,8,0:0:0:0:
221,214,23707,1,8,0:0:0:0:
221,214,23782,1,0,0:0:0:0:
221,214,23932,1,8,0:0:0:0:
221,214,24007,1,0,0:0:0:0:
221,214,24082,1,8,0:0:0:0:
221,214,24232,1,0,0:0:0:0:
221,214,24382,1,0,0:0:0:0:
221,214,24532,1,8,0:0:0:0:
221,214,24682,1,8,0:0:0:0:
221,214,24757,1,0,0:0:0:0:
221,214,24832,1,0,0:0:0:0:
221,214,24982,1,0,0:0:0:0:
221,214,25132,1,8,0:0:0:0:
221,214,25207,1,0,0:0:0:0:
221,214,25282,1,8,0:0:0:0:
328,130,25432,1,8,0:0:0:0:
328,130,25482,1,8,0:0:0:0:
328,130,25532,1,8,0:0:0:0:
328,130,25582,1,8,0:0:0:0:
248,149,25657,1,8,0:0:0:0:
248,149,25732,1,8,0:0:0:0:
248,149,25807,1,8,0:0:0:0:
248,149,25882,1,0,0:0:0:0:
248,149,25957,1,0,0:0:0:0:
362,118,26032,1,8,0:0:0:0:
362,118,26069,1,8,0:0:0:0:
362,118,26107,1,8,0:0:0:0:
362,118,26144,1,8,0:0:0:0:
362,118,26182,1,0,0:0:0:0:
202,245,26332,1,8,0:0:0:0:
202,245,26482,1,8,0:0:0:0:
202,245,26632,1,8,0:0:0:0:
202,245,26707,1,0,0:0:0:0:
202,245,26782,1,0,0:0:0:0:
202,245,26857,1,8,0:0:0:0:
202,245,26932,1,0,0:0:0:0:
202,245,27007,1,8,0:0:0:0:
202,245,27082,1,8,0:0:0:0:
202,245,27157,1,8,0:0:0:0:
202,245,27232,1,8,0:0:0:0:
295,229,27282,1,8,0:0:0:0:
295,229,27332,1,8,0:0:0:0:
295,229,27382,1,0,0:0:0:0:
115,248,27532,1,8,0:0:0:0:
115,248,27682,1,8,0:0:0:0:
115,248,27832,1,0,0:0:0:0:
115,248,27907,1,0,0:0:0:0:
115,248,27982,1,0,0:0:0:0:
115,248,28057,1,8,0:0:0:0:
115,248,28132,1,0,0:0:0:0:
234,201,28282,1,8,0:0:0:0:
234,201,28332,1,8,0:0:0:0:
234,201,28382,1,8,0:0:0:0:
377,177,28432,1,0,0:0:0:0:
377,177,28469,1,0,0:0:0:0:
377,177,28507,1,8,0:0:0:0:
369,128,28544,1,8,0:0:0:0:
377,177,28582,1,0,0:0:0:0:
335,134,28732,1,8,0:0:0:0:
335,134,28807,1,0,0:0:0:0:
335,134,28882,1,8,0:0:0:0:
335,134,29032,1,8,0:0:0:0:
335,134,29107,1,0,0:0:0:0:
335,134,29182,1,8,0:0:0:0:
335,134,29332,1,8,0:0:0:0:
335,134,29407,1,0,0:0:0:0:
335,134,29482,1,0,0:0:0:0:
335,134,29557,1,0,0:0:0:0:
270,201,29632,1,8,0:0:0:0:
270,201,29669,1,8,0:0:0:0:
270,201,29707,1,8,0:0:0:0:
270,201,29744,1,8,0:0:0:0:
270,201,29782,1,0,0:0:0:0:
321,167,29932,1,0,0:0:0:0:
321,167,30082,1,8,0:0:0:0:
321,167,30232,1,8,0:0:0:0:
321,167,30307,1,0,0:0:0:0:
321,167,30382,1,8,0:0:0:0:
321,167,30457,1,0,0:0:0:0:
321,167,30532,1,0,0:0:0:0:
321,167,30607,1,8,0:0:0:0:
321,167,30682,1,0,0:0:0:0:
321,167,30757,1,8,0:0:0:0:
321,167,30832,1,8,0:0:0:0:
321,167,30907,1,8,0:0:0:0:
321,167,30982,1,0,0:0:0:0:
321,167,31132,1,0,0:0:0:0:
321,167,31282,1,8,0:0:0:0:
321,167,31432,1,0,0:0:0:0:
321,167,31507,1,0,0:0:0:0:
235,173,31582,1,8,0:0:0:0:
235,173,31619,1,8,0:0:0:0:
368,147,31807,1,8,0:0:0:0:
368,147,31882,1,0,0:0:0:0:
368,147,31957,1,0,0:0:0:0:
216,259,32032,1,8,0:0:0:0:
216,259,32069,1,8,0:0:0:0:
216,259,32107,1,8,0:0:0:0:
216,259,32144,1,8,0:0:0:0:
216,259,32182,1,0,0:0:0:0:
217,238,32332,1,0,0:0:0:0:
217,238,32482,1,8,0:0:0:0:
185,221,32632,1,0,0:0:0:0:
185,221,32682,1,0,0:0:0:0:
185,221,32732,1,0,0:0:0:0:
185,221,32782,1,0,0:0:0:0:
185,221,32857,1,0,0:0:0:0:
185,221,32932,1,0,0:0:0:0:
256,104,33007,1,0,0:0:0:0:
256,104,33082,1,8,0:0:0:0:
256,104,33307,1,8,0:0:0:0:
256,104,33382,1,0,0:0:0:0:
256,104,33532,1,8,0:0:0:0:
256,104,33607,1,0,0:0:0:0:
256,104,33682,1,8,0:0:0:0:
220,162,33832,1,0,0:0:0:0:
220,162,33982,1,0,0:0:0:0:
220,162,34132,1,8,0:0:0:0:
220,162,34282,1,8,0:0:0:0:
220,162,34357,1,0,0:0:0:0:
220,162,34432,1,0,0:0:0:0:
220,162,34582,1,0,0:0:0:0:
220,162,34732,1,8,0:0:0:0:
220,162,34882,1,8,0:0:0:0:
220,162,34957,1,8,0:0:0:0:
220,162,35032,1,8,0:0:0:0:
253,163,35082,1,8,0:0:0:0:
253,163,35132,1,8,0:0:0:0:
253,163,35182,1,8,0:0:0:0:
299,121,35257,1,8,0:0:0:0:
299,121,35332,1,0,0:0:0:0:
299,121,35407,1,0,0:0:0:0:
299,121,35482,1,8,0:0:0:0:
220,195,35632,1,8,0:0:0:0:
220,195,35707,1,0,0:0:0:0:
220,195,35782,1,0,0:0:0:0:
220,195,35932,1,0,0:0:0:0:
220,195,36082,1,8,0:0:0:0:
220,195,36232,1,0,0:0:0:0:
220,195,36382,1,0,0:0:0:0:
220,195,36532,1,8,0:0:0:0:
220,195,36682,1,8,0:0:0:0:
220,195,36757,1,0,0:0:0:0:
220,195,36907,1,0,0:0:0:0:
220,195,36982,1,8,0:0:0:0:
220,195,37132,1,8,0:0:0:0:
220,195,37207,1,0,0:0:0:0:
220,195,37282,1,8,0:0:0:0:
220,195,37432,1,8,0:0:0:0:
220,195,37507,1,0,0:0:0:0:
220,195,37582,1,8,0:0:0:0:
220,195,37807,1,8,0:0:0:0:
220,195,37882,1,0,0:0:0:0:
220,195,37957,1,0,0:0:0:0:
295,157,38032,1,8,0:0:0:0:
295,157,38069,1,8,0:0:0:0:
295,157,38107,1,8,0:0:0:0:
295,157,38144,1,8,0:0:0:0:
322,112,38182,1,0,0:0:0:0:
322,112,38257,1,0,0:0:0:0:
322,112,38332,1,0,0:0:0:0:
322,112,38407,1,0,0:0:0:0:
322,112,38482,1,8,0:0:0:0:
322,112,38557,1,8,0:0:0:0:
322,112,38632,1,8,0:0:0:0:
322,112,38707,1,8,0:0:0:0:
322,112,38782,1,0,0:0:0:0:
322,112,38857,1,0,0:0:0:0:
322,112,38932,1,0,0:0:0:0:
322,112,39007,1,0,0:0:0:0:
165,193,39082,1,8,0:0:0:0:
165,193,39119,1,8,0:0:0:0:
165,193,39157,1,8,0:0:0:0:
165,193,39194,1,8,0:0:0:0:
165,193,39232,1,0,0:0:0:0:
165,193,39269,1,0,0:0:0:0:
165,193,39307,1,8,0:0:0:0:
165,193,39344,1,8,0:0:0:0:
165,193,39382,1,0,0:0:0:0:
259,197,39532,1,8,0:0:0:0:
259,197,39607,1,0,0:0:0:0:
259,197,39682,1,8,0:0:0:0:
346,160,39832,1,0,0:0:0:0:
346,160,39882,1,0,0:0:0:0:
346,160,39932,1,0,0:0:0:0:
346,160,39982,1,0,0:0:0:0:
346,160,40057,1,0,0:0:0:0:
346,160,40132,1,0,0:0:0:0:
259,97,40207,1,0,0:0:0:0:
259,97,40282,1,0,0:0:0:0:
259,97,40432,1,0,0:0:0:0:
259,97,40582,1,0,0:0:0:0:
259,97,40732,1,8,0:0:0:0:
330,148,40882,1,8,0:0:0:0:
330,148,40919,1,8,0:0:0:0:
330,148,40957,1,8,0:0:0:0:
330,148,40994,1,8,0:0:0:0:
330,148,41032,1,8,0:0:0:0:
330,148,41107,1,8,0:0:0:0:
306,225,41182,1,0,0:0:0:0:
306,225,41257,1,0,0:0:0:0:
306,225,41332,1,0,0:0:0:0:
306,225,41407,1,0,0:0:0:0:
277,210,41482,1,8,0:0:0:0:
277,210,41532,1,8,0:0:0:0:
277,210,41582,1,8,0:0:0:0:
300,147,41632,1,0,0:0:0:0:
300,147,41669,1,0,0:0:0:0:
300,147,41707,1,8,0:0:0:0:
300,147,41744,1,8,0:0:0:0:
300,147,41782,1,0,0:0:0:0:
58,169,41932,1,0,0:0:0:0:
58,169,42082,1,8,0:0:0:0:
58,169,42232,1,0,0:0:0:0:
58,169,42307,1,8,0:0:0:0:
58,169,42382,1,0,0:0:0:0:
58,169,42457,1,0,0:0:0:0:
58,169,42532,1,0,0:0:0:0:
58,169,42607,1,8,0:0:0:0:
315,184,42682,1,8,0:0:0:0:
315,184,42732,1,8,0:0:0:0:
298,153,42832,1,8,0:0:0:0:
298,153,42907,1,8,0:0:0:0:
298,153,42982,1,0,0:0:0:0:
298,153,43132,1,8,0:0:0:0:
298,153,43207,1,0,0:0:0:0:
298,153,43282,1,8,0:0:0:0:
298,153,43432,1,0,0:0:0:0:
298,153,43582,1,0,0:0:0:0:
298,153,43657,1,8,0:0:0:0:
298,153,43732,1,8,0:0:0:0:
289,180,43882,1,0,0:0:0:0:
289,180,43932,1,0,0:0:0:0:
289,180,43982,1,0,0:0:0:0:
289,180,44032,1,0,0:0:0:0:
349,151,44107,1,0,0:0:0:0:
349,151,44182,1,0,0:0:0:0:
349,151,44257,1,0,0:0:0:0:
349,151,44332,1,0,0:0:0:0:
349,151,44407,1,0,0:0:0:0:
349,151,44482,1,8,0:0:0:0:
349,151,44632,1,0,0:0:0:0:
349,151,44707,1,8,0:0:0:0:
349,151,44782,1,0,0:0:0:0:
349,151,44857,1,8,0:0:0:0:
349,151,44932,1,0,0:0:0:0:
349,151,45082,1,8,0:0:0:0:
316,140,45157,1,8,0:0:0:0:
316,140,45194,1,8,0:0:0:0:
316,140,45232,1,8,0:0:0:0:
316,140,45269,1,8,0:0:0:0:
316,140,45307,1,8,0:0:0:0:
316,140,45382,1,0,0:0:0:0:
390,123,45532,1,0,0:0:0:0:
390,123,45607,1,8,0:0:0:0:
390,123,45682,1,8,0:0:0:0:
390,123,45832,1,0,0:0:0:0:
390,123,45982,1,0,0:0:0:0:
390,123,46132,1,8,0:0:0:0:
261,194,46207,1,8,0:0:0:0:
261,194,46244,1,8,0:0:0:0:
386,128,46282,1,8,0:0:0:0:
386,128,46332,1,8,0:0:0:0:
386,128,46382,1,8,0:0:0:0:
386,128,46432,1,0,0:0:0:0:
350,175,46582,1,0,0:0:0:0:
350,175,46732,1,0,0:0:0:0:
350,175,46882,1,8,0:0:0:0:
350,175,47032,1,8,0:0:0:0:
350,175,47107,1,8,0:0:0:0:
350,175,47182,1,0,0:0:0:0:
350,175,47257,1,0,0:0:0:0:
350,175,47332,1,8,0:0:0:0:
350,175,47407,1,8,0:0:0:0:
350,175,47482,1,0,0:0:0:0:
350,175,47707,1,0,0:0:0:0:
350,175,47782,1,8,0:0:0:0:
350,175,47932,1,0,0:0:0:0:
350,175,48007,1,0,0:0:0:0:
350,175,48082,1,8,0:0:0:0:
350,175,48232,1,0,0:0:0:0:
350,175,48307,1,0,0:0:0:0:
350,175,48382,1,8,0:0:0:0:
350,175,48457,1,8,0:0:0:0:
350,175,48532,1,8,0:0:0:0:
350,175,48607,1,8,0:0:0:0:
73,217,48682,1,0,0:0:0:0:
73,217,48732,1,0,0:0:0:0:
73,217,48782,1,0,0:0:0:0:
166,223,48832,1,8,0:0:0:0:
166,223,48869,1,8,0:0:0:0:
166,223,48907,1,8,0:0:0:0:
166,223,48944,1,8,0:0:0:0:
166,223,48982,1,0,0:0:0:0:
313,202,49032,1,0,0:0:0:0:
264,248,49132,1,0,0:0:0:0:
264,248,49207,1,0,0:0:0:0:
262,247,49282,1,0,0:0:0:0:
220,117,49432,1,0,0:0:0:0:
220,117,49582,1,0,0:0:0:0:
220,117,49807,1,0,0:0:0:0:
220,117,49882,1,8,0:0:0:0:
220,117,50107,1,0,0:0:0:0:
260,210,50182,1,8,0:0:0:0:
260,210,50219,1,8,0:0:0:0:
260,210,50257,1,8,0:0:0:0:
260,210,50294,1,8,0:0:0:0:
260,210,50332,1,8,0:0:0:0:
280,138,50382,1,8,0:0:0:0:
280,138,50432,1,8,0:0:0:0:
338,182,50482,1,0,0:0:0:0:
338,182,50557,1,8,0:0:0:0:
338,182,50632,1,8,0:0:0:0:
338,182,50707,1,8,0:0:0:0:
338,182,50782,1,0,0:0:0:0:
338,182,50932,1,0,0:0:0:0:
338,182,51007,1,0,0:0:0:0:
338,182,51082,1,8,0:0:0:0:
338,182,51232,1,8,0:0:0:0:
338,182,51307,1,8,0:0:0:0:
338,182,51382,1,0,0:0:0:0:
338,182,51532,1,0,0:0:0:0:
338,182,51682,1,8,0:0:0:0:
338,182,51832,1,8,0:0:0:0:
338,182,51907,1,8,0:0:0:0:
338,182,51982,1,0,0:0:0:0:
338,182,52057,1,0,0:0:0:0:
338,182,52132,1,8,0:0:0:0:
297,181,52282,1,8,0:0:0:0:
297,181,52332,1,8,0:0:0:0:
297,181,52382,1,8,0:0:0:0:
271,190,52432,1,0,0:0:0:0:
271,190,52469,1,0,0:0:0:0:
271,190,52507,1,8,0:0:0:0:
271,190,52544,1,8,0:0:0:0:
271,190,52582,1,0,0:0:0:0:
257,140,52632,1,0,0:0:0:0:
257,140,52682,1,0,0:0:0:0:
257,140,52732,1,0,0:0:0:0:
319,220,52807,1,0,0:0:0:0:
319,220,52882,1,0,0:0:0:0:
319,220,52957,1,0,0:0:0:0:
319,220,53032,1,0,0:0:0:0:
319,220,53107,1,0,0:0:0:0:
319,220,53257,1,8,0:0:0:0:
319,220,53332,1,0,0:0:0:0:
319,220,53482,1,8,0:0:0:0:
319,220,53707,1,0,0:0:0:0:
319,220,53782,1,0,0:0:0:0:
319,220,53932,1,0,0:0:0:0:
319,220,54082,1,8,0:0:0:0:
319,220,54232,1,0,0:0:0:0:
319,220,54307,1,8,0:0:0:0:
319,220,54382,1,8,0:0:0:0:
319,220,54457,1,0,0:0:0:0:
319,220,54532,1,0,0:0:0:0:
205,143,54682,1,0,0:0:0:0:
205,143,54757,1,0,0:0:0:0:
205,143,54832,1,8,0:0:0:0:
205,143,54907,1,8,0:0:0:0:
205,143,54982,1,0,0:0:0:0:
342,158,55057,1,0,0:0:0:0:
276,120,55132,1,8,0:0:0:0:
276,120,55182,1,8,0:0:0:0:
276,120,55232,1,8,0:0:0:0:
390,147,55282,1,0,0:0:0:0:
390,147,55332,1,0,0:0:0:0:
269,186,55382,1,0,0:0:0:0:
324,149,55432,1,8,0:0:0:0:
324,149,55469,1,8,0:0:0:0:
324,149,55507,1,8,0:0:0:0:
324,149,55544,1,8,0:0:0:0:
324,149,55582,1,0,0:0:0:0:
302,216,55732,1,8,0:0:0:0:
302,216,55807,1,8,0:0:0:0:
302,216,55882,1,0,0:0:0:0:
302,216,56032,1,8,0:0:0:0:
302,216,56182,1,0,0:0:0:0:
302,216,56332,1,0,0:0:0:0:
302,216,56482,1,8,0:0:0:0:
302,216,56632,1,8,0:0:0:0:
302,216,56707,1,0,0:0:0:0:
302,216,56857,1,8,0:0:0:0:
302,216,56932,1,0,0:0:0:0:
302,216,57007,1,0,0:0:0:0:
302,216,57082,1,8,0:0:0:0:
302,216,57232,1,0,0:0:0:0:
302,216,57307,1,8,0:0:0:0:
214,204,57382,1,0,0:0:0:0:
321,239,57432,1,0,0:0:0:0:
321,239,57482,1,0,0:0:0:0:
321,239,57532,1,0,0:0:0:0:
226,192,57607,1,0,0:0:0:0:
223,187,57682,1,0,0:0:0:0:
222,182,57757,1,0,0:0:0:0:
222,182,57832,1,0,0:0:0:0:
222,182,57907,1,0,0:0:0:0:
222,182,58057,1,8,0:0:0:0:
222,182,58132,1,0,0:0:0:0:
222,182,58282,1,8,0:0:0:0:
311,182,58382,1,8,0:0:0:0:
311,182,58432,1,8,0:0:0:0:
311,182,58482,1,8,0:0:0:0:
311,182,58532,1,8,0:0:0:0:
311,182,58582,1,0,0:0:0:0:
272,199,58732,1,8,0:0:0:0:
272,199,58807,1,0,0:0:0:0:
272,199,58882,1,8,0:0:0:0:
272,199,59032,1,0,0:0:0:0:
272,199,59107,1,0,0:0:0:0:
272,199,59182,1,8,0:0:0:0:
272,199,59332,1,0,0:0:0:0:
272,199,59482,1,8,0:0:0:0:
272,199,59632,1,8,0:0:0:0:
272,199,59707,1,0,0:0:0:0:
272,199,59782,1,8,0:0:0:0:
272,199,59932,1,0,0:0:0:0:
272,199,60007,1,0,0:0:0:0:
272,199,60082,1,8,0:0:0:0:
272,199,60232,1,8,0:0:0:0:
272,199,60307,1,0,0:0:0:0:
181,187,60382,1,8,0:0:0:0:
181,187,60432,1,8,0:0:0:0:
181,187,60482,1,8,0:0:0:0:
203,225,60532,1,8,0:0:0:0:
203,225,60569,1,8,0:0:0:0:
203,225,60607,1,8,0:0:0:0:
221,214,60644,1,8,0:0:0:0:
221,214,60682,1,0,0:0:0:0:
221,214,60757,1,0,0:0:0:0:
221,214,60832,1,8,0:0:0:0:
221,214,60907,1,8,0:0:0:0:
221,214,60982,1,0,0:0:0:0:
21,71,61132,1,8,0:0:0:0:
21,71,61207,1,0,0:0:0:0:
21,71,61282,1,8,0:0:0:0:
161,182,61432,1,8,0:0:0:0:
161,182,61507,1,0,0:0:0:0:
161,182,61582,1,0,0:0:0:0:
161,182,61657,1,8,0:0:0:0:
161,182,61732,1,0,0:0:0:0:
345,142,61882,1,8,0:0:0:0:
345,142,62032,1,8,0:0:0:0:
345,142,62182,1,0,0:0:0:0:
345,142,62332,1,8,0:0:0:0:
345,142,62407,1,0,0:0:0:0:
345,142,62482,1,8,0:0:0:0:
345,142,62632,1,8,0:0:0:0:
345,142,62707,1,0,0:0:0:0:
305,112,62782,1,8,0:0:0:0:
305,112,62832,1,8,0:0:0:0:
305,112,62882,1,8,0:0:0:0:
305,112,62932,1,8,0:0:0:0:
305,112,62982,1,8,0:0:0:0:
305,112,63032,1,8,0:0:0:0:
305,112,63082,1,0,0:0:0:0:
272,149,63157,1,8,0:0:0:0:
272,149,63232,1,8,0:0:0:0:
272,149,63307,1,8,0:0:0:0:
272,149,63382,1,0,0:0:0:0:
272,149,63532,1,0,0:0:0:0:
272,149,63682,1,8,0:0:0:0:
272,149,63832,1,0,0:0:0:0:
272,149,63982,1,0,0:0:0:0:
272,149,64019,1,0,0:0:0:0:
272,149,64057,1,0,0:0:0:0:
272,149,64132,1,0,0:0:0:0:
272,149,64207,1,0,0:0:0:0:
272,149,64357,1,8,0:0:0:0:
272,149,64432,1,0,0:0:0:0:
272,149,64582,1,0,0:0:0:0:
144,90,64732,1,8,0:0:0:0:
144,90,64807,1,0,0:0:0:0:
144,90,64882,1,8,0:0:0:0:
144,90,65032,1,8,0:0:0:0:
144,90,65107,1,0,0:0:0:0:
144,90,65182,1,0,0:0:0:0:
144,90,65257,1,8,0:0:0:0:
144,90,65332,1,0,0:0:0:0:
144,90,65482,1,0,0:0:0:0:
144,90,65557,1,8,0:0:0:0:
144,90,65632,1,8,0:0:0:0:
144,90,65782,1,0,0:0:0:0:
144,90,65932,1,0,0:0:0:0:
144,90,66007,1,0,0:0:0:0:
144,90,66082,1,8,0:0:0:0:
144,90,66232,1,8,0:0:0:0:
144,90,66307,1,0,0:0:0:0:
144,90,66382,1,8,0:0:0:0:
144,90,66457,1,0,0:0:0:0:
144,90,66532,1,0,0:0:0:0:
144,90,66607,1,8,0:0:0:0:
144,90,66682,1,0,0:0:0:0:
144,90,66757,1,8,0:0:0:0:
144,90,66832,1,0,0:0:0:0:
144,90,66907,1,0,0:0:0:0:
144,90,66982,1,0,0:0:0:0:
144,90,67132,1,8,0:0:0:0:
144,90,67207,1,0,0:0:0:0:
388,104,67282,1,8,0:0:0:0:
388,104,67319,1,8,0:0:0:0:
388,104,67357,1,8,0:0:0:0:
388,104,67394,1,8,0:0:0:0:
254,116,67432,1,8,0:0:0:0:
434,175,67482,1,8,0:0:0:0:
434,175,67532,1,8,0:0:0:0:
421,149,67582,1,0,0:0:0:0:
421,149,67619,1,0,0:0:0:0:
421,149,67657,1,0,0:0:0:0:
421,149,67694,1,0,0:0:0:0:
421,149,67732,1,0,0:0:0:0:
254,144,67782,1,0,0:0:0:0:
254,144,67832,1,0,0:0:0:0:
254,144,67882,1,0,0:0:0:0:
329,211,67957,1,0,0:0:0:0:
329,211,68032,1,0,0:0:0:0:
329,211,68107,1,0,0:0:0:0:
329,211,68182,1,0,0:0:0:0:
329,211,68332,1,0,0:0:0:0:
329,211,68482,1,8,0:0:0:0:
329,211,68632,1,8,0:0:0:0:
329,211,68707,1,8,0:0:0:0:
329,211,68782,1,0,0:0:0:0:
329,211,68857,1,8,0:0:0:0:
329,211,68932,1,0,0:0:0:0:
329,211,69082,1,0,0:0:0:0:
329,211,69157,1,0,0:0:0:0:
329,211,69232,1,8,0:0:0:0:
322,113,69382,1,8,0:0:0:0:
322,113,69432,1,8,0:0:0:0:
322,113,69482,1,8,0:0:0:0:
322,113,69532,1,8,0:0:0:0:
257,158,69607,1,8,0:0:0:0:
257,158,69682,1,8,0:0:0:0:
257,158,69757,1,8,0:0:0:0:
257,158,69832,1,0,0:0:0:0:
257,158,69982,1,8,0:0:0:0:
174,60,70207,1,8,0:0:0:0:
262,149,70282,1,0,0:0:0:0:
262,149,70332,1,0,0:0:0:0:
262,149,70382,1,0,0:0:0:0:
262,149,70432,1,0,0:0:0:0:
280,132,70507,1,0,0:0:0:0:
280,132,70544,1,0,0:0:0:0:
280,132,70582,1,0,0:0:0:0:
416,212,70882,1,8,0:0:0:0:
416,212,71032,1,0,0:0:0:0:
416,212,71107,1,8,0:0:0:0:
416,212,71182,1,0,0:0:0:0:
416,212,71257,1,8,0:0:0:0:
416,212,71332,1,0,0:0:0:0:
416,212,71407,1,0,0:0:0:0:
416,212,71482,1,0,0:0:0:0:
416,212,71632,1,0,0:0:0:0:
416,212,71782,1,0,0:0:0:0:
416,212,71932,1,8,0:0:0:0:
416,212,72007,1,0,0:0:0:0:
416,212,72082,1,8,0:0:0:0:
416,212,72232,1,0,0:0:0:0:
416,212,72382,1,8,0:0:0:0:
416,212,72532,1,8,0:0:0:0:
373,187,72682,1,0,0:0:0:0:
373,187,72732,1,0,0:0:0:0:
373,187,72782,1,0,0:0:0:0:
306,137,72832,1,8,0:0:0:0:
306,137,72869,1,8,0:0:0:0:
306,137,72907,1,8,0:0:0:0:
306,137,72944,1,8,0:0:0:0:
211,206,72982,1,0,0:0:0:0:
211,206,73032,1,0,0:0:0:0:
211,206,73082,1,0,0:0:0:0:
211,206,73132,1,0,0:0:0:0:
228,258,73282,1,0,0:0:0:0:
228,258,73432,1,0,0:0:0:0:
228,258,73507,1,0,0:0:0:0:
228,258,73582,1,8,0:0:0:0:
228,258,73657,1,8,0:0:0:0:
228,258,73732,1,0,0:0:0:0:
228,258,73882,1,8,0:0:0:0:
363,154,73982,1,8,0:0:0:0:
363,154,74032,1,8,0:0:0:0:
363,154,74082,1,8,0:0:0:0:
363,154,74132,1,8,0:0:0:0:
233,266,74182,1,0,0:0:0:0:
233,266,74257,1,8,0:0:0:0:
233,266,74332,1,8,0:0:0:0:
233,266,74407,1,8,0:0:0:0:
233,266,74557,1,8,0:0:0:0:
248,176,74707,1,0,0:0:0:0:
302,159,74782,1,0,0:0:0:0:
302,159,74819,1,0,0:0:0:0:
302,159,74857,1,0,0:0:0:0:
400,168,75082,1,0,0:0:0:0:
400,168,75232,1,8,0:0:0:0:
400,168,75382,1,0,0:0:0:0:
400,168,75532,1,8,0:0:0:0:
400,168,75607,1,0,0:0:0:0:
400,168,75682,1,8,0:0:0:0:
400,168,75832,1,8,0:0:0:0:
400,168,75907,1,0,0:0:0:0:
352,133,75982,1,0,0:0:0:0:
352,133,76019,1,0,0:0:0:0:
352,133,76057,1,0,0:0:0:0:
352,133,76094,1,0,0:0:0:0:
430,61,76132,1,8,0:0:0:0:
430,61,76182,1,8,0:0:0:0:
430,61,76232,1,8,0:0:0:0:
430,61,76282,1,0,0:0:0:0:
289,175,76432,1,0,0:0:0:0:
289,175,76582,1,8,0:0:0:0:
289,175,76807,1,0,0:0:0:0:
289,175,76882,1,8,0:0:0:0:
289,175,77107,1,0,0:0:0:0:
289,175,77182,1,8,0:0:0:0:
289,175,77332,1,8,0:0:0:0:
344,166,77482,1,8,0:0:0:0:
344,166,77519,1,8,0:0:0:0:
344,166,77557,1,8,0:0:0:0:
401,106,77632,1,8,0:0:0:0:
401,106,77707,1,8,0:0:0:0:
401,106,77782,1,0,0:0:0:0:
401,106,77857,1,0,0:0:0:0:
401,106,77932,1,0,0:0:0:0:
401,106,78007,1,0,0:0:0:0:
401,106,78082,1,8,0:0:0:0:
401,106,78232,1,8,0:0:0:0:
401,106,78307,1,0,0:0:0:0:
401,106,78382,1,0,0:0:0:0:
401,106,78457,1,0,0:0:0:0:
401,106,78532,1,0,0:0:0:0:
401,106,78607,1,8,0:0:0:0:
401,106,78682,1,0,0:0:0:0:
249,169,78832,1,8,0:0:0:0:
249,169,78869,1,8,0:0:0:0:
249,169,78982,1,0,0:0:0:0:
249,169,79019,1,0,0:0:0:0:
249,169,79057,1,0,0:0:0:0:
249,169,79094,1,0,0:0:0:0:
249,169,79132,1,0,0:0:0:0:
367,172,79182,1,8,0:0:0:0:
367,172,79232,1,8,0:0:0:0:
367,172,79282,1,0,0:0:0:0:
257,164,79357,1,0,0:0:0:0:
257,164,79507,1,8,0:0:0:0:
257,164,79582,1,0,0:0:0:0:
257,164,79732,1,8,0:0:0:0:
257,164,79807,1,0,0:0:0:0:
257,164,79882,1,8,0:0:0:0:
257,164,80032,1,0,0:0:0:0:
257,164,80107,1,8,0:0:0:0:
257,164,80182,1,0,0:0:0:0:
257,164,80482,1,8,0:0:0:0:
257,164,80632,1,8,0:0:0:0:
257,164,80707,1,0,0:0:0:0:
257,164,80782,1,8,0:0:0:0:
257,164,80857,1,0,0:0:0:0:
257,164,80932,1,0,0:0:0:0:
257,164,81082,1,8,0:0:0:0:
257,164,81232,1,8,0:0:0:0:
257,164,81307,1,8,0:0:0:0:
318,124,81382,1,0,0:0:0:0:
318,124,81419,1,0,0:0:0:0:
318,124,81457,1,0,0:0:0:0:
335,152,81682,1,0,0:0:0:0:
335,152,81757,1,0,0:0:0:0:
335,152,81832,1,0,0:0:0:0:
335,152,81907,1,0,0:0:0:0:
236,166,81982,1,8,0:0:0:0:
236,166,82019,1,8,0:0:0:0:
236,166,82057,1,8,0:0:0:0:
236,166,82094,1,8,0:0:0:0:
236,166,82132,1,0,0:0:0:0:
236,166,82207,1,0,0:0:0:0:
236,166,82282,1,8,0:0:0:0:
216,175,82507,1,8,0:0:0:0:
397,139,82582,1,0,0:0:0:0:
397,139,82619,1,0,0:0:0:0:
397,139,82657,1,0,0:0:0:0:
397,139,82694,1,0,0:0:0:0:
214,195,82732,1,8,0:0:0:0:
214,195,82782,1,8,0:0:0:0:
214,195,82832,1,8,0:0:0:0:
214,195,82882,1,0,0:0:0:0:
272,195,82957,1,0,0:0:0:0:
272,195,83032,1,0,0:0:0:0:
272,195,83107,1,0,0:0:0:0:
272,195,83257,1,8,0:0:0:0:
272,195,83332,1,0,0:0:0:0:
375,180,83482,1,8,0:0:0:0:
375,180,83519,1,8,0:0:0:0:
375,180,83557,1,8,0:0:0:0:
375,180,83594,1,8,0:0:0:0:
375,180,83632,1,0,0:0:0:0:
207,50,83669,1,0,0:0:0:0:
207,50,83707,1,8,0:0:0:0:
207,50,83744,1,8,0:0:0:0:
207,50,83782,1,0,0:0:0:0:
272,195,83932,1,0,0:0:0:0:
272,195,84082,1,8,0:0:0:0:
272,195,84232,1,8,0:0:0:0:
272,195,84307,1,0,0:0:0:0:
272,195,84382,1,8,0:0:0:0:
272,195,84457,1,0,0:0:0:0:
272,195,84532,1,8,0:0:0:0:
272,195,84569,1,8,0:0:0:0:
272,195,84682,1,0,0:0:0:0:
272,195,84757,1,0,0:0:0:0:
272,195,84832,1,8,0:0:0:0:
272,195,84982,1,0,0:0:0:0:
272,195,85132,1,0,0:0:0:0:
272,195,85282,1,8,0:0:0:0:
272,195,85432,1,8,0:0:0:0:
272,195,85507,1,0,0:0:0:0:
272,195,85582,1,0,0:0:0:0:
272,195,85732,1,8,0:0:0:0:
272,195,85807,1,8,0:0:0:0:
272,195,85882,1,0,0:0:0:0:
272,195,85957,1,0,0:0:0:0:
272,195,86032,1,8,0:0:0:0:
272,195,86082,1,8,0:0:0:0:
272,195,86132,1,8,0:0:0:0:
272,195,86182,1,0,0:0:0:0:
272,195,86232,1,0,0:0:0:0:
272,195,86282,1,0,0:0:0:0:
272,195,86332,1,0,0:0:0:0:
272,195,86382,1,0,0:0:0:0:
272,195,86432,1,0,0:0:0:0:
272,195,86482,1,0,0:0:0:0:
272,195,86557,1,8,0:0:0:0:
272,195,86632,1,8,0:0:0:0:
272,195,86707,1,8,0:0:0:0:
272,195,86782,1,0,0:0:0:0:
272,195,86857,1,0,0:0:0:0:
272,195,86932,1,0,0:0:0:0:
272,195,87007,1,0,0:0:0:0:
272,195,87082,1,8,0:0:0:0:
272,195,87132,1,8,0:0:0:0:
272,195,87182,1,8,0:0:0:0:
272,195,87232,1,0,0:0:0:0:
272,195,87282,1,8,0:0:0:0:
272,195,87332,1,8,0:0:0:0:
272,195,87382,1,0,0:0:0:0:
272,195,87532,1,8,0:0:0:0:
272,195,87607,1,0,0:0:0:0:
272,195,87682,1,8,0:0:0:0:
272,195,87832,1,8,0:0:0:0:
272,195,87907,1,0,0:0:0:0:
272,195,87982,1,8,0:0:0:0:
272,195,88057,1,0,0:0:0:0:
272,195,88132,1,0,0:0:0:0:
272,195,88282,1,8,0:0:0:0:
272,195,88319,1,8,0:0:0:0:
272,195,88357,1,8,0:0:0:0:
272,195,88394,1,8,0:0:0:0:
272,195,88432,1,8,0:0:0:0:
272,195,88482,1,8,0:0:0:0:
272,195,88532,1,8,0:0:0:0:
272,195,88582,1,0,0:0:0:0:
272,195,88732,1,8,0:0:0:0:
272,195,88882,1,8,0:0:0:0:
272,195,89032,1,0,0:0:0:0:
272,195,89182,1,8,0:0:0:0:
272,195,89332,1,8,0:0:0:0:
291,128,89482,1,8,0:0:0:0:
291,128,89519,1,8,0:0:0:0:
291,128,89557,1,8,0:0:0:0:
291,128,89594,1,8,0:0:0:0:
291,128,89632,1,8,0:0:0:0:
291,128,89707,1,8,0:0:0:0:
291,128,89782,1,0,0:0:0:0:
337,140,89932,1,0,0:0:0:0:
337,140,90082,1,8,0:0:0:0:
337,140,90232,1,8,0:0:0:0:
337,140,90307,1,0,0:0:0:0:
337,140,90457,1,0,0:0:0:0:
337,140,90532,1,8,0:0:0:0:
337,140,90682,1,8,0:0:0:0:
192,245,90832,1,8,0:0:0:0:
192,245,90869,1,8,0:0:0:0:
192,245,90907,1,8,0:0:0:0:
192,245,90944,1,8,0:0:0:0:
192,245,90982,1,0,0:0:0:0:
288,159,91132,1,0,0:0:0:0:
288,159,91282,1,8,0:0:0:0:
288,159,91432,1,0,0:0:0:0:
288,159,91507,1,0,0:0:0:0:
288,159,91657,1,8,0:0:0:0:
288,159,91732,1,0,0:0:0:0:
288,159,91882,1,8,0:0:0:0:
288,159,92032,1,0,0:0:0:0:
288,159,92107,1,8,0:0:0:0:
309,142,92182,1,0,0:0:0:0:
309,142,92232,1,0,0:0:0:0:
309,142,92282,1,0,0:0:0:0:
309,142,92332,1,0,0:0:0:0:
309,142,92407,1,0,0:0:0:0:
309,142,92482,1,0,0:0:0:0:
233,133,92557,1,0,0:0:0:0:
233,133,92632,1,0,0:0:0:0:
233,133,92782,1,0,0:0:0:0:
233,133,92932,1,0,0:0:0:0:
233,133,93007,1,8,0:0:0:0:
233,133,93082,1,8,0:0:0:0:
233,133,93232,1,0,0:0:0:0:
233,133,93307,1,8,0:0:0:0:
233,133,93382,1,0,0:0:0:0:
233,133,93532,1,0,0:0:0:0:
233,133,93682,1,8,0:0:0:0:
233,133,93832,1,0,0:0:0:0:
233,133,93982,1,8,0:0:0:0:
233,133,94132,1,8,0:0:0:0:
233,133,94207,1,8,0:0:0:0:
254,138,94282,1,0,0:0:0:0:
254,138,94332,1,0,0:0:0:0:
254,138,94382,1,0,0:0:0:0:
357,158,94432,1,8,0:0:0:0:
357,158,94469,1,8,0:0:0:0:
357,158,94507,1,8,0:0:0:0:
357,158,94544,1,8,0:0:0:0:
357,158,94582,1,0,0:0:0:0:
394,177,94732,1,0,0:0:0:0:
394,177,94882,1,8,0:0:0:0:
394,177,95032,1,8,0:0:0:0:
394,177,95107,1,8,0:0:0:0:
394,177,95182,1,0,0:0:0:0:
394,177,95257,1,8,0:0:0:0:
394,177,95332,1,0,0:0:0:0:
394,177,95482,1,0,0:0:0:0:
394,177,95557,1,8,0:0:0:0:
394,177,95632,1,8,0:0:0:0:
394,177,95707,1,8,0:0:0:0:
90,160,95782,1,0,0:0:0:0:
90,160,95832,1,0,0:0:0:0:
90,160,95882,1,0,0:0:0:0:
90,160,95932,1,0,0:0:0:0:
90,160,95982,1,0,0:0:0:0:
90,160,96032,1,0,0:0:0:0:
90,160,96082,1,8,0:0:0:0:
281,111,96232,1,8,0:0:0:0:
281,111,96307,1,0,0:0:0:0:
281,111,96457,1,8,0:0:0:0:
281,111,96532,1,0,0:0:0:0:
281,111,96682,1,8,0:0:0:0:
202,141,96832,1,8,0:0:0:0:
202,141,96869,1,8,0:0:0:0:
202,141,96907,1,8,0:0:0:0:
202,141,96944,1,8,0:0:0:0:
202,141,96982,1,0,0:0:0:0:
167,164,97132,1,8,0:0:0:0:
199,116,97282,1,8,0:0:0:0:
199,116,97332,1,8,0:0:0:0:
199,116,97382,1,8,0:0:0:0:
199,116,97432,1,8,0:0:0:0:
287,138,97507,1,8,0:0:0:0:
287,138,97582,1,8,0:0:0:0:
283,143,97657,1,8,0:0:0:0:
283,143,97732,1,0,0:0:0:0:
276,122,97882,1,8,0:0:0:0:
276,122,97932,1,8,0:0:0:0:
276,122,97982,1,8,0:0:0:0:
276,122,98032,1,0,0:0:0:0:
276,122,98082,1,8,0:0:0:0:
276,122,98132,1,8,0:0:0:0:
276,122,98182,1,0,0:0:0:0:
276,122,98232,1,0,0:0:0:0:
276,122,98282,1,0,0:0:0:0:
276,122,98332,1,0,0:0:0:0:
276,122,98382,1,0,0:0:0:0:
276,122,98432,1,0,0:0:0:0:
257,158,98482,1,8,0:0:0:0:
257,158,98557,1,8,0:0:0:0:
257,158,98632,1,8,0:0:0:0:
257,158,98707,1,8,0:0:0:0:
207,162,98782,1,0,0:0:0:0:
207,162,98819,1,0,0:0:0:0:
207,162,98856,1,0,0:0:0:0:
207,162,98894,1,0,0:0:0:0:
207,162,98931,1,8,0:0:0:0:
207,162,98969,1,8,0:0:0:0:
207,162,99006,1,8,0:0:0:0:
207,162,99044,1,8,0:0:0:0:
207,162,99081,1,0,0:0:0:0:
432,165,99157,1,8,0:0:0:0:
432,153,99232,1,8,0:0:0:0:
432,153,99307,1,8,0:0:0:0:
432,153,99382,1,0,0:0:0:0:
432,153,99457,1,0,0:0:0:0:
432,153,99532,1,0,0:0:0:0:
363,129,99607,1,0,0:0:0:0:
363,129,99644,1,0,0:0:0:0:
363,129,99682,1,8,0:0:0:0:
445,190,99832,1,8,0:0:0:0:
445,190,99907,1,0,0:0:0:0:
445,190,99982,1,8,0:0:0:0:
445,190,100057,1,0,0:0:0:0:
509,84,100132,1,0,0:0:0:0:
445,190,100282,1,0,0:0:0:0:
509,84,100432,1,8,0:0:0:0:
228,63,100582,1,0,0:0:0:0:
228,63,100632,1,0,0:0:0:0:
228,63,100682,1,0,0:0:0:0:
261,141,100732,1,8,0:0:0:0:
261,141,100769,1,8,0:0:0:0:
261,141,100807,1,8,0:0:0:0:
261,141,100844,1,8,0:0:0:0:
261,141,100882,1,8,0:0:0:0:
230,237,101032,1,8,0:0:0:0:
230,237,101107,1,0,0:0:0:0:
230,237,101257,1,0,0:0:0:0:
230,237,101332,1,0,0:0:0:0:
267,146,101482,1,8,0:0:0:0:
267,146,101519,1,8,0:0:0:0:
267,146,101632,1,8,0:0:0:0:
267,146,101707,1,0,0:0:0:0:
267,146,101782,1,0,0:0:0:0:
267,146,101932,1,0,0:0:0:0:
267,146,102082,1,8,0:0:0:0:
267,146,102232,1,8,0:0:0:0:
267,146,102307,1,0,0:0:0:0:
267,146,102457,1,8,0:0:0:0:
267,146,102532,1,0,0:0:0:0:
396,143,102682,1,0,0:0:0:0:
396,143,102732,1,0,0:0:0:0:
396,143,102782,1,0,0:0:0:0:
396,143,102832,1,8,0:0:0:0:
396,143,102882,1,8,0:0:0:0:
396,143,102932,1,8,0:0:0:0:
231,182,102982,1,0,0:0:0:0:
231,182,103057,1,0,0:0:0:0:
231,182,103132,1,0,0:0:0:0:
231,182,103207,1,0,0:0:0:0:
231,182,103282,1,0,0:0:0:0:
231,182,103432,1,0,0:0:0:0:
231,182,103582,1,8,0:0:0:0:
239,177,103807,1,8,0:0:0:0:
239,177,103882,1,0,0:0:0:0:
346,161,104032,1,8,0:0:0:0:
346,161,104069,1,8,0:0:0:0:
346,161,104107,1,8,0:0:0:0:
346,161,104144,1,8,0:0:0:0:
346,161,104182,1,0,0:0:0:0:
331,171,104482,1,8,0:0:0:0:
331,171,104519,1,8,0:0:0:0:
331,171,104557,1,8,0:0:0:0:
331,171,104707,1,8,0:0:0:0:
331,171,104744,1,8,0:0:0:0:
331,171,104782,1,8,0:0:0:0:
331,171,104932,1,8,0:0:0:0:
331,171,104969,1,8,0:0:0:0:
228,159,105157,1,8,0:0:0:0:
228,159,105307,1,8,0:0:0:0:
228,159,105382,1,0,0:0:0:0:
228,159,105532,1,0,0:0:0:0:
228,159,105682,1,8,0:0:0:0:
295,128,105832,1,0,0:0:0:0:
295,128,105869,1,0,0:0:0:0:
295,128,105907,1,0,0:0:0:0:
295,128,106132,1,0,0:0:0:0:
295,128,106169,1,0,0:0:0:0:
295,128,106282,1,8,0:0:0:0:
295,128,106432,1,8,0:0:0:0:
295,128,106507,1,8,0:0:0:0:
295,128,106582,1,0,0:0:0:0:
157,105,106732,1,0,0:0:0:0:
285,138,106882,1,8,0:0:0:0:
285,138,106932,1,8,0:0:0:0:
285,138,106982,1,8,0:0:0:0:
285,138,107032,1,8,0:0:0:0:
285,138,107082,1,8,0:0:0:0:
285,138,107132,1,8,0:0:0:0:
242,112,107182,1,0,0:0:0:0:
242,112,107219,1,0,0:0:0:0:
242,112,107257,1,0,0:0:0:0:
242,112,107294,1,0,0:0:0:0:
216,183,107332,1,0,0:0:0:0:
216,183,107407,1,0,0:0:0:0:
216,183,107482,1,8,0:0:0:0:
216,183,107519,1,8,0:0:0:0:
216,183,107557,1,8,0:0:0:0:
216,183,107594,1,8,0:0:0:0:
216,183,107632,1,8,0:0:0:0:
216,183,107669,1,8,0:0:0:0:
216,183,107707,1,8,0:0:0:0:
216,183,107744,1,8,0:0:0:0:
216,183,107782,1,0,0:0:0:0:
141,56,107932,1,0,0:0:0:0:
141,56,108082,1,8,0:0:0:0:
141,56,108232,1,8,0:0:0:0:
141,56,108307,1,8,0:0:0:0:
141,56,108457,1,8,0:0:0:0:
141,56,108532,1,0,0:0:0:0:
270,218,108607,1,0,0:0:0:0:
378,141,108682,1,0,0:0:0:0:
378,141,108732,1,0,0:0:0:0:
378,141,108782,1,0,0:0:0:0:
378,141,108832,1,8,0:0:0:0:
378,141,108882,1,8,0:0:0:0:
378,141,108932,1,8,0:0:0:0:
298,160,108982,1,0,0:0:0:0:
298,160,109057,1,0,0:0:0:0:
298,160,109132,1,0,0:0:0:0:
298,160,109207,1,0,0:0:0:0:
298,160,109282,1,8,0:0:0:0:
298,160,109432,1,8,0:0:0:0:
298,160,109507,1,8,0:0:0:0:
298,160,109657,1,8,0:0:0:0:
298,160,109732,1,0,0:0:0:0:
298,160,109882,1,8,0:0:0:0:
209,246,110032,1,8,0:0:0:0:
209,246,110082,1,8,0:0:0:0:
209,246,110132,1,8,0:0:0:0:
209,246,110182,1,0,0:0:0:0:
291,199,110332,1,0,0:0:0:0:
291,199,110482,1,8,0:0:0:0:
291,199,110632,1,0,0:0:0:0:
291,199,110707,1,0,0:0:0:0:
342,151,110782,1,0,0:0:0:0:
342,151,110832,1,0,0:0:0:0:
342,151,110882,1,0,0:0:0:0:
342,151,110932,1,0,0:0:0:0:
342,151,110982,1,0,0:0:0:0:
342,151,111082,1,8,0:0:0:0:
342,151,111132,1,8,0:0:0:0:
342,151,111182,1,8,0:0:0:0:
220,209,111232,1,8,0:0:0:0:
220,209,111269,1,8,0:0:0:0:
220,209,111307,1,8,0:0:0:0:
220,209,111344,1,8,0:0:0:0:
205,195,111382,1,0,0:0:0:0:
205,195,111457,1,8,0:0:0:0:
205,195,111532,1,8,0:0:0:0:
205,195,111607,1,8,0:0:0:0:
205,195,111682,1,0,0:0:0:0:
292,164,111719,1,0,0:0:0:0:
292,164,111757,1,0,0:0:0:0:
292,164,111794,1,0,0:0:0:0:
250,151,111832,1,0,0:0:0:0:
250,151,111882,1,0,0:0:0:0:
250,151,111932,1,0,0:0:0:0:
256,192,112132,1,0,0:0:0:0:
256,192,112282,1,8,0:0:0:0:
128,64,112432,1,8,0:0:0:0:
128,64,112507,1,0,0:0:0:0:
288,160,112582,1,0,0:0:0:0:
288,160,112619,1,0,0:0:0:0:
288,160,112657,1,0,0:0:0:0:
288,160,112694,1,0,0:0:0:0:
288,160,112732,1,0,0:0:0:0:
352,96,112782,1,0,0:0:0:0:
352,96,112832,1,0,0:0:0:0:
352,96,112882,1,8,0:0:0:0:
320,192,112957,1,8,0:0:0:0:
320,192,113032,1,8,0:0:0:0:
320,192,113107,1,8,0:0:0:0:
160,128,113182,1,0,0:0:0:0:
160,128,113257,1,0,0:0:0:0:
160,128,113332,1,0,0:0:0:0:
160,128,113407,1,0,0:0:0:0:
192,192,113482,1,8,0:0:0:0:
192,192,113532,1,8,0:0:0:0:
192,192,113582,1,8,0:0:0:0:
192,192,113632,1,0,0:0:0:0:
192,192,113682,1,8,0:0:0:0:
192,192,113732,1,8,0:0:0:0:
192,192,113782,1,0,0:0:0:0:
224,192,113932,1,0,0:0:0:0:
224,192,114082,1,8,0:0:0:0:
224,192,114232,1,8,0:0:0:0:
224,192,114307,1,0,0:0:0:0:
224,192,114382,1,8,0:0:0:0:
224,192,114457,1,8,0:0:0:0:
224,192,114532,1,0,0:0:0:0:
224,192,114607,1,0,0:0:0:0:
224,192,114682,1,8,0:0:0:0:
224,192,114757,1,8,0:0:0:0:
224,192,114832,1,8,0:0:0:0:
224,192,114907,1,0,0:0:0:0:
224,192,114982,1,8,0:0:0:0:
224,192,115207,1,0,0:0:0:0:
224,192,115282,1,8,0:0:0:0:
224,192,115507,1,0,0:0:0:0:
224,192,115582,1,8,0:0:0:0:
224,192,115807,1,0,0:0:0:0:
320,224,115882,1,8,0:0:0:0:
320,224,115919,1,8,0:0:0:0:
320,224,115957,1,8,0:0:0:0:
320,224,115994,1,8,0:0:0:0:
320,224,116032,1,8,0:0:0:0:
320,224,116069,1,8,0:0:0:0:
320,224,116107,1,8,0:0:0:0:
320,224,116144,1,8,0:0:0:0:
224,192,116182,1,0,0:0:0:0:
224,192,116257,1,0,0:0:0:0:
224,192,116332,1,0,0:0:0:0:
224,192,116482,1,0,0:0:0:0:
224,192,116632,1,8,0:0:0:0:
224,192,116782,1,0,0:0:0:0:
224,192,116932,1,0,0:0:0:0:
256,192,117082,1,8,0:0:0:0:
256,192,117119,1,8,0:0:0:0:
256,192,117157,1,8,0:0:0:0:
288,192,117232,1,0,0:0:0:0:
288,192,117282,1,0,0:0:0:0:
288,192,117332,1,0,0:0:0:0:
288,192,117382,1,0,0:0:0:0:
256,192,117532,1,0,0:0:0:0:
256,192,117682,1,8,0:0:0:0:
256,192,117757,1,8,0:0:0:0:
256,192,117795,1,8,0:0:0:0:
288,192,117832,1,8,0:0:0:0:
288,192,117882,1,8,0:0:0:0:
288,192,117932,1,8,0:0:0:0:
320,96,117982,1,0,0:0:0:0:
320,96,118057,1,0,0:0:0:0:
320,96,118132,1,0,0:0:0:0:
320,96,118207,1,0,0:0:0:0:
320,96,118282,1,8,0:0:0:0:
320,96,118357,1,8,0:0:0:0:
320,96,118432,1,8,0:0:0:0:
320,96,118507,1,8,0:0:0:0:
320,96,118582,1,0,0:0:0:0:
320,96,118657,1,0,0:0:0:0:
320,96,118732,1,8,0:0:0:0:
320,96,118807,1,0,0:0:0:0:
256,96,118882,1,8,0:0:0:0:
256,96,118932,1,8,0:0:0:0:
256,96,118982,1,8,0:0:0:0:
256,96,119032,1,0,0:0:0:0:
256,96,119082,1,8,0:0:0:0:
256,96,119132,1,8,0:0:0:0:
320,224,119182,1,0,0:0:0:0:
320,224,119257,1,0,0:0:0:0:
320,224,119332,1,0,0:0:0:0:
320,224,119407,1,0,0:0:0:0:
320,224,119557,1,8,0:0:0:0:
320,224,119707,1,8,0:0:0:0:
320,224,119782,1,0,0:0:0:0:
320,224,119932,1,8,0:0:0:0:
320,224,120007,1,0,0:0:0:0:
320,224,120082,1,8,0:0:0:0:
320,224,120232,1,8,0:0:0:0:
320,224,120307,1,0,0:0:0:0:
320,224,120457,1,0,0:0:0:0:
320,224,120532,1,0,0:0:0:0:
320,128,120682,1,8,0:0:0:0:
320,128,120732,1,8,0:0:0:0:
320,128,120782,1,8,0:0:0:0:
320,128,120832,1,8,0:0:0:0:
320,128,120882,1,8,0:0:0:0:
320,128,120932,1,8,0:0:0:0:
320,128,120982,1,0,0:0:0:0:
320,128,121019,1,0,0:0:0:0:
320,128,121057,1,0,0:0:0:0:
320,128,121094,1,0,0:0:0:0:
320,128,121132,1,8,0:0:0:0:
320,128,121169,1,8,0:0:0:0:
320,128,121207,1,8,0:0:0:0:
320,128,121244,1,8,0:0:0:0:
320,160,121282,1,0,0:0:0:0:
320,160,121332,1,0,0:0:0:0:
320,160,121382,1,0,0:0:0:0:
320,160,121432,1,0,0:0:0:0:
256,192,121507,1,0,0:0:0:0:
256,192,121582,1,0,0:0:0:0:
256,192,121732,1,0,0:0:0:0:
256,192,121882,1,8,0:0:0:0:
256,192,122107,1,8,0:0:0:0:
256,192,122182,1,0,0:0:0:0:
256,192,122332,1,8,0:0:0:0:
256,192,122482,1,0,0:0:0:0:
256,192,122632,1,0,0:0:0:0:
256,192,122782,1,8,0:0:0:0:
256,192,122932,1,8,0:0:0:0:
256,192,123082,1,8,0:0:0:0:
256,192,123157,1,8,0:0:0:0:
256,160,123232,1,8,0:0:0:0:
256,160,123269,1,8,0:0:0:0:
256,160,123307,1,8,0:0:0:0:
256,160,123344,1,8,0:0:0:0:
256,160,123382,1,0,0:0:0:0:
288,224,123532,1,0,0:0:0:0:
288,224,123682,1,8,0:0:0:0:
288,224,123832,1,8,0:0:0:0:
288,224,123907,1,0,0:0:0:0:
288,224,123982,1,0,0:0:0:0:
288,224,124057,1,8,0:0:0:0:
288,224,124132,1,0,0:0:0:0:
288,224,124432,1,8,0:0:0:0:
160,192,124582,1,0,0:0:0:0:
160,192,124619,1,0,0:0:0:0:
160,192,124732,1,0,0:0:0:0:
160,192,124882,1,8,0:0:0:0:
160,192,125032,1,8,0:0:0:0:
160,192,125107,1,0,0:0:0:0:
160,192,125182,1,0,0:0:0:0:
160,192,125257,1,8,0:0:0:0:
160,192,125332,1,0,0:0:0:0:
160,192,125482,1,8,0:0:0:0:
160,192,125632,1,8,0:0:0:0:
160,192,125669,1,8,0:0:0:0:
160,192,125707,1,8,0:0:0:0:
160,192,125744,1,8,0:0:0:0:
160,192,125782,1,0,0:0:0:0:
160,192,125857,1,0,0:0:0:0:
160,192,125932,1,0,0:0:0:0:
160,192,126007,1,0,0:0:0:0:
160,192,126157,1,8,0:0:0:0:
160,192,126232,1,0,0:0:0:0:
288,224,126307,1,0,0:0:0:0:
160,256,126382,1,0,0:0:0:0:
160,256,126432,1,0,0:0:0:0:
160,256,126482,1,0,0:0:0:0:
160,256,126532,1,0,0:0:0:0:
160,256,126582,1,8,0:0:0:0:
160,256,126632,1,8,0:0:0:0:
224,128,126757,1,0,0:0:0:0:
224,128,126832,1,0,0:0:0:0:
224,128,126907,1,0,0:0:0:0:
224,128,126982,1,0,0:0:0:0:
224,128,127132,1,8,0:0:0:0:
224,128,127207,1,0,0:0:0:0:
224,128,127282,1,8,0:0:0:0:
224,128,127432,1,8,0:0:0:0:
224,128,127507,1,0,0:0:0:0:
224,128,127582,1,8,0:0:0:0:
224,128,127657,1,0,0:0:0:0:
224,128,127732,1,0,0:0:0:0:
224,128,127882,1,0,0:0:0:0:
224,128,127957,1,8,0:0:0:0:
224,128,128032,1,8,0:0:0:0:
224,128,128107,1,8,0:0:0:0:
224,128,128182,1,0,0:0:0:0:
224,128,128332,1,8,0:0:0:0:
224,128,128482,1,8,0:0:0:0:
224,128,128632,1,8,0:0:0:0:
224,128,128707,1,0,0:0:0:0:
224,128,128782,1,8,0:0:0:0:
224,128,128857,1,8,0:0:0:0:
224,128,128932,1,0,0:0:0:0:
224,128,129007,1,8,0:0:0:0:
224,128,129082,1,8,0:0:0:0:
224,128,129307,1,0,0:0:0:0:
224,128,129382,1,8,0:0:0:0:
224,128,129457,1,8,0:0:0:0:
224,128,129532,1,8,0:0:0:0:
224,128,129582,1,8,0:0:0:0:
224,128,129632,1,8,0:0:0:0:
224,192,129682,1,0,0:0:0:0:
224,192,129757,1,8,0:0:0:0:
224,192,129832,1,8,0:0:0:0:
224,192,129907,1,8,0:0:0:0:
224,192,129982,1,0,0:0:0:0:
224,192,130057,1,0,0:0:0:0:
224,192,130132,1,0,0:0:0:0:
224,192,130207,1,8,0:0:0:0:
256,224,130282,1,8,0:0:0:0:
256,224,130332,1,8,0:0:0:0:
256,224,130382,1,8,0:0:0:0:
192,192,130432,1,8,0:0:0:0:
192,192,130469,1,8,0:0:0:0:
192,192,130507,1,8,0:0:0:0:
320,192,130582,1,0,0:0:0:0:
320,192,130657,1,0,0:0:0:0:
320,192,130732,1,0,0:0:0:0:
320,192,130807,1,0,0:0:0:0:
320,192,130882,1,8,0:0:0:0:
320,192,131032,1,8,0:0:0:0:
320,192,131107,1,0,0:0:0:0:
320,192,131257,1,8,0:0:0:0:
320,192,131332,1,0,0:0:0:0:
192,160,131482,1,8,0:0:0:0:
192,160,131532,1,8,0:0:0:0:
192,160,131582,1,8,0:0:0:0:
192,160,131632,1,8,0:0:0:0:
192,160,131682,1,8,0:0:0:0:
192,160,131732,1,8,0:0:0:0:
224,160,131782,1,0,0:0:0:0:
224,160,131932,1,8,0:0:0:0:
224,160,132082,1,8,0:0:0:0:
224,160,132232,1,8,0:0:0:0:
224,160,132307,1,0,0:0:0:0:
224,160,132382,1,8,0:0:0:0:
224,160,132457,1,0,0:0:0:0:
224,160,132532,1,0,0:0:0:0:
192,96,132682,1,8,0:0:0:0:
224,160,132832,1,8,0:0:0:0:
192,160,132982,1,0,0:0:0:0:
192,160,133057,1,0,0:0:0:0:
256,96,133132,1,0,0:0:0:0:
256,96,133182,1,0,0:0:0:0:
256,96,133232,1,0,0:0:0:0:
288,96,133282,1,8,0:0:0:0:
288,96,133332,1,8,0:0:0:0:
288,96,133382,1,8,0:0:0:0:
384,160,133432,1,0,0:0:0:0:
384,160,133469,1,0,0:0:0:0:
384,160,133507,1,8,0:0:0:0:
384,160,133544,1,8,0:0:0:0:
384,160,133582,1,0,0:0:0:0:
160,160,133657,1,0,0:0:0:0:
160,160,133732,1,0,0:0:0:0:
160,160,133807,1,0,0:0:0:0:
160,160,133882,1,8,0:0:0:0:
160,160,133957,1,8,0:0:0:0:
160,160,134032,1,8,0:0:0:0:
160,160,134107,1,8,0:0:0:0:
160,160,134182,1,0,0:0:0:0:
160,160,134332,1,0,0:0:0:0:
160,160,134482,1,8,0:0:0:0:
160,160,134632,1,8,0:0:0:0:
160,160,134707,1,0,0:0:0:0:
160,160,134782,1,8,0:0:0:0:
160,160,134857,1,0,0:0:0:0:
160,160,134932,1,0,0:0:0:0:
160,160,135082,1,8,0:0:0:0:
192,160,135307,1,8,0:0:0:0:
192,160,135382,1,0,0:0:0:0:
192,160,135532,1,0,0:0:0:0:
192,160,135607,1,0,0:0:0:0:
160,192,135682,1,8,0:0:0:0:
160,192,135732,1,8,0:0:0:0:
160,192,135782,1,8,0:0:0:0:
160,192,135832,1,8,0:0:0:0:
160,192,135882,1,8,0:0:0:0:
160,192,135932,1,8,0:0:0:0:
160,160,135982,1,0,0:0:0:0:
160,160,136057,1,8,0:0:0:0:
160,160,136132,1,0,0:0:0:0:
160,160,136282,1,8,0:0:0:0:
160,160,136432,1,8,0:0:0:0:
160,160,136507,1,8,0:0:0:0:
160,160,136582,1,0,0:0:0:0:
160,160,136732,1,0,0:0:0:0:
160,160,136882,1,8,0:0:0:0:
160,160,137032,1,0,0:0:0:0:
160,160,137107,1,8,0:0:0:0:
160,160,137182,1,0,0:0:0:0:
160,160,137332,1,0,0:0:0:0:
160,160,137407,1,0,0:0:0:0:
160,160,137482,1,8,0:0:0:0:
160,160,137557,1,8,0:0:0:0:
160,160,137632,1,8,0:0:0:0:
160,160,137707,1,8,0:0:0:0:
160,256,137782,1,0,0:0:0:0:
160,256,137832,1,0,0:0:0:0:
160,256,137882,1,0,0:0:0:0:
160,256,137932,1,0,0:0:0:0:
160,256,137982,1,0,0:0:0:0:
160,256,138032,1,0,0:0:0:0:
160,256,138082,1,8,0:0:0:0:
224,192,138232,1,8,0:0:0:0:
224,192,138307,1,0,0:0:0:0:
224,192,138457,1,0,0:0:0:0:
224,192,138532,1,0,0:0:0:0:
224,192,138682,1,8,0:0:0:0:
224,192,138907,1,0,0:0:0:0:
224,192,138982,1,8,0:0:0:0:
224,192,139057,1,8,0:0:0:0:
224,192,139132,1,8,0:0:0:0:
224,192,139207,1,8,0:0:0:0:
224,192,139282,1,8,0:0:0:0:
224,192,139357,1,8,0:0:0:0:
160,192,139432,1,8,0:0:0:0:
160,192,139482,1,8,0:0:0:0:
160,192,139532,1,8,0:0:0:0:
160,192,139582,1,0,0:0:0:0:
160,160,139732,1,0,0:0:0:0:
160,160,139882,1,8,0:0:0:0:
160,160,140107,1,0,0:0:0:0:
160,160,140182,1,8,0:0:0:0:
352,128,140219,1,8,0:0:0:0:
352,128,140257,1,8,0:0:0:0:
352,128,140294,1,8,0:0:0:0:
352,128,140332,1,0,0:0:0:0:
352,128,140369,1,0,0:0:0:0:
352,128,140407,1,0,0:0:0:0:
352,128,140444,1,0,0:0:0:0:
352,128,140482,1,8,0:0:0:0:
352,128,140632,1,0,0:0:0:0:
352,128,140707,1,8,0:0:0:0:
352,128,140857,1,8,0:0:0:0:
352,128,140932,1,0,0:0:0:0:
192,192,141082,1,0,0:0:0:0:
352,128,141232,1,8,0:0:0:0:
204,184,141382,1,8,0:0:0:0:
204,184,141457,1,8,0:0:0:0:
204,184,141532,1,8,0:0:0:0:
204,184,141607,1,8,0:0:0:0:
273,114,141682,1,8,0:0:0:0:
273,114,141719,1,8,0:0:0:0:
297,209,141832,1,8,0:0:0:0:
297,209,141907,1,0,0:0:0:0:
297,209,141982,1,8,0:0:0:0:
297,209,142057,1,8,0:0:0:0:
297,209,142132,1,0,0:0:0:0:
297,209,142282,1,0,0:0:0:0:
297,209,142432,1,8,0:0:0:0:
297,209,142582,1,0,0:0:0:0:
297,209,142657,1,0,0:0:0:0:
297,209,142732,1,0,0:0:0:0:
297,209,142807,1,0,0:0:0:0:
297,209,142882,1,8,0:0:0:0:
297,209,143032,1,8,0:0:0:0:
297,209,143107,1,0,0:0:0:0:
297,209,143182,1,0,0:0:0:0:
297,209,143257,1,8,0:0:0:0:
297,209,143332,1,0,0:0:0:0:
297,209,143482,1,8,0:0:0:0:
297,209,143707,1,8,0:0:0:0:
252,164,143782,1,0,0:0:0:0:
252,164,143832,1,0,0:0:0:0:
252,164,143882,1,0,0:0:0:0:
252,164,143932,1,0,0:0:0:0:
252,164,143982,1,0,0:0:0:0:
252,164,144032,1,0,0:0:0:0:
252,164,144082,1,8,0:0:0:0:
181,190,144232,1,8,0:0:0:0:
181,190,144307,1,0,0:0:0:0:
181,190,144382,1,8,0:0:0:0:
181,190,144457,1,0,0:0:0:0:
309,214,144532,1,0,0:0:0:0:
309,214,144569,1,0,0:0:0:0:
309,214,144682,1,8,0:0:0:0:
309,214,144832,1,8,0:0:0:0:
309,214,144982,1,0,0:0:0:0:
309,214,145019,1,0,0:0:0:0:
309,214,145057,1,0,0:0:0:0:
309,214,145094,1,0,0:0:0:0:
309,214,145132,1,0,0:0:0:0:
259,212,145182,1,0,0:0:0:0:
259,212,145282,1,0,0:0:0:0:
319,106,145432,1,0,0:0:0:0:
319,106,145582,1,8,0:0:0:0:
319,106,145732,1,8,0:0:0:0:
319,106,145807,1,0,0:0:0:0:
318,138,145882,1,8,0:0:0:0:
318,138,145919,1,8,0:0:0:0:
318,138,145957,1,8,0:0:0:0:
318,138,145994,1,8,0:0:0:0:
318,138,146032,1,8,0:0:0:0:
318,138,146069,1,8,0:0:0:0:
318,138,146107,1,8,0:0:0:0:
318,138,146144,1,8,0:0:0:0:
318,138,146182,1,0,0:0:0:0:
318,138,146332,1,0,0:0:0:0:
318,138,146482,1,8,0:0:0:0:
252,138,146632,1,0,0:0:0:0:
252,138,146707,1,8,0:0:0:0:
252,138,146782,1,8,0:0:0:0:
252,138,146857,1,0,0:0:0:0:
252,138,146932,1,0,0:0:0:0:
252,138,147082,1,8,0:0:0:0:
309,160,147232,1,8,0:0:0:0:
309,160,147269,1,8,0:0:0:0:
309,160,147307,1,8,0:0:0:0:
309,160,147344,1,8,0:0:0:0:
309,160,147382,1,0,0:0:0:0:
309,160,147532,1,0,0:0:0:0:
309,160,147682,1,8,0:0:0:0:
309,160,147832,1,8,0:0:0:0:
309,160,147907,1,0,0:0:0:0:
309,160,147982,1,8,0:0:0:0:
309,160,148057,1,0,0:0:0:0:
309,160,148132,1,0,0:0:0:0:
309,160,148207,1,8,0:0:0:0:
309,160,148282,1,8,0:0:0:0:
309,160,148357,1,0,0:0:0:0:
309,160,148432,1,8,0:0:0:0:
309,160,148507,1,8,0:0:0:0:
309,160,148582,1,0,0:0:0:0:
309,160,148732,1,0,0:0:0:0:
141,177,148882,1,8,0:0:0:0:
141,177,148919,1,8,0:0:0:0:
141,177,148957,1,8,0:0:0:0:
141,177,148994,1,8,0:0:0:0:
258,153,149107,1,8,0:0:0:0:
258,153,149182,1,0,0:0:0:0:
258,153,149257,1,8,0:0:0:0:
258,153,149332,1,0,0:0:0:0:
258,153,149482,1,8,0:0:0:0:
258,153,149519,1,8,0:0:0:0:
258,153,149632,1,8,0:0:0:0:
258,153,149707,1,0,0:0:0:0:
309,142,149782,1,0,0:0:0:0:
309,142,149832,1,0,0:0:0:0:
309,142,149882,1,0,0:0:0:0:
309,142,149932,1,0,0:0:0:0:
309,142,149982,1,0,0:0:0:0:
309,142,150032,1,0,0:0:0:0:
291,213,150082,1,0,0:0:0:0:
291,213,150157,1,0,0:0:0:0:
291,213,150232,1,0,0:0:0:0:
291,213,150307,1,0,0:0:0:0:
291,213,150457,1,8,0:0:0:0:
291,213,150532,1,0,0:0:0:0:
291,213,150682,1,8,0:0:0:0:
291,213,150832,1,0,0:0:0:0:
291,213,150907,1,8,0:0:0:0:
291,213,150982,1,0,0:0:0:0:
291,213,151132,1,0,0:0:0:0:
291,213,151282,1,8,0:0:0:0:
291,213,151357,1,8,0:0:0:0:
291,213,151432,1,8,0:0:0:0:
291,213,151507,1,8,0:0:0:0:
176,211,151582,1,8,0:0:0:0:
176,211,151632,1,8,0:0:0:0:
176,211,151682,1,8,0:0:0:0:
328,229,151807,1,8,0:0:0:0:
328,229,151882,1,0,0:0:0:0:
233,243,152032,1,8,0:0:0:0:
233,243,152070,1,8,0:0:0:0:
334,159,152182,1,0,0:0:0:0:
334,159,152232,1,0,0:0:0:0:
334,159,152282,1,0,0:0:0:0:
334,159,152332,1,0,0:0:0:0:
334,159,152382,1,0,0:0:0:0:
334,159,152432,1,0,0:0:0:0:
334,159,152482,1,8,0:0:0:0:
326,158,152632,1,8,0:0:0:0:
327,158,152707,1,0,0:0:0:0:
327,158,152782,1,8,0:0:0:0:
327,158,152857,1,0,0:0:0:0:
327,158,152932,1,0,0:0:0:0:
327,158,153082,1,8,0:0:0:0:
327,158,153157,1,8,0:0:0:0:
327,158,153232,1,0,0:0:0:0:
327,158,153307,1,0,0:0:0:0:
327,158,153382,1,0,0:0:0:0:
327,158,153532,1,0,0:0:0:0:
327,158,153682,1,8,0:0:0:0:
327,158,153832,1,8,0:0:0:0:
327,158,153907,1,0,0:0:0:0:
327,158,153982,1,8,0:0:0:0:
327,158,154057,1,8,0:0:0:0:
327,158,154132,1,0,0:0:0:0:
311,182,154282,1,8,0:0:0:0:
311,182,154332,1,8,0:0:0:0:
311,182,154382,1,8,0:0:0:0:
311,182,154432,1,8,0:0:0:0:
311,182,154482,1,8,0:0:0:0:
311,182,154532,1,8,0:0:0:0:
311,182,154582,1,0,0:0:0:0:
311,182,154619,1,0,0:0:0:0:
311,182,154657,1,0,0:0:0:0:
311,182,154694,1,0,0:0:0:0:
232,104,154732,1,8,0:0:0:0:
232,104,154769,1,8,0:0:0:0:
311,182,154807,1,0,0:0:0:0:
311,182,154844,1,0,0:0:0:0:
311,182,154882,1,8,0:0:0:0:
291,248,155032,1,8,0:0:0:0:
291,248,155107,1,0,0:0:0:0:
291,248,155182,1,0,0:0:0:0:
291,248,155257,1,8,0:0:0:0:
291,248,155332,1,0,0:0:0:0:
291,248,155482,1,0,0:0:0:0:
291,248,155557,1,0,0:0:0:0:
291,248,155632,1,8,0:0:0:0:
291,248,155707,1,8,0:0:0:0:
291,248,155782,1,0,0:0:0:0:
291,248,155932,1,0,0:0:0:0:
291,248,156082,1,8,0:0:0:0:
291,248,156232,1,8,0:0:0:0:
291,248,156307,1,0,0:0:0:0:
291,248,156382,1,8,0:0:0:0:
291,248,156457,1,0,0:0:0:0:
291,248,156532,1,0,0:0:0:0:
291,248,156682,1,0,0:0:0:0:
396,212,156832,1,8,0:0:0:0:
396,212,156869,1,8,0:0:0:0:
396,212,156907,1,8,0:0:0:0:
396,212,156944,1,8,0:0:0:0:
