osu file format v14

[General]
AudioFilename: audio.ogg
AudioLeadIn: 0
PreviewTime: 55600
Countdown: 0
SampleSet: Normal
StackLeniency: 0.7
Mode: 3
LetterboxInBreaks: 0
SpecialStyle: 0
WidescreenStoryboard: 1

[Editor]
Bookmarks: 14400,27200,40000,43200,56000,68787,81587,94387,107175,119975,123175,132775
DistanceSpacing: 1
BeatDivisor: 3
GridSize: 4
TimelineZoom: 2.2

[Metadata]
Title:Materialize Anything
TitleUnicode:Materialize Anything
Artist:anubasu-anubasu
ArtistUnicode:anubasu-anubasu
Creator:-NoName-
Version:Jinjin's Synthesis
Source:BOFU2016
Tags:hardstyle 叩くと音が鳴る魔法 tataku to oto ga naru mahou Materialize Anything (BMS Mix) electronic instrumental π/3 pi/3 ijinjin chordjacks gachi THE BMS OF FIGHTERS ULTIMATE 2016 - Legendary Again -
BeatmapID:3797369
BeatmapSetID:1847997

[Difficulty]
HPDrainRate:9
CircleSize:7
OverallDifficulty:9
ApproachRate:5
SliderMultiplier:1.4
SliderTickRate:1

[Events]
//Background and Video events
0,0,"bg.jpg",0,0
//Break Periods
//Storyboard Layer 0 (Background)
//Storyboard Layer 1 (Fail)
//Storyboard Layer 2 (Pass)
//Storyboard Layer 3 (Foreground)
//Storyboard Layer 4 (Overlay)
//Storyboard Sound Samples

[TimingPoints]
1704,400,4,1,1,55,1,0
67291,400,4,1,1,55,1,0
68891,-100,4,1,1,55,0,1
80891,-100,4,1,1,55,0,0
81691,-100,4,1,1,55,0,1
94491,-100,4,1,1,55,0,0
105679,400,4,1,1,55,1,0
107279,-100,4,1,1,55,0,1
120079,-100,4,1,1,55,0,0
123279,-100,4,1,1,55,0,1
132879,-100,4,1,1,55,0,0

[HitObjects]
36,192,1704,5,0,0:0:0:0:
109,192,1704,1,0,0:0:0:0:
256,192,1704,1,0,0:0:0:0:
402,192,1704,1,0,0:0:0:0:
475,192,1704,1,0,0:0:0:0:
182,192,1704,1,0,0:0:0:0:
329,192,1704,1,0,0:0:0:0:
36,192,1970,1,0,0:0:0:0:
182,192,1970,1,0,0:0:0:0:
109,192,1970,1,0,0:0:0:0:
182,192,2104,1,0,0:0:0:0:
329,192,2104,1,0,0:0:0:0:
402,192,2104,1,0,0:0:0:0:
475,192,2104,1,0,0:0:0:0:
109,192,2104,1,0,0:0:0:0:
256,192,2104,1,0,0:0:0:0:
182,192,2370,1,0,0:0:0:0:
36,192,2370,1,0,0:0:0:0:
109,192,2370,1,0,0:0:0:0:
402,192,2504,1,0,0:0:0:0:
475,192,2504,1,0,0:0:0:0:
109,192,2504,1,0,0:0:0:0:
182,192,2504,1,0,0:0:0:0:
329,192,2504,1,0,0:0:0:0:
256,192,2504,1,0,0:0:0:0:
402,192,2637,1,0,0:0:0:0:
475,192,2637,1,0,0:0:0:0:
329,192,2637,1,0,0:0:0:0:
182,192,2770,1,0,0:0:0:0:
36,192,2770,1,0,0:0:0:0:
109,192,2770,1,0,0:0:0:0:
402,192,2904,1,0,0:0:0:0:
475,192,2904,1,0,0:0:0:0:
109,192,2904,1,0,0:0:0:0:
256,192,2904,1,0,0:0:0:0:
182,192,2904,1,0,0:0:0:0:
329,192,2904,1,0,0:0:0:0:
182,192,3170,1,0,0:0:0:0:
36,192,3170,1,0,0:0:0:0:
109,192,3170,1,0,0:0:0:0:
402,192,3304,1,0,0:0:0:0:
475,192,3304,1,0,0:0:0:0:
36,192,3304,1,0,0:0:0:0:
182,192,3304,1,0,0:0:0:0:
329,192,3304,1,0,0:0:0:0:
256,192,3304,1,0,0:0:0:0:
402,192,3437,1,0,0:0:0:0:
475,192,3437,1,0,0:0:0:0:
329,192,3437,1,0,0:0:0:0:
182,192,3570,1,0,0:0:0:0:
36,192,3570,1,0,0:0:0:0:
109,192,3570,1,0,0:0:0:0:
402,192,3704,1,0,0:0:0:0:
475,192,3704,1,0,0:0:0:0:
36,192,3704,1,0,0:0:0:0:
329,192,3704,1,0,0:0:0:0:
182,192,3704,1,0,0:0:0:0:
256,192,3704,1,0,0:0:0:0:
402,192,3837,1,0,0:0:0:0:
475,192,3837,1,0,0:0:0:0:
329,192,3837,1,0,0:0:0:0:
109,192,3970,1,0,0:0:0:0:
182,192,3970,1,0,0:0:0:0:
36,192,3970,1,0,0:0:0:0:
402,192,4104,1,0,0:0:0:0:
475,192,4104,1,0,0:0:0:0:
182,192,4104,1,0,0:0:0:0:
36,192,4104,1,0,0:0:0:0:
329,192,4104,1,0,0:0:0:0:
256,192,4104,1,0,0:0:0:0:
402,192,4237,1,0,0:0:0:0:
475,192,4237,1,0,0:0:0:0:
329,192,4237,1,0,0:0:0:0:
109,192,4370,1,0,0:0:0:0:
182,192,4370,1,0,0:0:0:0:
36,192,4370,1,0,0:0:0:0:
402,192,4504,1,0,0:0:0:0:
475,192,4504,1,0,0:0:0:0:
109,192,4504,1,0,0:0:0:0:
256,192,4504,1,0,0:0:0:0:
182,192,4504,1,0,0:0:0:0:
329,192,4504,1,0,0:0:0:0:
36,192,4770,1,0,0:0:0:0:
182,192,4770,1,0,0:0:0:0:
109,192,4770,1,0,0:0:0:0:
36,192,4904,5,0,0:0:0:0:
402,192,4904,1,0,0:0:0:0:
329,192,4904,1,0,0:0:0:0:
475,192,4904,1,0,0:0:0:0:
182,192,4904,1,0,0:0:0:0:
256,192,4904,1,0,0:0:0:0:
475,192,5170,1,0,0:0:0:0:
329,192,5170,1,0,0:0:0:0:
402,192,5170,1,0,0:0:0:0:
329,192,5304,1,0,0:0:0:0:
182,192,5304,1,0,0:0:0:0:
109,192,5304,1,0,0:0:0:0:
36,192,5304,1,0,0:0:0:0:
402,192,5304,1,0,0:0:0:0:
256,192,5304,1,0,0:0:0:0:
329,192,5570,1,0,0:0:0:0:
475,192,5570,1,0,0:0:0:0:
402,192,5570,1,0,0:0:0:0:
109,192,5704,1,0,0:0:0:0:
36,192,5704,1,0,0:0:0:0:
402,192,5704,1,0,0:0:0:0:
329,192,5704,1,0,0:0:0:0:
182,192,5704,1,0,0:0:0:0:
256,192,5704,1,0,0:0:0:0:
109,192,5837,1,0,0:0:0:0:
36,192,5837,1,0,0:0:0:0:
182,192,5837,1,0,0:0:0:0:
329,192,5970,1,0,0:0:0:0:
475,192,5970,1,0,0:0:0:0:
402,192,5970,1,0,0:0:0:0:
109,192,6104,1,0,0:0:0:0:
36,192,6104,1,0,0:0:0:0:
402,192,6104,1,0,0:0:0:0:
256,192,6104,1,0,0:0:0:0:
329,192,6104,1,0,0:0:0:0:
182,192,6104,1,0,0:0:0:0:
329,192,6370,1,0,0:0:0:0:
475,192,6370,1,0,0:0:0:0:
402,192,6370,1,0,0:0:0:0:
109,192,6504,1,0,0:0:0:0:
36,192,6504,1,0,0:0:0:0:
475,192,6504,1,0,0:0:0:0:
329,192,6504,1,0,0:0:0:0:
182,192,6504,1,0,0:0:0:0:
256,192,6504,1,0,0:0:0:0:
109,192,6637,1,0,0:0:0:0:
36,192,6637,1,0,0:0:0:0:
182,192,6637,1,0,0:0:0:0:
329,192,6770,1,0,0:0:0:0:
475,192,6770,1,0,0:0:0:0:
402,192,6770,1,0,0:0:0:0:
109,192,6904,1,0,0:0:0:0:
36,192,6904,1,0,0:0:0:0:
475,192,6904,1,0,0:0:0:0:
182,192,6904,1,0,0:0:0:0:
329,192,6904,1,0,0:0:0:0:
256,192,6904,1,0,0:0:0:0:
109,192,7037,1,0,0:0:0:0:
36,192,7037,1,0,0:0:0:0:
182,192,7037,1,0,0:0:0:0:
402,192,7170,1,0,0:0:0:0:
329,192,7170,1,0,0:0:0:0:
475,192,7170,1,0,0:0:0:0:
109,192,7304,1,0,0:0:0:0:
36,192,7304,1,0,0:0:0:0:
329,192,7304,1,0,0:0:0:0:
475,192,7304,1,0,0:0:0:0:
182,192,7304,1,0,0:0:0:0:
256,192,7304,1,0,0:0:0:0:
109,192,7437,1,0,0:0:0:0:
36,192,7437,1,0,0:0:0:0:
182,192,7437,1,0,0:0:0:0:
402,192,7570,1,0,0:0:0:0:
329,192,7570,1,0,0:0:0:0:
475,192,7570,1,0,0:0:0:0:
109,192,7704,1,0,0:0:0:0:
36,192,7704,1,0,0:0:0:0:
475,192,7704,1,0,0:0:0:0:
182,192,7704,1,0,0:0:0:0:
402,192,7704,1,0,0:0:0:0:
329,192,7704,1,0,0:0:0:0:
182,192,7837,1,0,0:0:0:0:
36,192,7837,1,0,0:0:0:0:
329,192,7837,1,0,0:0:0:0:
182,192,7970,1,0,0:0:0:0:
36,192,7970,1,0,0:0:0:0:
329,192,7970,1,0,0:0:0:0:
475,192,8104,1,0,0:0:0:0:
402,192,8104,1,0,0:0:0:0:
36,192,8104,1,0,0:0:0:0:
256,192,8104,1,0,0:0:0:0:
109,192,8104,1,0,0:0:0:0:
182,192,8104,1,0,0:0:0:0:
329,192,8104,1,0,0:0:0:0:
402,192,8370,1,0,0:0:0:0:
109,192,8370,1,0,0:0:0:0:
36,192,8370,1,0,0:0:0:0:
475,192,8370,1,0,0:0:0:0:
329,192,8370,1,0,0:0:0:0:
182,192,8370,1,0,0:0:0:0:
475,192,8504,1,0,0:0:0:0:
402,192,8504,1,0,0:0:0:0:
36,192,8637,1,0,0:0:0:0:
475,192,8637,1,0,0:0:0:0:
109,192,8637,1,0,0:0:0:0:
256,192,8637,1,0,0:0:0:0:
402,192,8637,1,0,0:0:0:0:
182,192,8637,1,0,0:0:0:0:
109,192,8770,1,0,0:0:0:0:
36,192,8770,1,0,0:0:0:0:
475,192,8904,1,0,0:0:0:0:
256,192,8904,1,0,0:0:0:0:
329,192,8904,1,0,0:0:0:0:
36,192,8904,1,0,0:0:0:0:
109,192,8904,1,0,0:0:0:0:
402,192,8904,1,0,0:0:0:0:
402,192,9037,1,0,0:0:0:0:
329,192,9037,1,0,0:0:0:0:
109,192,9170,1,0,0:0:0:0:
329,192,9170,1,0,0:0:0:0:
402,192,9170,1,0,0:0:0:0:
182,192,9170,1,0,0:0:0:0:
36,192,9170,1,0,0:0:0:0:
475,192,9170,1,0,0:0:0:0:
109,192,9304,1,0,0:0:0:0:
182,192,9304,1,0,0:0:0:0:
36,192,9437,1,0,0:0:0:0:
402,192,9437,1,0,0:0:0:0:
109,192,9437,1,0,0:0:0:0:
182,192,9437,1,0,0:0:0:0:
475,192,9437,1,0,0:0:0:0:
329,192,9437,1,0,0:0:0:0:
475,192,9570,1,0,0:0:0:0:
402,192,9570,1,0,0:0:0:0:
475,192,9704,1,0,0:0:0:0:
402,192,9704,1,0,0:0:0:0:
36,192,9704,1,0,0:0:0:0:
329,192,9704,1,0,0:0:0:0:
109,192,9704,1,0,0:0:0:0:
182,192,9704,1,0,0:0:0:0:
256,192,9704,1,0,0:0:0:0:
475,192,9970,1,0,0:0:0:0:
36,192,9970,1,0,0:0:0:0:
109,192,9970,1,0,0:0:0:0:
402,192,9970,1,0,0:0:0:0:
329,192,9970,1,0,0:0:0:0:
182,192,9970,1,0,0:0:0:0:
475,192,10104,1,0,0:0:0:0:
402,192,10104,1,0,0:0:0:0:
402,192,10237,1,0,0:0:0:0:
36,192,10237,1,0,0:0:0:0:
256,192,10237,1,0,0:0:0:0:
329,192,10237,1,0,0:0:0:0:
475,192,10237,1,0,0:0:0:0:
109,192,10237,1,0,0:0:0:0:
329,192,10370,1,0,0:0:0:0:
402,192,10370,1,0,0:0:0:0:
475,192,10504,1,0,0:0:0:0:
109,192,10504,1,0,0:0:0:0:
36,192,10504,1,0,0:0:0:0:
182,192,10504,1,0,0:0:0:0:
256,192,10504,1,0,0:0:0:0:
329,192,10504,1,0,0:0:0:0:
182,192,10637,1,0,0:0:0:0:
109,192,10637,1,0,0:0:0:0:
402,192,10770,1,0,0:0:0:0:
475,192,10770,1,0,0:0:0:0:
36,192,10770,1,0,0:0:0:0:
109,192,10770,1,0,0:0:0:0:
182,192,10770,1,0,0:0:0:0:
256,192,10770,1,0,0:0:0:0:
36,192,10904,1,0,0:0:0:0:
109,192,10904,1,0,0:0:0:0:
182,192,11037,1,0,0:0:0:0:
329,192,11037,1,0,0:0:0:0:
402,192,11037,1,0,0:0:0:0:
36,192,11037,1,0,0:0:0:0:
256,192,11037,1,0,0:0:0:0:
475,192,11037,1,0,0:0:0:0:
182,192,11170,1,0,0:0:0:0:
329,192,11170,1,0,0:0:0:0:
36,192,11304,1,0,0:0:0:0:
256,192,11304,1,0,0:0:0:0:
329,192,11304,1,0,0:0:0:0:
402,192,11304,1,0,0:0:0:0:
475,192,11304,1,0,0:0:0:0:
109,192,11304,1,0,0:0:0:0:
182,192,11304,1,0,0:0:0:0:
109,192,11437,1,0,0:0:0:0:
402,192,11437,1,0,0:0:0:0:
36,192,11437,1,0,0:0:0:0:
475,192,11437,1,0,0:0:0:0:
36,192,11570,1,0,0:0:0:0:
109,192,11570,1,0,0:0:0:0:
329,192,11570,1,0,0:0:0:0:
402,192,11570,1,0,0:0:0:0:
182,192,11704,1,0,0:0:0:0:
329,192,11704,1,0,0:0:0:0:
256,192,11704,1,0,0:0:0:0:
475,192,11704,1,0,0:0:0:0:
109,192,11837,1,0,0:0:0:0:
182,192,11837,1,0,0:0:0:0:
402,192,11837,1,0,0:0:0:0:
475,192,11837,1,0,0:0:0:0:
475,192,11970,1,0,0:0:0:0:
109,192,11970,1,0,0:0:0:0:
402,192,11970,1,0,0:0:0:0:
36,192,11970,1,0,0:0:0:0:
36,192,12104,1,0,0:0:0:0:
109,192,12104,1,0,0:0:0:0:
182,192,12104,1,0,0:0:0:0:
256,192,12104,1,0,0:0:0:0:
402,192,12104,1,0,0:0:0:0:
329,192,12104,1,0,0:0:0:0:
475,192,12104,1,0,0:0:0:0:
329,192,12237,1,0,0:0:0:0:
36,192,12237,1,0,0:0:0:0:
256,192,12237,1,0,0:0:0:0:
182,192,12237,1,0,0:0:0:0:
182,192,12370,1,0,0:0:0:0:
402,192,12370,1,0,0:0:0:0:
109,192,12370,1,0,0:0:0:0:
256,192,12370,1,0,0:0:0:0:
182,192,12504,1,0,0:0:0:0:
329,192,12504,1,0,0:0:0:0:
109,192,12504,1,0,0:0:0:0:
36,192,12504,1,0,0:0:0:0:
402,192,12637,1,0,0:0:0:0:
475,192,12637,1,0,0:0:0:0:
256,192,12637,1,0,0:0:0:0:
329,192,12637,1,0,0:0:0:0:
182,192,12770,1,0,0:0:0:0:
256,192,12770,1,0,0:0:0:0:
36,192,12770,1,0,0:0:0:0:
109,192,12770,1,0,0:0:0:0:
36,192,12904,1,0,0:0:0:0:
182,192,12904,1,0,0:0:0:0:
109,192,12904,1,0,0:0:0:0:
329,192,12904,1,0,0:0:0:0:
402,192,12904,1,0,0:0:0:0:
475,192,12904,1,0,0:0:0:0:
256,192,12904,1,0,0:0:0:0:
475,192,13704,1,0,0:0:0:0:
329,192,13704,1,0,0:0:0:0:
329,192,13837,1,0,0:0:0:0:
475,192,13837,1,0,0:0:0:0:
329,192,13970,1,0,0:0:0:0:
475,192,13970,1,0,0:0:0:0:
182,192,14104,1,0,0:0:0:0:
36,192,14104,1,0,0:0:0:0:
182,192,14237,1,0,0:0:0:0:
36,192,14237,1,0,0:0:0:0:
182,192,14370,1,0,0:0:0:0:
36,192,14370,1,0,0:0:0:0:
36,192,14504,1,0,0:0:0:0:
402,192,14504,1,0,0:0:0:0:
475,192,14504,1,0,0:0:0:0:
109,192,14504,1,0,0:0:0:0:
329,192,14504,1,0,0:0:0:0:
182,192,14504,1,0,0:0:0:0:
256,192,14504,1,0,0:0:0:0:
475,192,14770,1,0,0:0:0:0:
402,192,14770,1,0,0:0:0:0:
329,192,14770,1,0,0:0:0:0:
182,192,14770,1,0,0:0:0:0:
109,192,14904,1,0,0:0:0:0:
256,192,14904,1,0,0:0:0:0:
402,192,14904,1,0,0:0:0:0:
182,192,14904,1,0,0:0:0:0:
475,192,14904,1,0,0:0:0:0:
36,192,14904,1,0,0:0:0:0:
329,192,14904,1,0,0:0:0:0:
329,192,15170,1,0,0:0:0:0:
36,192,15170,1,0,0:0:0:0:
109,192,15170,1,0,0:0:0:0:
182,192,15170,1,0,0:0:0:0:
475,192,15304,1,0,0:0:0:0:
402,192,15304,1,0,0:0:0:0:
36,192,15304,1,0,0:0:0:0:
256,192,15304,1,0,0:0:0:0:
182,192,15304,1,0,0:0:0:0:
109,192,15304,1,0,0:0:0:0:
329,192,15304,1,0,0:0:0:0:
402,192,15437,1,0,0:0:0:0:
475,192,15437,1,0,0:0:0:0:
256,192,15437,1,0,0:0:0:0:
109,192,15570,1,0,0:0:0:0:
329,192,15570,1,0,0:0:0:0:
182,192,15570,1,0,0:0:0:0:
36,192,15570,1,0,0:0:0:0:
402,192,15704,1,0,0:0:0:0:
475,192,15704,1,0,0:0:0:0:
36,192,15704,1,0,0:0:0:0:
109,192,15704,1,0,0:0:0:0:
256,192,15704,1,0,0:0:0:0:
182,192,15704,1,0,0:0:0:0:
329,192,15704,1,0,0:0:0:0:
182,192,15970,1,0,0:0:0:0:
109,192,15970,1,0,0:0:0:0:
256,192,15970,1,0,0:0:0:0:
36,192,15970,1,0,0:0:0:0:
402,192,16104,1,0,0:0:0:0:
475,192,16104,1,0,0:0:0:0:
36,192,16104,1,0,0:0:0:0:
109,192,16104,1,0,0:0:0:0:
256,192,16104,1,0,0:0:0:0:
182,192,16104,1,0,0:0:0:0:
329,192,16104,1,0,0:0:0:0:
329,192,16237,1,0,0:0:0:0:
402,192,16237,1,0,0:0:0:0:
475,192,16237,1,0,0:0:0:0:
109,192,16370,1,0,0:0:0:0:
182,192,16370,1,0,0:0:0:0:
36,192,16370,1,0,0:0:0:0:
256,192,16370,1,0,0:0:0:0:
402,192,16504,1,0,0:0:0:0:
475,192,16504,1,0,0:0:0:0:
36,192,16504,1,0,0:0:0:0:
182,192,16504,1,0,0:0:0:0:
329,192,16504,1,0,0:0:0:0:
109,192,16504,1,0,0:0:0:0:
256,192,16504,1,0,0:0:0:0:
402,192,16637,1,0,0:0:0:0:
475,192,16637,1,0,0:0:0:0:
329,192,16637,1,0,0:0:0:0:
36,192,16770,1,0,0:0:0:0:
256,192,16770,1,0,0:0:0:0:
109,192,16770,1,0,0:0:0:0:
182,192,16770,1,0,0:0:0:0:
402,192,16904,1,0,0:0:0:0:
475,192,16904,1,0,0:0:0:0:
36,192,16904,1,0,0:0:0:0:
109,192,16904,1,0,0:0:0:0:
182,192,16904,1,0,0:0:0:0:
256,192,16904,1,0,0:0:0:0:
329,192,16904,1,0,0:0:0:0:
402,192,17037,1,0,0:0:0:0:
475,192,17037,1,0,0:0:0:0:
329,192,17037,1,0,0:0:0:0:
109,192,17170,1,0,0:0:0:0:
182,192,17170,1,0,0:0:0:0:
256,192,17170,1,0,0:0:0:0:
36,192,17170,1,0,0:0:0:0:
402,192,17304,1,0,0:0:0:0:
475,192,17304,1,0,0:0:0:0:
36,192,17304,1,0,0:0:0:0:
182,192,17304,1,0,0:0:0:0:
256,192,17304,1,0,0:0:0:0:
109,192,17304,1,0,0:0:0:0:
329,192,17304,1,0,0:0:0:0:
182,192,17570,1,0,0:0:0:0:
109,192,17570,1,0,0:0:0:0:
402,192,17570,1,0,0:0:0:0:
329,192,17570,1,0,0:0:0:0:
402,192,17704,1,0,0:0:0:0:
256,192,17704,1,0,0:0:0:0:
109,192,17704,1,0,0:0:0:0:
329,192,17704,1,0,0:0:0:0:
36,192,17704,1,0,0:0:0:0:
182,192,17704,1,0,0:0:0:0:
475,192,17704,1,0,0:0:0:0:
36,192,17970,1,0,0:0:0:0:
109,192,17970,1,0,0:0:0:0:
182,192,17970,1,0,0:0:0:0:
329,192,17970,1,0,0:0:0:0:
402,192,18104,1,0,0:0:0:0:
256,192,18104,1,0,0:0:0:0:
109,192,18104,1,0,0:0:0:0:
329,192,18104,1,0,0:0:0:0:
36,192,18104,1,0,0:0:0:0:
475,192,18104,1,0,0:0:0:0:
182,192,18104,1,0,0:0:0:0:
182,192,18370,1,0,0:0:0:0:
475,192,18370,1,0,0:0:0:0:
402,192,18370,1,0,0:0:0:0:
329,192,18370,1,0,0:0:0:0:
36,192,18504,1,0,0:0:0:0:
109,192,18504,1,0,0:0:0:0:
475,192,18504,1,0,0:0:0:0:
256,192,18504,1,0,0:0:0:0:
329,192,18504,1,0,0:0:0:0:
402,192,18504,1,0,0:0:0:0:
182,192,18504,1,0,0:0:0:0:
109,192,18637,1,0,0:0:0:0:
36,192,18637,1,0,0:0:0:0:
256,192,18637,1,0,0:0:0:0:
402,192,18770,1,0,0:0:0:0:
182,192,18770,1,0,0:0:0:0:
329,192,18770,1,0,0:0:0:0:
475,192,18770,1,0,0:0:0:0:
109,192,18904,1,0,0:0:0:0:
36,192,18904,1,0,0:0:0:0:
475,192,18904,1,0,0:0:0:0:
402,192,18904,1,0,0:0:0:0:
256,192,18904,1,0,0:0:0:0:
329,192,18904,1,0,0:0:0:0:
182,192,18904,1,0,0:0:0:0:
329,192,19170,1,0,0:0:0:0:
402,192,19170,1,0,0:0:0:0:
256,192,19170,1,0,0:0:0:0:
475,192,19170,1,0,0:0:0:0:
109,192,19304,1,0,0:0:0:0:
36,192,19304,1,0,0:0:0:0:
475,192,19304,1,0,0:0:0:0:
402,192,19304,1,0,0:0:0:0:
256,192,19304,1,0,0:0:0:0:
329,192,19304,1,0,0:0:0:0:
182,192,19304,1,0,0:0:0:0:
182,192,19437,1,0,0:0:0:0:
109,192,19437,1,0,0:0:0:0:
36,192,19437,1,0,0:0:0:0:
402,192,19570,1,0,0:0:0:0:
329,192,19570,1,0,0:0:0:0:
475,192,19570,1,0,0:0:0:0:
256,192,19570,1,0,0:0:0:0:
109,192,19704,1,0,0:0:0:0:
36,192,19704,1,0,0:0:0:0:
475,192,19704,1,0,0:0:0:0:
329,192,19704,1,0,0:0:0:0:
182,192,19704,1,0,0:0:0:0:
402,192,19704,1,0,0:0:0:0:
256,192,19704,1,0,0:0:0:0:
109,192,19837,1,0,0:0:0:0:
36,192,19837,1,0,0:0:0:0:
182,192,19837,1,0,0:0:0:0:
475,192,19970,1,0,0:0:0:0:
256,192,19970,1,0,0:0:0:0:
402,192,19970,1,0,0:0:0:0:
329,192,19970,1,0,0:0:0:0:
109,192,20104,1,0,0:0:0:0:
36,192,20104,1,0,0:0:0:0:
475,192,20104,1,0,0:0:0:0:
402,192,20104,1,0,0:0:0:0:
329,192,20104,1,0,0:0:0:0:
256,192,20104,1,0,0:0:0:0:
182,192,20104,1,0,0:0:0:0:
109,192,20237,1,0,0:0:0:0:
36,192,20237,1,0,0:0:0:0:
182,192,20237,1,0,0:0:0:0:
329,192,20370,1,0,0:0:0:0:
182,192,20370,1,0,0:0:0:0:
109,192,20370,1,0,0:0:0:0:
36,192,20370,1,0,0:0:0:0:
475,192,20370,1,0,0:0:0:0:
109,192,20504,1,0,0:0:0:0:
36,192,20504,1,0,0:0:0:0:
475,192,20504,1,0,0:0:0:0:
329,192,20504,1,0,0:0:0:0:
256,192,20504,1,0,0:0:0:0:
402,192,20504,1,0,0:0:0:0:
182,192,20504,1,0,0:0:0:0:
109,192,20770,1,0,0:0:0:0:
182,192,20770,1,0,0:0:0:0:
256,192,20770,1,0,0:0:0:0:
329,192,20770,1,0,0:0:0:0:
402,192,20770,1,0,0:0:0:0:
36,192,20904,1,0,0:0:0:0:
109,192,20904,1,0,0:0:0:0:
182,192,20904,1,0,0:0:0:0:
256,192,20904,1,0,0:0:0:0:
402,192,20904,1,0,0:0:0:0:
329,192,20904,1,0,0:0:0:0:
475,192,20904,1,0,0:0:0:0:
36,192,21170,1,0,0:0:0:0:
109,192,21170,1,0,0:0:0:0:
475,192,21170,1,0,0:0:0:0:
402,192,21170,1,0,0:0:0:0:
329,192,21304,1,0,0:0:0:0:
475,192,21304,1,0,0:0:0:0:
182,192,21304,1,0,0:0:0:0:
109,192,21304,1,0,0:0:0:0:
256,192,21304,1,0,0:0:0:0:
36,192,21304,1,0,0:0:0:0:
402,192,21304,1,0,0:0:0:0:
182,192,21570,1,0,0:0:0:0:
109,192,21570,1,0,0:0:0:0:
329,192,21570,1,0,0:0:0:0:
402,192,21570,1,0,0:0:0:0:
329,192,21704,1,0,0:0:0:0:
475,192,21704,1,0,0:0:0:0:
36,192,21704,1,0,0:0:0:0:
182,192,21704,1,0,0:0:0:0:
402,192,21704,1,0,0:0:0:0:
256,192,21704,1,0,0:0:0:0:
109,192,21704,1,0,0:0:0:0:
36,192,21837,1,0,0:0:0:0:
109,192,21837,1,0,0:0:0:0:
475,192,21837,1,0,0:0:0:0:
402,192,21837,1,0,0:0:0:0:
256,192,21904,1,0,0:0:0:0:
329,192,21904,1,0,0:0:0:0:
182,192,21904,1,0,0:0:0:0:
109,192,21970,1,0,0:0:0:0:
475,192,21970,1,0,0:0:0:0:
36,192,21970,1,0,0:0:0:0:
402,192,21970,1,0,0:0:0:0:
329,192,22104,1,0,0:0:0:0:
475,192,22104,1,0,0:0:0:0:
36,192,22104,1,0,0:0:0:0:
182,192,22104,1,0,0:0:0:0:
109,192,22104,1,0,0:0:0:0:
256,192,22104,1,0,0:0:0:0:
402,192,22104,1,0,0:0:0:0:
109,192,22370,1,0,0:0:0:0:
182,192,22370,1,0,0:0:0:0:
329,192,22370,1,0,0:0:0:0:
402,192,22370,1,0,0:0:0:0:
329,192,22504,1,0,0:0:0:0:
475,192,22504,1,0,0:0:0:0:
36,192,22504,1,0,0:0:0:0:
182,192,22504,1,0,0:0:0:0:
402,192,22504,1,0,0:0:0:0:
256,192,22504,1,0,0:0:0:0:
109,192,22504,1,0,0:0:0:0:
475,192,22637,1,0,0:0:0:0:
36,192,22637,1,0,0:0:0:0:
182,192,22637,1,0,0:0:0:0:
329,192,22637,1,0,0:0:0:0:
109,192,22770,1,0,0:0:0:0:
256,192,22770,1,0,0:0:0:0:
402,192,22770,1,0,0:0:0:0:
475,192,22904,1,0,0:0:0:0:
329,192,22904,1,0,0:0:0:0:
256,192,22904,1,0,0:0:0:0:
36,192,22904,1,0,0:0:0:0:
109,192,22904,1,0,0:0:0:0:
182,192,22904,1,0,0:0:0:0:
402,192,22904,1,0,0:0:0:0:
182,192,23170,1,0,0:0:0:0:
109,192,23170,1,0,0:0:0:0:
329,192,23170,1,0,0:0:0:0:
402,192,23170,1,0,0:0:0:0:
475,192,23304,1,0,0:0:0:0:
329,192,23304,1,0,0:0:0:0:
36,192,23304,1,0,0:0:0:0:
256,192,23304,1,0,0:0:0:0:
402,192,23304,1,0,0:0:0:0:
109,192,23304,1,0,0:0:0:0:
182,192,23304,1,0,0:0:0:0:
329,192,23437,1,0,0:0:0:0:
475,192,23437,1,0,0:0:0:0:
36,192,23437,1,0,0:0:0:0:
182,192,23437,1,0,0:0:0:0:
256,192,23570,1,0,0:0:0:0:
109,192,23570,1,0,0:0:0:0:
402,192,23570,1,0,0:0:0:0:
329,192,23704,1,0,0:0:0:0:
475,192,23704,1,0,0:0:0:0:
109,192,23704,1,0,0:0:0:0:
182,192,23704,1,0,0:0:0:0:
402,192,23704,1,0,0:0:0:0:
36,192,23704,1,0,0:0:0:0:
256,192,23704,1,0,0:0:0:0:
36,192,23970,1,0,0:0:0:0:
109,192,23970,1,0,0:0:0:0:
182,192,23970,1,0,0:0:0:0:
256,192,23970,1,0,0:0:0:0:
36,192,24104,1,0,0:0:0:0:
182,192,24104,1,0,0:0:0:0:
329,192,24104,1,0,0:0:0:0:
475,192,24104,1,0,0:0:0:0:
256,192,24104,1,0,0:0:0:0:
402,192,24104,1,0,0:0:0:0:
109,192,24104,1,0,0:0:0:0:
402,192,24370,1,0,0:0:0:0:
329,192,24370,1,0,0:0:0:0:
256,192,24370,1,0,0:0:0:0:
475,192,24370,1,0,0:0:0:0:
182,192,24504,1,0,0:0:0:0:
36,192,24504,1,0,0:0:0:0:
475,192,24504,1,0,0:0:0:0:
109,192,24504,1,0,0:0:0:0:
329,192,24504,1,0,0:0:0:0:
256,192,24504,1,0,0:0:0:0:
402,192,24504,1,0,0:0:0:0:
109,192,24770,1,0,0:0:0:0:
182,192,24770,1,0,0:0:0:0:
329,192,24770,1,0,0:0:0:0:
402,192,24770,1,0,0:0:0:0:
36,192,24904,1,0,0:0:0:0:
182,192,24904,1,0,0:0:0:0:
329,192,24904,1,0,0:0:0:0:
402,192,24904,1,0,0:0:0:0:
475,192,24904,1,0,0:0:0:0:
109,192,24904,1,0,0:0:0:0:
256,192,24904,1,0,0:0:0:0:
36,192,25037,1,0,0:0:0:0:
109,192,25037,1,0,0:0:0:0:
402,192,25037,1,0,0:0:0:0:
475,192,25037,1,0,0:0:0:0:
329,192,25170,1,0,0:0:0:0:
182,192,25170,1,0,0:0:0:0:
256,192,25170,1,0,0:0:0:0:
36,192,25304,1,0,0:0:0:0:
182,192,25304,1,0,0:0:0:0:
256,192,25304,1,0,0:0:0:0:
402,192,25304,1,0,0:0:0:0:
329,192,25304,1,0,0:0:0:0:
109,192,25304,1,0,0:0:0:0:
475,192,25304,1,0,0:0:0:0:
182,192,25570,1,0,0:0:0:0:
475,192,25570,1,0,0:0:0:0:
109,192,25570,1,0,0:0:0:0:
402,192,25570,1,0,0:0:0:0:
36,192,25704,1,0,0:0:0:0:
182,192,25704,1,0,0:0:0:0:
329,192,25704,1,0,0:0:0:0:
475,192,25704,1,0,0:0:0:0:
402,192,25704,1,0,0:0:0:0:
109,192,25704,1,0,0:0:0:0:
256,192,25704,1,0,0:0:0:0:
36,192,25970,1,0,0:0:0:0:
109,192,25970,1,0,0:0:0:0:
329,192,25970,1,0,0:0:0:0:
256,192,25970,1,0,0:0:0:0:
36,192,26104,1,0,0:0:0:0:
109,192,26104,1,0,0:0:0:0:
329,192,26104,1,0,0:0:0:0:
402,192,26104,1,0,0:0:0:0:
109,192,26237,1,0,0:0:0:0:
182,192,26237,1,0,0:0:0:0:
475,192,26237,1,0,0:0:0:0:
402,192,26237,1,0,0:0:0:0:
182,192,26370,1,0,0:0:0:0:
402,192,26370,1,0,0:0:0:0:
256,192,26370,1,0,0:0:0:0:
475,192,26370,1,0,0:0:0:0:
36,192,26504,1,0,0:0:0:0:
109,192,26504,1,0,0:0:0:0:
256,192,26504,1,0,0:0:0:0:
329,192,26504,1,0,0:0:0:0:
475,192,26504,1,0,0:0:0:0:
329,192,26637,1,0,0:0:0:0:
402,192,26637,1,0,0:0:0:0:
182,192,26637,1,0,0:0:0:0:
109,192,26637,1,0,0:0:0:0:
36,192,26637,1,0,0:0:0:0:
475,192,26770,1,0,0:0:0:0:
256,192,26770,1,0,0:0:0:0:
402,192,26770,1,0,0:0:0:0:
182,192,26770,1,0,0:0:0:0:
109,192,26770,1,0,0:0:0:0:
36,192,26904,1,0,0:0:0:0:
256,192,26904,1,0,0:0:0:0:
475,192,26904,1,0,0:0:0:0:
182,192,26904,1,0,0:0:0:0:
329,192,26904,1,0,0:0:0:0:
36,192,27304,1,0,0:0:0:0:
109,192,27304,1,0,0:0:0:0:
402,192,27304,1,0,0:0:0:0:
475,192,27304,1,0,0:0:0:0:
182,192,27304,1,0,0:0:0:0:
329,192,27304,1,0,0:0:0:0:
256,192,27304,1,0,0:0:0:0:
36,192,27570,1,0,0:0:0:0:
256,192,27570,1,0,0:0:0:0:
109,192,27570,1,0,0:0:0:0:
36,192,27704,1,0,0:0:0:0:
256,192,27704,1,0,0:0:0:0:
402,192,27704,1,0,0:0:0:0:
475,192,27704,1,0,0:0:0:0:
182,192,27704,1,0,0:0:0:0:
109,192,27704,1,0,0:0:0:0:
329,192,27704,1,0,0:0:0:0:
182,192,27837,1,0,0:0:0:0:
475,192,27837,1,0,0:0:0:0:
329,192,27837,1,0,0:0:0:0:
475,192,27970,1,0,0:0:0:0:
182,192,27970,1,0,0:0:0:0:
329,192,27970,1,0,0:0:0:0:
182,192,28104,1,0,0:0:0:0:
329,192,28104,1,0,0:0:0:0:
402,192,28104,1,0,0:0:0:0:
475,192,28104,1,0,0:0:0:0:
36,192,28104,1,0,0:0:0:0:
109,192,28104,1,0,0:0:0:0:
256,192,28104,1,0,0:0:0:0:
109,192,28237,1,0,0:0:0:0:
256,192,28237,1,0,0:0:0:0:
36,192,28237,1,0,0:0:0:0:
256,192,28370,1,0,0:0:0:0:
36,192,28370,1,0,0:0:0:0:
109,192,28370,1,0,0:0:0:0:
36,192,28504,1,0,0:0:0:0:
475,192,28504,1,0,0:0:0:0:
109,192,28504,1,0,0:0:0:0:
329,192,28504,1,0,0:0:0:0:
182,192,28504,1,0,0:0:0:0:
256,192,28504,1,0,0:0:0:0:
402,192,28504,1,0,0:0:0:0:
256,192,28770,1,0,0:0:0:0:
109,192,28770,1,0,0:0:0:0:
36,192,28770,1,0,0:0:0:0:
256,192,28904,1,0,0:0:0:0:
36,192,28904,1,0,0:0:0:0:
109,192,28904,1,0,0:0:0:0:
329,192,28904,1,0,0:0:0:0:
475,192,28904,1,0,0:0:0:0:
182,192,28904,1,0,0:0:0:0:
402,192,28904,1,0,0:0:0:0:
182,192,29037,1,0,0:0:0:0:
475,192,29037,1,0,0:0:0:0:
329,192,29037,1,0,0:0:0:0:
329,192,29170,1,0,0:0:0:0:
182,192,29170,1,0,0:0:0:0:
475,192,29170,1,0,0:0:0:0:
36,192,29304,1,0,0:0:0:0:
256,192,29304,1,0,0:0:0:0:
109,192,29304,1,0,0:0:0:0:
402,192,29304,1,0,0:0:0:0:
475,192,29304,1,0,0:0:0:0:
182,192,29304,1,0,0:0:0:0:
329,192,29304,1,0,0:0:0:0:
402,192,29437,1,0,0:0:0:0:
256,192,29437,1,0,0:0:0:0:
109,192,29437,1,0,0:0:0:0:
109,192,29570,1,0,0:0:0:0:
256,192,29570,1,0,0:0:0:0:
402,192,29570,1,0,0:0:0:0:
182,192,29704,1,0,0:0:0:0:
256,192,29704,1,0,0:0:0:0:
402,192,29704,1,0,0:0:0:0:
475,192,29704,1,0,0:0:0:0:
36,192,29704,1,0,0:0:0:0:
109,192,29704,1,0,0:0:0:0:
329,192,29704,1,0,0:0:0:0:
329,192,29837,1,0,0:0:0:0:
36,192,29837,1,0,0:0:0:0:
182,192,29837,1,0,0:0:0:0:
36,192,29970,1,0,0:0:0:0:
329,192,29970,1,0,0:0:0:0:
182,192,29970,1,0,0:0:0:0:
182,192,30104,1,0,0:0:0:0:
402,192,30104,1,0,0:0:0:0:
475,192,30104,1,0,0:0:0:0:
109,192,30104,1,0,0:0:0:0:
256,192,30104,1,0,0:0:0:0:
329,192,30104,1,0,0:0:0:0:
36,192,30104,1,0,0:0:0:0:
402,192,30370,1,0,0:0:0:0:
182,192,30370,1,0,0:0:0:0:
109,192,30370,1,0,0:0:0:0:
329,192,30370,1,0,0:0:0:0:
36,192,30504,1,0,0:0:0:0:
182,192,30504,1,0,0:0:0:0:
256,192,30504,1,0,0:0:0:0:
329,192,30504,1,0,0:0:0:0:
475,192,30504,1,0,0:0:0:0:
109,192,30504,1,0,0:0:0:0:
402,192,30504,1,0,0:0:0:0:
256,192,30770,1,0,0:0:0:0:
402,192,30770,1,0,0:0:0:0:
475,192,30770,1,0,0:0:0:0:
402,192,30904,1,0,0:0:0:0:
475,192,30904,1,0,0:0:0:0:
36,192,30904,1,0,0:0:0:0:
182,192,30904,1,0,0:0:0:0:
256,192,30904,1,0,0:0:0:0:
109,192,30904,1,0,0:0:0:0:
329,192,30904,1,0,0:0:0:0:
36,192,31037,1,0,0:0:0:0:
182,192,31037,1,0,0:0:0:0:
329,192,31037,1,0,0:0:0:0:
182,192,31170,1,0,0:0:0:0:
36,192,31170,1,0,0:0:0:0:
329,192,31170,1,0,0:0:0:0:
36,192,31304,1,0,0:0:0:0:
256,192,31304,1,0,0:0:0:0:
475,192,31304,1,0,0:0:0:0:
329,192,31304,1,0,0:0:0:0:
402,192,31304,1,0,0:0:0:0:
109,192,31304,1,0,0:0:0:0:
182,192,31304,1,0,0:0:0:0:
256,192,31437,1,0,0:0:0:0:
402,192,31437,1,0,0:0:0:0:
475,192,31437,1,0,0:0:0:0:
256,192,31570,1,0,0:0:0:0:
402,192,31570,1,0,0:0:0:0:
475,192,31570,1,0,0:0:0:0:
36,192,31704,1,0,0:0:0:0:
109,192,31704,1,0,0:0:0:0:
329,192,31704,1,0,0:0:0:0:
256,192,31704,1,0,0:0:0:0:
475,192,31704,1,0,0:0:0:0:
182,192,31704,1,0,0:0:0:0:
402,192,31704,1,0,0:0:0:0:
402,192,31970,1,0,0:0:0:0:
109,192,31970,1,0,0:0:0:0:
182,192,31970,1,0,0:0:0:0:
329,192,31970,1,0,0:0:0:0:
36,192,32104,1,0,0:0:0:0:
109,192,32104,1,0,0:0:0:0:
182,192,32104,1,0,0:0:0:0:
256,192,32104,1,0,0:0:0:0:
475,192,32104,1,0,0:0:0:0:
329,192,32104,1,0,0:0:0:0:
402,192,32104,1,0,0:0:0:0:
36,192,32237,1,0,0:0:0:0:
109,192,32237,1,0,0:0:0:0:
402,192,32237,1,0,0:0:0:0:
475,192,32237,1,0,0:0:0:0:
182,192,32304,1,0,0:0:0:0:
256,192,32304,1,0,0:0:0:0:
329,192,32304,1,0,0:0:0:0:
36,192,32370,1,0,0:0:0:0:
109,192,32370,1,0,0:0:0:0:
402,192,32370,1,0,0:0:0:0:
475,192,32370,1,0,0:0:0:0:
182,192,32504,1,0,0:0:0:0:
329,192,32504,1,0,0:0:0:0:
402,192,32504,1,0,0:0:0:0:
475,192,32504,1,0,0:0:0:0:
36,192,32504,1,0,0:0:0:0:
109,192,32504,1,0,0:0:0:0:
256,192,32504,1,0,0:0:0:0:
109,192,32770,1,0,0:0:0:0:
182,192,32770,1,0,0:0:0:0:
329,192,32770,1,0,0:0:0:0:
402,192,32770,1,0,0:0:0:0:
36,192,32904,1,0,0:0:0:0:
256,192,32904,1,0,0:0:0:0:
402,192,32904,1,0,0:0:0:0:
475,192,32904,1,0,0:0:0:0:
182,192,32904,1,0,0:0:0:0:
109,192,32904,1,0,0:0:0:0:
329,192,32904,1,0,0:0:0:0:
36,192,33037,1,0,0:0:0:0:
256,192,33037,1,0,0:0:0:0:
475,192,33037,1,0,0:0:0:0:
256,192,33170,1,0,0:0:0:0:
36,192,33170,1,0,0:0:0:0:
475,192,33170,1,0,0:0:0:0:
182,192,33304,1,0,0:0:0:0:
329,192,33304,1,0,0:0:0:0:
402,192,33304,1,0,0:0:0:0:
475,192,33304,1,0,0:0:0:0:
36,192,33304,1,0,0:0:0:0:
109,192,33304,1,0,0:0:0:0:
256,192,33304,1,0,0:0:0:0:
256,192,33570,1,0,0:0:0:0:
36,192,33570,1,0,0:0:0:0:
182,192,33570,1,0,0:0:0:0:
475,192,33570,1,0,0:0:0:0:
329,192,33570,1,0,0:0:0:0:
36,192,33704,1,0,0:0:0:0:
329,192,33704,1,0,0:0:0:0:
475,192,33704,1,0,0:0:0:0:
109,192,33704,1,0,0:0:0:0:
182,192,33704,1,0,0:0:0:0:
402,192,33704,1,0,0:0:0:0:
256,192,33704,1,0,0:0:0:0:
36,192,33970,1,0,0:0:0:0:
329,192,33970,1,0,0:0:0:0:
109,192,33970,1,0,0:0:0:0:
256,192,33970,1,0,0:0:0:0:
109,192,34104,1,0,0:0:0:0:
329,192,34104,1,0,0:0:0:0:
402,192,34104,1,0,0:0:0:0:
475,192,34104,1,0,0:0:0:0:
182,192,34104,1,0,0:0:0:0:
36,192,34104,1,0,0:0:0:0:
256,192,34104,1,0,0:0:0:0:
256,192,34237,1,0,0:0:0:0:
475,192,34237,1,0,0:0:0:0:
402,192,34237,1,0,0:0:0:0:
182,192,34237,1,0,0:0:0:0:
402,192,34370,1,0,0:0:0:0:
256,192,34370,1,0,0:0:0:0:
475,192,34370,1,0,0:0:0:0:
182,192,34370,1,0,0:0:0:0:
182,192,34504,1,0,0:0:0:0:
109,192,34504,1,0,0:0:0:0:
36,192,34504,1,0,0:0:0:0:
402,192,34504,1,0,0:0:0:0:
475,192,34504,1,0,0:0:0:0:
256,192,34504,1,0,0:0:0:0:
329,192,34504,1,0,0:0:0:0:
256,192,34637,1,0,0:0:0:0:
329,192,34637,1,0,0:0:0:0:
36,192,34637,1,0,0:0:0:0:
109,192,34637,1,0,0:0:0:0:
109,192,34770,1,0,0:0:0:0:
36,192,34770,1,0,0:0:0:0:
256,192,34770,1,0,0:0:0:0:
329,192,34770,1,0,0:0:0:0:
36,192,34904,1,0,0:0:0:0:
329,192,34904,1,0,0:0:0:0:
256,192,34904,1,0,0:0:0:0:
402,192,34904,1,0,0:0:0:0:
182,192,34904,1,0,0:0:0:0:
109,192,34904,1,0,0:0:0:0:
475,192,34904,1,0,0:0:0:0:
256,192,35170,1,0,0:0:0:0:
402,192,35170,1,0,0:0:0:0:
475,192,35170,1,0,0:0:0:0:
182,192,35170,1,0,0:0:0:0:
329,192,35304,1,0,0:0:0:0:
402,192,35304,1,0,0:0:0:0:
475,192,35304,1,0,0:0:0:0:
36,192,35304,1,0,0:0:0:0:
109,192,35304,1,0,0:0:0:0:
182,192,35304,1,0,0:0:0:0:
256,192,35304,1,0,0:0:0:0:
36,192,35437,1,0,0:0:0:0:
109,192,35437,1,0,0:0:0:0:
182,192,35437,1,0,0:0:0:0:
256,192,35437,1,0,0:0:0:0:
256,192,35570,1,0,0:0:0:0:
402,192,35570,1,0,0:0:0:0:
475,192,35570,1,0,0:0:0:0:
182,192,35570,1,0,0:0:0:0:
329,192,35570,1,0,0:0:0:0:
36,192,35704,1,0,0:0:0:0:
182,192,35704,1,0,0:0:0:0:
329,192,35704,1,0,0:0:0:0:
109,192,35704,1,0,0:0:0:0:
402,192,35704,1,0,0:0:0:0:
256,192,35704,1,0,0:0:0:0:
475,192,35704,1,0,0:0:0:0:
402,192,35837,1,0,0:0:0:0:
475,192,35837,1,0,0:0:0:0:
329,192,35837,1,0,0:0:0:0:
256,192,35837,1,0,0:0:0:0:
36,192,35970,1,0,0:0:0:0:
109,192,35970,1,0,0:0:0:0:
256,192,35970,1,0,0:0:0:0:
182,192,35970,1,0,0:0:0:0:
329,192,35970,1,0,0:0:0:0:
109,192,36104,1,0,0:0:0:0:
182,192,36104,1,0,0:0:0:0:
329,192,36104,1,0,0:0:0:0:
402,192,36104,1,0,0:0:0:0:
475,192,36104,1,0,0:0:0:0:
256,192,36104,1,0,0:0:0:0:
36,192,36104,1,0,0:0:0:0:
329,192,36237,1,0,0:0:0:0:
402,192,36237,1,0,0:0:0:0:
475,192,36237,1,0,0:0:0:0:
182,192,36237,1,0,0:0:0:0:
475,192,36370,1,0,0:0:0:0:
402,192,36370,1,0,0:0:0:0:
329,192,36370,1,0,0:0:0:0:
109,192,36370,1,0,0:0:0:0:
36,192,36370,1,0,0:0:0:0:
36,192,36504,1,0,0:0:0:0:
109,192,36504,1,0,0:0:0:0:
182,192,36504,1,0,0:0:0:0:
329,192,36504,1,0,0:0:0:0:
402,192,36504,1,0,0:0:0:0:
256,192,36504,1,0,0:0:0:0:
475,192,36504,1,0,0:0:0:0:
109,192,36770,1,0,0:0:0:0:
36,192,36770,1,0,0:0:0:0:
402,192,36770,1,0,0:0:0:0:
475,192,36770,1,0,0:0:0:0:
256,192,36770,1,0,0:0:0:0:
36,192,36904,1,0,0:0:0:0:
182,192,36904,1,0,0:0:0:0:
109,192,36904,1,0,0:0:0:0:
329,192,36904,1,0,0:0:0:0:
402,192,36904,1,0,0:0:0:0:
475,192,36904,1,0,0:0:0:0:
256,192,36904,1,0,0:0:0:0:
329,192,37170,1,0,0:0:0:0:
182,192,37170,1,0,0:0:0:0:
109,192,37170,1,0,0:0:0:0:
402,192,37170,1,0,0:0:0:0:
36,192,37304,1,0,0:0:0:0:
329,192,37304,1,0,0:0:0:0:
475,192,37304,1,0,0:0:0:0:
109,192,37304,1,0,0:0:0:0:
402,192,37304,1,0,0:0:0:0:
182,192,37304,1,0,0:0:0:0:
36,192,37437,1,0,0:0:0:0:
329,192,37437,1,0,0:0:0:0:
182,192,37437,1,0,0:0:0:0:
475,192,37437,1,0,0:0:0:0:
109,192,37437,1,0,0:0:0:0:
402,192,37437,1,0,0:0:0:0:
36,192,37570,1,0,0:0:0:0:
182,192,37570,1,0,0:0:0:0:
329,192,37570,1,0,0:0:0:0:
475,192,37570,1,0,0:0:0:0:
109,192,37570,1,0,0:0:0:0:
402,192,37570,1,0,0:0:0:0:
36,192,37704,1,0,0:0:0:0:
109,192,37704,1,0,0:0:0:0:
182,192,37704,1,0,0:0:0:0:
329,192,37704,1,0,0:0:0:0:
402,192,37704,1,0,0:0:0:0:
475,192,37704,1,0,0:0:0:0:
256,192,37704,1,0,0:0:0:0:
402,192,37970,1,0,0:0:0:0:
109,192,37970,1,0,0:0:0:0:
182,192,37970,1,0,0:0:0:0:
329,192,37970,1,0,0:0:0:0:
182,192,38104,1,0,0:0:0:0:
36,192,38104,1,0,0:0:0:0:
329,192,38104,1,0,0:0:0:0:
475,192,38104,1,0,0:0:0:0:
256,192,38104,1,0,0:0:0:0:
402,192,38370,1,0,0:0:0:0:
475,192,38370,1,0,0:0:0:0:
329,192,38370,1,0,0:0:0:0:
36,192,38504,1,0,0:0:0:0:
109,192,38504,1,0,0:0:0:0:
402,192,38504,1,0,0:0:0:0:
475,192,38504,1,0,0:0:0:0:
329,192,38504,1,0,0:0:0:0:
182,192,38504,1,0,0:0:0:0:
256,192,38504,1,0,0:0:0:0:
36,192,38637,1,0,0:0:0:0:
109,192,38637,1,0,0:0:0:0:
182,192,38637,1,0,0:0:0:0:
36,192,38770,1,0,0:0:0:0:
109,192,38770,1,0,0:0:0:0:
182,192,38770,1,0,0:0:0:0:
329,192,38770,1,0,0:0:0:0:
475,192,38770,1,0,0:0:0:0:
402,192,38770,1,0,0:0:0:0:
256,192,38770,1,0,0:0:0:0:
329,192,38904,1,0,0:0:0:0:
402,192,38904,1,0,0:0:0:0:
475,192,38904,1,0,0:0:0:0:
475,192,39037,1,0,0:0:0:0:
256,192,39037,1,0,0:0:0:0:
182,192,39037,1,0,0:0:0:0:
329,192,39037,1,0,0:0:0:0:
109,192,39037,1,0,0:0:0:0:
402,192,39037,1,0,0:0:0:0:
36,192,39170,1,0,0:0:0:0:
109,192,39170,1,0,0:0:0:0:
182,192,39170,1,0,0:0:0:0:
329,192,39170,1,0,0:0:0:0:
402,192,39170,1,0,0:0:0:0:
256,192,39170,1,0,0:0:0:0:
36,192,39304,1,0,0:0:0:0:
256,192,39304,1,0,0:0:0:0:
329,192,39304,1,0,0:0:0:0:
402,192,39304,1,0,0:0:0:0:
475,192,39304,1,0,0:0:0:0:
182,192,39304,1,0,0:0:0:0:
109,192,39304,1,0,0:0:0:0:
182,192,39704,1,0,0:0:0:0:
329,192,39704,1,0,0:0:0:0:
36,192,39704,1,0,0:0:0:0:
475,192,39704,1,0,0:0:0:0:
182,192,39837,1,0,0:0:0:0:
329,192,39837,1,0,0:0:0:0:
36,192,39837,1,0,0:0:0:0:
475,192,39837,1,0,0:0:0:0:
182,192,39970,1,0,0:0:0:0:
329,192,39970,1,0,0:0:0:0:
36,192,39970,1,0,0:0:0:0:
475,192,39970,1,0,0:0:0:0:
36,192,40104,1,0,0:0:0:0:
109,192,40104,1,0,0:0:0:0:
402,192,40104,1,0,0:0:0:0:
475,192,40104,1,0,0:0:0:0:
256,192,40104,1,0,0:0:0:0:
182,192,40104,1,0,0:0:0:0:
329,192,40104,1,0,0:0:0:0:
109,192,42504,1,0,0:0:0:0:
402,192,42504,1,0,0:0:0:0:
256,192,42770,1,0,0:0:0:0:
109,192,42904,1,0,0:0:0:0:
402,192,42904,1,0,0:0:0:0:
109,192,43037,1,0,0:0:0:0:
402,192,43037,1,0,0:0:0:0:
109,192,43170,1,0,0:0:0:0:
402,192,43170,1,0,0:0:0:0:
182,192,43304,1,0,0:0:0:0:
329,192,43304,1,0,0:0:0:0:
36,192,43304,1,0,0:0:0:0:
475,192,43304,1,0,0:0:0:0:
256,192,43304,1,0,0:0:0:0:
329,192,44770,1,0,0:0:0:0:
182,192,44770,1,0,0:0:0:0:
256,192,44837,1,0,0:0:0:0:
329,192,44904,1,0,0:0:0:0:
182,192,44904,1,0,0:0:0:0:
36,192,45970,1,0,0:0:0:0:
182,192,45970,1,0,0:0:0:0:
329,192,46104,1,0,0:0:0:0:
475,192,46104,1,0,0:0:0:0:
329,192,46237,1,0,0:0:0:0:
475,192,46237,1,0,0:0:0:0:
329,192,46370,1,0,0:0:0:0:
475,192,46370,1,0,0:0:0:0:
36,192,46504,1,0,0:0:0:0:
182,192,46504,1,0,0:0:0:0:
182,192,46904,1,0,0:0:0:0:
36,192,46904,1,0,0:0:0:0:
329,192,47970,1,0,0:0:0:0:
182,192,47970,1,0,0:0:0:0:
256,192,48037,1,0,0:0:0:0:
329,192,48104,1,0,0:0:0:0:
182,192,48104,1,0,0:0:0:0:
329,192,48904,1,0,0:0:0:0:
402,192,48904,1,0,0:0:0:0:
329,192,49170,1,0,0:0:0:0:
402,192,49170,1,0,0:0:0:0:
329,192,49437,1,0,0:0:0:0:
402,192,49437,1,0,0:0:0:0:
109,192,49704,1,0,0:0:0:0:
182,192,49704,1,0,0:0:0:0:
182,192,51170,1,0,0:0:0:0:
329,192,51170,1,0,0:0:0:0:
256,192,51237,1,0,0:0:0:0:
182,192,51304,1,0,0:0:0:0:
329,192,51304,1,0,0:0:0:0:
182,192,52370,1,0,0:0:0:0:
36,192,52370,1,0,0:0:0:0:
329,192,52504,1,0,0:0:0:0:
475,192,52504,1,0,0:0:0:0:
329,192,52637,1,0,0:0:0:0:
475,192,52637,1,0,0:0:0:0:
329,192,52770,1,0,0:0:0:0:
475,192,52770,1,0,0:0:0:0:
36,192,52904,1,0,0:0:0:0:
182,192,52904,1,0,0:0:0:0:
36,192,53304,1,0,0:0:0:0:
182,192,53304,1,0,0:0:0:0:
182,192,54370,1,0,0:0:0:0:
329,192,54370,1,0,0:0:0:0:
256,192,54437,1,0,0:0:0:0:
182,192,54504,1,0,0:0:0:0:
329,192,54504,1,0,0:0:0:0:
329,192,55304,1,0,0:0:0:0:
475,192,55304,1,0,0:0:0:0:
182,192,55570,1,0,0:0:0:0:
36,192,55570,1,0,0:0:0:0:
329,192,55704,1,0,0:0:0:0:
109,192,55704,1,0,0:0:0:0:
475,192,55704,1,0,0:0:0:0:
182,192,55837,1,0,0:0:0:0:
329,192,55837,1,0,0:0:0:0:
256,192,55837,1,0,0:0:0:0:
182,192,55970,1,0,0:0:0:0:
402,192,55970,1,0,0:0:0:0:
36,192,55970,1,0,0:0:0:0:
36,192,56104,1,0,0:0:0:0:
182,192,56104,1,0,0:0:0:0:
329,192,56104,1,0,0:0:0:0:
475,192,56104,1,0,0:0:0:0:
109,192,56104,1,0,0:0:0:0:
402,192,56104,1,0,0:0:0:0:
256,192,56104,1,0,0:0:0:0:
329,192,56237,1,0,0:0:0:0:
475,192,56237,1,0,0:0:0:0:
109,192,56370,1,0,0:0:0:0:
256,192,56370,1,0,0:0:0:0:
402,192,56504,1,0,0:0:0:0:
475,192,56504,1,0,0:0:0:0:
256,192,56504,1,0,0:0:0:0:
329,192,56504,1,0,0:0:0:0:
36,192,56637,1,0,0:0:0:0:
182,192,56637,1,0,0:0:0:0:
402,192,56770,1,0,0:0:0:0:
256,192,56770,1,0,0:0:0:0:
329,192,56904,1,0,0:0:0:0:
182,192,56904,1,0,0:0:0:0:
402,192,56904,1,0,0:0:0:0:
36,192,56904,1,0,0:0:0:0:
109,192,57037,1,0,0:0:0:0:
256,192,57037,1,0,0:0:0:0:
329,192,57170,1,0,0:0:0:0:
182,192,57170,1,0,0:0:0:0:
402,192,57170,1,0,0:0:0:0:
36,192,57170,1,0,0:0:0:0:
256,192,57304,1,0,0:0:0:0:
36,192,57304,1,0,0:0:0:0:
109,192,57304,1,0,0:0:0:0:
329,192,57437,1,0,0:0:0:0:
475,192,57437,1,0,0:0:0:0:
182,192,57437,1,0,0:0:0:0:
402,192,57437,1,0,0:0:0:0:
109,192,57570,1,0,0:0:0:0:
256,192,57570,1,0,0:0:0:0:
329,192,57570,1,0,0:0:0:0:
36,192,57570,1,0,0:0:0:0:
402,192,57704,1,0,0:0:0:0:
475,192,57704,1,0,0:0:0:0:
182,192,57704,1,0,0:0:0:0:
329,192,57704,1,0,0:0:0:0:
109,192,57837,1,0,0:0:0:0:
256,192,57837,1,0,0:0:0:0:
402,192,57970,1,0,0:0:0:0:
475,192,57970,1,0,0:0:0:0:
182,192,57970,1,0,0:0:0:0:
329,192,57970,1,0,0:0:0:0:
36,192,58104,1,0,0:0:0:0:
109,192,58104,1,0,0:0:0:0:
256,192,58104,1,0,0:0:0:0:
329,192,58237,1,0,0:0:0:0:
109,192,58237,1,0,0:0:0:0:
402,192,58237,1,0,0:0:0:0:
182,192,58237,1,0,0:0:0:0:
402,192,58370,1,0,0:0:0:0:
475,192,58370,1,0,0:0:0:0:
182,192,58370,1,0,0:0:0:0:
256,192,58370,1,0,0:0:0:0:
109,192,58504,1,0,0:0:0:0:
329,192,58504,1,0,0:0:0:0:
36,192,58504,1,0,0:0:0:0:
256,192,58504,1,0,0:0:0:0:
182,192,58904,1,0,0:0:0:0:
329,192,58904,1,0,0:0:0:0:
36,192,58904,1,0,0:0:0:0:
109,192,58904,1,0,0:0:0:0:
256,192,59037,1,0,0:0:0:0:
109,192,59037,1,0,0:0:0:0:
402,192,59037,1,0,0:0:0:0:
182,192,59037,1,0,0:0:0:0:
329,192,59170,1,0,0:0:0:0:
182,192,59170,1,0,0:0:0:0:
475,192,59170,1,0,0:0:0:0:
256,192,59170,1,0,0:0:0:0:
256,192,59304,1,0,0:0:0:0:
402,192,59304,1,0,0:0:0:0:
109,192,59304,1,0,0:0:0:0:
329,192,59304,1,0,0:0:0:0:
182,192,59437,1,0,0:0:0:0:
36,192,59437,1,0,0:0:0:0:
329,192,59570,1,0,0:0:0:0:
475,192,59570,1,0,0:0:0:0:
256,192,59704,1,0,0:0:0:0:
402,192,59704,1,0,0:0:0:0:
109,192,59704,1,0,0:0:0:0:
475,192,59704,1,0,0:0:0:0:
36,192,59837,1,0,0:0:0:0:
182,192,59837,1,0,0:0:0:0:
109,192,59970,1,0,0:0:0:0:
329,192,59970,1,0,0:0:0:0:
329,192,60104,1,0,0:0:0:0:
182,192,60104,1,0,0:0:0:0:
402,192,60104,1,0,0:0:0:0:
475,192,60104,1,0,0:0:0:0:
109,192,60237,1,0,0:0:0:0:
36,192,60237,1,0,0:0:0:0:
182,192,60370,1,0,0:0:0:0:
402,192,60370,1,0,0:0:0:0:
329,192,60370,1,0,0:0:0:0:
475,192,60370,1,0,0:0:0:0:
36,192,60504,1,0,0:0:0:0:
109,192,60504,1,0,0:0:0:0:
256,192,60504,1,0,0:0:0:0:
402,192,60637,1,0,0:0:0:0:
475,192,60637,1,0,0:0:0:0:
329,192,60637,1,0,0:0:0:0:
182,192,60637,1,0,0:0:0:0:
109,192,60770,1,0,0:0:0:0:
36,192,60770,1,0,0:0:0:0:
182,192,60770,1,0,0:0:0:0:
329,192,60770,1,0,0:0:0:0:
182,192,60904,1,0,0:0:0:0:
475,192,60904,1,0,0:0:0:0:
329,192,60904,1,0,0:0:0:0:
402,192,60904,1,0,0:0:0:0:
256,192,61037,1,0,0:0:0:0:
109,192,61037,1,0,0:0:0:0:
329,192,61170,1,0,0:0:0:0:
182,192,61170,1,0,0:0:0:0:
475,192,61170,1,0,0:0:0:0:
402,192,61170,1,0,0:0:0:0:
109,192,61304,1,0,0:0:0:0:
36,192,61304,1,0,0:0:0:0:
256,192,61304,1,0,0:0:0:0:
475,192,61437,1,0,0:0:0:0:
256,192,61437,1,0,0:0:0:0:
402,192,61437,1,0,0:0:0:0:
182,192,61437,1,0,0:0:0:0:
402,192,61570,1,0,0:0:0:0:
109,192,61570,1,0,0:0:0:0:
182,192,61570,1,0,0:0:0:0:
329,192,61570,1,0,0:0:0:0:
329,192,61704,1,0,0:0:0:0:
36,192,61704,1,0,0:0:0:0:
109,192,61704,1,0,0:0:0:0:
256,192,61704,1,0,0:0:0:0:
36,192,62104,1,0,0:0:0:0:
256,192,62104,1,0,0:0:0:0:
182,192,62104,1,0,0:0:0:0:
402,192,62104,1,0,0:0:0:0:
109,192,62237,1,0,0:0:0:0:
329,192,62237,1,0,0:0:0:0:
256,192,62237,1,0,0:0:0:0:
475,192,62237,1,0,0:0:0:0:
182,192,62370,1,0,0:0:0:0:
402,192,62370,1,0,0:0:0:0:
329,192,62370,1,0,0:0:0:0:
36,192,62370,1,0,0:0:0:0:
256,192,62504,1,0,0:0:0:0:
475,192,62504,1,0,0:0:0:0:
109,192,62504,1,0,0:0:0:0:
402,192,62504,1,0,0:0:0:0:
36,192,62504,1,0,0:0:0:0:
182,192,62637,1,0,0:0:0:0:
329,192,62637,1,0,0:0:0:0:
256,192,62770,1,0,0:0:0:0:
402,192,62770,1,0,0:0:0:0:
109,192,62904,1,0,0:0:0:0:
36,192,62904,1,0,0:0:0:0:
329,192,62904,1,0,0:0:0:0:
182,192,62904,1,0,0:0:0:0:
475,192,62904,1,0,0:0:0:0:
402,192,63037,1,0,0:0:0:0:
256,192,63037,1,0,0:0:0:0:
182,192,63170,1,0,0:0:0:0:
329,192,63170,1,0,0:0:0:0:
36,192,63304,1,0,0:0:0:0:
475,192,63304,1,0,0:0:0:0:
109,192,63304,1,0,0:0:0:0:
256,192,63304,1,0,0:0:0:0:
402,192,63304,1,0,0:0:0:0:
182,192,63437,1,0,0:0:0:0:
329,192,63437,1,0,0:0:0:0:
256,192,63570,1,0,0:0:0:0:
402,192,63570,1,0,0:0:0:0:
36,192,63570,1,0,0:0:0:0:
109,192,63570,1,0,0:0:0:0:
475,192,63570,1,0,0:0:0:0:
329,192,63704,1,0,0:0:0:0:
182,192,63704,1,0,0:0:0:0:
402,192,63837,1,0,0:0:0:0:
256,192,63837,1,0,0:0:0:0:
475,192,63837,1,0,0:0:0:0:
36,192,63837,1,0,0:0:0:0:
109,192,63837,1,0,0:0:0:0:
182,192,63970,1,0,0:0:0:0:
329,192,63970,1,0,0:0:0:0:
256,192,63970,1,0,0:0:0:0:
36,192,63970,1,0,0:0:0:0:
475,192,63970,1,0,0:0:0:0:
109,192,64104,1,0,0:0:0:0:
36,192,64104,1,0,0:0:0:0:
475,192,64104,1,0,0:0:0:0:
402,192,64104,1,0,0:0:0:0:
256,192,64104,1,0,0:0:0:0:
182,192,64237,1,0,0:0:0:0:
329,192,64237,1,0,0:0:0:0:
109,192,64370,1,0,0:0:0:0:
402,192,64370,1,0,0:0:0:0:
256,192,64370,1,0,0:0:0:0:
36,192,64370,1,0,0:0:0:0:
475,192,64370,1,0,0:0:0:0:
329,192,64504,1,0,0:0:0:0:
182,192,64504,1,0,0:0:0:0:
256,192,64637,1,0,0:0:0:0:
109,192,64637,1,0,0:0:0:0:
36,192,64637,1,0,0:0:0:0:
402,192,64637,1,0,0:0:0:0:
475,192,64637,1,0,0:0:0:0:
182,192,64770,1,0,0:0:0:0:
329,192,64770,1,0,0:0:0:0:
402,192,64770,1,0,0:0:0:0:
109,192,64770,1,0,0:0:0:0:
256,192,64770,1,0,0:0:0:0:
36,192,64904,1,0,0:0:0:0:
475,192,64904,1,0,0:0:0:0:
402,192,64904,1,0,0:0:0:0:
109,192,64904,1,0,0:0:0:0:
256,192,64904,1,0,0:0:0:0:
182,192,65037,1,0,0:0:0:0:
329,192,65037,1,0,0:0:0:0:
256,192,65170,1,0,0:0:0:0:
109,192,65170,1,0,0:0:0:0:
36,192,65170,1,0,0:0:0:0:
36,192,65304,1,0,0:0:0:0:
109,192,65304,1,0,0:0:0:0:
182,192,65304,1,0,0:0:0:0:
329,192,65304,1,0,0:0:0:0:
402,192,65304,1,0,0:0:0:0:
109,192,65437,1,0,0:0:0:0:
182,192,65437,1,0,0:0:0:0:
329,192,65437,1,0,0:0:0:0:
402,192,65437,1,0,0:0:0:0:
475,192,65437,1,0,0:0:0:0:
109,192,65570,1,0,0:0:0:0:
329,192,65570,1,0,0:0:0:0:
402,192,65570,1,0,0:0:0:0:
36,192,65570,1,0,0:0:0:0:
182,192,65570,1,0,0:0:0:0:
182,192,65704,1,0,0:0:0:0:
402,192,65704,1,0,0:0:0:0:
475,192,65704,1,0,0:0:0:0:
36,192,65704,1,0,0:0:0:0:
256,192,65704,1,0,0:0:0:0:
329,192,65704,1,0,0:0:0:0:
109,192,65704,1,0,0:0:0:0:
256,192,65837,1,0,0:0:0:0:
475,192,65837,1,0,0:0:0:0:
402,192,65837,1,0,0:0:0:0:
182,192,65837,1,0,0:0:0:0:
36,192,65970,1,0,0:0:0:0:
402,192,65970,1,0,0:0:0:0:
475,192,65970,1,0,0:0:0:0:
256,192,65970,1,0,0:0:0:0:
109,192,65970,1,0,0:0:0:0:
36,192,66104,1,0,0:0:0:0:
182,192,66104,1,0,0:0:0:0:
109,192,66104,1,0,0:0:0:0:
329,192,66104,1,0,0:0:0:0:
256,192,66104,1,0,0:0:0:0:
402,192,66104,1,0,0:0:0:0:
475,192,66104,1,0,0:0:0:0:
402,192,66237,1,0,0:0:0:0:
475,192,66237,1,0,0:0:0:0:
109,192,66237,1,0,0:0:0:0:
256,192,66237,1,0,0:0:0:0:
36,192,66237,1,0,0:0:0:0:
329,192,66370,1,0,0:0:0:0:
256,192,66370,1,0,0:0:0:0:
36,192,66370,1,0,0:0:0:0:
109,192,66370,1,0,0:0:0:0:
402,192,66370,1,0,0:0:0:0:
36,192,66504,1,0,0:0:0:0:
109,192,66504,1,0,0:0:0:0:
329,192,66504,1,0,0:0:0:0:
475,192,66504,1,0,0:0:0:0:
182,192,66504,1,0,0:0:0:0:
402,192,66504,1,0,0:0:0:0:
256,192,66504,1,0,0:0:0:0:
256,192,66637,1,0,0:0:0:0:
182,192,66637,1,0,0:0:0:0:
329,192,66637,1,0,0:0:0:0:
109,192,66770,1,0,0:0:0:0:
256,192,66770,1,0,0:0:0:0:
402,192,66770,1,0,0:0:0:0:
36,192,66904,1,0,0:0:0:0:
182,192,66904,1,0,0:0:0:0:
329,192,66904,1,0,0:0:0:0:
475,192,66904,1,0,0:0:0:0:
109,192,66904,1,0,0:0:0:0:
402,192,66904,1,0,0:0:0:0:
109,192,67291,1,0,0:0:0:0:
256,192,67291,1,0,0:0:0:0:
402,192,67291,1,0,0:0:0:0:
329,192,67491,1,0,0:0:0:0:
402,192,67491,1,0,0:0:0:0:
182,192,67591,1,0,0:0:0:0:
109,192,67591,1,0,0:0:0:0:
475,192,67691,1,0,0:0:0:0:
402,192,67691,1,0,0:0:0:0:
36,192,67824,1,0,0:0:0:0:
109,192,67824,1,0,0:0:0:0:
182,192,67957,1,0,0:0:0:0:
329,192,67957,1,0,0:0:0:0:
36,192,68091,1,0,0:0:0:0:
109,192,68091,1,0,0:0:0:0:
402,192,68091,1,0,0:0:0:0:
475,192,68091,1,0,0:0:0:0:
36,192,68491,1,0,0:0:0:0:
109,192,68491,1,0,0:0:0:0:
182,192,68491,1,0,0:0:0:0:
256,192,68491,1,0,0:0:0:0:
329,192,68491,1,0,0:0:0:0:
109,192,68624,1,0,0:0:0:0:
182,192,68624,1,0,0:0:0:0:
256,192,68624,1,0,0:0:0:0:
329,192,68624,1,0,0:0:0:0:
402,192,68624,1,0,0:0:0:0:
182,192,68757,1,0,0:0:0:0:
256,192,68757,1,0,0:0:0:0:
329,192,68757,1,0,0:0:0:0:
402,192,68757,1,0,0:0:0:0:
475,192,68757,1,0,0:0:0:0:
36,192,68891,1,0,0:0:0:0:
109,192,68891,1,0,0:0:0:0:
182,192,68891,1,0,0:0:0:0:
329,192,68891,1,0,0:0:0:0:
402,192,68891,1,0,0:0:0:0:
475,192,68891,1,0,0:0:0:0:
256,192,68891,1,0,0:0:0:0:
36,192,69291,1,0,0:0:0:0:
256,192,69291,1,0,0:0:0:0:
329,192,69291,1,0,0:0:0:0:
475,192,69291,1,0,0:0:0:0:
182,192,69291,1,0,0:0:0:0:
109,192,69691,1,0,0:0:0:0:
36,192,69691,1,0,0:0:0:0:
256,192,69691,1,0,0:0:0:0:
329,192,69691,1,0,0:0:0:0:
402,192,69691,1,0,0:0:0:0:
475,192,69691,1,0,0:0:0:0:
182,192,69691,1,0,0:0:0:0:
36,192,69957,1,0,0:0:0:0:
109,192,69957,1,0,0:0:0:0:
256,192,69957,1,0,0:0:0:0:
329,192,69957,1,0,0:0:0:0:
402,192,69957,1,0,0:0:0:0:
182,192,70224,1,0,0:0:0:0:
329,192,70224,1,0,0:0:0:0:
402,192,70224,1,0,0:0:0:0:
475,192,70224,1,0,0:0:0:0:
109,192,70224,1,0,0:0:0:0:
36,192,70357,1,0,0:0:0:0:
109,192,70357,1,0,0:0:0:0:
256,192,70357,1,0,0:0:0:0:
402,192,70357,1,0,0:0:0:0:
329,192,70357,1,0,0:0:0:0:
109,192,70491,1,0,0:0:0:0:
182,192,70491,1,0,0:0:0:0:
329,192,70491,1,0,0:0:0:0:
402,192,70491,1,0,0:0:0:0:
475,192,70491,1,0,0:0:0:0:
36,192,70491,1,0,0:0:0:0:
256,192,70491,1,0,0:0:0:0:
109,192,70757,1,0,0:0:0:0:
182,192,70757,1,0,0:0:0:0:
329,192,70757,1,0,0:0:0:0:
402,192,70757,1,0,0:0:0:0:
475,192,70757,1,0,0:0:0:0:
36,192,71024,1,0,0:0:0:0:
109,192,71024,1,0,0:0:0:0:
256,192,71024,1,0,0:0:0:0:
329,192,71024,1,0,0:0:0:0:
402,192,71024,1,0,0:0:0:0:
182,192,71157,1,0,0:0:0:0:
109,192,71157,1,0,0:0:0:0:
329,192,71157,1,0,0:0:0:0:
402,192,71157,1,0,0:0:0:0:
475,192,71157,1,0,0:0:0:0:
36,192,71291,1,0,0:0:0:0:
109,192,71291,1,0,0:0:0:0:
182,192,71291,1,0,0:0:0:0:
256,192,71291,1,0,0:0:0:0:
329,192,71291,1,0,0:0:0:0:
402,192,71291,1,0,0:0:0:0:
475,192,71291,1,0,0:0:0:0:
36,192,71691,1,0,0:0:0:0:
109,192,71691,1,0,0:0:0:0:
256,192,71691,1,0,0:0:0:0:
329,192,71691,1,0,0:0:0:0:
402,192,71691,1,0,0:0:0:0:
109,192,71824,1,0,0:0:0:0:
182,192,71824,1,0,0:0:0:0:
329,192,71824,1,0,0:0:0:0:
402,192,71824,1,0,0:0:0:0:
475,192,71824,1,0,0:0:0:0:
182,192,71957,1,0,0:0:0:0:
256,192,71957,1,0,0:0:0:0:
475,192,71957,1,0,0:0:0:0:
402,192,71957,1,0,0:0:0:0:
36,192,71957,1,0,0:0:0:0:
36,192,72091,1,0,0:0:0:0:
109,192,72091,1,0,0:0:0:0:
329,192,72091,1,0,0:0:0:0:
402,192,72091,1,0,0:0:0:0:
475,192,72091,1,0,0:0:0:0:
182,192,72091,1,0,0:0:0:0:
256,192,72091,1,0,0:0:0:0:
36,192,72491,1,0,0:0:0:0:
109,192,72491,1,0,0:0:0:0:
182,192,72491,1,0,0:0:0:0:
329,192,72491,1,0,0:0:0:0:
402,192,72491,1,0,0:0:0:0:
109,192,72891,1,0,0:0:0:0:
182,192,72891,1,0,0:0:0:0:
256,192,72891,1,0,0:0:0:0:
329,192,72891,1,0,0:0:0:0:
402,192,72891,1,0,0:0:0:0:
475,192,72891,1,0,0:0:0:0:
36,192,72891,1,0,0:0:0:0:
109,192,73157,1,0,0:0:0:0:
402,192,73157,1,0,0:0:0:0:
256,192,73157,1,0,0:0:0:0:
329,192,73157,1,0,0:0:0:0:
182,192,73157,1,0,0:0:0:0:
182,192,73424,1,0,0:0:0:0:
329,192,73424,1,0,0:0:0:0:
402,192,73424,1,0,0:0:0:0:
109,192,73424,1,0,0:0:0:0:
475,192,73424,1,0,0:0:0:0:
36,192,73557,1,0,0:0:0:0:
109,192,73557,1,0,0:0:0:0:
256,192,73557,1,0,0:0:0:0:
329,192,73557,1,0,0:0:0:0:
402,192,73557,1,0,0:0:0:0:
109,192,73691,1,0,0:0:0:0:
182,192,73691,1,0,0:0:0:0:
329,192,73691,1,0,0:0:0:0:
402,192,73691,1,0,0:0:0:0:
475,192,73691,1,0,0:0:0:0:
36,192,73691,1,0,0:0:0:0:
256,192,73691,1,0,0:0:0:0:
109,192,73957,1,0,0:0:0:0:
182,192,73957,1,0,0:0:0:0:
329,192,73957,1,0,0:0:0:0:
402,192,73957,1,0,0:0:0:0:
475,192,73957,1,0,0:0:0:0:
182,192,74224,1,0,0:0:0:0:
256,192,74224,1,0,0:0:0:0:
329,192,74224,1,0,0:0:0:0:
402,192,74224,1,0,0:0:0:0:
475,192,74224,1,0,0:0:0:0:
109,192,74357,1,0,0:0:0:0:
182,192,74357,1,0,0:0:0:0:
329,192,74357,1,0,0:0:0:0:
402,192,74357,1,0,0:0:0:0:
256,192,74357,1,0,0:0:0:0:
36,192,74491,1,0,0:0:0:0:
109,192,74491,1,0,0:0:0:0:
182,192,74491,1,0,0:0:0:0:
256,192,74491,1,0,0:0:0:0:
329,192,74491,1,0,0:0:0:0:
402,192,74491,1,0,0:0:0:0:
475,192,74491,1,0,0:0:0:0:
36,192,74891,1,0,0:0:0:0:
182,192,74891,1,0,0:0:0:0:
256,192,74891,1,0,0:0:0:0:
329,192,74891,1,0,0:0:0:0:
402,192,74891,1,0,0:0:0:0:
109,192,75024,1,0,0:0:0:0:
256,192,75024,1,0,0:0:0:0:
329,192,75024,1,0,0:0:0:0:
402,192,75024,1,0,0:0:0:0:
475,192,75024,1,0,0:0:0:0:
182,192,75157,1,0,0:0:0:0:
36,192,75157,1,0,0:0:0:0:
402,192,75157,1,0,0:0:0:0:
329,192,75157,1,0,0:0:0:0:
475,192,75157,1,0,0:0:0:0:
36,192,75291,1,0,0:0:0:0:
109,192,75291,1,0,0:0:0:0:
182,192,75291,1,0,0:0:0:0:
329,192,75291,1,0,0:0:0:0:
402,192,75291,1,0,0:0:0:0:
475,192,75291,1,0,0:0:0:0:
256,192,75291,1,0,0:0:0:0:
36,192,75691,1,0,0:0:0:0:
109,192,75691,1,0,0:0:0:0:
256,192,75691,1,0,0:0:0:0:
329,192,75691,1,0,0:0:0:0:
475,192,75691,1,0,0:0:0:0:
36,192,76091,1,0,0:0:0:0:
109,192,76091,1,0,0:0:0:0:
256,192,76091,1,0,0:0:0:0:
402,192,76091,1,0,0:0:0:0:
182,192,76091,1,0,0:0:0:0:
329,192,76091,1,0,0:0:0:0:
475,192,76091,1,0,0:0:0:0:
256,192,76357,1,0,0:0:0:0:
109,192,76357,1,0,0:0:0:0:
402,192,76357,1,0,0:0:0:0:
475,192,76357,1,0,0:0:0:0:
36,192,76357,1,0,0:0:0:0:
109,192,76624,1,0,0:0:0:0:
329,192,76624,1,0,0:0:0:0:
402,192,76624,1,0,0:0:0:0:
475,192,76624,1,0,0:0:0:0:
256,192,76624,1,0,0:0:0:0:
36,192,76757,1,0,0:0:0:0:
109,192,76757,1,0,0:0:0:0:
182,192,76757,1,0,0:0:0:0:
256,192,76757,1,0,0:0:0:0:
402,192,76757,1,0,0:0:0:0:
36,192,76891,1,0,0:0:0:0:
109,192,76891,1,0,0:0:0:0:
182,192,76891,1,0,0:0:0:0:
329,192,76891,1,0,0:0:0:0:
402,192,76891,1,0,0:0:0:0:
256,192,76891,1,0,0:0:0:0:
475,192,76891,1,0,0:0:0:0:
36,192,77157,1,0,0:0:0:0:
109,192,77157,1,0,0:0:0:0:
182,192,77157,1,0,0:0:0:0:
256,192,77157,1,0,0:0:0:0:
402,192,77157,1,0,0:0:0:0:
109,192,77424,1,0,0:0:0:0:
182,192,77424,1,0,0:0:0:0:
329,192,77424,1,0,0:0:0:0:
402,192,77424,1,0,0:0:0:0:
475,192,77424,1,0,0:0:0:0:
182,192,77557,1,0,0:0:0:0:
256,192,77557,1,0,0:0:0:0:
329,192,77557,1,0,0:0:0:0:
402,192,77557,1,0,0:0:0:0:
475,192,77557,1,0,0:0:0:0:
36,192,77691,1,0,0:0:0:0:
109,192,77691,1,0,0:0:0:0:
182,192,77691,1,0,0:0:0:0:
256,192,77691,1,0,0:0:0:0:
329,192,77691,1,0,0:0:0:0:
402,192,77691,1,0,0:0:0:0:
475,192,77691,1,0,0:0:0:0:
36,192,78091,1,0,0:0:0:0:
109,192,78091,1,0,0:0:0:0:
329,192,78091,1,0,0:0:0:0:
402,192,78091,1,0,0:0:0:0:
256,192,78091,1,0,0:0:0:0:
109,192,78224,1,0,0:0:0:0:
182,192,78224,1,0,0:0:0:0:
329,192,78224,1,0,0:0:0:0:
402,192,78224,1,0,0:0:0:0:
475,192,78224,1,0,0:0:0:0:
256,192,78357,1,0,0:0:0:0:
329,192,78357,1,0,0:0:0:0:
475,192,78357,1,0,0:0:0:0:
36,192,78357,1,0,0:0:0:0:
182,192,78357,1,0,0:0:0:0:
36,192,78491,1,0,0:0:0:0:
109,192,78491,1,0,0:0:0:0:
256,192,78491,1,0,0:0:0:0:
329,192,78491,1,0,0:0:0:0:
182,192,78491,1,0,0:0:0:0:
402,192,78491,1,0,0:0:0:0:
475,192,78491,1,0,0:0:0:0:
109,192,78757,1,0,0:0:0:0:
256,192,78757,1,0,0:0:0:0:
402,192,78757,1,0,0:0:0:0:
475,192,78757,1,0,0:0:0:0:
329,192,78757,1,0,0:0:0:0:
36,192,79024,1,0,0:0:0:0:
109,192,79024,1,0,0:0:0:0:
182,192,79024,1,0,0:0:0:0:
402,192,79024,1,0,0:0:0:0:
256,192,79024,1,0,0:0:0:0:
109,192,79157,1,0,0:0:0:0:
182,192,79157,1,0,0:0:0:0:
329,192,79157,1,0,0:0:0:0:
402,192,79157,1,0,0:0:0:0:
475,192,79157,1,0,0:0:0:0:
36,192,79291,1,0,0:0:0:0:
109,192,79291,1,0,0:0:0:0:
182,192,79291,1,0,0:0:0:0:
256,192,79291,1,0,0:0:0:0:
402,192,79291,1,0,0:0:0:0:
475,192,79291,1,0,0:0:0:0:
329,192,79291,1,0,0:0:0:0:
36,192,79691,1,0,0:0:0:0:
109,192,79691,1,0,0:0:0:0:
256,192,79691,1,0,0:0:0:0:
402,192,79691,1,0,0:0:0:0:
475,192,79691,1,0,0:0:0:0:
109,192,79824,1,0,0:0:0:0:
182,192,79824,1,0,0:0:0:0:
329,192,79824,1,0,0:0:0:0:
475,192,79824,1,0,0:0:0:0:
36,192,79824,1,0,0:0:0:0:
402,192,79957,1,0,0:0:0:0:
475,192,79957,1,0,0:0:0:0:
329,192,79957,1,0,0:0:0:0:
182,192,79957,1,0,0:0:0:0:
36,192,79957,1,0,0:0:0:0:
36,192,80091,1,0,0:0:0:0:
182,192,80091,1,0,0:0:0:0:
256,192,80091,1,0,0:0:0:0:
109,192,80091,1,0,0:0:0:0:
329,192,80091,1,0,0:0:0:0:
402,192,80091,1,0,0:0:0:0:
475,192,80091,1,0,0:0:0:0:
109,192,80357,5,0,0:0:0:0:
36,192,80357,1,0,0:0:0:0:
182,192,80357,1,0,0:0:0:0:
329,192,80357,1,0,0:0:0:0:
402,192,80357,1,0,0:0:0:0:
475,192,80357,1,0,0:0:0:0:
109,192,80624,1,0,0:0:0:0:
182,192,80624,1,0,0:0:0:0:
256,192,80624,1,0,0:0:0:0:
329,192,80624,1,0,0:0:0:0:
402,192,80624,1,0,0:0:0:0:
475,192,80624,1,0,0:0:0:0:
36,192,80757,1,0,0:0:0:0:
109,192,80757,1,0,0:0:0:0:
256,192,80757,1,0,0:0:0:0:
402,192,80757,1,0,0:0:0:0:
329,192,80757,1,0,0:0:0:0:
182,192,80757,1,0,0:0:0:0:
109,192,80891,1,0,0:0:0:0:
182,192,80891,1,0,0:0:0:0:
256,192,80891,1,0,0:0:0:0:
329,192,80891,1,0,0:0:0:0:
402,192,80891,1,0,0:0:0:0:
475,192,80891,1,0,0:0:0:0:
36,192,80891,1,0,0:0:0:0:
182,192,81291,5,0,0:0:0:0:
36,192,81291,1,0,0:0:0:0:
109,192,81291,1,0,0:0:0:0:
256,192,81291,1,0,0:0:0:0:
329,192,81291,1,0,0:0:0:0:
109,192,81424,1,0,0:0:0:0:
182,192,81424,1,0,0:0:0:0:
329,192,81424,1,0,0:0:0:0:
256,192,81424,1,0,0:0:0:0:
402,192,81424,1,0,0:0:0:0:
182,192,81557,1,0,0:0:0:0:
329,192,81557,1,0,0:0:0:0:
256,192,81557,1,0,0:0:0:0:
402,192,81557,1,0,0:0:0:0:
475,192,81557,1,0,0:0:0:0:
475,192,81691,1,0,0:0:0:0:
36,192,81691,1,0,0:0:0:0:
109,192,81691,1,0,0:0:0:0:
402,192,81691,1,0,0:0:0:0:
329,192,81691,1,0,0:0:0:0:
182,192,81691,1,0,0:0:0:0:
256,192,81691,1,0,0:0:0:0:
36,192,81824,1,0,0:0:0:0:
109,192,81824,1,0,0:0:0:0:
256,192,81824,1,0,0:0:0:0:
475,192,81957,1,0,0:0:0:0:
329,192,81957,1,0,0:0:0:0:
182,192,81957,1,0,0:0:0:0:
182,192,82091,1,0,0:0:0:0:
329,192,82091,1,0,0:0:0:0:
475,192,82091,1,0,0:0:0:0:
402,192,82091,1,0,0:0:0:0:
256,192,82091,1,0,0:0:0:0:
36,192,82091,1,0,0:0:0:0:
109,192,82091,1,0,0:0:0:0:
109,192,82224,1,0,0:0:0:0:
256,192,82224,1,0,0:0:0:0:
402,192,82224,1,0,0:0:0:0:
182,192,82357,1,0,0:0:0:0:
36,192,82357,1,0,0:0:0:0:
329,192,82357,1,0,0:0:0:0:
36,192,82491,1,0,0:0:0:0:
109,192,82491,1,0,0:0:0:0:
256,192,82491,1,0,0:0:0:0:
475,192,82491,1,0,0:0:0:0:
182,192,82491,1,0,0:0:0:0:
402,192,82491,1,0,0:0:0:0:
329,192,82491,1,0,0:0:0:0:
256,192,82624,1,0,0:0:0:0:
402,192,82624,1,0,0:0:0:0:
475,192,82624,1,0,0:0:0:0:
36,192,82757,1,0,0:0:0:0:
109,192,82757,1,0,0:0:0:0:
182,192,82757,1,0,0:0:0:0:
329,192,82757,1,0,0:0:0:0:
36,192,82891,1,0,0:0:0:0:
182,192,82891,1,0,0:0:0:0:
402,192,82891,1,0,0:0:0:0:
475,192,82891,1,0,0:0:0:0:
109,192,82891,1,0,0:0:0:0:
256,192,82891,1,0,0:0:0:0:
329,192,82891,1,0,0:0:0:0:
329,192,83024,1,0,0:0:0:0:
256,192,83024,1,0,0:0:0:0:
475,192,83024,1,0,0:0:0:0:
402,192,83024,1,0,0:0:0:0:
36,192,83157,1,0,0:0:0:0:
182,192,83157,1,0,0:0:0:0:
109,192,83157,1,0,0:0:0:0:
256,192,83157,1,0,0:0:0:0:
402,192,83291,1,0,0:0:0:0:
475,192,83291,1,0,0:0:0:0:
182,192,83291,1,0,0:0:0:0:
256,192,83291,1,0,0:0:0:0:
329,192,83291,1,0,0:0:0:0:
109,192,83291,1,0,0:0:0:0:
36,192,83291,1,0,0:0:0:0:
475,192,83424,1,0,0:0:0:0:
182,192,83424,1,0,0:0:0:0:
402,192,83424,1,0,0:0:0:0:
36,192,83557,1,0,0:0:0:0:
256,192,83557,1,0,0:0:0:0:
109,192,83557,1,0,0:0:0:0:
329,192,83557,1,0,0:0:0:0:
36,192,83691,1,0,0:0:0:0:
109,192,83691,1,0,0:0:0:0:
256,192,83691,1,0,0:0:0:0:
329,192,83691,1,0,0:0:0:0:
475,192,83691,1,0,0:0:0:0:
182,192,83691,1,0,0:0:0:0:
402,192,83691,1,0,0:0:0:0:
402,192,83824,1,0,0:0:0:0:
329,192,83824,1,0,0:0:0:0:
109,192,83824,1,0,0:0:0:0:
182,192,83824,1,0,0:0:0:0:
475,192,83957,1,0,0:0:0:0:
402,192,83957,1,0,0:0:0:0:
182,192,83957,1,0,0:0:0:0:
256,192,83957,1,0,0:0:0:0:
109,192,84091,1,0,0:0:0:0:
256,192,84091,1,0,0:0:0:0:
329,192,84091,1,0,0:0:0:0:
182,192,84091,1,0,0:0:0:0:
36,192,84091,1,0,0:0:0:0:
402,192,84091,1,0,0:0:0:0:
475,192,84091,1,0,0:0:0:0:
36,192,84224,1,0,0:0:0:0:
109,192,84224,1,0,0:0:0:0:
329,192,84224,1,0,0:0:0:0:
402,192,84357,1,0,0:0:0:0:
475,192,84357,1,0,0:0:0:0:
182,192,84357,1,0,0:0:0:0:
182,192,84491,1,0,0:0:0:0:
402,192,84491,1,0,0:0:0:0:
475,192,84491,1,0,0:0:0:0:
109,192,84491,1,0,0:0:0:0:
36,192,84491,1,0,0:0:0:0:
256,192,84491,1,0,0:0:0:0:
329,192,84491,1,0,0:0:0:0:
256,192,84624,1,0,0:0:0:0:
36,192,84624,1,0,0:0:0:0:
109,192,84624,1,0,0:0:0:0:
329,192,84624,1,0,0:0:0:0:
329,192,84757,1,0,0:0:0:0:
182,192,84757,1,0,0:0:0:0:
109,192,84757,1,0,0:0:0:0:
402,192,84757,1,0,0:0:0:0:
36,192,84891,1,0,0:0:0:0:
109,192,84891,1,0,0:0:0:0:
329,192,84891,1,0,0:0:0:0:
182,192,84891,1,0,0:0:0:0:
402,192,84891,1,0,0:0:0:0:
475,192,84891,1,0,0:0:0:0:
256,192,84891,1,0,0:0:0:0:
256,192,85024,1,0,0:0:0:0:
36,192,85024,1,0,0:0:0:0:
475,192,85024,1,0,0:0:0:0:
402,192,85157,1,0,0:0:0:0:
109,192,85157,1,0,0:0:0:0:
329,192,85157,1,0,0:0:0:0:
109,192,85291,1,0,0:0:0:0:
36,192,85291,1,0,0:0:0:0:
182,192,85291,1,0,0:0:0:0:
329,192,85291,1,0,0:0:0:0:
256,192,85291,1,0,0:0:0:0:
402,192,85291,1,0,0:0:0:0:
475,192,85291,1,0,0:0:0:0:
256,192,85424,1,0,0:0:0:0:
36,192,85424,1,0,0:0:0:0:
475,192,85424,1,0,0:0:0:0:
109,192,85557,1,0,0:0:0:0:
182,192,85557,1,0,0:0:0:0:
402,192,85557,1,0,0:0:0:0:
256,192,85691,1,0,0:0:0:0:
475,192,85691,1,0,0:0:0:0:
329,192,85691,1,0,0:0:0:0:
402,192,85691,1,0,0:0:0:0:
182,192,85691,1,0,0:0:0:0:
36,192,85691,1,0,0:0:0:0:
109,192,85691,1,0,0:0:0:0:
329,192,85824,1,0,0:0:0:0:
182,192,85824,1,0,0:0:0:0:
475,192,85824,1,0,0:0:0:0:
256,192,85957,1,0,0:0:0:0:
109,192,85957,1,0,0:0:0:0:
402,192,85957,1,0,0:0:0:0:
36,192,85957,1,0,0:0:0:0:
402,192,86091,1,0,0:0:0:0:
329,192,86091,1,0,0:0:0:0:
36,192,86091,1,0,0:0:0:0:
109,192,86091,1,0,0:0:0:0:
182,192,86091,1,0,0:0:0:0:
475,192,86091,1,0,0:0:0:0:
256,192,86091,1,0,0:0:0:0:
256,192,86224,1,0,0:0:0:0:
109,192,86224,1,0,0:0:0:0:
402,192,86224,1,0,0:0:0:0:
475,192,86224,1,0,0:0:0:0:
329,192,86357,1,0,0:0:0:0:
36,192,86357,1,0,0:0:0:0:
182,192,86357,1,0,0:0:0:0:
402,192,86357,1,0,0:0:0:0:
109,192,86491,1,0,0:0:0:0:
182,192,86491,1,0,0:0:0:0:
402,192,86491,1,0,0:0:0:0:
475,192,86491,1,0,0:0:0:0:
256,192,86491,1,0,0:0:0:0:
36,192,86491,1,0,0:0:0:0:
329,192,86491,1,0,0:0:0:0:
329,192,86624,1,0,0:0:0:0:
109,192,86624,1,0,0:0:0:0:
475,192,86624,1,0,0:0:0:0:
256,192,86757,1,0,0:0:0:0:
402,192,86757,1,0,0:0:0:0:
36,192,86757,1,0,0:0:0:0:
182,192,86757,1,0,0:0:0:0:
329,192,86891,1,0,0:0:0:0:
109,192,86891,1,0,0:0:0:0:
182,192,86891,1,0,0:0:0:0:
475,192,86891,1,0,0:0:0:0:
402,192,86891,1,0,0:0:0:0:
256,192,86891,1,0,0:0:0:0:
36,192,86891,1,0,0:0:0:0:
329,192,87024,1,0,0:0:0:0:
475,192,87024,1,0,0:0:0:0:
402,192,87024,1,0,0:0:0:0:
256,192,87024,1,0,0:0:0:0:
109,192,87157,1,0,0:0:0:0:
256,192,87157,1,0,0:0:0:0:
36,192,87157,1,0,0:0:0:0:
182,192,87157,1,0,0:0:0:0:
475,192,87291,1,0,0:0:0:0:
329,192,87291,1,0,0:0:0:0:
182,192,87291,1,0,0:0:0:0:
109,192,87291,1,0,0:0:0:0:
402,192,87291,1,0,0:0:0:0:
256,192,87291,1,0,0:0:0:0:
36,192,87291,1,0,0:0:0:0:
475,192,87691,1,0,0:0:0:0:
109,192,87691,1,0,0:0:0:0:
36,192,87691,1,0,0:0:0:0:
402,192,87691,1,0,0:0:0:0:
256,192,87691,1,0,0:0:0:0:
109,192,87824,1,0,0:0:0:0:
182,192,87824,1,0,0:0:0:0:
329,192,87824,1,0,0:0:0:0:
402,192,87824,1,0,0:0:0:0:
256,192,87824,1,0,0:0:0:0:
256,192,87957,1,0,0:0:0:0:
36,192,87957,1,0,0:0:0:0:
475,192,87957,1,0,0:0:0:0:
109,192,87957,1,0,0:0:0:0:
402,192,87957,1,0,0:0:0:0:
109,192,88091,1,0,0:0:0:0:
475,192,88091,1,0,0:0:0:0:
36,192,88091,1,0,0:0:0:0:
402,192,88091,1,0,0:0:0:0:
182,192,88091,1,0,0:0:0:0:
329,192,88091,1,0,0:0:0:0:
256,192,88091,1,0,0:0:0:0:
182,192,88224,1,0,0:0:0:0:
329,192,88224,1,0,0:0:0:0:
475,192,88224,1,0,0:0:0:0:
109,192,88357,1,0,0:0:0:0:
256,192,88357,1,0,0:0:0:0:
402,192,88357,1,0,0:0:0:0:
182,192,88491,1,0,0:0:0:0:
475,192,88491,1,0,0:0:0:0:
256,192,88491,1,0,0:0:0:0:
109,192,88491,1,0,0:0:0:0:
329,192,88491,1,0,0:0:0:0:
36,192,88491,1,0,0:0:0:0:
402,192,88491,1,0,0:0:0:0:
36,192,88624,1,0,0:0:0:0:
182,192,88624,1,0,0:0:0:0:
329,192,88624,1,0,0:0:0:0:
402,192,88757,1,0,0:0:0:0:
109,192,88757,1,0,0:0:0:0:
256,192,88757,1,0,0:0:0:0:
36,192,88891,1,0,0:0:0:0:
109,192,88891,1,0,0:0:0:0:
402,192,88891,1,0,0:0:0:0:
329,192,88891,1,0,0:0:0:0:
256,192,88891,1,0,0:0:0:0:
182,192,88891,1,0,0:0:0:0:
475,192,88891,1,0,0:0:0:0:
475,192,89024,1,0,0:0:0:0:
402,192,89024,1,0,0:0:0:0:
256,192,89024,1,0,0:0:0:0:
36,192,89157,1,0,0:0:0:0:
109,192,89157,1,0,0:0:0:0:
182,192,89157,1,0,0:0:0:0:
329,192,89157,1,0,0:0:0:0:
109,192,89291,1,0,0:0:0:0:
329,192,89291,1,0,0:0:0:0:
402,192,89291,1,0,0:0:0:0:
182,192,89291,1,0,0:0:0:0:
36,192,89291,1,0,0:0:0:0:
256,192,89291,1,0,0:0:0:0:
475,192,89291,1,0,0:0:0:0:
182,192,89424,1,0,0:0:0:0:
402,192,89424,1,0,0:0:0:0:
475,192,89424,1,0,0:0:0:0:
329,192,89424,1,0,0:0:0:0:
109,192,89557,1,0,0:0:0:0:
36,192,89557,1,0,0:0:0:0:
182,192,89557,1,0,0:0:0:0:
329,192,89557,1,0,0:0:0:0:
109,192,89691,1,0,0:0:0:0:
475,192,89691,1,0,0:0:0:0:
402,192,89691,1,0,0:0:0:0:
329,192,89691,1,0,0:0:0:0:
182,192,89691,1,0,0:0:0:0:
36,192,89691,1,0,0:0:0:0:
256,192,89691,1,0,0:0:0:0:
256,192,89824,1,0,0:0:0:0:
402,192,89824,1,0,0:0:0:0:
475,192,89824,1,0,0:0:0:0:
36,192,89957,1,0,0:0:0:0:
109,192,89957,1,0,0:0:0:0:
329,192,89957,1,0,0:0:0:0:
182,192,89957,1,0,0:0:0:0:
182,192,90091,1,0,0:0:0:0:
402,192,90091,1,0,0:0:0:0:
475,192,90091,1,0,0:0:0:0:
256,192,90091,1,0,0:0:0:0:
36,192,90091,1,0,0:0:0:0:
109,192,90091,1,0,0:0:0:0:
329,192,90091,1,0,0:0:0:0:
109,192,90224,1,0,0:0:0:0:
402,192,90224,1,0,0:0:0:0:
182,192,90224,1,0,0:0:0:0:
329,192,90224,1,0,0:0:0:0:
475,192,90357,1,0,0:0:0:0:
182,192,90357,1,0,0:0:0:0:
402,192,90357,1,0,0:0:0:0:
256,192,90357,1,0,0:0:0:0:
36,192,90491,1,0,0:0:0:0:
109,192,90491,1,0,0:0:0:0:
182,192,90491,1,0,0:0:0:0:
256,192,90491,1,0,0:0:0:0:
402,192,90491,1,0,0:0:0:0:
329,192,90491,1,0,0:0:0:0:
475,192,90491,1,0,0:0:0:0:
36,192,90624,1,0,0:0:0:0:
109,192,90624,1,0,0:0:0:0:
329,192,90624,1,0,0:0:0:0:
182,192,90757,1,0,0:0:0:0:
402,192,90757,1,0,0:0:0:0:
475,192,90757,1,0,0:0:0:0:
36,192,90891,1,0,0:0:0:0:
109,192,90891,1,0,0:0:0:0:
256,192,90891,1,0,0:0:0:0:
402,192,90891,1,0,0:0:0:0:
475,192,90891,1,0,0:0:0:0:
182,192,90891,1,0,0:0:0:0:
329,192,90891,1,0,0:0:0:0:
109,192,91024,1,0,0:0:0:0:
329,192,91024,1,0,0:0:0:0:
36,192,91024,1,0,0:0:0:0:
256,192,91024,1,0,0:0:0:0:
402,192,91157,1,0,0:0:0:0:
475,192,91157,1,0,0:0:0:0:
182,192,91157,1,0,0:0:0:0:
109,192,91157,1,0,0:0:0:0:
329,192,91157,1,0,0:0:0:0:
475,192,91291,1,0,0:0:0:0:
402,192,91291,1,0,0:0:0:0:
182,192,91291,1,0,0:0:0:0:
36,192,91291,1,0,0:0:0:0:
109,192,91291,1,0,0:0:0:0:
329,192,91291,1,0,0:0:0:0:
256,192,91291,1,0,0:0:0:0:
256,192,91424,1,0,0:0:0:0:
36,192,91424,1,0,0:0:0:0:
182,192,91424,1,0,0:0:0:0:
329,192,91557,1,0,0:0:0:0:
475,192,91557,1,0,0:0:0:0:
402,192,91557,1,0,0:0:0:0:
109,192,91557,1,0,0:0:0:0:
36,192,91691,1,0,0:0:0:0:
109,192,91691,1,0,0:0:0:0:
256,192,91691,1,0,0:0:0:0:
402,192,91691,1,0,0:0:0:0:
475,192,91691,1,0,0:0:0:0:
182,192,91691,1,0,0:0:0:0:
329,192,91691,1,0,0:0:0:0:
182,192,91824,1,0,0:0:0:0:
36,192,91824,1,0,0:0:0:0:
256,192,91824,1,0,0:0:0:0:
329,192,91824,1,0,0:0:0:0:
475,192,91957,1,0,0:0:0:0:
402,192,91957,1,0,0:0:0:0:
256,192,91957,1,0,0:0:0:0:
109,192,91957,1,0,0:0:0:0:
36,192,92091,1,0,0:0:0:0:
109,192,92091,1,0,0:0:0:0:
402,192,92091,1,0,0:0:0:0:
329,192,92091,1,0,0:0:0:0:
475,192,92091,1,0,0:0:0:0:
256,192,92091,1,0,0:0:0:0:
182,192,92091,1,0,0:0:0:0:
182,192,92224,1,0,0:0:0:0:
36,192,92224,1,0,0:0:0:0:
329,192,92224,1,0,0:0:0:0:
256,192,92357,1,0,0:0:0:0:
109,192,92357,1,0,0:0:0:0:
402,192,92357,1,0,0:0:0:0:
402,192,92491,1,0,0:0:0:0:
475,192,92491,1,0,0:0:0:0:
329,192,92491,1,0,0:0:0:0:
182,192,92491,1,0,0:0:0:0:
109,192,92491,1,0,0:0:0:0:
36,192,92491,1,0,0:0:0:0:
256,192,92491,1,0,0:0:0:0:
36,192,92624,1,0,0:0:0:0:
182,192,92624,1,0,0:0:0:0:
109,192,92624,1,0,0:0:0:0:
256,192,92624,1,0,0:0:0:0:
475,192,92757,1,0,0:0:0:0:
256,192,92757,1,0,0:0:0:0:
402,192,92757,1,0,0:0:0:0:
329,192,92757,1,0,0:0:0:0:
36,192,92891,1,0,0:0:0:0:
182,192,92891,1,0,0:0:0:0:
109,192,92891,1,0,0:0:0:0:
402,192,92891,1,0,0:0:0:0:
475,192,92891,1,0,0:0:0:0:
329,192,92891,1,0,0:0:0:0:
256,192,92891,1,0,0:0:0:0:
36,192,93157,1,0,0:0:0:0:
109,192,93157,1,0,0:0:0:0:
182,192,93157,1,0,0:0:0:0:
329,192,93157,1,0,0:0:0:0:
402,192,93157,1,0,0:0:0:0:
475,192,93157,1,0,0:0:0:0:
36,192,93424,1,0,0:0:0:0:
109,192,93424,1,0,0:0:0:0:
182,192,93424,1,0,0:0:0:0:
256,192,93424,1,0,0:0:0:0:
475,192,93424,1,0,0:0:0:0:
402,192,93424,1,0,0:0:0:0:
36,192,93557,1,0,0:0:0:0:
109,192,93557,1,0,0:0:0:0:
402,192,93557,1,0,0:0:0:0:
475,192,93557,1,0,0:0:0:0:
256,192,93557,1,0,0:0:0:0:
329,192,93557,1,0,0:0:0:0:
36,192,93691,1,0,0:0:0:0:
256,192,93691,1,0,0:0:0:0:
329,192,93691,1,0,0:0:0:0:
402,192,93691,1,0,0:0:0:0:
475,192,93691,1,0,0:0:0:0:
109,192,93691,1,0,0:0:0:0:
182,192,93691,1,0,0:0:0:0:
329,192,94091,1,0,0:0:0:0:
475,192,94091,1,0,0:0:0:0:
329,192,94224,1,0,0:0:0:0:
182,192,94224,1,0,0:0:0:0:
182,192,94357,1,0,0:0:0:0:
36,192,94357,1,0,0:0:0:0:
36,192,94491,1,0,0:0:0:0:
109,192,94491,1,0,0:0:0:0:
182,192,94491,1,0,0:0:0:0:
475,192,94491,1,0,0:0:0:0:
402,192,94491,1,0,0:0:0:0:
329,192,94491,1,0,0:0:0:0:
329,192,94624,1,0,0:0:0:0:
402,192,94757,1,0,0:0:0:0:
475,192,94891,1,0,0:0:0:0:
36,192,94891,1,0,0:0:0:0:
402,192,95024,1,0,0:0:0:0:
329,192,95157,1,0,0:0:0:0:
36,192,95291,1,0,0:0:0:0:
109,192,95291,1,0,0:0:0:0:
182,192,95424,1,0,0:0:0:0:
256,192,95557,1,0,0:0:0:0:
329,192,95691,1,0,0:0:0:0:
36,192,95691,1,0,0:0:0:0:
256,192,95824,1,0,0:0:0:0:
182,192,95957,1,0,0:0:0:0:
329,192,96024,1,0,0:0:0:0:
36,192,96091,1,0,0:0:0:0:
182,192,96091,1,0,0:0:0:0:
256,192,96224,1,0,0:0:0:0:
329,192,96357,1,0,0:0:0:0:
402,192,96491,1,0,0:0:0:0:
36,192,96491,1,0,0:0:0:0:
329,192,96624,1,0,0:0:0:0:
256,192,96757,1,0,0:0:0:0:
36,192,96891,1,0,0:0:0:0:
182,192,96891,1,0,0:0:0:0:
329,192,97024,1,0,0:0:0:0:
402,192,97157,1,0,0:0:0:0:
109,192,97157,1,0,0:0:0:0:
182,192,97291,1,0,0:0:0:0:
36,192,97291,1,0,0:0:0:0:
329,192,97291,1,0,0:0:0:0:
329,192,97424,1,0,0:0:0:0:
182,192,97424,1,0,0:0:0:0:
329,192,97557,1,0,0:0:0:0:
182,192,97557,1,0,0:0:0:0:
36,192,97691,1,0,0:0:0:0:
475,192,97691,1,0,0:0:0:0:
256,192,97691,1,0,0:0:0:0:
329,192,97824,1,0,0:0:0:0:
402,192,97957,1,0,0:0:0:0:
475,192,98091,1,0,0:0:0:0:
36,192,98091,1,0,0:0:0:0:
182,192,98091,1,0,0:0:0:0:
402,192,98224,1,0,0:0:0:0:
329,192,98357,1,0,0:0:0:0:
109,192,98491,1,0,0:0:0:0:
36,192,98491,1,0,0:0:0:0:
182,192,98624,1,0,0:0:0:0:
256,192,98757,1,0,0:0:0:0:
36,192,98891,1,0,0:0:0:0:
329,192,98891,1,0,0:0:0:0:
256,192,99024,1,0,0:0:0:0:
182,192,99157,1,0,0:0:0:0:
329,192,99224,1,0,0:0:0:0:
36,192,99291,1,0,0:0:0:0:
182,192,99291,1,0,0:0:0:0:
256,192,99424,1,0,0:0:0:0:
329,192,99557,1,0,0:0:0:0:
36,192,99691,1,0,0:0:0:0:
402,192,99691,1,0,0:0:0:0:
329,192,99824,1,0,0:0:0:0:
256,192,99957,1,0,0:0:0:0:
109,192,100091,1,0,0:0:0:0:
182,192,100091,1,0,0:0:0:0:
256,192,100224,1,0,0:0:0:0:
402,192,100357,1,0,0:0:0:0:
329,192,100357,1,0,0:0:0:0:
36,192,100491,1,0,0:0:0:0:
256,192,100491,1,0,0:0:0:0:
109,192,100624,1,0,0:0:0:0:
182,192,100624,1,0,0:0:0:0:
256,192,100757,1,0,0:0:0:0:
36,192,100891,1,0,0:0:0:0:
109,192,100891,1,0,0:0:0:0:
475,192,100891,1,0,0:0:0:0:
402,192,100891,1,0,0:0:0:0:
182,192,100891,1,0,0:0:0:0:
329,192,100891,1,0,0:0:0:0:
182,192,101024,1,0,0:0:0:0:
256,192,101157,1,0,0:0:0:0:
475,192,101291,1,0,0:0:0:0:
36,192,101291,1,0,0:0:0:0:
329,192,101291,1,0,0:0:0:0:
109,192,101291,1,0,0:0:0:0:
329,192,101424,1,0,0:0:0:0:
256,192,101557,1,0,0:0:0:0:
36,192,101691,1,0,0:0:0:0:
475,192,101691,1,0,0:0:0:0:
109,192,101691,1,0,0:0:0:0:
329,192,101691,1,0,0:0:0:0:
109,192,101824,1,0,0:0:0:0:
182,192,101957,1,0,0:0:0:0:
475,192,102091,1,0,0:0:0:0:
402,192,102091,1,0,0:0:0:0:
36,192,102091,1,0,0:0:0:0:
256,192,102091,1,0,0:0:0:0:
402,192,102224,1,0,0:0:0:0:
329,192,102357,1,0,0:0:0:0:
256,192,102424,1,0,0:0:0:0:
36,192,102491,1,0,0:0:0:0:
475,192,102491,1,0,0:0:0:0:
402,192,102491,1,0,0:0:0:0:
329,192,102491,1,0,0:0:0:0:
109,192,102491,1,0,0:0:0:0:
182,192,102491,1,0,0:0:0:0:
182,192,102624,1,0,0:0:0:0:
256,192,102757,1,0,0:0:0:0:
109,192,102757,1,0,0:0:0:0:
36,192,102757,1,0,0:0:0:0:
402,192,102891,1,0,0:0:0:0:
475,192,102891,1,0,0:0:0:0:
36,192,102891,1,0,0:0:0:0:
109,192,102891,1,0,0:0:0:0:
182,192,102891,1,0,0:0:0:0:
329,192,103024,1,0,0:0:0:0:
256,192,103157,1,0,0:0:0:0:
402,192,103157,1,0,0:0:0:0:
475,192,103157,1,0,0:0:0:0:
109,192,103291,1,0,0:0:0:0:
36,192,103291,1,0,0:0:0:0:
475,192,103291,1,0,0:0:0:0:
329,192,103291,1,0,0:0:0:0:
402,192,103291,1,0,0:0:0:0:
182,192,103424,1,0,0:0:0:0:
36,192,103557,1,0,0:0:0:0:
109,192,103557,1,0,0:0:0:0:
402,192,103557,1,0,0:0:0:0:
475,192,103557,1,0,0:0:0:0:
36,192,103691,1,0,0:0:0:0:
475,192,103691,1,0,0:0:0:0:
402,192,103691,1,0,0:0:0:0:
109,192,103691,1,0,0:0:0:0:
182,192,103691,1,0,0:0:0:0:
329,192,103691,1,0,0:0:0:0:
329,192,103824,1,0,0:0:0:0:
182,192,103824,1,0,0:0:0:0:
182,192,103957,1,0,0:0:0:0:
329,192,103957,1,0,0:0:0:0:
36,192,104091,1,0,0:0:0:0:
475,192,104091,1,0,0:0:0:0:
402,192,104091,1,0,0:0:0:0:
109,192,104091,1,0,0:0:0:0:
182,192,104091,1,0,0:0:0:0:
329,192,104091,1,0,0:0:0:0:
256,192,104091,1,0,0:0:0:0:
402,192,104224,1,0,0:0:0:0:
109,192,104224,1,0,0:0:0:0:
256,192,104224,1,0,0:0:0:0:
402,192,104357,1,0,0:0:0:0:
109,192,104357,1,0,0:0:0:0:
256,192,104357,1,0,0:0:0:0:
329,192,104491,1,0,0:0:0:0:
475,192,104491,1,0,0:0:0:0:
256,192,104491,1,0,0:0:0:0:
36,192,104491,1,0,0:0:0:0:
182,192,104491,1,0,0:0:0:0:
36,192,104624,1,0,0:0:0:0:
475,192,104624,1,0,0:0:0:0:
256,192,104624,1,0,0:0:0:0:
36,192,104757,1,0,0:0:0:0:
475,192,104757,1,0,0:0:0:0:
256,192,104757,1,0,0:0:0:0:
256,192,104891,1,0,0:0:0:0:
109,192,104891,1,0,0:0:0:0:
182,192,104891,1,0,0:0:0:0:
329,192,104891,1,0,0:0:0:0:
402,192,104891,1,0,0:0:0:0:
36,192,104891,1,0,0:0:0:0:
475,192,104891,1,0,0:0:0:0:
402,192,105024,1,0,0:0:0:0:
109,192,105024,1,0,0:0:0:0:
256,192,105024,1,0,0:0:0:0:
402,192,105157,1,0,0:0:0:0:
109,192,105157,1,0,0:0:0:0:
256,192,105157,1,0,0:0:0:0:
402,192,105291,1,0,0:0:0:0:
109,192,105291,1,0,0:0:0:0:
256,192,105291,1,0,0:0:0:0:
256,192,105679,1,0,0:0:0:0:
36,192,105679,1,0,0:0:0:0:
475,192,105679,1,0,0:0:0:0:
329,192,105879,1,0,0:0:0:0:
402,192,105879,1,0,0:0:0:0:
109,192,105945,1,0,0:0:0:0:
182,192,105945,1,0,0:0:0:0:
475,192,106079,1,0,0:0:0:0:
256,192,106079,1,0,0:0:0:0:
36,192,106212,1,0,0:0:0:0:
256,192,106212,1,0,0:0:0:0:
475,192,106345,1,0,0:0:0:0:
256,192,106345,1,0,0:0:0:0:
182,192,106479,1,0,0:0:0:0:
329,192,106479,1,0,0:0:0:0:
402,192,106479,1,0,0:0:0:0:
109,192,106479,1,0,0:0:0:0:
36,192,106879,1,0,0:0:0:0:
182,192,106879,1,0,0:0:0:0:
329,192,106879,1,0,0:0:0:0:
109,192,107012,1,0,0:0:0:0:
256,192,107012,1,0,0:0:0:0:
402,192,107012,1,0,0:0:0:0:
182,192,107145,1,0,0:0:0:0:
329,192,107145,1,0,0:0:0:0:
475,192,107145,1,0,0:0:0:0:
36,192,107279,1,0,0:0:0:0:
109,192,107279,1,0,0:0:0:0:
329,192,107279,1,0,0:0:0:0:
402,192,107279,1,0,0:0:0:0:
475,192,107279,1,0,0:0:0:0:
256,192,107279,1,0,0:0:0:0:
182,192,107279,1,0,0:0:0:0:
329,192,107545,1,0,0:0:0:0:
182,192,107545,1,0,0:0:0:0:
256,192,107545,1,0,0:0:0:0:
109,192,107545,1,0,0:0:0:0:
36,192,107679,1,0,0:0:0:0:
256,192,107679,1,0,0:0:0:0:
182,192,107679,1,0,0:0:0:0:
402,192,107679,1,0,0:0:0:0:
475,192,107679,1,0,0:0:0:0:
109,192,107679,1,0,0:0:0:0:
329,192,107679,1,0,0:0:0:0:
329,192,107812,1,0,0:0:0:0:
475,192,107812,1,0,0:0:0:0:
402,192,107812,1,0,0:0:0:0:
256,192,107812,1,0,0:0:0:0:
36,192,107945,1,0,0:0:0:0:
109,192,107945,1,0,0:0:0:0:
182,192,107945,1,0,0:0:0:0:
256,192,107945,1,0,0:0:0:0:
182,192,108079,1,0,0:0:0:0:
402,192,108079,1,0,0:0:0:0:
475,192,108079,1,0,0:0:0:0:
109,192,108079,1,0,0:0:0:0:
36,192,108079,1,0,0:0:0:0:
329,192,108079,1,0,0:0:0:0:
256,192,108079,1,0,0:0:0:0:
329,192,108345,1,0,0:0:0:0:
182,192,108345,1,0,0:0:0:0:
256,192,108345,1,0,0:0:0:0:
402,192,108345,1,0,0:0:0:0:
36,192,108479,1,0,0:0:0:0:
109,192,108479,1,0,0:0:0:0:
402,192,108479,1,0,0:0:0:0:
475,192,108479,1,0,0:0:0:0:
329,192,108479,1,0,0:0:0:0:
256,192,108479,1,0,0:0:0:0:
182,192,108479,1,0,0:0:0:0:
182,192,108612,1,0,0:0:0:0:
36,192,108612,1,0,0:0:0:0:
109,192,108612,1,0,0:0:0:0:
256,192,108612,1,0,0:0:0:0:
329,192,108745,1,0,0:0:0:0:
256,192,108745,1,0,0:0:0:0:
402,192,108745,1,0,0:0:0:0:
475,192,108745,1,0,0:0:0:0:
36,192,108879,1,0,0:0:0:0:
109,192,108879,1,0,0:0:0:0:
182,192,108879,1,0,0:0:0:0:
402,192,108879,1,0,0:0:0:0:
329,192,108879,1,0,0:0:0:0:
475,192,108879,1,0,0:0:0:0:
256,192,108879,1,0,0:0:0:0:
329,192,109145,1,0,0:0:0:0:
109,192,109145,1,0,0:0:0:0:
182,192,109145,1,0,0:0:0:0:
402,192,109145,1,0,0:0:0:0:
109,192,109279,1,0,0:0:0:0:
256,192,109279,1,0,0:0:0:0:
329,192,109279,1,0,0:0:0:0:
402,192,109279,1,0,0:0:0:0:
475,192,109279,1,0,0:0:0:0:
182,192,109279,1,0,0:0:0:0:
36,192,109279,1,0,0:0:0:0:
402,192,109412,1,0,0:0:0:0:
182,192,109412,1,0,0:0:0:0:
329,192,109412,1,0,0:0:0:0:
109,192,109412,1,0,0:0:0:0:
182,192,109545,1,0,0:0:0:0:
475,192,109545,1,0,0:0:0:0:
256,192,109545,1,0,0:0:0:0:
402,192,109545,1,0,0:0:0:0:
109,192,109679,1,0,0:0:0:0:
182,192,109679,1,0,0:0:0:0:
256,192,109679,1,0,0:0:0:0:
329,192,109679,1,0,0:0:0:0:
36,192,109679,1,0,0:0:0:0:
402,192,109679,1,0,0:0:0:0:
475,192,109679,1,0,0:0:0:0:
36,192,110079,1,0,0:0:0:0:
109,192,110079,1,0,0:0:0:0:
402,192,110079,1,0,0:0:0:0:
475,192,110079,1,0,0:0:0:0:
329,192,110079,1,0,0:0:0:0:
256,192,110079,1,0,0:0:0:0:
182,192,110079,1,0,0:0:0:0:
109,192,110212,1,0,0:0:0:0:
182,192,110212,1,0,0:0:0:0:
329,192,110212,1,0,0:0:0:0:
36,192,110212,1,0,0:0:0:0:
402,192,110345,1,0,0:0:0:0:
475,192,110345,1,0,0:0:0:0:
182,192,110345,1,0,0:0:0:0:
329,192,110345,1,0,0:0:0:0:
36,192,110479,1,0,0:0:0:0:
109,192,110479,1,0,0:0:0:0:
329,192,110479,1,0,0:0:0:0:
182,192,110479,1,0,0:0:0:0:
402,192,110479,1,0,0:0:0:0:
475,192,110479,1,0,0:0:0:0:
256,192,110479,1,0,0:0:0:0:
109,192,110745,1,0,0:0:0:0:
329,192,110745,1,0,0:0:0:0:
256,192,110745,1,0,0:0:0:0:
36,192,110745,1,0,0:0:0:0:
36,192,110879,1,0,0:0:0:0:
329,192,110879,1,0,0:0:0:0:
109,192,110879,1,0,0:0:0:0:
256,192,110879,1,0,0:0:0:0:
475,192,110879,1,0,0:0:0:0:
402,192,110879,1,0,0:0:0:0:
182,192,110879,1,0,0:0:0:0:
182,192,111012,1,0,0:0:0:0:
475,192,111012,1,0,0:0:0:0:
402,192,111012,1,0,0:0:0:0:
256,192,111012,1,0,0:0:0:0:
36,192,111145,1,0,0:0:0:0:
109,192,111145,1,0,0:0:0:0:
329,192,111145,1,0,0:0:0:0:
182,192,111145,1,0,0:0:0:0:
329,192,111279,1,0,0:0:0:0:
256,192,111279,1,0,0:0:0:0:
475,192,111279,1,0,0:0:0:0:
36,192,111279,1,0,0:0:0:0:
402,192,111279,1,0,0:0:0:0:
182,192,111279,1,0,0:0:0:0:
109,192,111279,1,0,0:0:0:0:
329,192,111545,1,0,0:0:0:0:
182,192,111545,1,0,0:0:0:0:
109,192,111545,1,0,0:0:0:0:
402,192,111545,1,0,0:0:0:0:
36,192,111679,1,0,0:0:0:0:
182,192,111679,1,0,0:0:0:0:
109,192,111679,1,0,0:0:0:0:
329,192,111679,1,0,0:0:0:0:
402,192,111679,1,0,0:0:0:0:
475,192,111679,1,0,0:0:0:0:
256,192,111679,1,0,0:0:0:0:
256,192,111812,1,0,0:0:0:0:
475,192,111812,1,0,0:0:0:0:
402,192,111812,1,0,0:0:0:0:
182,192,111812,1,0,0:0:0:0:
329,192,111945,1,0,0:0:0:0:
36,192,111945,1,0,0:0:0:0:
182,192,111945,1,0,0:0:0:0:
109,192,111945,1,0,0:0:0:0:
109,192,112079,1,0,0:0:0:0:
256,192,112079,1,0,0:0:0:0:
329,192,112079,1,0,0:0:0:0:
402,192,112079,1,0,0:0:0:0:
475,192,112079,1,0,0:0:0:0:
182,192,112079,1,0,0:0:0:0:
36,192,112079,1,0,0:0:0:0:
36,192,112345,1,0,0:0:0:0:
182,192,112345,1,0,0:0:0:0:
329,192,112345,1,0,0:0:0:0:
109,192,112345,1,0,0:0:0:0:
109,192,112479,1,0,0:0:0:0:
36,192,112479,1,0,0:0:0:0:
256,192,112479,1,0,0:0:0:0:
329,192,112479,1,0,0:0:0:0:
402,192,112479,1,0,0:0:0:0:
475,192,112479,1,0,0:0:0:0:
182,192,112479,1,0,0:0:0:0:
475,192,112612,1,0,0:0:0:0:
329,192,112612,1,0,0:0:0:0:
256,192,112612,1,0,0:0:0:0:
109,192,112612,1,0,0:0:0:0:
256,192,112745,1,0,0:0:0:0:
36,192,112745,1,0,0:0:0:0:
402,192,112745,1,0,0:0:0:0:
182,192,112745,1,0,0:0:0:0:
109,192,112879,1,0,0:0:0:0:
182,192,112879,1,0,0:0:0:0:
329,192,112879,1,0,0:0:0:0:
475,192,112879,1,0,0:0:0:0:
256,192,112879,1,0,0:0:0:0:
36,192,112879,1,0,0:0:0:0:
402,192,112879,1,0,0:0:0:0:
36,192,113279,1,0,0:0:0:0:
329,192,113279,1,0,0:0:0:0:
402,192,113279,1,0,0:0:0:0:
475,192,113279,1,0,0:0:0:0:
109,192,113279,1,0,0:0:0:0:
182,192,113279,1,0,0:0:0:0:
256,192,113279,1,0,0:0:0:0:
109,192,113412,1,0,0:0:0:0:
36,192,113412,1,0,0:0:0:0:
329,192,113412,1,0,0:0:0:0:
256,192,113412,1,0,0:0:0:0:
182,192,113545,1,0,0:0:0:0:
402,192,113545,1,0,0:0:0:0:
256,192,113545,1,0,0:0:0:0:
475,192,113545,1,0,0:0:0:0:
36,192,113679,1,0,0:0:0:0:
109,192,113679,1,0,0:0:0:0:
329,192,113679,1,0,0:0:0:0:
402,192,113679,1,0,0:0:0:0:
475,192,113679,1,0,0:0:0:0:
182,192,113679,1,0,0:0:0:0:
256,192,113679,1,0,0:0:0:0:
109,192,113812,1,0,0:0:0:0:
329,192,113812,1,0,0:0:0:0:
182,192,113945,1,0,0:0:0:0:
36,192,113945,1,0,0:0:0:0:
256,192,113945,1,0,0:0:0:0:
402,192,113945,1,0,0:0:0:0:
36,192,114079,1,0,0:0:0:0:
256,192,114079,1,0,0:0:0:0:
329,192,114079,1,0,0:0:0:0:
402,192,114079,1,0,0:0:0:0:
475,192,114079,1,0,0:0:0:0:
109,192,114079,1,0,0:0:0:0:
182,192,114079,1,0,0:0:0:0:
109,192,114212,1,0,0:0:0:0:
329,192,114212,1,0,0:0:0:0:
475,192,114212,1,0,0:0:0:0:
182,192,114212,1,0,0:0:0:0:
109,192,114345,1,0,0:0:0:0:
36,192,114345,1,0,0:0:0:0:
256,192,114345,1,0,0:0:0:0:
402,192,114345,1,0,0:0:0:0:
256,192,114479,1,0,0:0:0:0:
402,192,114479,1,0,0:0:0:0:
475,192,114479,1,0,0:0:0:0:
182,192,114479,1,0,0:0:0:0:
36,192,114479,1,0,0:0:0:0:
329,192,114479,1,0,0:0:0:0:
109,192,114479,1,0,0:0:0:0:
329,192,114612,1,0,0:0:0:0:
182,192,114612,1,0,0:0:0:0:
109,192,114745,1,0,0:0:0:0:
36,192,114745,1,0,0:0:0:0:
402,192,114745,1,0,0:0:0:0:
256,192,114745,1,0,0:0:0:0:
36,192,114879,1,0,0:0:0:0:
109,192,114879,1,0,0:0:0:0:
402,192,114879,1,0,0:0:0:0:
475,192,114879,1,0,0:0:0:0:
329,192,114879,1,0,0:0:0:0:
256,192,114879,1,0,0:0:0:0:
182,192,114879,1,0,0:0:0:0:
475,192,115012,1,0,0:0:0:0:
402,192,115012,1,0,0:0:0:0:
182,192,115012,1,0,0:0:0:0:
329,192,115012,1,0,0:0:0:0:
36,192,115145,1,0,0:0:0:0:
109,192,115145,1,0,0:0:0:0:
182,192,115145,1,0,0:0:0:0:
329,192,115145,1,0,0:0:0:0:
182,192,115279,1,0,0:0:0:0:
109,192,115279,1,0,0:0:0:0:
256,192,115279,1,0,0:0:0:0:
402,192,115279,1,0,0:0:0:0:
329,192,115279,1,0,0:0:0:0:
475,192,115279,1,0,0:0:0:0:
36,192,115279,1,0,0:0:0:0:
256,192,115412,1,0,0:0:0:0:
475,192,115412,1,0,0:0:0:0:
109,192,115545,1,0,0:0:0:0:
329,192,115545,1,0,0:0:0:0:
182,192,115545,1,0,0:0:0:0:
36,192,115545,1,0,0:0:0:0:
109,192,115679,1,0,0:0:0:0:
256,192,115679,1,0,0:0:0:0:
329,192,115679,1,0,0:0:0:0:
402,192,115679,1,0,0:0:0:0:
475,192,115679,1,0,0:0:0:0:
182,192,115679,1,0,0:0:0:0:
36,192,115679,1,0,0:0:0:0:
329,192,115812,1,0,0:0:0:0:
182,192,115812,1,0,0:0:0:0:
402,192,115812,1,0,0:0:0:0:
109,192,115812,1,0,0:0:0:0:
256,192,115945,1,0,0:0:0:0:
402,192,115945,1,0,0:0:0:0:
475,192,115945,1,0,0:0:0:0:
182,192,115945,1,0,0:0:0:0:
109,192,116079,1,0,0:0:0:0:
182,192,116079,1,0,0:0:0:0:
256,192,116079,1,0,0:0:0:0:
329,192,116079,1,0,0:0:0:0:
36,192,116079,1,0,0:0:0:0:
475,192,116079,1,0,0:0:0:0:
402,192,116079,1,0,0:0:0:0:
109,192,116212,1,0,0:0:0:0:
329,192,116212,1,0,0:0:0:0:
36,192,116345,1,0,0:0:0:0:
402,192,116345,1,0,0:0:0:0:
256,192,116345,1,0,0:0:0:0:
182,192,116345,1,0,0:0:0:0:
36,192,116479,1,0,0:0:0:0:
109,192,116479,1,0,0:0:0:0:
329,192,116479,1,0,0:0:0:0:
256,192,116479,1,0,0:0:0:0:
402,192,116479,1,0,0:0:0:0:
475,192,116479,1,0,0:0:0:0:
182,192,116479,1,0,0:0:0:0:
402,192,116612,1,0,0:0:0:0:
109,192,116612,1,0,0:0:0:0:
256,192,116612,1,0,0:0:0:0:
329,192,116612,1,0,0:0:0:0:
475,192,116745,1,0,0:0:0:0:
182,192,116745,1,0,0:0:0:0:
329,192,116745,1,0,0:0:0:0:
402,192,116745,1,0,0:0:0:0:
36,192,116879,1,0,0:0:0:0:
182,192,116879,1,0,0:0:0:0:
329,192,116879,1,0,0:0:0:0:
402,192,116879,1,0,0:0:0:0:
109,192,116879,1,0,0:0:0:0:
256,192,116879,1,0,0:0:0:0:
475,192,116879,1,0,0:0:0:0:
36,192,117012,1,0,0:0:0:0:
256,192,117012,1,0,0:0:0:0:
109,192,117012,1,0,0:0:0:0:
402,192,117145,1,0,0:0:0:0:
182,192,117145,1,0,0:0:0:0:
329,192,117145,1,0,0:0:0:0:
475,192,117145,1,0,0:0:0:0:
36,192,117279,1,0,0:0:0:0:
256,192,117279,1,0,0:0:0:0:
182,192,117279,1,0,0:0:0:0:
329,192,117279,1,0,0:0:0:0:
475,192,117279,1,0,0:0:0:0:
402,192,117279,1,0,0:0:0:0:
109,192,117279,1,0,0:0:0:0:
109,192,117412,1,0,0:0:0:0:
256,192,117412,1,0,0:0:0:0:
329,192,117412,1,0,0:0:0:0:
36,192,117412,1,0,0:0:0:0:
475,192,117545,1,0,0:0:0:0:
182,192,117545,1,0,0:0:0:0:
402,192,117545,1,0,0:0:0:0:
256,192,117545,1,0,0:0:0:0:
36,192,117679,1,0,0:0:0:0:
109,192,117679,1,0,0:0:0:0:
256,192,117679,1,0,0:0:0:0:
329,192,117679,1,0,0:0:0:0:
402,192,117679,1,0,0:0:0:0:
182,192,117679,1,0,0:0:0:0:
475,192,117679,1,0,0:0:0:0:
36,192,117812,1,0,0:0:0:0:
109,192,117812,1,0,0:0:0:0:
329,192,117812,1,0,0:0:0:0:
256,192,117945,1,0,0:0:0:0:
475,192,117945,1,0,0:0:0:0:
182,192,117945,1,0,0:0:0:0:
402,192,117945,1,0,0:0:0:0:
36,192,118079,1,0,0:0:0:0:
109,192,118079,1,0,0:0:0:0:
182,192,118079,1,0,0:0:0:0:
329,192,118079,1,0,0:0:0:0:
402,192,118079,1,0,0:0:0:0:
475,192,118079,1,0,0:0:0:0:
256,192,118079,1,0,0:0:0:0:
109,192,118212,1,0,0:0:0:0:
182,192,118212,1,0,0:0:0:0:
36,192,118212,1,0,0:0:0:0:
256,192,118212,1,0,0:0:0:0:
329,192,118345,1,0,0:0:0:0:
475,192,118345,1,0,0:0:0:0:
402,192,118345,1,0,0:0:0:0:
256,192,118345,1,0,0:0:0:0:
36,192,118479,1,0,0:0:0:0:
109,192,118479,1,0,0:0:0:0:
182,192,118479,1,0,0:0:0:0:
329,192,118479,1,0,0:0:0:0:
402,192,118479,1,0,0:0:0:0:
475,192,118479,1,0,0:0:0:0:
256,192,118479,1,0,0:0:0:0:
36,192,118745,1,0,0:0:0:0:
109,192,118745,1,0,0:0:0:0:
256,192,118745,1,0,0:0:0:0:
329,192,118745,1,0,0:0:0:0:
402,192,118745,1,0,0:0:0:0:
182,192,118745,1,0,0:0:0:0:
36,192,118879,1,0,0:0:0:0:
109,192,118879,1,0,0:0:0:0:
256,192,118879,1,0,0:0:0:0:
402,192,118879,1,0,0:0:0:0:
182,192,118879,1,0,0:0:0:0:
329,192,118879,1,0,0:0:0:0:
182,192,119012,1,0,0:0:0:0:
109,192,119012,1,0,0:0:0:0:
329,192,119012,1,0,0:0:0:0:
475,192,119012,1,0,0:0:0:0:
256,192,119012,1,0,0:0:0:0:
402,192,119012,1,0,0:0:0:0:
36,192,119145,1,0,0:0:0:0:
109,192,119145,1,0,0:0:0:0:
256,192,119145,1,0,0:0:0:0:
402,192,119145,1,0,0:0:0:0:
182,192,119145,1,0,0:0:0:0:
329,192,119145,1,0,0:0:0:0:
36,192,119279,1,0,0:0:0:0:
182,192,119279,1,0,0:0:0:0:
256,192,119279,1,0,0:0:0:0:
329,192,119279,1,0,0:0:0:0:
402,192,119279,1,0,0:0:0:0:
475,192,119279,1,0,0:0:0:0:
109,192,119279,1,0,0:0:0:0:
109,192,119679,1,0,0:0:0:0:
182,192,119679,1,0,0:0:0:0:
182,192,119812,1,0,0:0:0:0:
329,192,119812,1,0,0:0:0:0:
329,192,119945,1,0,0:0:0:0:
402,192,119945,1,0,0:0:0:0:
256,192,120079,1,0,0:0:0:0:
475,192,120079,1,0,0:0:0:0:
36,192,120079,1,0,0:0:0:0:
182,192,120212,1,0,0:0:0:0:
36,192,120212,1,0,0:0:0:0:
329,192,120279,1,0,0:0:0:0:
475,192,120279,1,0,0:0:0:0:
182,192,120345,1,0,0:0:0:0:
36,192,120345,1,0,0:0:0:0:
256,192,120479,1,0,0:0:0:0:
402,192,120479,1,0,0:0:0:0:
475,192,120612,1,0,0:0:0:0:
329,192,120612,1,0,0:0:0:0:
36,192,120745,1,0,0:0:0:0:
182,192,120745,1,0,0:0:0:0:
402,192,120879,1,0,0:0:0:0:
109,192,120879,1,0,0:0:0:0:
256,192,120879,1,0,0:0:0:0:
109,192,121012,1,0,0:0:0:0:
182,192,121012,1,0,0:0:0:0:
402,192,121079,1,0,0:0:0:0:
329,192,121079,1,0,0:0:0:0:
109,192,121145,1,0,0:0:0:0:
182,192,121145,1,0,0:0:0:0:
256,192,121279,1,0,0:0:0:0:
329,192,121279,1,0,0:0:0:0:
402,192,121412,1,0,0:0:0:0:
475,192,121412,1,0,0:0:0:0:
36,192,121545,1,0,0:0:0:0:
109,192,121545,1,0,0:0:0:0:
329,192,121679,1,0,0:0:0:0:
182,192,121679,1,0,0:0:0:0:
256,192,121679,1,0,0:0:0:0:
36,192,121812,1,0,0:0:0:0:
475,192,121812,1,0,0:0:0:0:
329,192,121879,1,0,0:0:0:0:
182,192,121879,1,0,0:0:0:0:
36,192,121945,1,0,0:0:0:0:
475,192,121945,1,0,0:0:0:0:
109,192,122079,1,0,0:0:0:0:
256,192,122079,1,0,0:0:0:0:
329,192,122212,1,0,0:0:0:0:
182,192,122212,1,0,0:0:0:0:
256,192,122345,1,0,0:0:0:0:
402,192,122345,1,0,0:0:0:0:
36,192,122479,1,0,0:0:0:0:
109,192,122479,1,0,0:0:0:0:
182,192,122479,1,0,0:0:0:0:
329,192,122479,1,0,0:0:0:0:
182,192,122879,1,0,0:0:0:0:
402,192,122945,1,0,0:0:0:0:
329,192,122945,1,0,0:0:0:0:
109,192,123012,1,0,0:0:0:0:
182,192,123012,1,0,0:0:0:0:
329,192,123079,1,0,0:0:0:0:
402,192,123079,1,0,0:0:0:0:
475,192,123079,1,0,0:0:0:0:
109,192,123145,1,0,0:0:0:0:
36,192,123145,1,0,0:0:0:0:
182,192,123145,1,0,0:0:0:0:
329,192,123212,1,0,0:0:0:0:
402,192,123212,1,0,0:0:0:0:
475,192,123212,1,0,0:0:0:0:
36,192,123279,1,0,0:0:0:0:
109,192,123279,1,0,0:0:0:0:
402,192,123279,1,0,0:0:0:0:
475,192,123279,1,0,0:0:0:0:
182,192,123279,1,0,0:0:0:0:
329,192,123279,1,0,0:0:0:0:
256,192,123279,1,0,0:0:0:0:
36,192,123412,1,0,0:0:0:0:
256,192,123412,1,0,0:0:0:0:
182,192,123412,1,0,0:0:0:0:
329,192,123545,1,0,0:0:0:0:
109,192,123545,1,0,0:0:0:0:
475,192,123545,1,0,0:0:0:0:
256,192,123545,1,0,0:0:0:0:
36,192,123679,1,0,0:0:0:0:
256,192,123679,1,0,0:0:0:0:
329,192,123679,1,0,0:0:0:0:
475,192,123679,1,0,0:0:0:0:
402,192,123679,1,0,0:0:0:0:
109,192,123679,1,0,0:0:0:0:
182,192,123679,1,0,0:0:0:0:
402,192,123812,1,0,0:0:0:0:
475,192,123812,1,0,0:0:0:0:
36,192,123812,1,0,0:0:0:0:
256,192,123812,1,0,0:0:0:0:
329,192,123945,1,0,0:0:0:0:
182,192,123945,1,0,0:0:0:0:
402,192,123945,1,0,0:0:0:0:
109,192,123945,1,0,0:0:0:0:
36,192,124079,1,0,0:0:0:0:
256,192,124079,1,0,0:0:0:0:
402,192,124079,1,0,0:0:0:0:
475,192,124079,1,0,0:0:0:0:
329,192,124079,1,0,0:0:0:0:
109,192,124079,1,0,0:0:0:0:
182,192,124079,1,0,0:0:0:0:
256,192,124212,1,0,0:0:0:0:
475,192,124212,1,0,0:0:0:0:
402,192,124212,1,0,0:0:0:0:
329,192,124345,1,0,0:0:0:0:
109,192,124345,1,0,0:0:0:0:
182,192,124345,1,0,0:0:0:0:
36,192,124345,1,0,0:0:0:0:
36,192,124479,1,0,0:0:0:0:
329,192,124479,1,0,0:0:0:0:
256,192,124479,1,0,0:0:0:0:
109,192,124479,1,0,0:0:0:0:
475,192,124479,1,0,0:0:0:0:
182,192,124479,1,0,0:0:0:0:
402,192,124479,1,0,0:0:0:0:
475,192,124612,1,0,0:0:0:0:
402,192,124612,1,0,0:0:0:0:
329,192,124612,1,0,0:0:0:0:
256,192,124612,1,0,0:0:0:0:
109,192,124745,1,0,0:0:0:0:
256,192,124745,1,0,0:0:0:0:
36,192,124745,1,0,0:0:0:0:
182,192,124745,1,0,0:0:0:0:
109,192,124879,1,0,0:0:0:0:
182,192,124879,1,0,0:0:0:0:
256,192,124879,1,0,0:0:0:0:
329,192,124879,1,0,0:0:0:0:
475,192,124879,1,0,0:0:0:0:
36,192,124879,1,0,0:0:0:0:
402,192,124879,1,0,0:0:0:0:
402,192,125012,1,0,0:0:0:0:
475,192,125012,1,0,0:0:0:0:
256,192,125012,1,0,0:0:0:0:
109,192,125145,1,0,0:0:0:0:
36,192,125145,1,0,0:0:0:0:
329,192,125145,1,0,0:0:0:0:
182,192,125145,1,0,0:0:0:0:
182,192,125279,1,0,0:0:0:0:
256,192,125279,1,0,0:0:0:0:
329,192,125279,1,0,0:0:0:0:
402,192,125279,1,0,0:0:0:0:
475,192,125279,1,0,0:0:0:0:
36,192,125279,1,0,0:0:0:0:
109,192,125279,1,0,0:0:0:0:
36,192,125412,1,0,0:0:0:0:
109,192,125412,1,0,0:0:0:0:
475,192,125412,1,0,0:0:0:0:
402,192,125412,1,0,0:0:0:0:
329,192,125412,1,0,0:0:0:0:
256,192,125412,1,0,0:0:0:0:
36,192,125545,1,0,0:0:0:0:
109,192,125545,1,0,0:0:0:0:
402,192,125545,1,0,0:0:0:0:
475,192,125545,1,0,0:0:0:0:
182,192,125545,1,0,0:0:0:0:
256,192,125545,1,0,0:0:0:0:
36,192,125679,1,0,0:0:0:0:
109,192,125679,1,0,0:0:0:0:
182,192,125679,1,0,0:0:0:0:
402,192,125679,1,0,0:0:0:0:
329,192,125679,1,0,0:0:0:0:
475,192,125679,1,0,0:0:0:0:
256,192,125679,1,0,0:0:0:0:
182,192,126079,1,0,0:0:0:0:
329,192,126079,1,0,0:0:0:0:
36,192,126079,1,0,0:0:0:0:
256,192,126079,1,0,0:0:0:0:
109,192,126079,1,0,0:0:0:0:
182,192,126212,1,0,0:0:0:0:
329,192,126212,1,0,0:0:0:0:
109,192,126212,1,0,0:0:0:0:
402,192,126212,1,0,0:0:0:0:
256,192,126212,1,0,0:0:0:0:
182,192,126345,1,0,0:0:0:0:
329,192,126345,1,0,0:0:0:0:
256,192,126345,1,0,0:0:0:0:
475,192,126345,1,0,0:0:0:0:
402,192,126345,1,0,0:0:0:0:
36,192,126479,1,0,0:0:0:0:
182,192,126479,1,0,0:0:0:0:
109,192,126479,1,0,0:0:0:0:
329,192,126479,1,0,0:0:0:0:
402,192,126479,1,0,0:0:0:0:
256,192,126479,1,0,0:0:0:0:
475,192,126479,1,0,0:0:0:0:
36,192,126612,1,0,0:0:0:0:
109,192,126612,1,0,0:0:0:0:
182,192,126612,1,0,0:0:0:0:
402,192,126745,1,0,0:0:0:0:
329,192,126745,1,0,0:0:0:0:
475,192,126745,1,0,0:0:0:0:
256,192,126745,1,0,0:0:0:0:
36,192,126879,1,0,0:0:0:0:
109,192,126879,1,0,0:0:0:0:
182,192,126879,1,0,0:0:0:0:
402,192,126879,1,0,0:0:0:0:
475,192,126879,1,0,0:0:0:0:
256,192,126879,1,0,0:0:0:0:
329,192,126879,1,0,0:0:0:0:
109,192,127012,1,0,0:0:0:0:
182,192,127012,1,0,0:0:0:0:
36,192,127012,1,0,0:0:0:0:
329,192,127012,1,0,0:0:0:0:
256,192,127145,1,0,0:0:0:0:
402,192,127145,1,0,0:0:0:0:
475,192,127145,1,0,0:0:0:0:
182,192,127145,1,0,0:0:0:0:
109,192,127279,1,0,0:0:0:0:
36,192,127279,1,0,0:0:0:0:
402,192,127279,1,0,0:0:0:0:
475,192,127279,1,0,0:0:0:0:
182,192,127279,1,0,0:0:0:0:
256,192,127279,1,0,0:0:0:0:
329,192,127279,1,0,0:0:0:0:
36,192,127412,1,0,0:0:0:0:
109,192,127412,1,0,0:0:0:0:
475,192,127412,1,0,0:0:0:0:
402,192,127545,1,0,0:0:0:0:
182,192,127545,1,0,0:0:0:0:
329,192,127545,1,0,0:0:0:0:
256,192,127545,1,0,0:0:0:0:
36,192,127679,1,0,0:0:0:0:
109,192,127679,1,0,0:0:0:0:
402,192,127679,1,0,0:0:0:0:
475,192,127679,1,0,0:0:0:0:
329,192,127679,1,0,0:0:0:0:
182,192,127679,1,0,0:0:0:0:
256,192,127679,1,0,0:0:0:0:
475,192,127812,1,0,0:0:0:0:
109,192,127812,1,0,0:0:0:0:
402,192,127812,1,0,0:0:0:0:
182,192,127812,1,0,0:0:0:0:
256,192,127945,1,0,0:0:0:0:
36,192,127945,1,0,0:0:0:0:
329,192,127945,1,0,0:0:0:0:
109,192,127945,1,0,0:0:0:0:
329,192,128079,1,0,0:0:0:0:
402,192,128079,1,0,0:0:0:0:
475,192,128079,1,0,0:0:0:0:
36,192,128079,1,0,0:0:0:0:
109,192,128079,1,0,0:0:0:0:
182,192,128079,1,0,0:0:0:0:
256,192,128079,1,0,0:0:0:0:
329,192,128212,1,0,0:0:0:0:
402,192,128212,1,0,0:0:0:0:
475,192,128212,1,0,0:0:0:0:
109,192,128345,1,0,0:0:0:0:
256,192,128345,1,0,0:0:0:0:
182,192,128345,1,0,0:0:0:0:
36,192,128345,1,0,0:0:0:0:
36,192,128479,1,0,0:0:0:0:
182,192,128479,1,0,0:0:0:0:
329,192,128479,1,0,0:0:0:0:
109,192,128479,1,0,0:0:0:0:
402,192,128479,1,0,0:0:0:0:
475,192,128479,1,0,0:0:0:0:
256,192,128479,1,0,0:0:0:0:
256,192,128612,1,0,0:0:0:0:
402,192,128612,1,0,0:0:0:0:
329,192,128612,1,0,0:0:0:0:
182,192,128612,1,0,0:0:0:0:
256,192,128745,1,0,0:0:0:0:
402,192,128745,1,0,0:0:0:0:
329,192,128745,1,0,0:0:0:0:
475,192,128745,1,0,0:0:0:0:
109,192,128879,1,0,0:0:0:0:
182,192,128879,1,0,0:0:0:0:
329,192,128879,1,0,0:0:0:0:
402,192,128879,1,0,0:0:0:0:
475,192,128879,1,0,0:0:0:0:
36,192,128879,1,0,0:0:0:0:
256,192,128879,1,0,0:0:0:0:
36,192,129012,1,0,0:0:0:0:
109,192,129012,1,0,0:0:0:0:
182,192,129012,1,0,0:0:0:0:
475,192,129145,1,0,0:0:0:0:
402,192,129145,1,0,0:0:0:0:
256,192,129145,1,0,0:0:0:0:
329,192,129145,1,0,0:0:0:0:
36,192,129279,1,0,0:0:0:0:
109,192,129279,1,0,0:0:0:0:
182,192,129279,1,0,0:0:0:0:
329,192,129279,1,0,0:0:0:0:
402,192,129279,1,0,0:0:0:0:
475,192,129279,1,0,0:0:0:0:
256,192,129279,1,0,0:0:0:0:
36,192,129412,1,0,0:0:0:0:
109,192,129412,1,0,0:0:0:0:
182,192,129412,1,0,0:0:0:0:
329,192,129412,1,0,0:0:0:0:
402,192,129545,1,0,0:0:0:0:
109,192,129545,1,0,0:0:0:0:
182,192,129545,1,0,0:0:0:0:
475,192,129545,1,0,0:0:0:0:
256,192,129545,1,0,0:0:0:0:
329,192,129545,1,0,0:0:0:0:
36,192,129679,1,0,0:0:0:0:
109,192,129679,1,0,0:0:0:0:
182,192,129679,1,0,0:0:0:0:
256,192,129679,1,0,0:0:0:0:
402,192,129679,1,0,0:0:0:0:
475,192,129679,1,0,0:0:0:0:
329,192,129679,1,0,0:0:0:0:
36,192,129812,1,0,0:0:0:0:
182,192,129812,1,0,0:0:0:0:
109,192,129812,1,0,0:0:0:0:
475,192,129945,1,0,0:0:0:0:
402,192,129945,1,0,0:0:0:0:
36,192,129945,1,0,0:0:0:0:
329,192,129945,1,0,0:0:0:0:
256,192,129945,1,0,0:0:0:0:
109,192,130079,1,0,0:0:0:0:
256,192,130079,1,0,0:0:0:0:
329,192,130079,1,0,0:0:0:0:
475,192,130079,1,0,0:0:0:0:
402,192,130079,1,0,0:0:0:0:
182,192,130079,1,0,0:0:0:0:
36,192,130079,1,0,0:0:0:0:
36,192,130212,1,0,0:0:0:0:
109,192,130212,1,0,0:0:0:0:
256,192,130212,1,0,0:0:0:0:
329,192,130212,1,0,0:0:0:0:
182,192,130212,1,0,0:0:0:0:
402,192,130345,1,0,0:0:0:0:
475,192,130345,1,0,0:0:0:0:
329,192,130345,1,0,0:0:0:0:
256,192,130345,1,0,0:0:0:0:
36,192,130345,1,0,0:0:0:0:
182,192,130479,1,0,0:0:0:0:
256,192,130479,1,0,0:0:0:0:
402,192,130479,1,0,0:0:0:0:
109,192,130479,1,0,0:0:0:0:
329,192,130479,1,0,0:0:0:0:
36,192,130479,1,0,0:0:0:0:
475,192,130479,1,0,0:0:0:0:
475,192,130612,1,0,0:0:0:0:
402,192,130612,1,0,0:0:0:0:
182,192,130612,1,0,0:0:0:0:
475,192,130745,1,0,0:0:0:0:
36,192,130745,1,0,0:0:0:0:
256,192,130745,1,0,0:0:0:0:
329,192,130745,1,0,0:0:0:0:
109,192,130745,1,0,0:0:0:0:
36,192,130879,1,0,0:0:0:0:
256,192,130879,1,0,0:0:0:0:
402,192,130879,1,0,0:0:0:0:
475,192,130879,1,0,0:0:0:0:
182,192,130879,1,0,0:0:0:0:
329,192,130879,1,0,0:0:0:0:
109,192,130879,1,0,0:0:0:0:
109,192,131012,1,0,0:0:0:0:
402,192,131012,1,0,0:0:0:0:
475,192,131012,1,0,0:0:0:0:
182,192,131012,1,0,0:0:0:0:
256,192,131012,1,0,0:0:0:0:
475,192,131145,1,0,0:0:0:0:
329,192,131145,1,0,0:0:0:0:
36,192,131145,1,0,0:0:0:0:
182,192,131145,1,0,0:0:0:0:
109,192,131145,1,0,0:0:0:0:
36,192,131279,1,0,0:0:0:0:
475,192,131279,1,0,0:0:0:0:
182,192,131279,1,0,0:0:0:0:
329,192,131279,1,0,0:0:0:0:
256,192,131279,1,0,0:0:0:0:
109,192,131279,1,0,0:0:0:0:
402,192,131279,1,0,0:0:0:0:
109,192,131545,1,0,0:0:0:0:
182,192,131545,1,0,0:0:0:0:
256,192,131545,1,0,0:0:0:0:
329,192,131545,1,0,0:0:0:0:
402,192,131545,1,0,0:0:0:0:
475,192,131545,1,0,0:0:0:0:
109,192,131679,1,0,0:0:0:0:
182,192,131679,1,0,0:0:0:0:
256,192,131679,1,0,0:0:0:0:
329,192,131679,1,0,0:0:0:0:
475,192,131679,1,0,0:0:0:0:
402,192,131679,1,0,0:0:0:0:
36,192,131812,1,0,0:0:0:0:
109,192,131812,1,0,0:0:0:0:
182,192,131812,1,0,0:0:0:0:
256,192,131812,1,0,0:0:0:0:
329,192,131812,1,0,0:0:0:0:
402,192,131812,1,0,0:0:0:0:
109,192,131945,1,0,0:0:0:0:
182,192,131945,1,0,0:0:0:0:
256,192,131945,1,0,0:0:0:0:
329,192,131945,1,0,0:0:0:0:
402,192,131945,1,0,0:0:0:0:
475,192,131945,1,0,0:0:0:0:
36,192,132079,1,0,0:0:0:0:
109,192,132079,1,0,0:0:0:0:
182,192,132079,1,0,0:0:0:0:
256,192,132079,1,0,0:0:0:0:
329,192,132079,1,0,0:0:0:0:
402,192,132079,1,0,0:0:0:0:
475,192,132079,1,0,0:0:0:0:
329,192,132479,1,0,0:0:0:0:
475,192,132479,1,0,0:0:0:0:
329,192,132612,1,0,0:0:0:0:
182,192,132612,1,0,0:0:0:0:
182,192,132745,1,0,0:0:0:0:
36,192,132745,1,0,0:0:0:0:
182,192,132879,1,0,0:0:0:0:
36,192,132879,1,0,0:0:0:0:
329,192,132879,1,0,0:0:0:0:
475,192,132879,1,0,0:0:0:0:
