osu file format v14

[General]
AudioFilename: PulsationsNEW.mp3
AudioLeadIn: 0
PreviewTime: 0
Countdown: 0
SampleSet: Normal
StackLeniency: 0.7
Mode: 1
LetterboxInBreaks: 0
WidescreenStoryboard: 0

[Editor]
DistanceSpacing: 1.2
BeatDivisor: 4
GridSize: 32
TimelineZoom: 2

[Metadata]
Title:Pulsations
TitleUnicode:Pulsations
Artist:antitheory
ArtistUnicode:antitheory
Creator:Intelli
Version:Wavelength
Source:
Tags:
BeatmapID:1071701
BeatmapSetID:503714

[Difficulty]
HPDrainRate:6
CircleSize:2
OverallDifficulty:6
ApproachRate:10
SliderMultiplier:1.4
SliderTickRate:1

[Events]
//Background and Video events
0,0,"getoutofmyfilesyouperv.jpg",0,0
//Break Periods
//Storyboard Layer 0 (Background)
//Storyboard Layer 1 (Fail)
//Storyboard Layer 2 (Pass)
//Storyboard Layer 3 (Foreground)
//Storyboard Sound Samples

[TimingPoints]
0,333.333333333333,4,1,0,15,1,0
0,-133.333333333333,4,1,0,10,0,0
10666,-117.647058823529,4,1,0,20,0,0
21166,-116.279069767442,4,1,0,21,0,0
21249,-113.636363636364,4,1,0,22,0,0
21333,-111.111111111111,4,1,0,23,0,0
31666,-109.89010989011,4,1,0,24,0,0
31749,-108.695652173913,4,1,0,25,0,0
31833,-107.52688172043,4,1,0,26,0,0
31916,-106.382978723404,4,1,0,28,0,0
31999,-105.263157894737,4,1,0,30,0,0
42333,-104.166666666667,4,1,0,31,0,0
42416,-103.092783505155,4,1,0,32,0,0
42499,-102.040816326531,4,1,0,33,0,0
42583,-101.010101010101,4,1,0,34,0,0
42666,-100,4,1,0,35,0,1
47666,-99.009900990099,4,1,0,36,0,1
47749,-98.0392156862745,4,1,0,37,0,1
47833,-97.0873786407767,4,1,0,38,0,1
47916,-96.1538461538461,4,1,0,39,0,1
47999,-95.2380952380952,4,1,0,40,0,1
54667,-100,4,1,0,10,0,0

[HitObjects]
192,128,0,5,0,0:0:0:0:
192,128,666,1,0,0:0:0:0:
192,128,1333,1,0,0:0:0:0:
192,128,1833,1,0,0:0:0:0:
192,128,2166,1,0,0:0:0:0:
192,128,2500,1,0,0:0:0:0:
192,128,2666,1,0,0:0:0:0:
192,128,3332,1,0,0:0:0:0:
192,128,3999,1,0,0:0:0:0:
192,128,4499,1,0,0:0:0:0:
192,128,4832,1,0,0:0:0:0:
192,128,5166,1,0,0:0:0:0:
192,128,5333,1,0,0:0:0:0:
192,128,5999,1,0,0:0:0:0:
192,128,6666,1,0,0:0:0:0:
192,128,7166,1,0,0:0:0:0:
192,128,7499,1,0,0:0:0:0:
192,128,7833,1,0,0:0:0:0:
192,128,8000,1,0,0:0:0:0:
192,128,8666,1,0,0:0:0:0:
192,128,9333,1,0,0:0:0:0:
192,128,10666,1,0,0:0:0:0:
192,256,11000,1,2,0:0:0:0:
192,128,11333,1,0,0:0:0:0:
192,256,11666,1,2,1:0:0:0:
192,128,12000,1,0,1:0:0:0:
192,256,12333,1,2,1:0:0:0:
192,128,12500,1,0,1:0:0:0:
192,128,12833,1,0,1:0:0:0:
192,256,13000,1,2,1:0:0:0:
192,128,13166,1,0,0:0:0:0:
192,128,13333,1,0,0:0:0:0:
192,256,13667,1,2,0:0:0:0:
192,128,14000,1,0,0:0:0:0:
192,256,14333,1,2,1:0:0:0:
192,128,14667,1,0,1:0:0:0:
192,256,15000,1,2,1:0:0:0:
192,128,15167,1,0,1:0:0:0:
192,128,15500,1,0,1:0:0:0:
192,256,15667,1,2,1:0:0:0:
192,128,15833,1,0,1:0:0:0:
192,128,16000,1,0,0:0:0:0:
192,256,16334,1,2,0:0:0:0:
192,128,16667,1,0,0:0:0:0:
192,256,17000,1,2,1:0:0:0:
192,128,17334,1,0,1:0:0:0:
192,256,17667,1,2,1:0:0:0:
192,128,17834,1,0,1:0:0:0:
192,128,18167,1,0,1:0:0:0:
192,256,18334,1,2,1:0:0:0:
192,128,18500,1,0,1:0:0:0:
192,128,18666,1,0,0:0:0:0:
192,256,19000,1,2,0:0:0:0:
192,128,19333,1,0,0:0:0:0:
192,256,19666,1,2,1:0:0:0:
192,128,20000,1,0,1:0:0:0:
192,256,20333,1,2,1:0:0:0:
192,128,20500,1,0,1:0:0:0:
192,128,20833,1,0,1:0:0:0:
192,256,21000,1,2,1:0:0:0:
192,128,21166,1,0,1:0:0:0:
192,128,21250,1,0,0:0:0:0:
192,128,21333,1,0,0:0:0:0:
192,128,21500,1,0,0:0:0:0:
192,256,21666,1,2,0:0:0:0:
192,128,21833,1,0,0:0:0:0:
192,128,22000,1,0,0:0:0:0:
192,128,22166,1,0,0:0:0:0:
192,256,22333,1,2,0:0:0:0:
192,128,22500,1,0,0:0:0:0:
192,128,22666,1,0,0:0:0:0:
192,128,22833,1,0,0:0:0:0:
192,256,22999,1,2,0:0:0:0:
192,128,23166,1,0,0:0:0:0:
192,128,23333,1,0,0:0:0:0:
192,128,23499,1,0,0:0:0:0:
192,256,23666,1,2,0:0:0:0:
192,128,23833,1,0,0:0:0:0:
192,128,24000,1,0,0:0:0:0:
192,128,24167,1,0,0:0:0:0:
192,256,24333,1,2,0:0:0:0:
192,128,24500,1,0,0:0:0:0:
192,128,24667,1,0,0:0:0:0:
192,128,24833,1,0,0:0:0:0:
192,256,25000,1,2,0:0:0:0:
192,128,25167,1,0,0:0:0:0:
192,128,25333,1,0,0:0:0:0:
192,128,25500,1,0,0:0:0:0:
192,256,25666,1,2,0:0:0:0:
192,128,25833,1,0,0:0:0:0:
192,128,26000,1,0,0:0:0:0:
192,128,26166,1,0,0:0:0:0:
192,256,26333,1,2,0:0:0:0:
192,128,26500,1,0,0:0:0:0:
192,128,26583,1,0,0:0:0:0:
192,128,26666,1,0,0:0:0:0:
192,128,26833,1,0,0:0:0:0:
192,256,26999,1,2,0:0:0:0:
192,128,27166,1,0,0:0:0:0:
192,128,27333,1,0,0:0:0:0:
192,128,27499,1,0,0:0:0:0:
192,256,27666,1,2,0:0:0:0:
192,128,27833,1,0,0:0:0:0:
192,128,28000,1,0,0:0:0:0:
192,128,28167,1,0,0:0:0:0:
192,256,28333,1,2,0:0:0:0:
192,128,28500,1,0,0:0:0:0:
192,128,28667,1,0,0:0:0:0:
192,128,28833,1,0,0:0:0:0:
192,256,29000,1,2,0:0:0:0:
192,128,29167,1,0,0:0:0:0:
192,128,29333,1,0,0:0:0:0:
192,128,29500,1,0,0:0:0:0:
192,256,29666,1,2,0:0:0:0:
192,128,29833,1,0,0:0:0:0:
192,128,30000,1,0,0:0:0:0:
192,128,30166,1,0,0:0:0:0:
192,256,30333,1,2,0:0:0:0:
192,128,30500,1,0,0:0:0:0:
192,128,30666,1,0,0:0:0:0:
192,128,30833,1,0,0:0:0:0:
192,256,30999,1,2,0:0:0:0:
192,128,31166,1,0,0:0:0:0:
192,128,31333,1,0,0:0:0:0:
192,128,31499,1,0,0:0:0:0:
192,256,31666,1,2,0:0:0:0:
192,256,31750,1,2,0:0:0:0:
192,128,31833,1,0,0:0:0:0:
192,128,31916,1,0,0:0:0:0:
192,128,32000,1,0,0:0:0:0:
192,128,32166,1,0,0:0:0:0:
192,128,32249,1,0,0:0:0:0:
192,256,32333,1,2,0:0:0:0:
192,128,32499,1,0,0:0:0:0:
192,128,32666,1,0,0:0:0:0:
192,128,32834,1,0,0:0:0:0:
192,128,32917,1,0,0:0:0:0:
192,256,33000,1,2,0:0:0:0:
192,128,33167,1,0,0:0:0:0:
192,128,33333,1,0,0:0:0:0:
192,128,33500,1,0,0:0:0:0:
192,256,33583,1,2,0:0:0:0:
192,256,33749,1,2,0:0:0:0:
192,128,33833,1,0,0:0:0:0:
192,128,34000,1,0,0:0:0:0:
192,128,34166,1,0,0:0:0:0:
192,128,34250,1,0,0:0:0:0:
192,256,34333,1,2,0:0:0:0:
192,128,34500,1,0,0:0:0:0:
192,128,34666,1,0,0:0:0:0:
192,128,34833,1,0,0:0:0:0:
192,128,34916,1,0,0:0:0:0:
192,256,35000,1,2,0:0:0:0:
192,128,35166,1,0,0:0:0:0:
192,128,35333,1,0,0:0:0:0:
192,128,35499,1,0,0:0:0:0:
192,128,35584,1,0,0:0:0:0:
192,256,35667,1,2,0:0:0:0:
192,128,35834,1,0,0:0:0:0:
192,128,36000,1,0,0:0:0:0:
192,128,36167,1,0,0:0:0:0:
192,256,36249,1,2,0:0:0:0:
192,256,36417,1,2,0:0:0:0:
192,128,36500,1,0,0:0:0:0:
192,128,36667,1,0,0:0:0:0:
192,128,36750,1,0,0:0:0:0:
192,128,36833,1,0,0:0:0:0:
192,256,37000,1,0,0:0:0:0:
192,128,37083,1,0,0:0:0:0:
192,256,37166,1,2,0:0:0:0:
192,256,37250,1,2,0:0:0:0:
192,128,37333,1,0,0:0:0:0:
192,128,37500,1,0,0:0:0:0:
192,128,37583,1,0,0:0:0:0:
192,256,37667,1,2,0:0:0:0:
192,128,37833,1,0,0:0:0:0:
192,128,38000,1,0,0:0:0:0:
192,128,38166,1,0,0:0:0:0:
192,128,38249,1,0,0:0:0:0:
192,256,38334,1,2,0:0:0:0:
192,128,38499,1,0,0:0:0:0:
192,128,38667,1,0,0:0:0:0:
192,128,38834,1,0,0:0:0:0:
192,256,38917,1,2,0:0:0:0:
192,256,39084,1,2,0:0:0:0:
192,128,39167,1,0,0:0:0:0:
192,128,39334,1,0,0:0:0:0:
192,128,39500,1,0,0:0:0:0:
192,128,39584,1,0,0:0:0:0:
192,256,39667,1,2,0:0:0:0:
192,128,39834,1,0,0:0:0:0:
192,128,40000,1,0,0:0:0:0:
192,128,40166,1,0,0:0:0:0:
192,128,40249,1,0,0:0:0:0:
192,256,40333,1,2,0:0:0:0:
192,128,40499,1,0,0:0:0:0:
192,128,40666,1,0,0:0:0:0:
192,128,40834,1,0,0:0:0:0:
192,128,40917,1,0,0:0:0:0:
192,256,41000,1,2,0:0:0:0:
192,128,41167,1,0,0:0:0:0:
192,128,41333,1,0,0:0:0:0:
192,128,41500,1,0,0:0:0:0:
192,256,41583,1,2,0:0:0:0:
192,256,41750,1,2,0:0:0:0:
192,128,41833,1,0,0:0:0:0:
192,128,42000,1,0,0:0:0:0:
192,128,42083,1,0,0:0:0:0:
192,128,42166,1,0,0:0:0:0:
192,128,42333,1,0,0:0:0:0:
192,128,42416,1,0,0:0:0:0:
192,256,42500,1,2,0:0:0:0:
192,128,42583,1,0,0:0:0:0:
192,256,42666,1,2,0:0:0:0:
192,256,42750,1,2,0:0:0:0:
192,128,42833,1,0,0:0:0:0:
192,256,42916,1,2,0:0:0:0:
192,128,43000,1,0,0:0:0:0:
192,256,43166,1,2,0:0:0:0:
192,128,43333,1,0,0:0:0:0:
192,256,43416,1,2,0:0:0:0:
192,256,43500,1,2,0:0:0:0:
192,128,43583,1,0,0:0:0:0:
192,256,43666,1,2,0:0:0:0:
192,128,43833,1,0,0:0:0:0:
192,128,44000,1,0,0:0:0:0:
192,128,44083,1,0,0:0:0:0:
192,128,44166,1,0,0:0:0:0:
192,256,44250,1,2,0:0:0:0:
192,256,44416,1,2,0:0:0:0:
192,128,44500,1,0,0:0:0:0:
192,256,44666,1,2,0:0:0:0:
192,256,44750,1,2,0:0:0:0:
192,128,44833,1,0,0:0:0:0:
192,256,44916,1,2,0:0:0:0:
192,128,45000,1,0,0:0:0:0:
192,128,45083,1,0,0:0:0:0:
192,256,45166,1,2,0:0:0:0:
192,128,45250,1,0,0:0:0:0:
192,256,45333,1,2,0:0:0:0:
192,256,45417,1,2,0:0:0:0:
192,128,45500,1,0,0:0:0:0:
192,256,45583,1,2,0:0:0:0:
192,128,45667,1,0,0:0:0:0:
192,256,45833,1,2,0:0:0:0:
192,128,46000,1,0,0:0:0:0:
192,256,46083,1,2,0:0:0:0:
192,256,46167,1,2,0:0:0:0:
192,128,46250,1,0,0:0:0:0:
192,256,46333,1,2,0:0:0:0:
192,128,46500,1,0,0:0:0:0:
192,128,46667,1,0,0:0:0:0:
192,128,46750,1,0,0:0:0:0:
192,128,46833,1,0,0:0:0:0:
192,256,46917,1,2,0:0:0:0:
192,256,47083,1,2,0:0:0:0:
192,128,47167,1,0,0:0:0:0:
192,256,47333,1,2,0:0:0:0:
192,256,47417,1,2,0:0:0:0:
192,128,47500,1,0,0:0:0:0:
192,256,47583,1,2,0:0:0:0:
192,128,47667,1,0,0:0:0:0:
192,128,47750,1,0,0:0:0:0:
192,256,47833,1,2,0:0:0:0:
192,128,47916,1,0,0:0:0:0:
192,256,48000,1,2,0:0:0:0:
192,128,48083,1,0,0:0:0:0:
192,128,48166,1,0,0:0:0:0:
192,256,48250,1,2,0:0:0:0:
192,128,48333,1,0,0:0:0:0:
192,128,48416,1,0,0:0:0:0:
192,256,48500,1,2,0:0:0:0:
192,128,48583,1,0,0:0:0:0:
192,256,48666,1,2,0:0:0:0:
192,256,48750,1,2,0:0:0:0:
192,128,48833,1,0,0:0:0:0:
192,256,48916,1,2,0:0:0:0:
192,256,49000,1,2,0:0:0:0:
192,128,49083,1,0,0:0:0:0:
192,256,49166,1,2,0:0:0:0:
192,128,49250,1,0,0:0:0:0:
192,256,49333,1,2,0:0:0:0:
192,256,49416,1,2,0:0:0:0:
192,256,49500,1,2,0:0:0:0:
192,128,49583,1,0,0:0:0:0:
192,256,49666,1,2,0:0:0:0:
192,256,49750,1,2,0:0:0:0:
192,128,49833,1,0,0:0:0:0:
192,128,49916,1,0,0:0:0:0:
192,256,50000,1,2,0:0:0:0:
192,128,50083,1,0,0:0:0:0:
192,128,50166,1,0,0:0:0:0:
192,256,50250,1,2,0:0:0:0:
192,128,50333,1,0,0:0:0:0:
192,128,50416,1,0,0:0:0:0:
192,256,50500,1,2,0:0:0:0:
192,128,50583,1,0,0:0:0:0:
192,256,50666,1,2,0:0:0:0:
192,256,50750,1,2,0:0:0:0:
192,256,50833,1,2,0:0:0:0:
192,256,50916,1,2,0:0:0:0:
192,256,51000,1,2,0:0:0:0:
192,256,51083,1,2,0:0:0:0:
192,256,51166,1,2,0:0:0:0:
192,256,51250,1,2,0:0:0:0:
192,128,51333,1,0,0:0:0:0:
192,128,51416,1,0,0:0:0:0:
192,128,51500,1,0,0:0:0:0:
192,128,51583,1,0,0:0:0:0:
192,128,51666,1,0,0:0:0:0:
192,128,51750,1,0,0:0:0:0:
192,128,51833,1,0,0:0:0:0:
192,128,51916,1,0,0:0:0:0:
192,256,52000,1,2,0:0:0:0:
192,256,52083,1,2,0:0:0:0:
192,256,52166,1,2,0:0:0:0:
192,256,52250,1,2,0:0:0:0:
192,128,52333,1,0,0:0:0:0:
192,128,52416,1,0,0:0:0:0:
192,128,52500,1,0,0:0:0:0:
192,128,52583,1,0,0:0:0:0:
192,256,52666,1,2,0:0:0:0:
192,256,52750,1,2,0:0:0:0:
192,256,52833,1,2,0:0:0:0:
192,256,52916,1,2,0:0:0:0:
192,128,53000,1,0,0:0:0:0:
192,128,53083,1,0,0:0:0:0:
192,128,53166,1,0,0:0:0:0:
192,128,53250,1,0,0:0:0:0:
192,256,53333,1,2,0:0:0:0:
192,256,53416,1,2,0:0:0:0:
192,128,53500,1,0,0:0:0:0:
192,128,53583,1,0,0:0:0:0:
192,256,53666,1,2,0:0:0:0:
192,256,53750,1,2,0:0:0:0:
192,128,53833,1,0,0:0:0:0:
192,128,53916,1,0,0:0:0:0:
192,256,54000,1,2,0:0:0:0:
192,128,54083,1,0,0:0:0:0:
192,256,54166,1,2,0:0:0:0:
192,128,54250,1,0,0:0:0:0:
192,256,54333,1,2,0:0:0:0:
192,128,54416,1,0,0:0:0:0:
192,256,54500,1,2,0:0:0:0:
192,128,54583,1,0,0:0:0:0:
192,128,54666,1,0,0:0:0:0:
192,128,55333,1,0,0:0:0:0:
192,128,56000,1,0,0:0:0:0:
192,128,56500,1,0,0:0:0:0:
192,128,56833,1,0,0:0:0:0:
