osu file format v14

[General]
AudioFilename: PulsationsNEW.mp3
AudioLeadIn: 0
PreviewTime: 0
Countdown: 0
SampleSet: Normal
StackLeniency: 0.7
Mode: 1
LetterboxInBreaks: 0
WidescreenStoryboard: 0

[Editor]
DistanceSpacing: 1.2
BeatDivisor: 4
GridSize: 32
TimelineZoom: 1.5

[Metadata]
Title:Pulsations
TitleUnicode:Pulsations
Artist:antitheory
ArtistUnicode:antitheory
Creator:Intelli
Version:Muzukashii
Source:
Tags:
BeatmapID:1100738
BeatmapSetID:503714

[Difficulty]
HPDrainRate:6
CircleSize:2
OverallDifficulty:5
ApproachRate:10
SliderMultiplier:1.4
SliderTickRate:1

[Events]
//Background and Video events
0,0,"getoutofmyfilesyouperv.jpg",0,0
//Break Periods
//Storyboard Layer 0 (Background)
//Storyboard Layer 1 (Fail)
//Storyboard Layer 2 (Pass)
//Storyboard Layer 3 (Foreground)
//Storyboard Sound Samples

[TimingPoints]
0,333.333333333333,4,1,0,15,1,0
0,-111.111111111111,4,1,0,10,0,0
10666,-108.695652173913,4,1,0,20,0,0
21333,-106.382978723404,4,1,0,23,0,0
31999,-104.166666666667,4,1,0,30,0,0
42666,-102.040816326531,4,1,0,35,0,1
47999,-100,4,1,0,40,0,1
54667,-111.111111111111,4,1,0,10,0,0

[HitObjects]
192,128,0,5,0,0:0:0:0:
192,128,666,1,0,0:0:0:0:
192,128,1333,1,0,0:0:0:0:
192,128,1833,1,0,0:0:0:0:
192,128,2166,1,0,0:0:0:0:
192,128,2500,1,0,0:0:0:0:
192,128,2666,1,0,0:0:0:0:
192,128,3332,1,0,0:0:0:0:
192,128,3999,1,0,0:0:0:0:
192,128,4499,1,0,0:0:0:0:
192,128,4832,1,0,0:0:0:0:
192,128,5166,1,0,0:0:0:0:
192,128,5333,1,0,0:0:0:0:
192,128,5999,1,0,0:0:0:0:
192,128,6666,1,0,0:0:0:0:
192,128,7166,1,0,0:0:0:0:
192,128,7499,1,0,0:0:0:0:
192,128,7833,1,0,0:0:0:0:
192,128,8000,1,0,0:0:0:0:
192,128,8666,1,0,0:0:0:0:
192,128,9333,1,0,0:0:0:0:
192,128,10666,1,0,0:0:0:0:
192,256,11000,1,2,0:0:0:0:
192,128,11333,1,0,0:0:0:0:
192,256,11666,1,2,1:0:0:0:
192,128,12000,1,0,1:0:0:0:
192,256,12333,1,2,1:0:0:0:
192,128,12499,1,0,1:0:0:0:
192,256,13000,1,2,1:0:0:0:
192,128,13333,1,0,0:0:0:0:
192,256,13667,1,2,0:0:0:0:
192,128,14000,1,0,0:0:0:0:
192,256,14333,1,2,1:0:0:0:
192,128,14667,1,0,1:0:0:0:
192,256,15000,1,2,1:0:0:0:
192,128,15167,1,0,1:0:0:0:
192,256,15667,1,2,1:0:0:0:
192,128,16000,1,0,0:0:0:0:
192,256,16334,1,2,0:0:0:0:
192,128,16667,1,0,0:0:0:0:
192,256,17000,1,2,1:0:0:0:
192,128,17334,1,0,1:0:0:0:
192,256,17667,1,2,1:0:0:0:
192,128,17834,1,0,1:0:0:0:
192,256,18334,1,2,1:0:0:0:
192,128,18666,1,0,0:0:0:0:
192,256,19000,1,2,0:0:0:0:
192,128,19333,1,0,0:0:0:0:
192,256,19666,1,2,1:0:0:0:
192,128,20000,1,0,1:0:0:0:
192,256,20333,1,2,1:0:0:0:
192,128,20499,1,0,0:0:0:0:
192,128,20833,1,0,0:0:0:0:
192,256,21000,1,2,1:0:0:0:
192,128,21333,1,0,0:0:0:0:
192,128,21499,1,0,0:0:0:0:
192,256,21666,1,2,0:0:0:0:
192,128,22000,1,0,0:0:0:0:
192,128,22166,1,0,0:0:0:0:
192,256,22333,1,2,0:0:0:0:
192,128,22666,1,0,0:0:0:0:
192,128,22833,1,0,0:0:0:0:
192,256,22999,1,2,0:0:0:0:
192,128,23166,1,0,0:0:0:0:
192,128,23499,1,0,0:0:0:0:
192,256,23666,1,2,0:0:0:0:
192,128,24000,1,0,0:0:0:0:
192,128,24167,1,0,0:0:0:0:
192,256,24333,1,2,0:0:0:0:
192,128,24667,1,0,0:0:0:0:
192,128,24833,1,0,0:0:0:0:
192,256,25000,1,2,0:0:0:0:
192,128,25333,1,0,0:0:0:0:
192,128,25500,1,0,0:0:0:0:
192,256,25666,1,2,0:0:0:0:
192,128,25833,1,0,0:0:0:0:
192,128,26166,1,0,0:0:0:0:
192,256,26333,1,2,0:0:0:0:
192,128,26500,1,0,0:0:0:0:
192,128,26666,1,0,0:0:0:0:
192,128,26833,1,0,0:0:0:0:
192,256,26999,1,2,0:0:0:0:
192,128,27333,1,0,0:0:0:0:
192,128,27499,1,0,0:0:0:0:
192,256,27666,1,2,0:0:0:0:
192,128,28000,1,0,0:0:0:0:
192,128,28167,1,0,0:0:0:0:
192,256,28333,1,2,0:0:0:0:
192,128,28500,1,0,0:0:0:0:
192,128,28833,1,0,0:0:0:0:
192,256,29000,1,2,0:0:0:0:
192,128,29333,1,0,0:0:0:0:
192,128,29500,1,0,0:0:0:0:
192,256,29666,1,2,0:0:0:0:
192,128,30000,1,0,0:0:0:0:
192,128,30166,1,0,0:0:0:0:
192,256,30333,1,2,0:0:0:0:
192,128,30666,1,0,0:0:0:0:
192,128,30833,1,0,0:0:0:0:
192,256,30999,1,2,0:0:0:0:
192,128,31166,1,0,0:0:0:0:
192,128,31499,1,0,0:0:0:0:
192,256,31666,1,2,0:0:0:0:
192,128,31833,1,0,0:0:0:0:
192,128,32000,1,0,0:0:0:0:
192,128,32166,1,0,0:0:0:0:
192,256,32333,1,2,0:0:0:0:
192,128,32666,1,0,0:0:0:0:
192,256,32833,1,2,0:0:0:0:
192,256,32916,1,2,0:0:0:0:
192,256,33000,1,2,0:0:0:0:
192,128,33333,1,0,0:0:0:0:
192,256,33583,1,2,0:0:0:0:
192,128,33833,1,0,0:0:0:0:
192,128,34000,1,0,0:0:0:0:
192,128,34166,1,0,0:0:0:0:
192,256,34333,1,2,0:0:0:0:
192,128,34666,1,0,0:0:0:0:
192,128,34833,1,0,0:0:0:0:
192,256,35000,1,2,0:0:0:0:
192,128,35333,1,0,0:0:0:0:
192,256,35499,1,2,0:0:0:0:
192,256,35584,1,2,0:0:0:0:
192,256,35667,1,2,0:0:0:0:
192,128,36000,1,0,0:0:0:0:
192,256,36250,1,2,0:0:0:0:
192,128,36500,1,0,0:0:0:0:
192,128,36667,1,0,0:0:0:0:
192,256,37000,1,2,0:0:0:0:
192,256,37166,1,2,0:0:0:0:
192,128,37333,1,0,0:0:0:0:
192,128,37500,1,0,0:0:0:0:
192,256,37667,1,2,0:0:0:0:
192,128,38000,1,0,0:0:0:0:
192,256,38166,1,2,0:0:0:0:
192,256,38249,1,2,0:0:0:0:
192,256,38334,1,2,0:0:0:0:
192,128,38667,1,0,0:0:0:0:
192,256,38917,1,2,0:0:0:0:
192,128,39167,1,0,0:0:0:0:
192,128,39334,1,0,0:0:0:0:
192,128,39500,1,0,0:0:0:0:
192,256,39667,1,2,0:0:0:0:
192,128,40000,1,0,0:0:0:0:
192,128,40166,1,0,0:0:0:0:
192,256,40333,1,2,0:0:0:0:
192,128,40666,1,0,0:0:0:0:
192,256,40834,1,2,0:0:0:0:
192,256,40917,1,2,0:0:0:0:
192,256,41000,1,2,0:0:0:0:
192,128,41333,1,0,0:0:0:0:
192,256,41583,1,2,0:0:0:0:
192,128,41833,1,0,0:0:0:0:
192,128,42000,1,0,0:0:0:0:
192,128,42333,1,0,0:0:0:0:
192,256,42499,1,2,0:0:0:0:
192,256,42666,1,2,0:0:0:0:
192,256,42750,1,2,0:0:0:0:
192,256,42833,1,2,0:0:0:0:
192,128,42999,1,0,0:0:0:0:
192,128,43333,1,0,0:0:0:0:
192,256,43500,1,2,0:0:0:0:
192,256,43666,1,2,0:0:0:0:
192,128,44000,1,0,0:0:0:0:
192,256,44250,1,2,0:0:0:0:
192,128,44500,1,0,0:0:0:0:
192,256,44666,1,2,0:0:0:0:
192,128,44833,1,0,0:0:0:0:
192,256,44999,1,2,0:0:0:0:
192,256,45333,1,2,0:0:0:0:
192,256,45417,1,2,0:0:0:0:
192,256,45500,1,2,0:0:0:0:
192,128,45666,1,0,0:0:0:0:
192,128,46000,1,0,0:0:0:0:
192,256,46167,1,2,0:0:0:0:
192,256,46333,1,2,0:0:0:0:
192,128,46667,1,0,0:0:0:0:
192,256,46917,1,2,0:0:0:0:
192,128,47167,1,0,0:0:0:0:
192,256,47333,1,2,0:0:0:0:
192,256,47416,1,2,0:0:0:0:
192,256,47499,1,2,0:0:0:0:
192,128,47667,1,0,0:0:0:0:
192,256,47833,1,2,0:0:0:0:
192,128,48000,1,0,0:0:0:0:
192,256,48166,1,2,0:0:0:0:
192,256,48333,1,2,0:0:0:0:
192,128,48666,1,0,0:0:0:0:
192,256,48833,1,2,0:0:0:0:
192,256,49000,1,2,0:0:0:0:
192,128,49166,1,0,0:0:0:0:
192,128,49249,1,0,0:0:0:0:
192,128,49333,1,0,0:0:0:0:
192,256,49500,1,2,0:0:0:0:
192,256,49666,1,2,0:0:0:0:
192,128,49999,1,0,0:0:0:0:
192,256,50166,1,2,0:0:0:0:
192,256,50250,1,2,0:0:0:0:
192,256,50333,1,2,0:0:0:0:
192,128,50499,1,0,0:0:0:0:
192,256,50666,1,2,0:0:0:0:
192,256,50833,1,2,0:0:0:0:
192,256,51000,1,2,0:0:0:0:
192,256,51166,1,2,0:0:0:0:
192,128,51333,1,0,0:0:0:0:
192,128,51500,1,0,0:0:0:0:
192,128,51666,1,0,0:0:0:0:
192,128,51833,1,0,0:0:0:0:
192,256,52000,1,2,0:0:0:0:
192,256,52166,1,2,0:0:0:0:
192,128,52333,1,0,0:0:0:0:
192,128,52500,1,0,0:0:0:0:
192,256,52666,1,2,0:0:0:0:
192,256,52833,1,2,0:0:0:0:
192,128,53000,1,0,0:0:0:0:
192,128,53166,1,0,0:0:0:0:
192,256,53333,1,2,0:0:0:0:
192,128,53500,1,0,0:0:0:0:
192,256,53666,1,2,0:0:0:0:
192,128,53833,1,0,0:0:0:0:
192,256,54000,1,2,0:0:0:0:
192,256,54166,1,2,0:0:0:0:
192,256,54333,1,2,0:0:0:0:
192,256,54500,1,2,0:0:0:0:
192,128,54666,1,0,0:0:0:0:
192,128,55333,1,0,0:0:0:0:
192,128,56000,1,0,0:0:0:0:
192,128,56500,1,0,0:0:0:0:
192,128,56833,1,0,0:0:0:0:
