osu file format v14

[General]
AudioFilename: audio.mp3
AudioLeadIn: 0
PreviewTime: 209567
Countdown: 0
SampleSet: Normal
StackLeniency: 0.7
Mode: 1
LetterboxInBreaks: 0
WidescreenStoryboard: 0

[Editor]
Bookmarks: 239095
DistanceSpacing: 1
BeatDivisor: 4
GridSize: 16
TimelineZoom: 4.278013

[Metadata]
Title:Speed of Link
TitleUnicode:Speed of Link
Artist:antiPLUR
ArtistUnicode:antiPLUR
Creator:Nishizumi
Version:Unstoppable
Source:osu!
Tags:featured artist fa chiptune Aaron Dictor Internet Death Machine 8-bit electronic instrumental
BeatmapID:2401518
BeatmapSetID:1142127

[Difficulty]
HPDrainRate:6
CircleSize:5
OverallDifficulty:8
ApproachRate:5
SliderMultiplier:1.4
SliderTickRate:1

[Events]
//Background and Video events
0,0,"Dark Curve Desktop Abstract Speed - 1920x1200.jpg",0,-90
//Break Periods
//Storyboard Layer 0 (Background)
//Storyboard Layer 1 (Fail)
//Storyboard Layer 2 (Pass)
//Storyboard Layer 3 (Foreground)
//Storyboard Layer 4 (Overlay)
//Storyboard Sound Samples

[TimingPoints]
162,250,4,1,0,70,1,0
16162,-100,4,1,0,70,0,1
48162,-100,4,1,0,70,0,0
175162,-100,4,1,0,70,0,0
175287,-99.8963187922834,4,1,0,70,0,0
175412,-99.7927450824952,4,1,0,70,0,0
175537,-99.6892787591801,4,1,0,70,0,0
175662,-99.5859197109987,4,1,0,70,0,0
175787,-99.4826678267267,4,1,0,70,0,0
175912,-99.3795229952553,4,1,0,70,0,0
176037,-99.2764851055908,4,1,0,70,0,0
176162,247.933884297521,4,1,0,70,1,0
176162,-100,4,1,0,70,0,0
176285,-99.8461125255801,4,1,0,70,0,0
176409,-99.692461864708,4,1,0,70,0,0
176533,-99.5390476529573,4,1,0,70,0,0
176657,-99.3858695264625,4,1,0,70,0,0
176781,-99.2329271219179,4,1,0,70,0,0
176905,-99.080220076577,4,1,0,70,0,0
177029,-98.9277480282515,4,1,0,70,0,0
177153,244.897959183673,4,1,0,70,1,0
177153,-100,4,1,0,70,0,0
177275,-99.5500645966401,4,1,0,70,0,0
177397,-99.1021536119522,4,1,0,70,0,0
177520,-98.65625793736,4,1,0,70,0,0
177642,-98.2123685052698,4,1,0,70,0,0
177765,-97.7704762888863,4,1,0,70,0,0
177887,-97.3305723020291,4,1,0,70,0,0
178010,-96.8926475989495,4,1,0,70,0,0
178132,236.220472440945,4,1,0,70,1,0
178132,-100,4,1,0,70,0,0
178250,-99.2599591292972,4,1,0,70,0,0
178368,-98.5253948634976,4,1,0,70,0,0
178486,-97.7962666734864,4,1,0,70,0,0
178604,-97.0725343300812,4,1,0,70,0,0
178722,-96.3541579018116,4,1,0,70,0,0
178840,-95.6410977527167,4,1,0,70,0,0
178958,-94.9333145401579,4,1,0,70,0,0
179076,-94.2307692126479,4,1,0,70,0,0
180021,230.769230769231,4,1,0,70,1,1
224328,-100,4,1,0,70,0,0
250174,-100,4,1,0,70,0,0
250232,-100.012066425441,4,1,0,70,0,0
250289,-100.024134306868,4,1,0,70,0,0
250347,-100.036203644457,4,1,0,70,0,0
250405,-100.048274438383,4,1,0,70,0,0
250462,-100.060346688823,4,1,0,70,0,0
250520,-100.072420395952,4,1,0,70,0,0
250578,-100.084495559946,4,1,0,70,0,0
250636,-100.096572180981,4,1,0,70,0,0
250693,-100.108650259232,4,1,0,70,0,0
250751,-100.120729794875,4,1,0,70,0,0
250809,-100.132810788086,4,1,0,70,0,0
250866,-100.144893239042,4,1,0,70,0,0
250924,-100.156977147917,4,1,0,70,0,0
250982,-100.169062514889,4,1,0,70,0,0
251039,-100.181149340132,4,1,0,70,0,0
251097,-100.193237623823,4,1,0,70,0,0
251155,-100.205327366137,4,1,0,70,0,0
251212,-100.217418567251,4,1,0,70,0,0
251270,-100.229511227342,4,1,0,70,0,0
251328,-100.241605346583,4,1,0,70,0,0
251386,-100.253700925153,4,1,0,70,0,0
251443,-100.265797963227,4,1,0,70,0,0
251501,-100.277896460981,4,1,0,70,0,0
251559,-100.289996418591,4,1,0,70,0,0
251616,-100.302097836233,4,1,0,70,0,0
251674,-100.314200714084,4,1,0,70,0,0
251732,-100.32630505232,4,1,0,70,0,0
251789,-100.338410851117,4,1,0,70,0,0
251847,-100.35051811065,4,1,0,70,0,0
251905,-100.362626831098,4,1,0,70,0,0
251962,-100.374737012635,4,1,0,70,0,0
252020,-100.386848655438,4,1,0,70,0,0
252078,-100.398961759683,4,1,0,70,0,0
252136,-100.411076325547,4,1,0,70,0,0
252193,-100.423192353206,4,1,0,70,0,0
252251,-100.435309842837,4,1,0,70,0,0
252309,-100.447428794615,4,1,0,70,0,0
252366,-100.459549208718,4,1,0,70,0,0
252424,-100.471671085321,4,1,0,70,0,0
252482,-100.483794424602,4,1,0,70,0,0
252539,-100.495919226736,4,1,0,70,0,0
252597,-100.508045491901,4,1,0,70,0,0
252655,-100.520173220272,4,1,0,70,0,0
252712,-100.532302412027,4,1,0,70,0,0
252770,-100.544433067341,4,1,0,70,0,0
252828,-100.556565186392,4,1,0,70,0,0
252886,-100.568698769356,4,1,0,70,0,0
252943,-100.58083381641,4,1,0,70,0,0
253001,-100.59297032773,4,1,0,70,0,0
253059,-100.605108303493,4,1,0,70,0,0
253116,-100.617247743876,4,1,0,70,0,0
253174,-100.629388649056,4,1,0,70,0,0
253232,-100.641531019209,4,1,0,70,0,0
253289,-100.653674854512,4,1,0,70,0,0
253347,-100.665820155141,4,1,0,70,0,0
253405,-100.677966921275,4,1,0,70,0,0
253462,-100.690115153089,4,1,0,70,0,0
253520,-100.70226485076,4,1,0,70,0,0
253578,-100.714416014465,4,1,0,70,0,0
253636,-100.726568644382,4,1,0,70,0,0
253693,-100.738722740686,4,1,0,70,0,0
253751,-100.750878303556,4,1,0,70,0,0
253809,-100.763035333167,4,1,0,70,0,0
253866,-100.775193829698,4,1,0,70,0,0
253867,232.558139534884,4,1,0,70,1,0
253867,-100,4,1,0,70,0,0
253925,-100.097704444327,4,1,0,70,0,0
253983,-100.195504350238,4,1,0,70,0,0
254041,-100.293399811004,4,1,0,70,0,0
254099,-100.391390919986,4,1,0,70,0,0
254157,-100.489477770637,4,1,0,70,0,0
254215,-100.5876604565,4,1,0,70,0,0
254273,-100.68593907121,4,1,0,70,0,0
254332,233.463035019456,4,1,0,70,1,8
254332,-100,4,1,0,70,0,0
254390,-100.049128045297,4,1,0,70,0,0
254448,-100.098280226242,4,1,0,70,0,0
254507,-100.147456554693,4,1,0,70,0,0
254565,-100.196657042513,4,1,0,70,0,0
254623,-100.245881701571,4,1,0,70,0,0
254682,-100.295130543742,4,1,0,70,0,0
254739,-100.344403580906,4,1,0,70,0,0
254798,235.294117647059,4,1,0,70,1,0
254798,-100,4,1,0,70,0,0
254856,-100.049128045297,4,1,0,70,0,0
254915,-100.098280226242,4,1,0,70,0,0
254974,-100.147456554693,4,1,0,70,0,0
255033,-100.196657042513,4,1,0,70,0,0
255092,-100.245881701571,4,1,0,70,0,0
255150,-100.295130543742,4,1,0,70,0,0
255209,-100.344403580906,4,1,0,70,0,0
255268,236.220472440945,4,1,0,70,1,8
255268,-100,4,1,0,70,0,0
255327,-100.148626943891,4,1,0,70,0,0
255386,-100.297474787466,4,1,0,70,0,0
255445,-100.446543859042,4,1,0,70,0,0
255504,-100.595834487423,4,1,0,70,0,0
255563,-100.745347001903,4,1,0,70,0,0
255622,-100.895081732264,4,1,0,70,0,0
255681,-101.045039008778,4,1,0,70,0,0
255740,239.043824701195,4,1,0,70,1,0
255740,-100,4,1,0,70,0,0
255799,-100.049912721325,4,1,0,70,0,0
255859,-100.099850355447,4,1,0,70,0,0
255919,-100.149812914801,4,1,0,70,0,0
255979,-100.199800411828,4,1,0,70,0,0
256038,-100.249812858976,4,1,0,70,0,0
256098,-100.299850268697,4,1,0,70,0,0
256158,-100.34991265345,4,1,0,70,0,0
256218,240,4,1,0,70,1,8
256218,-100,4,1,0,70,0,0
256278,-100.100452566043,4,1,0,70,0,0
256338,-100.201006039267,4,1,0,70,0,0
256398,-100.301660521035,4,1,0,70,0,0
256458,-100.402416112812,4,1,0,70,0,0
256518,-100.503272916167,4,1,0,70,0,0
256578,-100.604231032769,4,1,0,70,0,0
256638,-100.70529056439,4,1,0,70,0,0
256698,241.935483870968,4,1,0,70,1,0
256698,-100,4,1,0,70,0,0
256758,-100.101266366077,4,1,0,70,0,0
256818,-100.202635280922,4,1,0,70,0,0
256879,-100.304106848384,4,1,0,70,0,0
256939,-100.405681172415,4,1,0,70,0,0
257000,-100.507358357073,4,1,0,70,0,0
257060,-100.609138506521,4,1,0,70,0,0
257121,-100.711021725028,4,1,0,70,0,0
257181,243.902439024391,4,1,0,70,1,8
257181,-100,4,1,0,70,0,0
257241,-100.153493839402,4,1,0,70,0,0
257302,-100.30722328239,4,1,0,70,0,0
257363,-100.461188690604,4,1,0,70,0,0
257424,-100.615390426233,4,1,0,70,0,0
257485,-100.769828852027,4,1,0,70,0,0
257546,-100.924504331291,4,1,0,70,0,0
257607,-101.079417227886,4,1,0,70,0,0
257668,246.913580246914,4,1,0,70,1,0
257668,-100,4,1,0,70,0,0
257729,-100.051559748034,4,1,0,70,0,0
257791,-100.103146080144,4,1,0,70,0,0
257853,-100.154759010036,4,1,0,70,0,0
257914,-100.206398551426,4,1,0,70,0,0
257976,-100.258064718032,4,1,0,70,0,0
258038,-100.309757523584,4,1,0,70,0,0
258100,-100.361476981817,4,1,0,70,0,0
258161,247.933884297521,4,1,0,70,1,8
258161,-100,4,1,0,70,0,0
258222,-100.103788860979,4,1,0,70,0,0
258284,-100.207685443235,4,1,0,70,0,0
258346,-100.31168985857,4,1,0,70,0,0
258408,-100.415802218904,4,1,0,70,0,0
258470,-100.52002263627,4,1,0,70,0,0
258532,-100.62435122282,4,1,0,70,0,0
258594,-100.728788090822,4,1,0,70,0,0
258656,250,4,1,0,70,1,0
258656,-100,4,1,0,70,0,0
258718,-100.078648300362,4,1,0,70,0,0
258781,-100.157358456276,4,1,0,70,0,0
258843,-100.236130516389,4,1,0,70,0,0
258906,-100.314964529389,4,1,0,70,0,0
258968,-100.393860544,4,1,0,70,0,0
259031,-100.472818608986,4,1,0,70,0,0
259093,-100.551838773148,4,1,0,70,0,0
259156,-100.630921085326,4,1,0,70,0,0
259218,-100.710065594398,4,1,0,70,0,0
259281,-100.789272349281,4,1,0,70,0,0
259343,-100.868541398931,4,1,0,70,0,0
259406,-100.947872792342,4,1,0,70,0,0
259468,-101.027266578545,4,1,0,70,0,0
259531,-101.106722806611,4,1,0,70,0,0
259593,-101.18624152565,4,1,0,70,0,0
259656,253.164556962026,4,1,0,70,1,0
259656,-100,4,1,0,70,0,0
259719,-100.07965061634,4,1,0,70,0,0
259782,-100.159364674887,4,1,0,70,0,0
259845,-100.239142226172,4,1,0,70,0,0
259909,-100.318983320769,4,1,0,70,0,0
259972,-100.39888800929,4,1,0,70,0,0
260035,-100.478856342388,4,1,0,70,0,0
260099,-100.558888370756,4,1,0,70,0,0
260162,-100.638984145128,4,1,0,70,0,0
260225,-100.719143716278,4,1,0,70,0,0
260288,-100.79936713502,4,1,0,70,0,0
260352,-100.87965445221,4,1,0,70,0,0
260415,-100.960005718743,4,1,0,70,0,0
260478,-101.040420985554,4,1,0,70,0,0
260542,-101.120900303622,4,1,0,70,0,0
260605,-101.201443723962,4,1,0,70,0,0
260668,256.410256410257,4,1,0,70,1,0
260668,-100,4,1,0,70,0,0
260732,-100.215754996087,4,1,0,70,0,0
260796,-100.431975494357,4,1,0,70,0,0
260860,-100.648662499155,4,1,0,70,0,0
260924,-100.865817016991,4,1,0,70,0,0
260988,-101.083440056549,4,1,0,70,0,0
261052,-101.301532628687,4,1,0,70,0,0
261116,-101.520095746446,4,1,0,70,0,0
261180,260.869565217392,4,1,0,70,1,8
261245,-100.164250883957,4,1,0,70,0,0
261310,-100.328771551443,4,1,0,70,0,0
261375,-100.49356244558,4,1,0,70,0,0
261440,-100.658624010217,4,1,0,70,0,0
261506,-100.823956689933,4,1,0,70,0,0
261571,-100.989560930037,4,1,0,70,0,0
261636,-101.155437176569,4,1,0,70,0,0
261701,264.317180616741,4,1,0,70,1,0
261701,-100,4,1,0,70,0,0
261767,-100.111676127652,4,1,0,70,0,0
261833,-100.223476970878,4,1,0,70,0,0
261899,-100.335402668957,4,1,0,70,0,0
261965,-100.447453361322,4,1,0,70,0,0
262031,-100.55962918756,4,1,0,70,0,0
262097,-100.671930287418,4,1,0,70,0,0
262163,-100.784356800795,4,1,0,70,0,0
262229,-100.896908867749,4,1,0,70,0,0
262295,-101.009586628493,4,1,0,70,0,0
262361,-101.122390223396,4,1,0,70,0,0
262427,-101.235319792987,4,1,0,70,0,0
262493,-101.348375477947,4,1,0,70,0,0
262560,-101.461557419119,4,1,0,70,0,0
262626,-101.5748657575,4,1,0,70,0,0
262692,-101.688300634245,4,1,0,70,0,0
262758,-101.801862190668,4,1,0,70,0,0
262824,-101.91555056824,4,1,0,70,0,0
262890,-102.02936590859,4,1,0,70,0,0
262956,-102.143308353504,4,1,0,70,0,0
263022,-102.257378044929,4,1,0,70,0,0
263088,-102.371575124967,4,1,0,70,0,0
263154,-102.485899735883,4,1,0,70,0,0
263220,-102.600352020097,4,1,0,70,0,0
263286,271.493212669684,4,1,0,70,1,8
263286,-100,4,1,0,70,0,0
263353,-100.028348738046,4,1,0,70,0,0
263421,-100.056705512602,4,1,0,70,0,0
263489,-100.085070325945,4,1,0,70,0,0
263557,-100.113443180355,4,1,0,70,0,0
263625,-100.141824078112,4,1,0,70,0,0
263693,-100.170213021494,4,1,0,70,0,0
263760,-100.198610012784,4,1,0,70,0,0
263828,271.493212669684,4,1,0,70,1,0
263828,-100.227015054263,4,1,0,70,0,0
263895,-100.255428148212,4,1,0,70,0,0
263963,-100.283849296915,4,1,0,70,0,0
264031,-100.312278502655,4,1,0,70,0,0
264099,-100.340715767716,4,1,0,70,0,0
264167,-100.369161094382,4,1,0,70,0,0
264235,-100.39761448494,4,1,0,70,0,0
264303,-100.426075941675,4,1,0,70,0,0
264370,272.727272727273,4,1,0,70,1,8
264370,-100,4,1,0,70,0,0
264438,-100.056963930694,4,1,0,70,0,0
264506,-100.113960310283,4,1,0,70,0,0
264574,-100.170989157249,4,1,0,70,0,0
264642,-100.228050490088,4,1,0,70,0,0
264710,-100.285144327306,4,1,0,70,0,0
264779,-100.342270687417,4,1,0,70,0,0
264847,-100.399429588948,4,1,0,70,0,0
264915,273.972602739726,4,1,0,70,1,0
264915,-100,4,1,0,70,0,0
264983,-100.230686942608,4,1,0,70,0,0
265051,-100.46190604987,4,1,0,70,0,0
265120,-100.693658549422,4,1,0,70,0,0
265188,-100.925945671729,4,1,0,70,0,0
265257,-101.158768650097,4,1,0,70,0,0
265325,-101.392128720675,4,1,0,70,0,0
265394,-101.626027122466,4,1,0,70,0,0
265462,279.069767441861,4,1,0,70,1,8
265462,-100,4,1,0,70,0,0
265531,-100.058428705677,4,1,0,70,0,0
265601,-100.11689155049,4,1,0,70,0,0
265671,-100.175388554387,4,1,0,70,0,0
265741,-100.233919737327,4,1,0,70,0,0
265810,-100.292485119278,4,1,0,70,0,0
265880,-100.351084720225,4,1,0,70,0,0
265950,-100.40971856016,4,1,0,70,0,0
266020,279.069767441861,4,1,0,70,1,0
266020,-100.468386659088,4,1,0,70,0,0
266089,-100.527089037028,4,1,0,70,0,0
266159,-100.585825714007,4,1,0,70,0,0
266229,-100.644596710066,4,1,0,70,0,0
266299,-100.703402045257,4,1,0,70,0,0
266368,-100.762241739645,4,1,0,70,0,0
266438,-100.821115813305,4,1,0,70,0,0
266508,-100.880024286323,4,1,0,70,0,0
266578,281.690140845071,4,1,0,70,1,8
266578,-100,4,1,0,70,0,0
266648,-100.177465220331,4,1,0,70,0,0
266718,-100.355245379706,4,1,0,70,0,0
266789,-100.533341037033,4,1,0,70,0,0
266859,-100.711752752211,4,1,0,70,0,0
266930,-100.890481086132,4,1,0,70,0,0
267000,-101.069526600684,4,1,0,70,0,0
267070,-101.248889858754,4,1,0,70,0,0
267141,285.714285714286,4,1,0,70,1,0
267141,-100,4,1,0,70,0,0
267212,-100.08997005606,4,1,0,70,0,0
267283,-100.180021058229,4,1,0,70,0,0
267355,-100.270153079336,4,1,0,70,0,0
267426,-100.360366192272,4,1,0,70,0,0
267498,-100.450660469997,4,1,0,70,0,0
267569,-100.541035985534,4,1,0,70,0,0
267641,-100.631492811973,4,1,0,70,0,0
267712,-100.72203102247,4,1,0,70,0,0
267783,-100.812650690245,4,1,0,70,0,0
267855,-100.903351888586,4,1,0,70,0,0
267926,-100.994134690846,4,1,0,70,0,0
267998,-101.084999170444,4,1,0,70,0,0
268069,-101.175945400866,4,1,0,70,0,0
268141,-101.266973455662,4,1,0,70,0,0
268212,-101.35808340845,4,1,0,70,0,0
268283,289.855072463769,4,1,0,70,1,0
268283,-100,4,1,0,70,0,0
268355,-100.121433851023,4,1,0,70,0,0
268427,-100.243015163849,4,1,0,70,0,0
268500,-100.364744117544,4,1,0,70,0,0
268572,-100.486620891396,4,1,0,70,0,0
268645,-100.608645664907,4,1,0,70,0,0
268717,-100.730818617801,4,1,0,70,0,0
268790,-100.853139930016,4,1,0,70,0,0
268862,292.682926829269,4,1,0,70,1,8
268862,-100,4,1,0,70,0,0
268935,-100.122625129955,4,1,0,70,0,0
269008,-100.245400629135,4,1,0,70,0,0
269081,-100.368326681931,4,1,0,70,0,0
269154,-100.491403472958,4,1,0,70,0,0
269227,-100.614631187061,4,1,0,70,0,0
269301,-100.738010009308,4,1,0,70,0,0
269374,-100.861540124996,4,1,0,70,0,0
269447,295.566502463055,4,1,0,70,1,0
269520,-100.123840008945,4,1,0,70,0,0
269594,-100.247833381368,4,1,0,70,0,0
269668,-100.371980307195,4,1,0,70,0,0
269742,-100.496280976585,4,1,0,70,0,0
269816,-100.620735579936,4,1,0,70,0,0
269890,-100.745344307878,4,1,0,70,0,0
269964,-100.870107351281,4,1,0,70,0,0
270038,298.507462686568,4,1,0,70,1,8
270038,-100,4,1,0,70,0,0
270112,-100.062363702214,4,1,0,70,0,0
270187,-100.124766296741,4,1,0,70,0,0
270261,-100.187207807836,4,1,0,70,0,0
270336,-100.24968825977,4,1,0,70,0,0
270411,-100.312207676826,4,1,0,70,0,0
270485,-100.374766083306,4,1,0,70,0,0

[HitObjects]
256,192,162,5,0,0:0:0:0:
256,192,287,1,2,0:0:0:0:
256,192,412,1,2,0:0:0:0:
256,192,537,1,2,0:0:0:0:
256,192,662,1,0,0:0:0:0:
256,192,787,1,2,0:0:0:0:
256,192,912,1,2,0:0:0:0:
256,192,1037,1,2,0:0:0:0:
256,192,1162,1,0,0:0:0:0:
256,192,1287,1,2,0:0:0:0:
256,192,1412,1,2,0:0:0:0:
256,192,1537,1,2,0:0:0:0:
256,192,1662,1,0,0:0:0:0:
256,192,1787,1,2,0:0:0:0:
256,192,1912,1,2,0:0:0:0:
256,192,2037,1,2,0:0:0:0:
256,192,2162,1,0,0:0:0:0:
256,192,2287,1,2,0:0:0:0:
256,192,2412,1,0,0:0:0:0:
256,192,2537,1,2,0:0:0:0:
256,192,2662,1,0,0:0:0:0:
256,192,2787,1,2,0:0:0:0:
256,192,2912,1,0,0:0:0:0:
256,192,3037,1,2,0:0:0:0:
256,192,3162,1,0,0:0:0:0:
256,192,3287,1,2,0:0:0:0:
256,192,3412,1,0,0:0:0:0:
256,192,3537,1,2,0:0:0:0:
256,192,3662,1,0,0:0:0:0:
256,192,3787,1,2,0:0:0:0:
256,192,3912,1,0,0:0:0:0:
256,192,4037,1,2,0:0:0:0:
256,192,4162,1,0,0:0:0:0:
256,192,4287,1,0,0:0:0:0:
256,192,4412,1,0,0:0:0:0:
256,192,4537,1,2,0:0:0:0:
256,192,4662,1,0,0:0:0:0:
256,192,4787,1,0,0:0:0:0:
256,192,4912,1,0,0:0:0:0:
256,192,5037,1,2,0:0:0:0:
256,192,5162,1,0,0:0:0:0:
256,192,5287,1,0,0:0:0:0:
256,192,5412,1,0,0:0:0:0:
256,192,5537,1,2,0:0:0:0:
256,192,5662,1,0,0:0:0:0:
256,192,5787,1,0,0:0:0:0:
256,192,5912,1,0,0:0:0:0:
256,192,6037,1,2,0:0:0:0:
256,192,6162,1,0,0:0:0:0:
256,192,6287,1,2,0:0:0:0:
256,192,6412,1,2,0:0:0:0:
256,192,6537,1,0,0:0:0:0:
256,192,6662,1,2,0:0:0:0:
256,192,6787,1,2,0:0:0:0:
256,192,6912,1,0,0:0:0:0:
256,192,7037,1,2,0:0:0:0:
256,192,7162,1,0,0:0:0:0:
256,192,7287,1,2,0:0:0:0:
256,192,7412,1,2,0:0:0:0:
256,192,7537,1,0,0:0:0:0:
256,192,7662,1,2,0:0:0:0:
256,192,7787,1,2,0:0:0:0:
256,192,7912,1,0,0:0:0:0:
256,192,8037,1,2,0:0:0:0:
256,192,8162,5,0,0:0:0:0:
256,192,8287,1,0,0:0:0:0:
256,192,8412,1,2,0:0:0:0:
256,192,8537,1,0,0:0:0:0:
256,192,8662,1,2,0:0:0:0:
256,192,8787,1,2,0:0:0:0:
256,192,8912,1,2,0:0:0:0:
256,192,9037,1,2,0:0:0:0:
256,192,9162,1,0,0:0:0:0:
256,192,9287,1,0,0:0:0:0:
256,192,9412,1,2,0:0:0:0:
256,192,9537,1,2,0:0:0:0:
256,192,9662,1,0,0:0:0:0:
256,192,9787,1,2,0:0:0:0:
256,192,9912,1,2,0:0:0:0:
256,192,10037,1,2,0:0:0:0:
256,192,10162,1,0,0:0:0:0:
256,192,10287,1,0,0:0:0:0:
256,192,10412,1,2,0:0:0:0:
256,192,10537,1,0,0:0:0:0:
256,192,10662,1,0,0:0:0:0:
256,192,10787,1,2,0:0:0:0:
256,192,10912,1,2,0:0:0:0:
256,192,11037,1,2,0:0:0:0:
256,192,11162,1,0,0:0:0:0:
256,192,11287,1,2,0:0:0:0:
256,192,11412,1,2,0:0:0:0:
256,192,11537,1,0,0:0:0:0:
256,192,11662,1,2,0:0:0:0:
256,192,11787,1,2,0:0:0:0:
256,192,11912,1,2,0:0:0:0:
256,192,12037,1,2,0:0:0:0:
256,192,12162,1,0,0:0:0:0:
256,192,12287,1,0,0:0:0:0:
256,192,12412,1,2,0:0:0:0:
256,192,12537,1,0,0:0:0:0:
256,192,12662,1,2,0:0:0:0:
256,192,12787,1,2,0:0:0:0:
256,192,12912,1,2,0:0:0:0:
256,192,13037,1,2,0:0:0:0:
256,192,13162,1,0,0:0:0:0:
256,192,13287,1,0,0:0:0:0:
256,192,13412,1,2,0:0:0:0:
256,192,13537,1,2,0:0:0:0:
256,192,13662,1,0,0:0:0:0:
256,192,13787,1,2,0:0:0:0:
256,192,13912,1,2,0:0:0:0:
256,192,14037,1,2,0:0:0:0:
256,192,14162,1,0,0:0:0:0:
256,192,14287,1,0,0:0:0:0:
256,192,14412,1,2,0:0:0:0:
256,192,14537,1,0,0:0:0:0:
256,192,14662,1,0,0:0:0:0:
256,192,14787,1,2,0:0:0:0:
256,192,14912,1,2,0:0:0:0:
256,192,15037,1,2,0:0:0:0:
256,192,15162,1,0,0:0:0:0:
256,192,15287,1,2,0:0:0:0:
256,192,15412,1,2,0:0:0:0:
256,192,15537,1,0,0:0:0:0:
256,192,15662,1,2,0:0:0:0:
256,192,15787,1,2,0:0:0:0:
256,192,15912,5,2,0:0:0:0:
256,192,15974,1,2,0:0:0:0:
256,192,16037,1,2,0:0:0:0:
256,192,16099,1,2,0:0:0:0:
256,192,16162,1,0,0:0:0:0:
256,192,16224,1,0,0:0:0:0:
256,192,16286,1,2,0:0:0:0:
256,192,16349,1,0,0:0:0:0:
256,192,16412,1,0,0:0:0:0:
256,192,16474,1,0,0:0:0:0:
256,192,16537,1,2,0:0:0:0:
256,192,16599,1,2,0:0:0:0:
256,192,16662,1,0,0:0:0:0:
256,192,16724,1,0,0:0:0:0:
256,192,16787,1,2,0:0:0:0:
256,192,16849,1,0,0:0:0:0:
256,192,16912,1,0,0:0:0:0:
256,192,16974,1,0,0:0:0:0:
256,192,17037,1,2,0:0:0:0:
256,192,17099,1,2,0:0:0:0:
256,192,17162,1,0,0:0:0:0:
256,192,17224,1,0,0:0:0:0:
256,192,17287,1,2,0:0:0:0:
256,192,17349,1,2,0:0:0:0:
256,192,17412,1,2,0:0:0:0:
256,192,17474,1,0,0:0:0:0:
256,192,17537,1,2,0:0:0:0:
256,192,17599,1,0,0:0:0:0:
256,192,17662,1,0,0:0:0:0:
256,192,17724,1,0,0:0:0:0:
256,192,17787,1,2,0:0:0:0:
256,192,17849,1,2,0:0:0:0:
256,192,17912,1,2,0:0:0:0:
256,192,17974,1,0,0:0:0:0:
256,192,18037,1,2,0:0:0:0:
256,192,18099,1,0,0:0:0:0:
256,192,18162,1,0,0:0:0:0:
256,192,18224,1,0,0:0:0:0:
256,192,18287,1,2,0:0:0:0:
256,192,18349,1,0,0:0:0:0:
256,192,18412,1,2,0:0:0:0:
256,192,18474,1,0,0:0:0:0:
256,192,18537,1,2,0:0:0:0:
256,192,18599,1,2,0:0:0:0:
256,192,18662,1,0,0:0:0:0:
256,192,18724,1,0,0:0:0:0:
256,192,18787,1,2,0:0:0:0:
256,192,18849,1,0,0:0:0:0:
256,192,18912,1,2,0:0:0:0:
256,192,18974,1,0,0:0:0:0:
256,192,19037,1,2,0:0:0:0:
256,192,19099,1,2,0:0:0:0:
256,192,19162,1,0,0:0:0:0:
256,192,19224,1,0,0:0:0:0:
256,192,19287,1,2,0:0:0:0:
256,192,19349,1,2,0:0:0:0:
256,192,19412,1,0,0:0:0:0:
256,192,19474,1,0,0:0:0:0:
256,192,19537,1,2,0:0:0:0:
256,192,19599,1,2,0:0:0:0:
256,192,19662,1,0,0:0:0:0:
256,192,19724,1,0,0:0:0:0:
256,192,19787,1,2,0:0:0:0:
256,192,19849,1,2,0:0:0:0:
256,192,19912,1,0,0:0:0:0:
256,192,19974,1,0,0:0:0:0:
256,192,20037,1,2,0:0:0:0:
256,192,20099,1,2,0:0:0:0:
256,192,20162,1,0,0:0:0:0:
256,192,20224,1,0,0:0:0:0:
256,192,20287,1,2,0:0:0:0:
256,192,20349,1,0,0:0:0:0:
256,192,20412,1,2,0:0:0:0:
256,192,20474,1,2,0:0:0:0:
256,192,20537,1,0,0:0:0:0:
256,192,20599,1,2,0:0:0:0:
256,192,20662,1,0,0:0:0:0:
256,192,20724,1,0,0:0:0:0:
256,192,20787,1,2,0:0:0:0:
256,192,20849,1,0,0:0:0:0:
256,192,20912,1,2,0:0:0:0:
256,192,20974,1,2,0:0:0:0:
256,192,21037,1,0,0:0:0:0:
256,192,21099,1,2,0:0:0:0:
256,192,21162,1,0,0:0:0:0:
256,192,21224,1,0,0:0:0:0:
256,192,21287,1,2,0:0:0:0:
256,192,21349,1,2,0:0:0:0:
256,192,21412,1,0,0:0:0:0:
256,192,21474,1,2,0:0:0:0:
256,192,21537,1,2,0:0:0:0:
256,192,21599,1,2,0:0:0:0:
256,192,21662,1,0,0:0:0:0:
256,192,21724,1,0,0:0:0:0:
256,192,21787,1,2,0:0:0:0:
256,192,21849,1,2,0:0:0:0:
256,192,21912,1,0,0:0:0:0:
256,192,21974,1,2,0:0:0:0:
256,192,22037,1,2,0:0:0:0:
256,192,22099,1,2,0:0:0:0:
256,192,22162,1,0,0:0:0:0:
256,192,22224,1,0,0:0:0:0:
256,192,22287,1,2,0:0:0:0:
256,192,22349,1,2,0:0:0:0:
256,192,22412,1,2,0:0:0:0:
256,192,22474,1,0,0:0:0:0:
256,192,22537,1,2,0:0:0:0:
256,192,22599,1,2,0:0:0:0:
256,192,22662,1,0,0:0:0:0:
256,192,22724,1,0,0:0:0:0:
256,192,22787,1,2,0:0:0:0:
256,192,22849,1,2,0:0:0:0:
256,192,22912,1,2,0:0:0:0:
256,192,22974,1,0,0:0:0:0:
256,192,23037,1,2,0:0:0:0:
256,192,23099,1,2,0:0:0:0:
256,192,23162,1,0,0:0:0:0:
256,192,23224,1,2,0:0:0:0:
256,192,23287,1,2,0:0:0:0:
256,192,23349,1,2,0:0:0:0:
256,192,23412,1,0,0:0:0:0:
256,192,23474,1,2,0:0:0:0:
256,192,23537,1,2,0:0:0:0:
256,192,23599,1,2,0:0:0:0:
256,192,23662,1,0,0:0:0:0:
256,192,23724,1,2,0:0:0:0:
256,192,23787,1,2,0:0:0:0:
256,192,23849,1,2,0:0:0:0:
256,192,23912,1,0,0:0:0:0:
256,192,23974,1,2,0:0:0:0:
256,192,24037,1,2,0:0:0:0:
256,192,24099,1,2,0:0:0:0:
256,192,24162,5,0,0:0:0:0:
256,192,24224,1,0,0:0:0:0:
256,192,24287,1,2,0:0:0:0:
256,192,24349,1,0,0:0:0:0:
256,192,24412,1,0,0:0:0:0:
256,192,24474,1,0,0:0:0:0:
256,192,24537,1,2,0:0:0:0:
256,192,24599,1,2,0:0:0:0:
256,192,24662,1,0,0:0:0:0:
256,192,24724,1,0,0:0:0:0:
256,192,24787,1,2,0:0:0:0:
256,192,24849,1,0,0:0:0:0:
256,192,24912,1,0,0:0:0:0:
256,192,24974,1,0,0:0:0:0:
256,192,25037,1,2,0:0:0:0:
256,192,25099,1,2,0:0:0:0:
256,192,25162,1,0,0:0:0:0:
256,192,25224,1,0,0:0:0:0:
256,192,25287,1,2,0:0:0:0:
256,192,25349,1,2,0:0:0:0:
256,192,25412,1,2,0:0:0:0:
256,192,25474,1,0,0:0:0:0:
256,192,25537,1,2,0:0:0:0:
256,192,25599,1,0,0:0:0:0:
256,192,25662,1,0,0:0:0:0:
256,192,25724,1,0,0:0:0:0:
256,192,25787,1,2,0:0:0:0:
256,192,25849,1,2,0:0:0:0:
256,192,25912,1,2,0:0:0:0:
256,192,25974,1,0,0:0:0:0:
256,192,26037,1,2,0:0:0:0:
256,192,26099,1,0,0:0:0:0:
256,192,26162,1,0,0:0:0:0:
256,192,26224,1,0,0:0:0:0:
256,192,26287,1,2,0:0:0:0:
256,192,26349,1,0,0:0:0:0:
256,192,26412,1,2,0:0:0:0:
256,192,26474,1,0,0:0:0:0:
256,192,26537,1,2,0:0:0:0:
256,192,26599,1,2,0:0:0:0:
256,192,26662,1,0,0:0:0:0:
256,192,26724,1,0,0:0:0:0:
256,192,26787,1,2,0:0:0:0:
256,192,26849,1,0,0:0:0:0:
256,192,26912,1,2,0:0:0:0:
256,192,26974,1,0,0:0:0:0:
256,192,27037,1,2,0:0:0:0:
256,192,27099,1,2,0:0:0:0:
256,192,27162,1,0,0:0:0:0:
256,192,27224,1,0,0:0:0:0:
256,192,27287,1,2,0:0:0:0:
256,192,27349,1,2,0:0:0:0:
256,192,27412,1,0,0:0:0:0:
256,192,27474,1,0,0:0:0:0:
256,192,27537,1,2,0:0:0:0:
256,192,27599,1,2,0:0:0:0:
256,192,27662,1,0,0:0:0:0:
256,192,27724,1,0,0:0:0:0:
256,192,27787,1,2,0:0:0:0:
256,192,27849,1,2,0:0:0:0:
256,192,27912,1,0,0:0:0:0:
256,192,27974,1,0,0:0:0:0:
256,192,28037,1,2,0:0:0:0:
256,192,28099,1,2,0:0:0:0:
256,192,28162,1,0,0:0:0:0:
256,192,28224,1,0,0:0:0:0:
256,192,28287,1,2,0:0:0:0:
256,192,28349,1,0,0:0:0:0:
256,192,28412,1,2,0:0:0:0:
256,192,28474,1,2,0:0:0:0:
256,192,28537,1,0,0:0:0:0:
256,192,28599,1,2,0:0:0:0:
256,192,28662,1,0,0:0:0:0:
256,192,28724,1,0,0:0:0:0:
256,192,28787,1,2,0:0:0:0:
256,192,28849,1,0,0:0:0:0:
256,192,28912,1,2,0:0:0:0:
256,192,28974,1,2,0:0:0:0:
256,192,29037,1,0,0:0:0:0:
256,192,29099,1,2,0:0:0:0:
256,192,29162,1,0,0:0:0:0:
256,192,29224,1,0,0:0:0:0:
256,192,29287,1,2,0:0:0:0:
256,192,29349,1,2,0:0:0:0:
256,192,29412,1,0,0:0:0:0:
256,192,29474,1,2,0:0:0:0:
256,192,29537,1,2,0:0:0:0:
256,192,29599,1,2,0:0:0:0:
256,192,29662,1,0,0:0:0:0:
256,192,29724,1,0,0:0:0:0:
256,192,29787,1,2,0:0:0:0:
256,192,29849,1,2,0:0:0:0:
256,192,29912,1,0,0:0:0:0:
256,192,29974,1,2,0:0:0:0:
256,192,30037,1,2,0:0:0:0:
256,192,30099,1,2,0:0:0:0:
256,192,30162,1,0,0:0:0:0:
256,192,30224,1,0,0:0:0:0:
256,192,30287,1,2,0:0:0:0:
256,192,30349,1,2,0:0:0:0:
256,192,30412,1,2,0:0:0:0:
256,192,30474,1,0,0:0:0:0:
256,192,30537,1,2,0:0:0:0:
256,192,30599,1,2,0:0:0:0:
256,192,30662,1,0,0:0:0:0:
256,192,30724,1,0,0:0:0:0:
256,192,30787,1,2,0:0:0:0:
256,192,30849,1,2,0:0:0:0:
256,192,30912,1,2,0:0:0:0:
256,192,30974,1,0,0:0:0:0:
256,192,31037,1,2,0:0:0:0:
256,192,31099,1,2,0:0:0:0:
256,192,31162,1,0,0:0:0:0:
256,192,31224,1,2,0:0:0:0:
256,192,31287,1,2,0:0:0:0:
256,192,31349,1,2,0:0:0:0:
256,192,31412,1,0,0:0:0:0:
256,192,31474,1,2,0:0:0:0:
256,192,31537,1,2,0:0:0:0:
256,192,31599,1,2,0:0:0:0:
256,192,31662,1,0,0:0:0:0:
256,192,31724,1,2,0:0:0:0:
256,192,31787,1,2,0:0:0:0:
256,192,31849,1,2,0:0:0:0:
256,192,31912,1,0,0:0:0:0:
256,192,31974,1,2,0:0:0:0:
256,192,32037,1,2,0:0:0:0:
256,192,32099,1,2,0:0:0:0:
256,192,32162,1,0,0:0:0:0:
256,192,32224,1,0,0:0:0:0:
256,192,32286,1,0,0:0:0:0:
256,192,32349,1,0,0:0:0:0:
256,192,32411,1,2,0:0:0:0:
256,192,32474,1,2,0:0:0:0:
256,192,32536,1,2,0:0:0:0:
256,192,32599,1,2,0:0:0:0:
256,192,32661,1,0,0:0:0:0:
256,192,32724,1,0,0:0:0:0:
256,192,32787,1,0,0:0:0:0:
256,192,32849,1,0,0:0:0:0:
256,192,32912,1,2,0:0:0:0:
256,192,32974,1,2,0:0:0:0:
256,192,33037,1,0,0:0:0:0:
256,192,33099,1,0,0:0:0:0:
256,192,33162,1,2,0:0:0:0:
256,192,33224,1,2,0:0:0:0:
256,192,33287,1,2,0:0:0:0:
256,192,33349,1,2,0:0:0:0:
256,192,33412,1,0,0:0:0:0:
256,192,33474,1,0,0:0:0:0:
256,192,33537,1,2,0:0:0:0:
256,192,33599,1,2,0:0:0:0:
256,192,33662,1,2,0:0:0:0:
256,192,33724,1,2,0:0:0:0:
256,192,33787,1,0,0:0:0:0:
256,192,33849,1,0,0:0:0:0:
256,192,33912,1,2,0:0:0:0:
256,192,33974,1,2,0:0:0:0:
256,192,34037,1,2,0:0:0:0:
256,192,34099,1,2,0:0:0:0:
256,192,34162,1,0,0:0:0:0:
256,192,34224,1,0,0:0:0:0:
256,192,34287,1,0,0:0:0:0:
256,192,34349,1,0,0:0:0:0:
256,192,34412,1,2,0:0:0:0:
256,192,34474,1,0,0:0:0:0:
256,192,34537,1,2,0:0:0:0:
256,192,34599,1,2,0:0:0:0:
256,192,34662,1,0,0:0:0:0:
256,192,34724,1,0,0:0:0:0:
256,192,34787,1,2,0:0:0:0:
256,192,34849,1,0,0:0:0:0:
256,192,34912,1,2,0:0:0:0:
256,192,34974,1,0,0:0:0:0:
256,192,35037,1,2,0:0:0:0:
256,192,35099,1,2,0:0:0:0:
256,192,35162,1,0,0:0:0:0:
256,192,35224,1,0,0:0:0:0:
256,192,35287,1,0,0:0:0:0:
256,192,35349,1,0,0:0:0:0:
256,192,35412,1,2,0:0:0:0:
256,176,35474,1,2,0:0:0:0:
256,176,35537,1,2,0:0:0:0:
256,176,35599,1,2,0:0:0:0:
256,192,35662,1,0,0:0:0:0:
256,192,35724,1,0,0:0:0:0:
256,192,35787,1,2,0:0:0:0:
256,192,35849,1,2,0:0:0:0:
256,192,35912,1,2,0:0:0:0:
256,192,35974,1,0,0:0:0:0:
256,192,36037,1,2,0:0:0:0:
256,192,36099,1,2,0:0:0:0:
256,192,36162,1,0,0:0:0:0:
256,192,36224,1,0,0:0:0:0:
256,192,36287,1,0,0:0:0:0:
256,192,36349,1,0,0:0:0:0:
256,192,36412,1,2,0:0:0:0:
272,192,36474,1,0,0:0:0:0:
272,192,36537,1,0,0:0:0:0:
256,192,36599,1,0,0:0:0:0:
256,192,36662,1,0,0:0:0:0:
256,192,36724,1,0,0:0:0:0:
256,192,36787,1,2,0:0:0:0:
256,192,36849,1,2,0:0:0:0:
256,192,36912,1,2,0:0:0:0:
272,192,36974,1,2,0:0:0:0:
272,192,37037,1,0,0:0:0:0:
256,192,37099,1,0,0:0:0:0:
256,192,37162,1,2,0:0:0:0:
256,192,37224,1,0,0:0:0:0:
256,192,37287,1,2,0:0:0:0:
256,192,37349,1,2,0:0:0:0:
256,192,37412,1,0,0:0:0:0:
256,192,37474,1,0,0:0:0:0:
256,192,37537,1,2,0:0:0:0:
256,192,37599,1,2,0:0:0:0:
256,176,37662,1,2,0:0:0:0:
256,192,37724,1,2,0:0:0:0:
256,192,37787,1,0,0:0:0:0:
256,192,37849,1,0,0:0:0:0:
256,192,37912,1,2,0:0:0:0:
256,192,37974,1,2,0:0:0:0:
256,192,38037,1,2,0:0:0:0:
256,192,38099,1,2,0:0:0:0:
256,192,38162,1,0,0:0:0:0:
256,176,38224,1,0,0:0:0:0:
256,176,38287,1,0,0:0:0:0:
256,176,38349,1,0,0:0:0:0:
256,176,38412,1,2,0:0:0:0:
256,176,38474,1,2,0:0:0:0:
256,176,38537,1,0,0:0:0:0:
256,176,38599,1,0,0:0:0:0:
256,176,38662,1,0,0:0:0:0:
256,192,38724,1,0,0:0:0:0:
256,192,38787,1,2,0:0:0:0:
256,192,38849,1,0,0:0:0:0:
256,192,38912,1,2,0:0:0:0:
256,192,38974,1,2,0:0:0:0:
256,192,39037,1,0,0:0:0:0:
256,192,39099,1,0,0:0:0:0:
256,192,39162,1,2,0:0:0:0:
256,192,39224,1,0,0:0:0:0:
256,192,39287,1,2,0:0:0:0:
256,192,39349,1,0,0:0:0:0:
256,192,39412,1,2,0:0:0:0:
256,192,39474,1,2,0:0:0:0:
256,192,39537,1,0,0:0:0:0:
272,192,39599,1,0,0:0:0:0:
272,192,39662,1,2,0:0:0:0:
256,192,39724,1,2,0:0:0:0:
256,192,39787,1,0,0:0:0:0:
256,192,39849,1,0,0:0:0:0:
256,192,39912,1,2,0:0:0:0:
256,192,39974,1,0,0:0:0:0:
256,192,40037,1,2,0:0:0:0:
256,192,40099,1,2,0:0:0:0:
256,192,40162,1,0,0:0:0:0:
256,192,40224,1,0,0:0:0:0:
256,192,40287,1,0,0:0:0:0:
256,192,40349,1,0,0:0:0:0:
256,192,40412,1,2,0:0:0:0:
256,192,40474,1,2,0:0:0:0:
256,192,40537,1,2,0:0:0:0:
256,192,40599,1,2,0:0:0:0:
256,192,40662,1,0,0:0:0:0:
256,192,40724,1,0,0:0:0:0:
256,192,40787,1,0,0:0:0:0:
256,192,40849,1,0,0:0:0:0:
256,192,40912,1,2,0:0:0:0:
256,192,40974,1,2,0:0:0:0:
256,192,41037,1,0,0:0:0:0:
256,192,41099,1,0,0:0:0:0:
256,192,41162,1,2,0:0:0:0:
256,192,41224,1,2,0:0:0:0:
256,192,41287,1,2,0:0:0:0:
256,192,41349,1,2,0:0:0:0:
256,192,41412,1,0,0:0:0:0:
256,192,41474,1,0,0:0:0:0:
256,192,41537,1,2,0:0:0:0:
256,192,41599,1,2,0:0:0:0:
256,192,41662,1,2,0:0:0:0:
256,192,41724,1,2,0:0:0:0:
256,192,41787,1,0,0:0:0:0:
256,192,41849,1,0,0:0:0:0:
256,192,41912,1,2,0:0:0:0:
256,192,41974,1,2,0:0:0:0:
256,192,42037,1,2,0:0:0:0:
256,192,42099,1,2,0:0:0:0:
256,192,42162,1,0,0:0:0:0:
256,192,42224,1,0,0:0:0:0:
256,192,42287,1,0,0:0:0:0:
256,192,42349,1,0,0:0:0:0:
256,192,42412,1,2,0:0:0:0:
256,192,42474,1,0,0:0:0:0:
256,192,42537,1,2,0:0:0:0:
256,192,42599,1,2,0:0:0:0:
256,192,42662,1,0,0:0:0:0:
256,192,42724,1,0,0:0:0:0:
256,192,42787,1,2,0:0:0:0:
256,192,42849,1,0,0:0:0:0:
256,192,42912,1,2,0:0:0:0:
256,192,42974,1,0,0:0:0:0:
256,192,43037,1,2,0:0:0:0:
256,192,43099,1,2,0:0:0:0:
256,192,43162,1,0,0:0:0:0:
256,192,43224,1,0,0:0:0:0:
256,192,43287,1,0,0:0:0:0:
256,192,43349,1,0,0:0:0:0:
256,192,43412,1,2,0:0:0:0:
256,176,43474,1,2,0:0:0:0:
256,176,43537,1,2,0:0:0:0:
256,176,43599,1,2,0:0:0:0:
256,192,43662,1,0,0:0:0:0:
256,192,43724,1,0,0:0:0:0:
256,192,43787,1,2,0:0:0:0:
256,192,43849,1,2,0:0:0:0:
256,192,43912,1,2,0:0:0:0:
256,192,43974,1,0,0:0:0:0:
256,192,44037,1,2,0:0:0:0:
256,192,44099,1,2,0:0:0:0:
256,192,44162,1,0,0:0:0:0:
256,192,44224,1,0,0:0:0:0:
256,192,44287,1,0,0:0:0:0:
256,192,44349,1,0,0:0:0:0:
256,192,44412,1,2,0:0:0:0:
272,192,44474,1,0,0:0:0:0:
272,192,44537,1,0,0:0:0:0:
256,192,44599,1,0,0:0:0:0:
256,192,44662,1,0,0:0:0:0:
256,192,44724,1,0,0:0:0:0:
256,192,44787,1,2,0:0:0:0:
256,192,44849,1,2,0:0:0:0:
256,192,44912,1,2,0:0:0:0:
272,192,44974,1,2,0:0:0:0:
272,192,45037,1,0,0:0:0:0:
256,192,45099,1,0,0:0:0:0:
256,192,45162,1,2,0:0:0:0:
256,192,45224,1,0,0:0:0:0:
256,192,45287,1,2,0:0:0:0:
256,192,45349,1,2,0:0:0:0:
256,192,45412,1,0,0:0:0:0:
256,192,45474,1,0,0:0:0:0:
256,192,45537,1,2,0:0:0:0:
256,192,45599,1,2,0:0:0:0:
256,176,45662,1,2,0:0:0:0:
256,192,45724,1,2,0:0:0:0:
256,192,45787,1,0,0:0:0:0:
256,192,45849,1,0,0:0:0:0:
256,192,45912,1,2,0:0:0:0:
256,192,45974,1,2,0:0:0:0:
256,192,46037,1,2,0:0:0:0:
256,192,46099,1,2,0:0:0:0:
256,192,46162,1,0,0:0:0:0:
256,176,46224,1,0,0:0:0:0:
256,176,46287,1,0,0:0:0:0:
256,176,46349,1,0,0:0:0:0:
256,176,46412,1,2,0:0:0:0:
256,176,46474,1,2,0:0:0:0:
256,176,46537,1,0,0:0:0:0:
256,176,46599,1,0,0:0:0:0:
256,176,46662,1,0,0:0:0:0:
256,192,46724,1,0,0:0:0:0:
256,192,46787,1,2,0:0:0:0:
256,192,46849,1,0,0:0:0:0:
256,192,46912,1,2,0:0:0:0:
256,192,46974,1,2,0:0:0:0:
256,192,47037,1,0,0:0:0:0:
256,192,47099,1,0,0:0:0:0:
256,192,47162,1,2,0:0:0:0:
256,192,47224,1,0,0:0:0:0:
256,192,47287,1,2,0:0:0:0:
256,192,47349,1,0,0:0:0:0:
256,192,47412,1,2,0:0:0:0:
256,192,47474,1,2,0:0:0:0:
256,192,47537,1,0,0:0:0:0:
272,192,47599,1,0,0:0:0:0:
272,192,47662,1,2,0:0:0:0:
256,192,47724,1,2,0:0:0:0:
256,192,47787,1,0,0:0:0:0:
256,192,47849,1,0,0:0:0:0:
256,192,47912,1,2,0:0:0:0:
256,192,47974,1,0,0:0:0:0:
256,192,48037,1,0,0:0:0:0:
256,192,48099,1,0,0:0:0:0:
256,192,48162,1,2,0:0:0:0:
256,192,48287,5,0,0:0:0:0:
256,192,48412,1,2,0:0:0:0:
256,192,48537,1,0,0:0:0:0:
256,192,48599,1,0,0:0:0:0:
256,192,48662,1,2,0:0:0:0:
256,192,48724,1,0,0:0:0:0:
256,192,48787,1,2,0:0:0:0:
256,192,48912,1,2,0:0:0:0:
256,192,49037,1,2,0:0:0:0:
256,192,49162,1,0,0:0:0:0:
256,176,49287,1,0,0:0:0:0:
256,192,49412,1,2,0:0:0:0:
256,176,49537,1,0,0:0:0:0:
256,176,49599,1,0,0:0:0:0:
256,176,49662,1,2,0:0:0:0:
256,176,49724,1,2,0:0:0:0:
256,176,49787,1,2,0:0:0:0:
256,176,49912,1,0,0:0:0:0:
256,176,50037,1,2,0:0:0:0:
256,176,50162,1,0,0:0:0:0:
256,176,50287,1,0,0:0:0:0:
256,176,50412,1,2,0:0:0:0:
256,192,50537,1,2,0:0:0:0:
256,192,50599,1,0,0:0:0:0:
256,192,50662,1,2,0:0:0:0:
256,192,50724,1,0,0:0:0:0:
256,192,50787,1,0,0:0:0:0:
256,192,50912,1,2,0:0:0:0:
256,192,51037,1,2,0:0:0:0:
256,192,51162,1,0,0:0:0:0:
256,176,51287,1,0,0:0:0:0:
256,176,51412,1,2,0:0:0:0:
256,192,51537,1,2,0:0:0:0:
256,176,51599,1,0,0:0:0:0:
256,176,51662,1,2,0:0:0:0:
256,176,51724,1,2,0:0:0:0:
256,176,51787,1,0,0:0:0:0:
256,176,51912,1,0,0:0:0:0:
256,176,52037,1,2,0:0:0:0:
256,176,52162,1,0,0:0:0:0:
256,176,52287,1,0,0:0:0:0:
256,176,52412,1,2,0:0:0:0:
256,176,52537,1,0,0:0:0:0:
256,176,52599,1,0,0:0:0:0:
256,176,52662,1,2,0:0:0:0:
256,176,52724,1,2,0:0:0:0:
256,176,52787,1,0,0:0:0:0:
256,176,52912,1,2,0:0:0:0:
256,176,53037,1,0,0:0:0:0:
256,176,53162,1,2,0:0:0:0:
256,176,53287,1,2,0:0:0:0:
256,176,53412,1,0,0:0:0:0:
256,176,53537,1,0,0:0:0:0:
256,176,53599,1,2,0:0:0:0:
256,176,53662,1,2,0:0:0:0:
256,176,53724,1,2,0:0:0:0:
256,176,53787,1,0,0:0:0:0:
256,176,53912,1,2,0:0:0:0:
256,176,54037,1,0,0:0:0:0:
256,176,54162,1,2,0:0:0:0:
256,176,54287,1,2,0:0:0:0:
256,176,54412,1,0,0:0:0:0:
256,176,54537,1,2,0:0:0:0:
256,176,54599,1,0,0:0:0:0:
256,176,54662,1,2,0:0:0:0:
256,176,54724,1,2,0:0:0:0:
256,176,54787,1,0,0:0:0:0:
256,176,54912,1,2,0:0:0:0:
256,176,55037,1,0,0:0:0:0:
256,176,55162,1,0,0:0:0:0:
256,176,55224,1,0,0:0:0:0:
256,176,55287,1,0,0:0:0:0:
256,176,55349,1,0,0:0:0:0:
256,176,55412,1,2,0:0:0:0:
256,176,55474,1,2,0:0:0:0:
256,176,55537,1,2,0:0:0:0:
256,176,55599,1,2,0:0:0:0:
256,176,55662,1,0,0:0:0:0:
256,176,55724,1,0,0:0:0:0:
256,176,55787,1,2,0:0:0:0:
256,176,55849,1,0,0:0:0:0:
256,176,55912,1,2,0:0:0:0:
256,176,55974,1,2,0:0:0:0:
256,176,56037,1,0,0:0:0:0:
256,176,56099,1,0,0:0:0:0:
256,176,56162,1,2,0:0:0:0:
256,192,56287,5,0,0:0:0:0:
256,192,56412,1,2,0:0:0:0:
256,192,56537,1,0,0:0:0:0:
256,192,56599,1,0,0:0:0:0:
256,192,56662,1,2,0:0:0:0:
256,192,56724,1,0,0:0:0:0:
256,192,56787,1,2,0:0:0:0:
256,192,56912,1,2,0:0:0:0:
256,192,57037,1,2,0:0:0:0:
256,192,57099,1,2,0:0:0:0:
256,192,57162,1,0,0:0:0:0:
256,176,57287,1,0,0:0:0:0:
256,192,57412,1,2,0:0:0:0:
256,176,57537,1,0,0:0:0:0:
256,176,57599,1,0,0:0:0:0:
256,176,57662,1,2,0:0:0:0:
256,176,57724,1,2,0:0:0:0:
256,176,57787,1,2,0:0:0:0:
256,176,57912,1,0,0:0:0:0:
256,176,58037,1,2,0:0:0:0:
256,176,58162,1,0,0:0:0:0:
256,192,58224,1,0,0:0:0:0:
256,176,58287,1,0,0:0:0:0:
256,176,58412,1,2,0:0:0:0:
256,192,58537,1,2,0:0:0:0:
256,192,58599,1,0,0:0:0:0:
256,192,58662,1,2,0:0:0:0:
256,192,58724,1,0,0:0:0:0:
256,192,58787,1,0,0:0:0:0:
256,192,58912,1,2,0:0:0:0:
256,192,59037,1,2,0:0:0:0:
256,192,59162,1,0,0:0:0:0:
256,192,59224,1,0,0:0:0:0:
256,176,59287,1,0,0:0:0:0:
256,176,59412,1,2,0:0:0:0:
256,192,59537,1,2,0:0:0:0:
256,176,59599,1,0,0:0:0:0:
256,176,59662,1,2,0:0:0:0:
256,176,59724,1,2,0:0:0:0:
256,176,59787,1,0,0:0:0:0:
256,176,59912,1,0,0:0:0:0:
256,176,60037,1,2,0:0:0:0:
256,176,60162,1,2,0:0:0:0:
256,192,60224,1,2,0:0:0:0:
256,176,60287,1,0,0:0:0:0:
256,176,60412,1,2,0:0:0:0:
256,176,60537,1,0,0:0:0:0:
256,176,60599,1,0,0:0:0:0:
256,176,60662,1,2,0:0:0:0:
256,176,60724,1,2,0:0:0:0:
256,176,60787,1,0,0:0:0:0:
256,176,60912,1,2,0:0:0:0:
256,176,61037,1,0,0:0:0:0:
256,192,61099,1,0,0:0:0:0:
256,176,61162,1,2,0:0:0:0:
256,176,61287,1,2,0:0:0:0:
256,176,61412,1,0,0:0:0:0:
256,176,61537,1,0,0:0:0:0:
256,176,61599,1,2,0:0:0:0:
256,176,61662,1,2,0:0:0:0:
256,176,61724,1,2,0:0:0:0:
256,176,61787,1,0,0:0:0:0:
256,176,61912,1,2,0:0:0:0:
256,176,62037,1,0,0:0:0:0:
256,176,62162,1,0,0:0:0:0:
256,192,62224,1,0,0:0:0:0:
256,176,62287,1,0,0:0:0:0:
256,176,62349,1,0,0:0:0:0:
256,176,62412,1,2,0:0:0:0:
256,176,62474,1,0,0:0:0:0:
256,176,62537,1,2,0:0:0:0:
256,176,62599,1,2,0:0:0:0:
256,176,62662,1,0,0:0:0:0:
256,176,62724,1,0,0:0:0:0:
256,176,62787,1,0,0:0:0:0:
256,176,62849,1,0,0:0:0:0:
256,176,62912,1,2,0:0:0:0:
256,176,62974,1,2,0:0:0:0:
256,176,63037,1,2,0:0:0:0:
256,192,63099,1,2,0:0:0:0:
256,176,63162,1,0,0:0:0:0:
256,176,63224,1,0,0:0:0:0:
256,176,63287,1,2,0:0:0:0:
256,176,63349,1,2,0:0:0:0:
256,176,63412,1,2,0:0:0:0:
256,176,63474,1,2,0:0:0:0:
256,176,63537,1,0,0:0:0:0:
256,176,63599,1,0,0:0:0:0:
256,176,63662,1,2,0:0:0:0:
256,176,63724,1,2,0:0:0:0:
256,176,63787,1,2,0:0:0:0:
256,176,63849,1,2,0:0:0:0:
256,176,63912,1,2,0:0:0:0:
256,176,63974,1,2,0:0:0:0:
256,176,64037,1,2,0:0:0:0:
256,176,64099,1,2,0:0:0:0:
256,176,64162,1,0,0:0:0:0:
256,176,64286,1,0,0:0:0:0:
256,176,64411,1,0,0:0:0:0:
256,176,64536,1,0,0:0:0:0:
256,176,64661,1,2,0:0:0:0:
256,176,64786,1,2,0:0:0:0:
256,176,64911,1,0,0:0:0:0:
256,176,65036,1,2,0:0:0:0:
256,176,65161,1,0,0:0:0:0:
256,176,65286,1,0,0:0:0:0:
256,176,65411,1,2,0:0:0:0:
256,176,65537,1,0,0:0:0:0:
256,176,65662,1,2,0:0:0:0:
256,176,65787,1,2,0:0:0:0:
256,176,65912,1,0,0:0:0:0:
256,176,66037,1,2,0:0:0:0:
256,176,66162,1,0,0:0:0:0:
256,176,66245,1,0,0:0:0:0:
256,176,66328,1,0,0:0:0:0:
256,176,66412,1,0,0:0:0:0:
256,176,66495,1,0,0:0:0:0:
256,176,66578,1,0,0:0:0:0:
256,176,66662,1,2,0:0:0:0:
256,176,66745,1,2,0:0:0:0:
256,176,66828,1,2,0:0:0:0:
256,176,66912,1,2,0:0:0:0:
256,176,67037,1,2,0:0:0:0:
256,176,67162,1,0,0:0:0:0:
256,176,67287,1,2,0:0:0:0:
256,176,67412,1,2,0:0:0:0:
256,176,67537,1,0,0:0:0:0:
256,176,67662,1,2,0:0:0:0:
256,176,67787,1,2,0:0:0:0:
256,176,67912,1,0,0:0:0:0:
256,176,68037,1,2,0:0:0:0:
256,176,68162,1,0,0:0:0:0:
256,176,68287,1,0,0:0:0:0:
256,176,68412,1,0,0:0:0:0:
256,176,68537,1,0,0:0:0:0:
256,176,68662,1,2,0:0:0:0:
256,176,68787,1,0,0:0:0:0:
256,176,68912,1,0,0:0:0:0:
256,176,69037,1,2,0:0:0:0:
256,176,69162,1,0,0:0:0:0:
256,176,69287,1,2,0:0:0:0:
256,176,69412,1,0,0:0:0:0:
256,176,69537,1,0,0:0:0:0:
256,176,69662,1,2,0:0:0:0:
256,176,69787,1,0,0:0:0:0:
256,176,69912,1,2,0:0:0:0:
256,176,70037,1,2,0:0:0:0:
256,176,70162,1,0,0:0:0:0:
256,176,70245,1,2,0:0:0:0:
256,176,70328,1,2,0:0:0:0:
256,176,70412,1,2,0:0:0:0:
256,176,70537,1,2,0:0:0:0:
256,176,70662,1,2,0:0:0:0:
256,176,70787,1,0,0:0:0:0:
256,176,70912,1,2,0:0:0:0:
256,176,71037,1,2,0:0:0:0:
256,176,71162,1,0,0:0:0:0:
256,176,71287,1,2,0:0:0:0:
256,176,71412,1,0,0:0:0:0:
256,176,71537,1,2,0:0:0:0:
256,176,71662,1,0,0:0:0:0:
256,176,71787,1,0,0:0:0:0:
256,176,71912,1,2,0:0:0:0:
256,176,72037,1,2,0:0:0:0:
256,176,72162,1,0,0:0:0:0:
256,176,72287,1,0,0:0:0:0:
256,176,72412,1,0,0:0:0:0:
256,176,72537,1,0,0:0:0:0:
256,176,72662,1,2,0:0:0:0:
256,176,72787,1,2,0:0:0:0:
256,176,72912,1,0,0:0:0:0:
256,176,73037,1,2,0:0:0:0:
256,176,73162,1,0,0:0:0:0:
256,176,73287,1,0,0:0:0:0:
256,176,73412,1,2,0:0:0:0:
256,176,73537,1,0,0:0:0:0:
256,176,73662,1,2,0:0:0:0:
256,176,73787,1,2,0:0:0:0:
256,176,73912,1,0,0:0:0:0:
256,176,74037,1,0,0:0:0:0:
256,176,74162,1,0,0:0:0:0:
256,176,74245,1,0,0:0:0:0:
256,176,74328,1,0,0:0:0:0:
256,176,74412,1,0,0:0:0:0:
256,176,74495,1,0,0:0:0:0:
256,176,74578,1,0,0:0:0:0:
256,176,74662,1,2,0:0:0:0:
256,176,74745,1,2,0:0:0:0:
256,176,74828,1,2,0:0:0:0:
256,176,74912,1,2,0:0:0:0:
256,176,75037,1,2,0:0:0:0:
256,176,75162,1,0,0:0:0:0:
256,176,75287,1,2,0:0:0:0:
256,176,75412,1,2,0:0:0:0:
256,176,75537,1,0,0:0:0:0:
256,176,75662,1,2,0:0:0:0:
256,176,75787,1,2,0:0:0:0:
256,176,75912,1,0,0:0:0:0:
256,176,76037,1,2,0:0:0:0:
256,176,76162,1,0,0:0:0:0:
256,176,76287,1,0,0:0:0:0:
256,176,76412,1,0,0:0:0:0:
256,176,76537,1,0,0:0:0:0:
256,176,76662,1,2,0:0:0:0:
256,176,76787,1,0,0:0:0:0:
256,176,76912,1,0,0:0:0:0:
256,176,77037,1,2,0:0:0:0:
256,176,77162,1,0,0:0:0:0:
256,176,77287,1,2,0:0:0:0:
256,176,77412,1,0,0:0:0:0:
256,176,77537,1,0,0:0:0:0:
256,176,77662,1,2,0:0:0:0:
256,176,77787,1,0,0:0:0:0:
256,176,77912,1,2,0:0:0:0:
256,176,78037,1,2,0:0:0:0:
256,176,78162,1,0,0:0:0:0:
256,176,78245,1,0,0:0:0:0:
256,176,78328,1,0,0:0:0:0:
256,176,78412,1,2,0:0:0:0:
256,176,78537,1,2,0:0:0:0:
256,176,78662,1,2,0:0:0:0:
256,176,78787,1,0,0:0:0:0:
256,176,78912,1,2,0:0:0:0:
256,176,79037,1,2,0:0:0:0:
256,176,79162,1,0,0:0:0:0:
256,176,79287,1,2,0:0:0:0:
256,176,79412,1,0,0:0:0:0:
256,176,79537,1,2,0:0:0:0:
256,176,79662,1,0,0:0:0:0:
256,176,79787,1,0,0:0:0:0:
256,176,79912,1,2,0:0:0:0:
256,176,80037,1,0,0:0:0:0:
256,176,80162,1,2,0:0:0:0:
256,176,80287,1,2,0:0:0:0:
256,176,80412,1,2,0:0:0:0:
256,176,80537,1,2,0:0:0:0:
256,176,80662,1,0,0:0:0:0:
256,176,80787,1,2,0:0:0:0:
256,176,80912,1,0,0:0:0:0:
256,176,81037,1,0,0:0:0:0:
256,176,81162,1,2,0:0:0:0:
256,176,81287,1,2,0:0:0:0:
256,176,81412,1,0,0:0:0:0:
256,176,81537,1,0,0:0:0:0:
256,176,81662,1,2,0:0:0:0:
256,176,81787,1,0,0:0:0:0:
256,176,81912,1,2,0:0:0:0:
256,176,82037,1,2,0:0:0:0:
256,176,82162,1,0,0:0:0:0:
256,176,82287,1,0,0:0:0:0:
256,176,82412,1,0,0:0:0:0:
256,176,82537,1,0,0:0:0:0:
256,176,82662,1,2,0:0:0:0:
256,176,82787,1,2,0:0:0:0:
256,176,82912,1,0,0:0:0:0:
256,176,83037,1,0,0:0:0:0:
256,176,83162,1,0,0:0:0:0:
256,176,83287,1,2,0:0:0:0:
256,176,83412,1,0,0:0:0:0:
256,176,83537,1,0,0:0:0:0:
256,176,83662,1,2,0:0:0:0:
256,176,83787,1,0,0:0:0:0:
256,176,83912,1,2,0:0:0:0:
256,176,84037,1,2,0:0:0:0:
256,176,84162,1,0,0:0:0:0:
256,176,84287,1,2,0:0:0:0:
256,176,84412,1,2,0:0:0:0:
256,176,84537,1,0,0:0:0:0:
256,176,84662,1,2,0:0:0:0:
256,176,84787,1,0,0:0:0:0:
256,176,84912,1,0,0:0:0:0:
256,176,85037,1,2,0:0:0:0:
256,176,85162,1,0,0:0:0:0:
256,176,85287,1,2,0:0:0:0:
256,176,85412,1,0,0:0:0:0:
256,176,85537,1,0,0:0:0:0:
256,176,85662,1,2,0:0:0:0:
256,176,85787,1,2,0:0:0:0:
256,176,85912,1,2,0:0:0:0:
256,176,86037,1,0,0:0:0:0:
256,176,86162,1,2,0:0:0:0:
256,160,86287,1,0,0:0:0:0:
256,160,86412,1,2,0:0:0:0:
256,176,86537,1,2,0:0:0:0:
256,176,86662,1,0,0:0:0:0:
256,176,86787,1,2,0:0:0:0:
256,176,86912,1,0,0:0:0:0:
256,176,87037,1,0,0:0:0:0:
256,176,87162,1,2,0:0:0:0:
256,176,87287,1,2,0:0:0:0:
256,176,87412,1,0,0:0:0:0:
256,176,87537,1,2,0:0:0:0:
256,176,87662,1,0,0:0:0:0:
256,176,87787,1,0,0:0:0:0:
256,176,87912,1,2,0:0:0:0:
256,176,88037,1,0,0:0:0:0:
256,176,88162,1,2,0:0:0:0:
256,176,88287,1,0,0:0:0:0:
256,176,88412,1,2,0:0:0:0:
256,176,88537,1,2,0:0:0:0:
256,176,88662,1,0,0:0:0:0:
256,176,88787,1,2,0:0:0:0:
256,176,88912,1,0,0:0:0:0:
256,176,89037,1,0,0:0:0:0:
256,176,89162,1,2,0:0:0:0:
256,176,89287,1,2,0:0:0:0:
256,176,89412,1,0,0:0:0:0:
256,176,89537,1,0,0:0:0:0:
256,176,89662,1,2,0:0:0:0:
256,176,89787,1,0,0:0:0:0:
256,176,89912,1,2,0:0:0:0:
256,176,90037,1,2,0:0:0:0:
256,176,90162,1,0,0:0:0:0:
256,176,90287,1,0,0:0:0:0:
256,176,90412,1,0,0:0:0:0:
256,176,90537,1,0,0:0:0:0:
256,176,90662,1,2,0:0:0:0:
256,176,90787,1,2,0:0:0:0:
256,176,90912,1,0,0:0:0:0:
256,176,91037,1,0,0:0:0:0:
256,176,91162,1,0,0:0:0:0:
256,176,91287,1,2,0:0:0:0:
256,176,91412,1,0,0:0:0:0:
256,176,91537,1,0,0:0:0:0:
256,176,91662,1,2,0:0:0:0:
256,176,91787,1,0,0:0:0:0:
256,176,91912,1,2,0:0:0:0:
256,176,92037,1,2,0:0:0:0:
256,176,92162,1,0,0:0:0:0:
256,176,92287,1,2,0:0:0:0:
256,176,92412,1,2,0:0:0:0:
256,176,92537,1,0,0:0:0:0:
256,176,92662,1,2,0:0:0:0:
256,176,92787,1,0,0:0:0:0:
256,176,92912,1,0,0:0:0:0:
256,176,93037,1,2,0:0:0:0:
256,176,93162,1,0,0:0:0:0:
256,176,93287,1,2,0:0:0:0:
256,176,93412,1,0,0:0:0:0:
256,176,93537,1,0,0:0:0:0:
256,176,93662,1,2,0:0:0:0:
256,176,93787,1,2,0:0:0:0:
256,176,93912,1,2,0:0:0:0:
256,176,94037,1,0,0:0:0:0:
256,176,94162,1,2,0:0:0:0:
256,160,94287,1,0,0:0:0:0:
256,160,94412,1,2,0:0:0:0:
256,176,94537,1,2,0:0:0:0:
256,176,94662,1,0,0:0:0:0:
256,176,94787,1,2,0:0:0:0:
256,176,94912,1,0,0:0:0:0:
256,176,95037,1,0,0:0:0:0:
256,176,95162,1,2,0:0:0:0:
256,176,95287,1,2,0:0:0:0:
256,176,95412,1,0,0:0:0:0:
256,176,95537,1,2,0:0:0:0:
256,176,95662,1,0,0:0:0:0:
256,176,95787,1,0,0:0:0:0:
256,176,95912,1,2,0:0:0:0:
256,176,96037,1,0,0:0:0:0:
256,176,96162,1,2,0:0:0:0:
256,176,96287,1,2,0:0:0:0:
256,176,96412,1,0,0:0:0:0:
256,176,96537,1,2,0:0:0:0:
256,176,96662,1,0,0:0:0:0:
256,176,96787,1,2,0:0:0:0:
256,176,96912,1,2,0:0:0:0:
256,176,97037,1,0,0:0:0:0:
256,176,97162,1,2,0:0:0:0:
256,176,97287,1,2,0:0:0:0:
256,176,97412,1,0,0:0:0:0:
256,176,97537,1,0,0:0:0:0:
256,176,97662,1,2,0:0:0:0:
256,176,97787,1,0,0:0:0:0:
256,176,97912,1,2,0:0:0:0:
256,176,98037,1,2,0:0:0:0:
256,176,98162,1,0,0:0:0:0:
256,176,98287,1,2,0:0:0:0:
256,176,98412,1,0,0:0:0:0:
256,176,98537,1,0,0:0:0:0:
256,176,98662,1,2,0:0:0:0:
256,176,98787,1,0,0:0:0:0:
256,176,98912,1,0,0:0:0:0:
256,176,99037,1,2,0:0:0:0:
256,176,99162,1,0,0:0:0:0:
256,176,99287,1,2,0:0:0:0:
256,176,99412,1,0,0:0:0:0:
256,176,99537,1,0,0:0:0:0:
256,176,99662,1,2,0:0:0:0:
256,176,99787,1,0,0:0:0:0:
256,176,99912,1,2,0:0:0:0:
256,176,100037,1,2,0:0:0:0:
256,176,100162,1,0,0:0:0:0:
256,176,100287,1,2,0:0:0:0:
256,176,100412,1,2,0:0:0:0:
256,176,100537,1,0,0:0:0:0:
256,176,100662,1,2,0:0:0:0:
256,176,100787,1,0,0:0:0:0:
256,176,100912,1,2,0:0:0:0:
256,176,101037,1,2,0:0:0:0:
256,176,101162,1,0,0:0:0:0:
256,176,101287,1,0,0:0:0:0:
256,176,101412,1,0,0:0:0:0:
256,176,101537,1,0,0:0:0:0:
256,176,101662,1,2,0:0:0:0:
256,176,101787,1,2,0:0:0:0:
256,176,101912,1,0,0:0:0:0:
256,176,102037,1,0,0:0:0:0:
256,176,102162,1,2,0:0:0:0:
256,160,102287,1,2,0:0:0:0:
256,160,102412,1,2,0:0:0:0:
256,176,102537,1,2,0:0:0:0:
256,176,102662,1,0,0:0:0:0:
256,176,102787,1,0,0:0:0:0:
256,176,102912,1,0,0:0:0:0:
256,176,103037,1,0,0:0:0:0:
256,176,103162,1,2,0:0:0:0:
256,176,103287,1,2,0:0:0:0:
256,176,103412,1,2,0:0:0:0:
256,176,103537,1,2,0:0:0:0:
256,176,103662,1,0,0:0:0:0:
256,176,103787,1,0,0:0:0:0:
256,176,103912,1,0,0:0:0:0:
256,176,104037,1,0,0:0:0:0:
256,176,104162,1,2,0:0:0:0:
256,176,104287,1,2,0:0:0:0:
256,176,104412,1,0,0:0:0:0:
256,176,104537,1,2,0:0:0:0:
256,176,104662,1,0,0:0:0:0:
256,176,104787,1,2,0:0:0:0:
256,176,104912,1,2,0:0:0:0:
256,176,105037,1,0,0:0:0:0:
256,176,105162,1,2,0:0:0:0:
256,176,105287,1,2,0:0:0:0:
256,176,105412,1,0,0:0:0:0:
256,176,105537,1,0,0:0:0:0:
256,176,105662,1,2,0:0:0:0:
256,176,105787,1,0,0:0:0:0:
256,176,105912,1,2,0:0:0:0:
256,176,106037,1,2,0:0:0:0:
256,176,106162,1,0,0:0:0:0:
256,176,106287,1,2,0:0:0:0:
256,176,106412,1,0,0:0:0:0:
256,176,106537,1,0,0:0:0:0:
256,176,106662,1,2,0:0:0:0:
256,176,106787,1,0,0:0:0:0:
256,176,106912,1,0,0:0:0:0:
256,176,107037,1,2,0:0:0:0:
256,176,107162,1,0,0:0:0:0:
256,176,107287,1,2,0:0:0:0:
256,176,107412,1,0,0:0:0:0:
256,176,107537,1,0,0:0:0:0:
256,176,107662,1,2,0:0:0:0:
256,176,107787,1,0,0:0:0:0:
256,176,107912,1,2,0:0:0:0:
256,176,108037,1,2,0:0:0:0:
256,176,108162,1,0,0:0:0:0:
256,176,108287,1,2,0:0:0:0:
256,176,108412,1,2,0:0:0:0:
256,176,108537,1,0,0:0:0:0:
256,176,108662,1,2,0:0:0:0:
256,176,108787,1,0,0:0:0:0:
256,176,108912,1,2,0:0:0:0:
256,176,109037,1,2,0:0:0:0:
256,176,109162,1,0,0:0:0:0:
256,176,109287,1,0,0:0:0:0:
256,176,109412,1,0,0:0:0:0:
256,176,109537,1,0,0:0:0:0:
256,176,109662,1,2,0:0:0:0:
256,176,109787,1,2,0:0:0:0:
256,176,109912,1,0,0:0:0:0:
256,176,110037,1,0,0:0:0:0:
256,176,110162,1,2,0:0:0:0:
256,160,110287,1,2,0:0:0:0:
256,160,110412,1,2,0:0:0:0:
256,176,110537,1,2,0:0:0:0:
256,176,110662,1,0,0:0:0:0:
256,176,110787,1,0,0:0:0:0:
256,176,110912,1,0,0:0:0:0:
256,176,111037,1,0,0:0:0:0:
256,176,111162,1,2,0:0:0:0:
256,176,111287,1,2,0:0:0:0:
256,176,111412,1,2,0:0:0:0:
256,176,111537,1,2,0:0:0:0:
256,176,111662,1,0,0:0:0:0:
256,176,111787,1,0,0:0:0:0:
256,176,111912,1,0,0:0:0:0:
256,176,112037,1,0,0:0:0:0:
256,176,112162,1,2,0:0:0:0:
256,160,112287,1,0,0:0:0:0:
256,160,112349,1,0,0:0:0:0:
256,160,112412,1,2,0:0:0:0:
256,160,112537,1,0,0:0:0:0:
256,160,112662,1,2,0:0:0:0:
256,160,112724,1,2,0:0:0:0:
256,160,112787,1,2,0:0:0:0:
256,176,112849,1,2,0:0:0:0:
256,160,112912,1,0,0:0:0:0:
256,160,113037,1,2,0:0:0:0:
256,160,113162,1,0,0:0:0:0:
256,160,113287,1,2,0:0:0:0:
256,160,113349,1,2,0:0:0:0:
256,160,113412,1,2,0:0:0:0:
256,160,113537,1,0,0:0:0:0:
256,160,113662,1,2,0:0:0:0:
256,160,113724,1,2,0:0:0:0:
256,160,113787,1,0,0:0:0:0:
256,160,113849,1,0,0:0:0:0:
256,160,113912,1,2,0:0:0:0:
256,160,114037,1,2,0:0:0:0:
256,160,114162,1,0,0:0:0:0:
256,160,114287,1,0,0:0:0:0:
256,160,114349,1,0,0:0:0:0:
256,160,114412,1,2,0:0:0:0:
256,160,114537,1,0,0:0:0:0:
256,160,114662,1,2,0:0:0:0:
256,160,114724,1,2,0:0:0:0:
256,160,114787,1,0,0:0:0:0:
256,160,114912,1,0,0:0:0:0:
256,160,115037,1,2,0:0:0:0:
256,160,115099,1,2,0:0:0:0:
256,160,115162,1,0,0:0:0:0:
256,160,115287,1,2,0:0:0:0:
256,160,115412,1,0,0:0:0:0:
256,160,115537,1,2,0:0:0:0:
256,160,115662,1,0,0:0:0:0:
256,160,115724,1,0,0:0:0:0:
256,160,115787,1,0,0:0:0:0:
256,160,115849,1,0,0:0:0:0:
256,160,115912,1,2,0:0:0:0:
256,160,115974,1,2,0:0:0:0:
256,160,116037,1,2,0:0:0:0:
256,160,116099,1,2,0:0:0:0:
256,160,116162,1,0,0:0:0:0:
256,160,116287,1,2,0:0:0:0:
256,160,116412,1,2,0:0:0:0:
256,160,116537,1,0,0:0:0:0:
256,160,116662,1,2,0:0:0:0:
256,160,116787,1,0,0:0:0:0:
256,160,116849,1,0,0:0:0:0:
256,160,116912,1,2,0:0:0:0:
256,160,117037,1,2,0:0:0:0:
256,160,117162,1,0,0:0:0:0:
256,160,117224,1,0,0:0:0:0:
256,160,117287,1,2,0:0:0:0:
256,160,117349,1,2,0:0:0:0:
256,160,117412,1,0,0:0:0:0:
256,160,117537,1,2,0:0:0:0:
256,160,117662,1,2,0:0:0:0:
256,160,117787,1,0,0:0:0:0:
256,160,117849,1,0,0:0:0:0:
256,160,117912,1,2,0:0:0:0:
256,160,117974,1,0,0:0:0:0:
256,160,118037,1,2,0:0:0:0:
256,160,118162,1,0,0:0:0:0:
256,160,118287,1,0,0:0:0:0:
256,160,118349,1,0,0:0:0:0:
256,160,118412,1,0,0:0:0:0:
256,160,118537,1,0,0:0:0:0:
256,160,118662,1,2,0:0:0:0:
256,160,118787,1,0,0:0:0:0:
256,160,118849,1,0,0:0:0:0:
256,160,118912,1,2,0:0:0:0:
256,160,119037,1,2,0:0:0:0:
256,160,119162,1,0,0:0:0:0:
256,160,119224,1,0,0:0:0:0:
256,160,119287,1,0,0:0:0:0:
256,160,119349,1,0,0:0:0:0:
256,160,119412,1,2,0:0:0:0:
256,160,119537,1,2,0:0:0:0:
256,160,119662,1,0,0:0:0:0:
256,160,119724,1,0,0:0:0:0:
256,160,119787,1,0,0:0:0:0:
256,160,119849,1,0,0:0:0:0:
256,160,119912,1,2,0:0:0:0:
256,160,120037,1,0,0:0:0:0:
256,160,120162,1,2,0:0:0:0:
256,160,120224,1,0,0:0:0:0:
256,160,120287,1,0,0:0:0:0:
256,160,120412,1,0,0:0:0:0:
256,160,120537,1,0,0:0:0:0:
256,160,120662,1,2,0:0:0:0:
256,160,120724,1,2,0:0:0:0:
256,160,120787,1,2,0:0:0:0:
256,160,120912,1,0,0:0:0:0:
256,160,121037,1,2,0:0:0:0:
256,160,121162,1,0,0:0:0:0:
256,160,121287,1,2,0:0:0:0:
256,160,121349,1,2,0:0:0:0:
256,160,121412,1,0,0:0:0:0:
256,160,121537,1,0,0:0:0:0:
256,160,121662,1,2,0:0:0:0:
256,160,121724,1,0,0:0:0:0:
256,160,121787,1,0,0:0:0:0:
256,160,121849,1,0,0:0:0:0:
256,160,121912,1,2,0:0:0:0:
256,160,122037,1,2,0:0:0:0:
256,160,122162,1,0,0:0:0:0:
256,160,122287,1,0,0:0:0:0:
256,160,122349,1,0,0:0:0:0:
256,160,122412,1,2,0:0:0:0:
256,160,122537,1,0,0:0:0:0:
256,160,122662,1,0,0:0:0:0:
256,160,122724,1,0,0:0:0:0:
256,160,122787,1,2,0:0:0:0:
256,160,122849,1,2,0:0:0:0:
256,160,122912,1,2,0:0:0:0:
256,160,123037,1,2,0:0:0:0:
256,160,123162,1,0,0:0:0:0:
256,160,123287,1,2,0:0:0:0:
256,160,123349,1,2,0:0:0:0:
256,160,123412,1,2,0:0:0:0:
256,160,123537,1,0,0:0:0:0:
256,160,123662,1,2,0:0:0:0:
256,160,123724,1,2,0:0:0:0:
256,160,123787,1,0,0:0:0:0:
256,160,123849,1,0,0:0:0:0:
256,160,123912,1,2,0:0:0:0:
256,160,123974,1,2,0:0:0:0:
256,160,124037,1,0,0:0:0:0:
256,160,124162,1,0,0:0:0:0:
256,160,124287,1,2,0:0:0:0:
256,160,124349,1,2,0:0:0:0:
256,160,124412,1,2,0:0:0:0:
256,160,124537,1,2,0:0:0:0:
256,160,124662,1,0,0:0:0:0:
256,160,124787,1,0,0:0:0:0:
256,160,124849,1,0,0:0:0:0:
256,160,124912,1,2,0:0:0:0:
256,144,125037,1,2,0:0:0:0:
256,160,125162,1,0,0:0:0:0:
256,160,125224,1,0,0:0:0:0:
256,160,125287,1,2,0:0:0:0:
256,160,125349,1,2,0:0:0:0:
256,160,125412,1,0,0:0:0:0:
256,160,125537,1,2,0:0:0:0:
256,160,125662,1,2,0:0:0:0:
256,176,125787,1,0,0:0:0:0:
256,176,125849,1,0,0:0:0:0:
256,176,125912,1,2,0:0:0:0:
256,176,126037,1,2,0:0:0:0:
256,176,126162,1,0,0:0:0:0:
256,176,126224,1,0,0:0:0:0:
256,160,126287,1,0,0:0:0:0:
256,160,126349,1,0,0:0:0:0:
256,160,126412,1,2,0:0:0:0:
256,160,126537,1,0,0:0:0:0:
256,160,126662,1,2,0:0:0:0:
256,160,126724,1,2,0:0:0:0:
256,160,126787,1,0,0:0:0:0:
256,160,126849,1,0,0:0:0:0:
272,160,126912,1,2,0:0:0:0:
272,160,126974,1,0,0:0:0:0:
256,160,127037,1,2,0:0:0:0:
256,160,127162,1,2,0:0:0:0:
272,160,127287,1,0,0:0:0:0:
272,160,127412,1,2,0:0:0:0:
272,160,127537,1,2,0:0:0:0:
272,160,127662,1,0,0:0:0:0:
272,160,127724,1,0,0:0:0:0:
272,160,127787,1,0,0:0:0:0:
272,160,127849,1,0,0:0:0:0:
272,160,127912,1,2,0:0:0:0:
256,160,128037,1,0,0:0:0:0:
256,176,128162,1,2,0:0:0:0:
256,160,128286,1,0,0:0:0:0:
256,160,128349,1,0,0:0:0:0:
256,160,128411,1,2,0:0:0:0:
256,160,128536,1,0,0:0:0:0:
256,160,128661,1,2,0:0:0:0:
256,160,128724,1,2,0:0:0:0:
256,160,128786,1,2,0:0:0:0:
256,160,128849,1,2,0:0:0:0:
256,160,128911,1,0,0:0:0:0:
256,160,129036,1,2,0:0:0:0:
256,160,129161,1,0,0:0:0:0:
256,160,129286,1,2,0:0:0:0:
256,160,129349,1,2,0:0:0:0:
256,160,129411,1,2,0:0:0:0:
256,160,129536,1,0,0:0:0:0:
256,160,129661,1,2,0:0:0:0:
256,160,129724,1,2,0:0:0:0:
256,160,129786,1,0,0:0:0:0:
256,160,129849,1,0,0:0:0:0:
256,160,129911,1,2,0:0:0:0:
256,160,130036,1,2,0:0:0:0:
256,160,130161,1,0,0:0:0:0:
256,160,130286,1,0,0:0:0:0:
256,160,130349,1,0,0:0:0:0:
256,160,130411,1,2,0:0:0:0:
256,160,130536,1,0,0:0:0:0:
256,160,130661,1,2,0:0:0:0:
256,160,130724,1,2,0:0:0:0:
256,160,130786,1,0,0:0:0:0:
256,160,130911,1,0,0:0:0:0:
256,160,131036,1,2,0:0:0:0:
256,160,131099,1,2,0:0:0:0:
256,160,131162,1,0,0:0:0:0:
256,160,131287,1,2,0:0:0:0:
256,160,131412,1,0,0:0:0:0:
256,160,131537,1,2,0:0:0:0:
256,160,131662,1,0,0:0:0:0:
256,160,131724,1,0,0:0:0:0:
256,160,131787,1,0,0:0:0:0:
256,160,131849,1,0,0:0:0:0:
256,160,131912,1,2,0:0:0:0:
256,160,131974,1,2,0:0:0:0:
256,160,132037,1,2,0:0:0:0:
256,160,132099,1,2,0:0:0:0:
256,160,132162,1,0,0:0:0:0:
256,160,132287,1,2,0:0:0:0:
256,160,132349,1,2,0:0:0:0:
256,160,132412,1,2,0:0:0:0:
256,160,132537,1,0,0:0:0:0:
256,160,132662,1,2,0:0:0:0:
256,160,132787,1,0,0:0:0:0:
256,160,132849,1,0,0:0:0:0:
256,160,132912,1,2,0:0:0:0:
256,160,133037,1,2,0:0:0:0:
256,160,133162,1,0,0:0:0:0:
256,160,133224,1,0,0:0:0:0:
256,160,133287,1,2,0:0:0:0:
256,160,133349,1,2,0:0:0:0:
256,160,133412,1,0,0:0:0:0:
256,160,133537,1,2,0:0:0:0:
256,160,133662,1,2,0:0:0:0:
256,160,133787,1,0,0:0:0:0:
256,160,133849,1,0,0:0:0:0:
256,160,133912,1,2,0:0:0:0:
256,160,133974,1,0,0:0:0:0:
256,160,134037,1,2,0:0:0:0:
256,160,134162,1,0,0:0:0:0:
256,160,134287,1,0,0:0:0:0:
256,160,134349,1,0,0:0:0:0:
256,160,134412,1,0,0:0:0:0:
256,160,134537,1,0,0:0:0:0:
256,160,134662,1,2,0:0:0:0:
256,160,134787,1,0,0:0:0:0:
256,160,134849,1,0,0:0:0:0:
256,160,134912,1,2,0:0:0:0:
256,160,135037,1,2,0:0:0:0:
256,160,135162,1,0,0:0:0:0:
256,160,135224,1,0,0:0:0:0:
256,160,135287,1,0,0:0:0:0:
256,160,135349,1,0,0:0:0:0:
256,160,135412,1,2,0:0:0:0:
256,160,135537,1,2,0:0:0:0:
256,160,135662,1,0,0:0:0:0:
256,160,135724,1,0,0:0:0:0:
256,160,135787,1,0,0:0:0:0:
256,160,135849,1,0,0:0:0:0:
256,160,135912,1,2,0:0:0:0:
256,160,136037,1,0,0:0:0:0:
256,160,136162,1,2,0:0:0:0:
256,160,136224,1,0,0:0:0:0:
256,160,136287,1,0,0:0:0:0:
256,160,136412,1,0,0:0:0:0:
256,160,136537,1,0,0:0:0:0:
256,160,136662,1,2,0:0:0:0:
256,160,136724,1,2,0:0:0:0:
256,160,136787,1,2,0:0:0:0:
256,160,136849,1,2,0:0:0:0:
256,160,136912,1,0,0:0:0:0:
256,160,137037,1,2,0:0:0:0:
256,160,137162,1,0,0:0:0:0:
256,160,137287,1,2,0:0:0:0:
256,160,137349,1,2,0:0:0:0:
256,160,137412,1,0,0:0:0:0:
256,160,137537,1,0,0:0:0:0:
256,160,137662,1,2,0:0:0:0:
256,160,137724,1,0,0:0:0:0:
256,160,137787,1,0,0:0:0:0:
256,160,137849,1,0,0:0:0:0:
256,160,137912,1,2,0:0:0:0:
256,160,138037,1,2,0:0:0:0:
256,160,138162,1,0,0:0:0:0:
256,160,138287,1,0,0:0:0:0:
256,160,138349,1,0,0:0:0:0:
256,160,138412,1,2,0:0:0:0:
256,160,138537,1,0,0:0:0:0:
256,160,138662,1,0,0:0:0:0:
256,160,138724,1,0,0:0:0:0:
256,160,138787,1,2,0:0:0:0:
256,160,138849,1,2,0:0:0:0:
256,160,138912,1,2,0:0:0:0:
256,160,139037,1,2,0:0:0:0:
256,160,139162,1,0,0:0:0:0:
256,160,139287,1,2,0:0:0:0:
256,160,139349,1,2,0:0:0:0:
256,160,139412,1,2,0:0:0:0:
256,160,139537,1,0,0:0:0:0:
256,160,139662,1,2,0:0:0:0:
256,160,139724,1,2,0:0:0:0:
256,160,139787,1,0,0:0:0:0:
256,160,139849,1,0,0:0:0:0:
256,160,139912,1,2,0:0:0:0:
256,160,139974,1,2,0:0:0:0:
256,160,140037,1,0,0:0:0:0:
256,160,140162,1,0,0:0:0:0:
256,160,140287,1,2,0:0:0:0:
256,160,140349,1,2,0:0:0:0:
256,160,140412,1,2,0:0:0:0:
256,160,140537,1,2,0:0:0:0:
256,160,140662,1,0,0:0:0:0:
256,160,140787,1,0,0:0:0:0:
256,160,140849,1,0,0:0:0:0:
256,160,140912,1,2,0:0:0:0:
256,144,141037,1,2,0:0:0:0:
256,160,141162,1,0,0:0:0:0:
256,160,141224,1,0,0:0:0:0:
256,160,141287,1,2,0:0:0:0:
256,160,141349,1,2,0:0:0:0:
256,160,141412,1,0,0:0:0:0:
256,160,141537,1,2,0:0:0:0:
256,160,141662,1,2,0:0:0:0:
256,176,141787,1,0,0:0:0:0:
256,176,141849,1,0,0:0:0:0:
256,176,141912,1,2,0:0:0:0:
256,176,142037,1,2,0:0:0:0:
256,176,142162,1,0,0:0:0:0:
256,176,142224,1,0,0:0:0:0:
256,160,142287,1,0,0:0:0:0:
256,160,142349,1,0,0:0:0:0:
256,160,142412,1,2,0:0:0:0:
256,160,142537,1,0,0:0:0:0:
256,160,142662,1,2,0:0:0:0:
256,160,142724,1,2,0:0:0:0:
256,160,142787,1,0,0:0:0:0:
256,160,142849,1,0,0:0:0:0:
272,160,142912,1,2,0:0:0:0:
272,160,142974,1,0,0:0:0:0:
256,160,143037,1,2,0:0:0:0:
256,160,143162,1,2,0:0:0:0:
272,160,143287,1,0,0:0:0:0:
256,160,143349,1,0,0:0:0:0:
272,160,143412,1,2,0:0:0:0:
272,160,143537,1,2,0:0:0:0:
272,160,143662,1,0,0:0:0:0:
272,160,143724,1,0,0:0:0:0:
272,160,143787,1,0,0:0:0:0:
272,160,143849,1,0,0:0:0:0:
272,160,143912,1,2,0:0:0:0:
256,160,144037,1,2,0:0:0:0:
256,160,144162,1,0,0:0:0:0:
256,176,144287,1,2,0:0:0:0:
256,176,144412,1,2,0:0:0:0:
256,176,144537,1,0,0:0:0:0:
256,176,144662,1,2,0:0:0:0:
256,176,144787,1,0,0:0:0:0:
256,176,144912,1,2,0:0:0:0:
256,176,145037,1,2,0:0:0:0:
256,176,145162,1,0,0:0:0:0:
256,176,145287,1,2,0:0:0:0:
256,176,145412,1,2,0:0:0:0:
256,176,145537,1,2,0:0:0:0:
256,176,145662,1,0,0:0:0:0:
256,176,145787,1,0,0:0:0:0:
256,176,145912,1,2,0:0:0:0:
256,176,146037,1,2,0:0:0:0:
256,176,146162,1,0,0:0:0:0:
256,176,146287,1,2,0:0:0:0:
256,176,146412,1,2,0:0:0:0:
256,192,146495,1,2,0:0:0:0:
256,176,146578,1,0,0:0:0:0:
256,192,146662,1,0,0:0:0:0:
256,192,146745,1,0,0:0:0:0:
256,192,146828,1,0,0:0:0:0:
256,192,146912,1,2,0:0:0:0:
256,192,147037,1,2,0:0:0:0:
256,192,147162,1,0,0:0:0:0:
272,176,147287,1,2,0:0:0:0:
256,176,147412,1,2,0:0:0:0:
256,176,147537,1,0,0:0:0:0:
256,176,147662,1,2,0:0:0:0:
272,176,147787,1,0,0:0:0:0:
272,176,147912,1,2,0:0:0:0:
272,176,148037,1,2,0:0:0:0:
272,176,148162,1,0,0:0:0:0:
272,176,148287,1,0,0:0:0:0:
272,176,148412,1,2,0:0:0:0:
272,176,148537,1,2,0:0:0:0:
272,176,148662,1,0,0:0:0:0:
272,160,148787,1,2,0:0:0:0:
272,160,148912,1,2,0:0:0:0:
272,160,149037,1,0,0:0:0:0:
272,160,149162,1,2,0:0:0:0:
272,160,149287,1,2,0:0:0:0:
272,160,149412,1,0,0:0:0:0:
272,160,149537,1,0,0:0:0:0:
272,160,149662,1,2,0:0:0:0:
272,160,149787,1,0,0:0:0:0:
272,160,149912,1,0,0:0:0:0:
272,160,150037,1,2,0:0:0:0:
272,160,150162,1,0,0:0:0:0:
272,160,150245,1,0,0:0:0:0:
272,160,150328,1,0,0:0:0:0:
272,160,150412,1,2,0:0:0:0:
272,160,150495,1,2,0:0:0:0:
272,160,150578,1,2,0:0:0:0:
272,160,150662,1,2,0:0:0:0:
272,160,150787,1,0,0:0:0:0:
272,160,150912,1,2,0:0:0:0:
272,144,151037,1,2,0:0:0:0:
272,144,151162,1,0,0:0:0:0:
272,160,151287,1,2,0:0:0:0:
272,160,151412,1,0,0:0:0:0:
272,144,151537,1,0,0:0:0:0:
272,144,151662,1,2,0:0:0:0:
272,160,151787,1,0,0:0:0:0:
272,160,151912,1,0,0:0:0:0:
272,160,152037,1,2,0:0:0:0:
272,160,152162,1,0,0:0:0:0:
272,160,152287,1,0,0:0:0:0:
272,160,152412,1,0,0:0:0:0:
272,160,152537,1,0,0:0:0:0:
272,160,152662,1,2,0:0:0:0:
272,160,152787,1,2,0:0:0:0:
272,160,152912,1,2,0:0:0:0:
272,160,153037,1,2,0:0:0:0:
272,160,153162,1,0,0:0:0:0:
288,160,153287,1,2,0:0:0:0:
288,160,153412,1,2,0:0:0:0:
272,160,153537,1,2,0:0:0:0:
272,160,153662,1,0,0:0:0:0:
272,160,153787,1,0,0:0:0:0:
272,160,153912,1,2,0:0:0:0:
272,160,154037,1,2,0:0:0:0:
272,160,154162,1,0,0:0:0:0:
272,160,154287,1,0,0:0:0:0:
272,160,154412,1,2,0:0:0:0:
272,160,154537,1,0,0:0:0:0:
272,160,154662,1,2,0:0:0:0:
272,160,154745,1,2,0:0:0:0:
272,160,154828,1,2,0:0:0:0:
272,160,154912,1,2,0:0:0:0:
272,160,155037,1,2,0:0:0:0:
272,160,155162,1,0,0:0:0:0:
256,176,155287,1,0,0:0:0:0:
256,176,155412,1,2,0:0:0:0:
256,176,155537,1,0,0:0:0:0:
256,176,155662,1,2,0:0:0:0:
256,160,155787,1,2,0:0:0:0:
256,160,155912,1,2,0:0:0:0:
256,160,156037,1,2,0:0:0:0:
256,160,156162,1,0,0:0:0:0:
256,160,156287,1,2,0:0:0:0:
256,160,156412,1,2,0:0:0:0:
256,160,156537,1,0,0:0:0:0:
256,160,156662,1,0,0:0:0:0:
256,160,156787,1,2,0:0:0:0:
256,160,156912,1,2,0:0:0:0:
256,160,157037,1,2,0:0:0:0:
256,160,157162,1,0,0:0:0:0:
256,160,157287,1,0,0:0:0:0:
256,160,157412,1,2,0:0:0:0:
256,160,157537,1,2,0:0:0:0:
256,160,157662,1,0,0:0:0:0:
256,160,157787,1,0,0:0:0:0:
256,160,157912,1,2,0:0:0:0:
256,160,158037,1,2,0:0:0:0:
256,160,158162,1,0,0:0:0:0:
256,160,158245,1,0,0:0:0:0:
256,160,158328,1,2,0:0:0:0:
256,160,158412,1,2,0:0:0:0:
256,160,158495,1,2,0:0:0:0:
256,160,158578,1,2,0:0:0:0:
256,160,158662,1,0,0:0:0:0:
256,160,158787,1,0,0:0:0:0:
256,160,158912,1,2,0:0:0:0:
256,160,159037,1,2,0:0:0:0:
256,160,159162,1,0,0:0:0:0:
256,160,159287,1,0,0:0:0:0:
256,160,159412,1,2,0:0:0:0:
256,160,159537,1,0,0:0:0:0:
256,160,159662,1,0,0:0:0:0:
256,160,159787,1,0,0:0:0:0:
256,160,159912,1,2,0:0:0:0:
256,160,160037,1,0,0:0:0:0:
256,160,160162,1,0,0:0:0:0:
256,176,160287,1,2,0:0:0:0:
256,176,160412,1,2,0:0:0:0:
256,176,160537,1,0,0:0:0:0:
256,176,160662,1,2,0:0:0:0:
256,176,160787,1,0,0:0:0:0:
256,176,160912,1,2,0:0:0:0:
256,176,161037,1,2,0:0:0:0:
256,176,161162,1,0,0:0:0:0:
256,176,161287,1,2,0:0:0:0:
256,176,161412,1,2,0:0:0:0:
256,176,161537,1,2,0:0:0:0:
256,176,161662,1,0,0:0:0:0:
256,176,161787,1,0,0:0:0:0:
256,176,161912,1,2,0:0:0:0:
256,176,162037,1,2,0:0:0:0:
256,176,162162,1,0,0:0:0:0:
256,176,162287,1,2,0:0:0:0:
256,176,162412,1,2,0:0:0:0:
256,176,162537,1,0,0:0:0:0:
256,192,162662,1,2,0:0:0:0:
256,192,162745,1,2,0:0:0:0:
256,192,162828,1,2,0:0:0:0:
256,192,162912,1,2,0:0:0:0:
256,192,163037,1,2,0:0:0:0:
256,192,163162,1,0,0:0:0:0:
272,176,163287,1,2,0:0:0:0:
256,176,163412,1,2,0:0:0:0:
256,176,163537,1,0,0:0:0:0:
256,176,163662,1,2,0:0:0:0:
272,176,163787,1,0,0:0:0:0:
272,176,163912,1,2,0:0:0:0:
272,176,164037,1,2,0:0:0:0:
272,176,164162,1,0,0:0:0:0:
272,176,164287,1,0,0:0:0:0:
272,176,164412,1,2,0:0:0:0:
272,176,164537,1,2,0:0:0:0:
272,176,164662,1,0,0:0:0:0:
272,160,164787,1,2,0:0:0:0:
272,160,164912,1,2,0:0:0:0:
272,160,165037,1,0,0:0:0:0:
272,160,165162,1,0,0:0:0:0:
272,160,165287,1,2,0:0:0:0:
272,160,165412,1,2,0:0:0:0:
272,160,165537,1,0,0:0:0:0:
272,160,165662,1,2,0:0:0:0:
272,160,165787,1,0,0:0:0:0:
272,160,165912,1,0,0:0:0:0:
272,160,166037,1,2,0:0:0:0:
272,160,166162,1,0,0:0:0:0:
272,160,166245,1,2,0:0:0:0:
272,160,166328,1,2,0:0:0:0:
272,160,166412,1,2,0:0:0:0:
272,160,166537,1,0,0:0:0:0:
272,160,166662,1,2,0:0:0:0:
272,160,166787,1,0,0:0:0:0:
272,160,166912,1,2,0:0:0:0:
272,144,167037,1,2,0:0:0:0:
272,144,167162,1,0,0:0:0:0:
272,160,167287,1,2,0:0:0:0:
272,160,167412,1,0,0:0:0:0:
272,144,167537,1,0,0:0:0:0:
272,144,167662,1,2,0:0:0:0:
272,160,167787,1,0,0:0:0:0:
272,160,167912,1,0,0:0:0:0:
272,160,168037,1,2,0:0:0:0:
272,160,168162,1,0,0:0:0:0:
272,160,168287,1,0,0:0:0:0:
272,160,168412,1,0,0:0:0:0:
272,160,168537,1,0,0:0:0:0:
272,160,168662,1,2,0:0:0:0:
272,160,168787,1,2,0:0:0:0:
272,160,168912,1,2,0:0:0:0:
272,160,169037,1,2,0:0:0:0:
272,160,169162,1,0,0:0:0:0:
288,160,169287,1,2,0:0:0:0:
288,160,169412,1,2,0:0:0:0:
272,160,169537,1,2,0:0:0:0:
272,160,169662,1,0,0:0:0:0:
272,160,169787,1,0,0:0:0:0:
272,160,169912,1,2,0:0:0:0:
272,160,170037,1,2,0:0:0:0:
272,160,170162,1,0,0:0:0:0:
272,160,170287,1,0,0:0:0:0:
272,160,170412,1,0,0:0:0:0:
272,160,170495,1,0,0:0:0:0:
272,160,170578,1,0,0:0:0:0:
272,160,170662,1,0,0:0:0:0:
272,160,170745,1,2,0:0:0:0:
272,160,170828,1,2,0:0:0:0:
272,160,170912,1,2,0:0:0:0:
272,160,171037,1,2,0:0:0:0:
272,160,171162,1,0,0:0:0:0:
256,176,171287,1,0,0:0:0:0:
256,176,171412,1,2,0:0:0:0:
256,176,171537,1,0,0:0:0:0:
256,176,171662,1,2,0:0:0:0:
256,160,171787,1,2,0:0:0:0:
256,160,171912,1,2,0:0:0:0:
256,160,172037,1,2,0:0:0:0:
256,160,172162,1,0,0:0:0:0:
256,160,172287,1,2,0:0:0:0:
256,160,172412,1,2,0:0:0:0:
256,160,172537,1,0,0:0:0:0:
256,160,172662,1,0,0:0:0:0:
256,160,172787,1,2,0:0:0:0:
256,160,172912,1,2,0:0:0:0:
256,160,173037,1,2,0:0:0:0:
256,160,173162,1,0,0:0:0:0:
256,160,173287,1,0,0:0:0:0:
256,160,173412,1,2,0:0:0:0:
256,160,173537,1,2,0:0:0:0:
256,160,173662,1,0,0:0:0:0:
256,160,173787,1,0,0:0:0:0:
256,160,173912,1,2,0:0:0:0:
256,160,174037,1,0,0:0:0:0:
256,160,174162,1,2,0:0:0:0:
256,160,174245,1,2,0:0:0:0:
256,160,174328,1,2,0:0:0:0:
256,160,174412,1,2,0:0:0:0:
256,160,174495,1,0,0:0:0:0:
256,160,174578,1,0,0:0:0:0:
256,160,174662,1,0,0:0:0:0:
256,160,174787,1,0,0:0:0:0:
256,160,174912,1,2,0:0:0:0:
256,160,175037,1,2,0:0:0:0:
256,160,175162,1,0,0:0:0:0:
256,160,175287,1,0,0:0:0:0:
256,160,175412,1,2,0:0:0:0:
256,160,175537,1,0,0:0:0:0:
256,160,175662,1,0,0:0:0:0:
256,160,175787,1,0,0:0:0:0:
256,160,175912,1,2,0:0:0:0:
256,160,176037,1,0,0:0:0:0:
256,160,176162,1,2,0:0:0:0:
256,160,176285,1,2,0:0:0:0:
256,160,176409,1,0,0:0:0:0:
256,160,176533,1,2,0:0:0:0:
256,160,176657,1,2,0:0:0:0:
256,160,176781,1,0,0:0:0:0:
256,160,176905,1,0,0:0:0:0:
256,160,177029,1,0,0:0:0:0:
256,160,177153,1,2,0:0:0:0:
256,160,177275,1,2,0:0:0:0:
256,160,177397,1,0,0:0:0:0:
256,160,177520,1,2,0:0:0:0:
256,160,177642,1,2,0:0:0:0:
256,160,177765,1,0,0:0:0:0:
256,160,177887,1,0,0:0:0:0:
256,160,178010,1,0,0:0:0:0:
256,160,178132,1,2,0:0:0:0:
256,160,178250,1,2,0:0:0:0:
256,160,178368,1,0,0:0:0:0:
256,160,178486,1,0,0:0:0:0:
256,160,178604,1,2,0:0:0:0:
256,160,178722,1,2,0:0:0:0:
256,160,178840,1,0,0:0:0:0:
256,160,178958,1,0,0:0:0:0:
256,192,179076,12,0,179903,0:0:0:0:
256,192,180021,5,0,0:0:0:0:
256,192,180078,1,0,0:0:0:0:
256,192,180136,1,0,0:0:0:0:
256,192,180194,1,0,0:0:0:0:
256,192,180251,1,2,0:0:0:0:
256,192,180309,1,0,0:0:0:0:
256,176,180367,1,2,0:0:0:0:
256,176,180424,1,0,0:0:0:0:
256,176,180482,1,2,0:0:0:0:
272,176,180540,1,0,0:0:0:0:
272,176,180597,1,0,0:0:0:0:
272,176,180655,1,0,0:0:0:0:
272,176,180713,1,2,0:0:0:0:
272,176,180771,1,2,0:0:0:0:
272,176,180828,1,0,0:0:0:0:
272,176,180886,1,0,0:0:0:0:
272,176,180944,1,2,0:0:0:0:
272,176,181001,1,2,0:0:0:0:
272,176,181059,1,2,0:0:0:0:
272,176,181117,1,2,0:0:0:0:
272,176,181174,1,0,0:0:0:0:
272,176,181232,1,0,0:0:0:0:
272,176,181290,1,2,0:0:0:0:
272,176,181347,1,2,0:0:0:0:
272,176,181405,1,2,0:0:0:0:
272,192,181463,1,2,0:0:0:0:
272,176,181521,1,0,0:0:0:0:
272,176,181578,1,0,0:0:0:0:
272,176,181636,1,2,0:0:0:0:
272,176,181694,1,2,0:0:0:0:
272,176,181751,1,2,0:0:0:0:
272,176,181809,1,2,0:0:0:0:
272,176,181867,1,0,0:0:0:0:
272,176,181924,1,0,0:0:0:0:
272,176,181982,1,0,0:0:0:0:
272,176,182040,1,0,0:0:0:0:
272,176,182097,1,2,0:0:0:0:
272,176,182155,1,2,0:0:0:0:
272,176,182213,1,0,0:0:0:0:
272,176,182271,1,0,0:0:0:0:
272,176,182328,1,2,0:0:0:0:
272,176,182386,1,2,0:0:0:0:
272,176,182444,1,2,0:0:0:0:
272,176,182501,1,2,0:0:0:0:
272,176,182559,1,0,0:0:0:0:
272,176,182617,1,0,0:0:0:0:
272,176,182674,1,2,0:0:0:0:
272,176,182732,1,2,0:0:0:0:
272,176,182790,1,0,0:0:0:0:
272,176,182847,1,0,0:0:0:0:
272,176,182905,1,2,0:0:0:0:
272,176,182963,1,0,0:0:0:0:
272,176,183021,1,2,0:0:0:0:
272,176,183078,1,2,0:0:0:0:
272,176,183136,1,0,0:0:0:0:
272,176,183194,1,0,0:0:0:0:
272,176,183251,1,2,0:0:0:0:
288,176,183309,1,2,0:0:0:0:
288,176,183367,1,2,0:0:0:0:
272,176,183424,1,2,0:0:0:0:
272,176,183482,1,0,0:0:0:0:
272,176,183540,1,0,0:0:0:0:
272,176,183597,1,2,0:0:0:0:
272,176,183655,1,2,0:0:0:0:
272,176,183713,1,0,0:0:0:0:
256,176,183771,1,0,0:0:0:0:
256,176,183828,1,0,0:0:0:0:
256,176,183886,1,0,0:0:0:0:
256,176,183944,1,2,0:0:0:0:
272,176,184001,1,0,0:0:0:0:
272,176,184059,1,2,0:0:0:0:
272,176,184117,1,0,0:0:0:0:
272,176,184174,1,2,0:0:0:0:
272,160,184232,1,0,0:0:0:0:
272,160,184290,1,0,0:0:0:0:
272,160,184347,1,0,0:0:0:0:
272,160,184405,1,2,0:0:0:0:
272,160,184463,1,2,0:0:0:0:
272,160,184521,1,2,0:0:0:0:
272,160,184578,1,2,0:0:0:0:
272,160,184636,1,0,0:0:0:0:
272,160,184694,1,0,0:0:0:0:
272,160,184751,1,2,0:0:0:0:
272,160,184809,1,2,0:0:0:0:
272,160,184867,1,0,0:0:0:0:
272,160,184924,1,0,0:0:0:0:
272,160,184982,1,2,0:0:0:0:
272,160,185040,1,2,0:0:0:0:
272,160,185097,1,2,0:0:0:0:
288,160,185155,1,2,0:0:0:0:
288,160,185213,1,0,0:0:0:0:
288,160,185271,1,0,0:0:0:0:
272,176,185328,1,2,0:0:0:0:
272,176,185386,1,2,0:0:0:0:
272,176,185444,1,2,0:0:0:0:
272,176,185501,1,2,0:0:0:0:
272,176,185559,1,0,0:0:0:0:
272,176,185617,1,0,0:0:0:0:
272,176,185674,1,0,0:0:0:0:
272,176,185732,1,0,0:0:0:0:
272,176,185790,1,2,0:0:0:0:
272,176,185847,1,2,0:0:0:0:
272,176,185905,1,0,0:0:0:0:
272,176,185963,1,0,0:0:0:0:
272,176,186021,1,0,0:0:0:0:
272,176,186078,1,0,0:0:0:0:
272,176,186136,1,2,0:0:0:0:
272,176,186194,1,0,0:0:0:0:
272,176,186251,1,2,0:0:0:0:
272,176,186309,1,0,0:0:0:0:
272,176,186367,1,0,0:0:0:0:
272,176,186424,1,0,0:0:0:0:
272,176,186482,1,2,0:0:0:0:
272,176,186540,1,2,0:0:0:0:
272,176,186597,1,2,0:0:0:0:
272,176,186655,1,0,0:0:0:0:
272,176,186713,1,2,0:0:0:0:
272,176,186771,1,2,0:0:0:0:
272,176,186828,1,0,0:0:0:0:
272,176,186886,1,0,0:0:0:0:
272,176,186944,1,2,0:0:0:0:
272,176,187001,1,0,0:0:0:0:
272,176,187059,1,0,0:0:0:0:
272,176,187117,1,0,0:0:0:0:
272,176,187174,1,2,0:0:0:0:
272,176,187232,1,2,0:0:0:0:
256,176,187290,1,2,0:0:0:0:
256,176,187347,1,2,0:0:0:0:
256,192,187405,1,0,0:0:0:0:
256,192,187463,1,0,0:0:0:0:
256,192,187521,1,0,0:0:0:0:
256,192,187578,1,0,0:0:0:0:
256,192,187636,1,2,0:0:0:0:
256,192,187694,1,0,0:0:0:0:
256,176,187751,1,2,0:0:0:0:
256,176,187809,1,0,0:0:0:0:
256,176,187867,1,2,0:0:0:0:
272,176,187924,1,0,0:0:0:0:
272,176,187982,1,0,0:0:0:0:
272,176,188040,1,0,0:0:0:0:
272,176,188097,1,2,0:0:0:0:
272,176,188155,1,2,0:0:0:0:
272,176,188213,1,0,0:0:0:0:
272,176,188271,1,0,0:0:0:0:
272,176,188328,1,2,0:0:0:0:
272,176,188386,1,2,0:0:0:0:
272,176,188444,1,2,0:0:0:0:
272,176,188501,1,2,0:0:0:0:
272,176,188559,1,0,0:0:0:0:
272,176,188617,1,0,0:0:0:0:
272,176,188674,1,2,0:0:0:0:
272,176,188732,1,2,0:0:0:0:
272,176,188790,1,2,0:0:0:0:
272,192,188847,1,2,0:0:0:0:
272,176,188905,1,0,0:0:0:0:
272,176,188963,1,0,0:0:0:0:
272,176,189021,1,2,0:0:0:0:
272,176,189078,1,2,0:0:0:0:
272,176,189136,1,2,0:0:0:0:
272,176,189194,1,2,0:0:0:0:
272,176,189251,1,0,0:0:0:0:
272,176,189309,1,0,0:0:0:0:
272,176,189367,1,0,0:0:0:0:
272,176,189424,1,0,0:0:0:0:
272,176,189482,1,2,0:0:0:0:
272,176,189540,1,2,0:0:0:0:
272,176,189597,1,0,0:0:0:0:
272,176,189655,1,0,0:0:0:0:
272,176,189713,1,2,0:0:0:0:
272,176,189771,1,2,0:0:0:0:
272,176,189828,1,2,0:0:0:0:
272,176,189886,1,2,0:0:0:0:
272,176,189944,1,0,0:0:0:0:
272,176,190001,1,0,0:0:0:0:
272,176,190059,1,2,0:0:0:0:
272,176,190117,1,2,0:0:0:0:
272,176,190174,1,0,0:0:0:0:
272,176,190232,1,0,0:0:0:0:
272,176,190290,1,2,0:0:0:0:
272,176,190347,1,0,0:0:0:0:
272,176,190405,1,2,0:0:0:0:
272,176,190463,1,2,0:0:0:0:
272,176,190521,1,0,0:0:0:0:
272,176,190578,1,0,0:0:0:0:
272,176,190636,1,2,0:0:0:0:
288,176,190694,1,2,0:0:0:0:
288,176,190751,1,2,0:0:0:0:
272,176,190809,1,2,0:0:0:0:
272,176,190867,1,0,0:0:0:0:
272,176,190924,1,0,0:0:0:0:
272,176,190982,1,2,0:0:0:0:
272,176,191040,1,2,0:0:0:0:
272,176,191097,1,0,0:0:0:0:
256,176,191155,1,0,0:0:0:0:
256,176,191213,1,0,0:0:0:0:
256,176,191271,1,0,0:0:0:0:
256,176,191328,1,2,0:0:0:0:
272,176,191386,1,0,0:0:0:0:
272,176,191444,1,2,0:0:0:0:
272,176,191501,1,0,0:0:0:0:
272,176,191559,1,2,0:0:0:0:
272,160,191617,1,0,0:0:0:0:
272,160,191674,1,0,0:0:0:0:
272,160,191732,1,0,0:0:0:0:
272,160,191790,1,2,0:0:0:0:
272,160,191847,1,2,0:0:0:0:
272,160,191905,1,2,0:0:0:0:
272,160,191963,1,2,0:0:0:0:
272,160,192021,1,0,0:0:0:0:
272,160,192078,1,0,0:0:0:0:
272,160,192136,1,2,0:0:0:0:
272,160,192194,1,2,0:0:0:0:
272,160,192251,1,0,0:0:0:0:
272,160,192309,1,0,0:0:0:0:
272,160,192367,1,2,0:0:0:0:
272,160,192424,1,2,0:0:0:0:
272,160,192482,1,2,0:0:0:0:
288,160,192540,1,2,0:0:0:0:
288,160,192597,1,0,0:0:0:0:
288,160,192655,1,0,0:0:0:0:
272,176,192713,1,2,0:0:0:0:
272,176,192771,1,2,0:0:0:0:
272,176,192828,1,2,0:0:0:0:
272,176,192886,1,2,0:0:0:0:
272,176,192944,1,0,0:0:0:0:
272,176,193001,1,0,0:0:0:0:
272,176,193059,1,0,0:0:0:0:
272,176,193117,1,0,0:0:0:0:
272,176,193174,1,2,0:0:0:0:
272,176,193232,1,2,0:0:0:0:
272,176,193290,1,0,0:0:0:0:
272,176,193347,1,0,0:0:0:0:
272,176,193405,1,0,0:0:0:0:
272,176,193463,1,0,0:0:0:0:
272,176,193521,1,2,0:0:0:0:
272,176,193578,1,0,0:0:0:0:
272,176,193636,1,2,0:0:0:0:
272,176,193694,1,0,0:0:0:0:
272,176,193751,1,0,0:0:0:0:
272,176,193809,1,0,0:0:0:0:
272,176,193867,1,2,0:0:0:0:
272,176,193924,1,2,0:0:0:0:
272,176,193982,1,2,0:0:0:0:
272,176,194040,1,0,0:0:0:0:
272,176,194097,1,2,0:0:0:0:
272,176,194155,1,2,0:0:0:0:
272,176,194213,1,0,0:0:0:0:
272,176,194271,1,0,0:0:0:0:
272,176,194328,1,2,0:0:0:0:
272,176,194386,1,0,0:0:0:0:
272,176,194444,1,0,0:0:0:0:
272,176,194501,1,0,0:0:0:0:
272,160,194559,1,2,0:0:0:0:
272,160,194617,1,2,0:0:0:0:
272,160,194674,1,0,0:0:0:0:
272,160,194732,1,0,0:0:0:0:
272,160,194790,1,2,0:0:0:0:
256,176,194847,1,2,0:0:0:0:
256,176,194905,1,2,0:0:0:0:
272,176,194963,1,2,0:0:0:0:
272,176,195021,1,0,0:0:0:0:
272,176,195078,1,0,0:0:0:0:
272,176,195136,1,2,0:0:0:0:
272,176,195194,1,0,0:0:0:0:
272,176,195251,1,2,0:0:0:0:
288,160,195309,1,0,0:0:0:0:
288,160,195367,1,0,0:0:0:0:
288,160,195424,1,0,0:0:0:0:
288,160,195482,1,2,0:0:0:0:
288,160,195540,1,2,0:0:0:0:
288,160,195597,1,0,0:0:0:0:
288,160,195655,1,0,0:0:0:0:
288,160,195713,1,2,0:0:0:0:
288,160,195771,1,2,0:0:0:0:
288,160,195828,1,2,0:0:0:0:
288,160,195886,1,2,0:0:0:0:
288,160,195944,1,0,0:0:0:0:
288,160,196001,1,0,0:0:0:0:
304,160,196059,1,2,0:0:0:0:
288,160,196117,1,0,0:0:0:0:
288,160,196174,1,2,0:0:0:0:
288,160,196232,1,0,0:0:0:0:
288,160,196290,1,0,0:0:0:0:
288,160,196347,1,0,0:0:0:0:
272,176,196405,1,2,0:0:0:0:
272,176,196463,1,2,0:0:0:0:
272,176,196521,1,0,0:0:0:0:
272,176,196578,1,0,0:0:0:0:
272,176,196636,1,2,0:0:0:0:
272,176,196694,1,2,0:0:0:0:
272,176,196751,1,2,0:0:0:0:
272,176,196809,1,2,0:0:0:0:
272,176,196867,1,2,0:0:0:0:
272,176,196924,1,2,0:0:0:0:
288,176,196982,1,2,0:0:0:0:
288,176,197040,1,2,0:0:0:0:
288,176,197097,1,0,0:0:0:0:
288,176,197155,1,0,0:0:0:0:
288,176,197213,1,0,0:0:0:0:
288,176,197271,1,0,0:0:0:0:
288,176,197328,1,2,0:0:0:0:
288,176,197386,1,2,0:0:0:0:
288,176,197444,1,0,0:0:0:0:
288,176,197501,1,0,0:0:0:0:
288,176,197559,1,2,0:0:0:0:
272,176,197617,1,2,0:0:0:0:
272,176,197674,1,2,0:0:0:0:
272,176,197732,1,2,0:0:0:0:
272,176,197790,1,0,0:0:0:0:
288,176,197847,1,0,0:0:0:0:
288,176,197905,1,0,0:0:0:0:
288,176,197963,1,0,0:0:0:0:
288,176,198021,1,2,0:0:0:0:
288,176,198078,1,2,0:0:0:0:
288,176,198136,1,0,0:0:0:0:
288,176,198194,1,0,0:0:0:0:
288,176,198251,1,2,0:0:0:0:
288,176,198309,1,2,0:0:0:0:
288,176,198367,1,2,0:0:0:0:
288,176,198424,1,2,0:0:0:0:
288,176,198482,1,0,0:0:0:0:
272,192,198540,1,0,0:0:0:0:
272,192,198597,1,0,0:0:0:0:
272,192,198655,1,0,0:0:0:0:
272,192,198713,1,2,0:0:0:0:
272,192,198771,1,0,0:0:0:0:
272,192,198828,1,2,0:0:0:0:
272,192,198886,1,0,0:0:0:0:
272,192,198944,1,2,0:0:0:0:
288,192,199001,1,0,0:0:0:0:
288,192,199059,1,0,0:0:0:0:
288,192,199117,1,0,0:0:0:0:
288,192,199174,1,2,0:0:0:0:
288,192,199232,1,0,0:0:0:0:
288,192,199290,1,2,0:0:0:0:
288,192,199347,1,2,0:0:0:0:
288,192,199405,1,0,0:0:0:0:
288,192,199463,1,0,0:0:0:0:
288,192,199521,1,0,0:0:0:0:
288,192,199578,1,0,0:0:0:0:
288,192,199636,1,2,0:0:0:0:
288,192,199694,1,0,0:0:0:0:
288,192,199751,1,2,0:0:0:0:
288,192,199809,1,2,0:0:0:0:
288,192,199867,1,0,0:0:0:0:
288,192,199924,1,0,0:0:0:0:
288,192,199982,1,0,0:0:0:0:
288,192,200040,1,0,0:0:0:0:
288,192,200097,1,2,0:0:0:0:
288,192,200155,1,0,0:0:0:0:
288,192,200213,1,2,0:0:0:0:
288,192,200271,1,0,0:0:0:0:
288,192,200328,1,2,0:0:0:0:
288,192,200386,1,2,0:0:0:0:
288,192,200444,1,2,0:0:0:0:
288,192,200501,1,2,0:0:0:0:
288,192,200559,1,0,0:0:0:0:
272,192,200617,1,0,0:0:0:0:
272,192,200674,1,2,0:0:0:0:
272,192,200732,1,2,0:0:0:0:
272,192,200790,1,0,0:0:0:0:
272,192,200847,1,0,0:0:0:0:
272,192,200905,1,0,0:0:0:0:
272,192,200963,1,0,0:0:0:0:
272,192,201021,1,2,0:0:0:0:
272,192,201078,1,2,0:0:0:0:
272,192,201136,1,0,0:0:0:0:
272,192,201194,1,0,0:0:0:0:
272,192,201251,1,2,0:0:0:0:
256,192,201309,1,2,0:0:0:0:
256,192,201367,1,2,0:0:0:0:
272,192,201424,1,2,0:0:0:0:
272,192,201482,1,0,0:0:0:0:
272,192,201540,1,0,0:0:0:0:
272,192,201597,1,2,0:0:0:0:
272,192,201655,1,2,0:0:0:0:
272,192,201713,1,0,0:0:0:0:
272,192,201771,1,0,0:0:0:0:
272,192,201828,1,0,0:0:0:0:
272,192,201886,1,0,0:0:0:0:
272,192,201944,1,2,0:0:0:0:
272,192,202001,1,2,0:0:0:0:
272,192,202059,1,0,0:0:0:0:
272,192,202117,1,0,0:0:0:0:
272,160,202174,1,2,0:0:0:0:
256,176,202232,1,2,0:0:0:0:
256,176,202290,1,2,0:0:0:0:
272,176,202347,1,2,0:0:0:0:
272,176,202405,1,0,0:0:0:0:
272,176,202463,1,0,0:0:0:0:
272,176,202521,1,2,0:0:0:0:
272,176,202578,1,0,0:0:0:0:
272,176,202636,1,2,0:0:0:0:
288,160,202694,1,0,0:0:0:0:
288,160,202751,1,0,0:0:0:0:
288,160,202809,1,0,0:0:0:0:
288,160,202867,1,2,0:0:0:0:
288,160,202924,1,2,0:0:0:0:
288,160,202982,1,0,0:0:0:0:
288,160,203040,1,0,0:0:0:0:
288,160,203097,1,2,0:0:0:0:
288,160,203155,1,2,0:0:0:0:
288,160,203213,1,2,0:0:0:0:
288,160,203271,1,2,0:0:0:0:
288,160,203328,1,0,0:0:0:0:
288,160,203386,1,0,0:0:0:0:
304,160,203444,1,2,0:0:0:0:
288,160,203501,1,0,0:0:0:0:
288,160,203559,1,2,0:0:0:0:
288,160,203617,1,0,0:0:0:0:
288,160,203674,1,0,0:0:0:0:
288,160,203732,1,0,0:0:0:0:
272,176,203790,1,2,0:0:0:0:
272,176,203847,1,2,0:0:0:0:
272,176,203905,1,0,0:0:0:0:
272,176,203963,1,0,0:0:0:0:
272,176,204021,1,2,0:0:0:0:
272,176,204078,1,2,0:0:0:0:
272,176,204136,1,2,0:0:0:0:
272,176,204194,1,2,0:0:0:0:
272,176,204251,1,2,0:0:0:0:
272,176,204309,1,2,0:0:0:0:
288,176,204367,1,2,0:0:0:0:
288,176,204424,1,2,0:0:0:0:
288,176,204482,1,0,0:0:0:0:
288,176,204540,1,0,0:0:0:0:
288,176,204597,1,0,0:0:0:0:
288,176,204655,1,0,0:0:0:0:
288,176,204713,1,2,0:0:0:0:
288,176,204771,1,2,0:0:0:0:
288,176,204828,1,0,0:0:0:0:
288,176,204886,1,0,0:0:0:0:
288,176,204944,1,2,0:0:0:0:
272,176,205001,1,2,0:0:0:0:
272,176,205059,1,2,0:0:0:0:
272,176,205117,1,2,0:0:0:0:
272,176,205174,1,0,0:0:0:0:
288,176,205232,1,0,0:0:0:0:
288,176,205290,1,0,0:0:0:0:
288,176,205347,1,0,0:0:0:0:
288,176,205405,1,2,0:0:0:0:
288,176,205463,1,2,0:0:0:0:
288,176,205521,1,0,0:0:0:0:
288,176,205578,1,0,0:0:0:0:
288,176,205636,1,2,0:0:0:0:
288,176,205694,1,2,0:0:0:0:
288,176,205751,1,2,0:0:0:0:
288,176,205809,1,2,0:0:0:0:
288,176,205867,1,0,0:0:0:0:
272,192,205924,1,0,0:0:0:0:
272,192,205982,1,0,0:0:0:0:
272,192,206040,1,0,0:0:0:0:
272,192,206097,1,2,0:0:0:0:
272,192,206155,1,0,0:0:0:0:
272,192,206213,1,2,0:0:0:0:
272,192,206271,1,0,0:0:0:0:
272,192,206328,1,2,0:0:0:0:
288,192,206386,1,0,0:0:0:0:
288,192,206444,1,0,0:0:0:0:
288,192,206501,1,0,0:0:0:0:
288,192,206559,1,2,0:0:0:0:
288,192,206617,1,0,0:0:0:0:
288,192,206674,1,2,0:0:0:0:
288,192,206732,1,2,0:0:0:0:
288,192,206790,1,0,0:0:0:0:
288,192,206847,1,0,0:0:0:0:
288,192,206905,1,0,0:0:0:0:
288,192,206963,1,0,0:0:0:0:
288,192,207021,1,2,0:0:0:0:
288,192,207078,1,0,0:0:0:0:
288,192,207136,1,2,0:0:0:0:
288,192,207194,1,2,0:0:0:0:
288,192,207251,1,0,0:0:0:0:
288,192,207309,1,0,0:0:0:0:
288,192,207367,1,0,0:0:0:0:
288,192,207424,1,0,0:0:0:0:
288,192,207482,1,2,0:0:0:0:
288,192,207540,1,0,0:0:0:0:
288,192,207597,1,2,0:0:0:0:
288,192,207655,1,0,0:0:0:0:
288,192,207713,1,2,0:0:0:0:
288,192,207771,1,2,0:0:0:0:
288,192,207828,1,2,0:0:0:0:
288,192,207886,1,2,0:0:0:0:
288,192,207944,1,0,0:0:0:0:
272,192,208001,1,0,0:0:0:0:
272,192,208059,1,2,0:0:0:0:
272,192,208117,1,2,0:0:0:0:
272,192,208174,1,0,0:0:0:0:
272,192,208232,1,0,0:0:0:0:
272,192,208290,1,0,0:0:0:0:
272,192,208347,1,0,0:0:0:0:
272,192,208405,1,2,0:0:0:0:
272,192,208463,1,2,0:0:0:0:
272,192,208521,1,0,0:0:0:0:
272,192,208578,1,0,0:0:0:0:
272,192,208636,1,2,0:0:0:0:
256,192,208694,1,2,0:0:0:0:
256,192,208751,1,2,0:0:0:0:
272,192,208809,1,2,0:0:0:0:
272,192,208867,1,0,0:0:0:0:
272,192,208924,1,0,0:0:0:0:
272,192,208982,1,2,0:0:0:0:
272,192,209040,1,2,0:0:0:0:
272,192,209097,1,0,0:0:0:0:
272,192,209155,1,0,0:0:0:0:
272,192,209213,1,0,0:0:0:0:
272,192,209271,1,0,0:0:0:0:
272,192,209328,1,2,0:0:0:0:
272,192,209386,1,2,0:0:0:0:
272,192,209444,1,0,0:0:0:0:
272,192,209501,1,0,0:0:0:0:
272,160,209559,1,2,0:0:0:0:
256,176,209617,1,2,0:0:0:0:
256,176,209674,1,2,0:0:0:0:
272,176,209732,1,2,0:0:0:0:
272,176,209790,1,0,0:0:0:0:
272,176,209847,1,0,0:0:0:0:
272,176,209905,1,2,0:0:0:0:
272,176,209963,1,2,0:0:0:0:
272,176,210021,1,0,0:0:0:0:
288,160,210078,1,0,0:0:0:0:
288,160,210136,1,2,0:0:0:0:
288,160,210194,1,0,0:0:0:0:
288,160,210251,1,2,0:0:0:0:
288,160,210309,1,2,0:0:0:0:
288,160,210367,1,0,0:0:0:0:
288,160,210424,1,0,0:0:0:0:
288,160,210482,1,2,0:0:0:0:
288,160,210540,1,2,0:0:0:0:
288,160,210597,1,2,0:0:0:0:
288,160,210655,1,2,0:0:0:0:
288,160,210713,1,0,0:0:0:0:
288,160,210771,1,0,0:0:0:0:
304,160,210828,1,2,0:0:0:0:
288,160,210886,1,2,0:0:0:0:
288,160,210944,1,2,0:0:0:0:
288,160,211001,1,0,0:0:0:0:
288,160,211059,1,2,0:0:0:0:
288,160,211117,1,2,0:0:0:0:
272,176,211174,1,0,0:0:0:0:
272,176,211232,1,0,0:0:0:0:
272,176,211290,1,0,0:0:0:0:
272,176,211347,1,0,0:0:0:0:
272,176,211405,1,2,0:0:0:0:
272,176,211463,1,2,0:0:0:0:
272,176,211521,1,2,0:0:0:0:
272,176,211578,1,2,0:0:0:0:
272,176,211636,1,0,0:0:0:0:
272,176,211694,1,0,0:0:0:0:
288,176,211751,1,2,0:0:0:0:
288,176,211809,1,2,0:0:0:0:
288,176,211867,1,2,0:0:0:0:
288,176,211924,1,0,0:0:0:0:
288,176,211982,1,2,0:0:0:0:
288,176,212040,1,2,0:0:0:0:
288,176,212097,1,0,0:0:0:0:
288,176,212155,1,0,0:0:0:0:
288,176,212213,1,0,0:0:0:0:
288,176,212271,1,0,0:0:0:0:
288,176,212328,1,2,0:0:0:0:
272,176,212386,1,2,0:0:0:0:
272,176,212444,1,0,0:0:0:0:
272,176,212501,1,0,0:0:0:0:
272,176,212559,1,2,0:0:0:0:
288,176,212617,1,0,0:0:0:0:
288,176,212674,1,2,0:0:0:0:
288,176,212732,1,2,0:0:0:0:
288,176,212790,1,2,0:0:0:0:
288,176,212847,1,2,0:0:0:0:
288,176,212905,1,0,0:0:0:0:
288,176,212963,1,0,0:0:0:0:
288,176,213021,1,2,0:0:0:0:
288,176,213078,1,2,0:0:0:0:
288,176,213136,1,0,0:0:0:0:
288,176,213194,1,0,0:0:0:0:
288,176,213251,1,2,0:0:0:0:
272,192,213309,1,2,0:0:0:0:
272,192,213367,1,2,0:0:0:0:
272,192,213424,1,2,0:0:0:0:
272,192,213482,1,0,0:0:0:0:
272,192,213540,1,0,0:0:0:0:
272,192,213597,1,2,0:0:0:0:
272,192,213655,1,0,0:0:0:0:
272,192,213713,1,2,0:0:0:0:
288,192,213771,1,2,0:0:0:0:
288,192,213828,1,0,0:0:0:0:
288,192,213886,1,0,0:0:0:0:
288,192,213944,1,2,0:0:0:0:
288,192,214001,1,2,0:0:0:0:
288,192,214059,1,2,0:0:0:0:
288,192,214117,1,2,0:0:0:0:
288,192,214174,1,0,0:0:0:0:
288,192,214232,1,0,0:0:0:0:
288,192,214290,1,0,0:0:0:0:
288,192,214347,1,0,0:0:0:0:
288,192,214405,1,2,0:0:0:0:
288,192,214463,1,0,0:0:0:0:
288,192,214521,1,2,0:0:0:0:
288,192,214578,1,2,0:0:0:0:
288,192,214636,1,0,0:0:0:0:
288,192,214694,1,0,0:0:0:0:
288,192,214751,1,0,0:0:0:0:
288,192,214809,1,0,0:0:0:0:
288,192,214867,1,2,0:0:0:0:
288,192,214924,1,2,0:0:0:0:
288,192,214982,1,0,0:0:0:0:
288,192,215040,1,0,0:0:0:0:
288,192,215097,1,2,0:0:0:0:
288,192,215155,1,2,0:0:0:0:
288,192,215213,1,2,0:0:0:0:
288,192,215271,1,2,0:0:0:0:
288,192,215328,1,2,0:0:0:0:
272,192,215386,1,2,0:0:0:0:
272,192,215444,1,2,0:0:0:0:
272,192,215501,1,2,0:0:0:0:
272,192,215559,1,0,0:0:0:0:
272,192,215617,1,0,0:0:0:0:
272,192,215674,1,0,0:0:0:0:
272,192,215732,1,0,0:0:0:0:
272,192,215790,1,0,0:0:0:0:
272,192,215847,1,0,0:0:0:0:
272,192,215905,1,0,0:0:0:0:
272,192,215963,1,0,0:0:0:0:
272,192,216021,1,2,0:0:0:0:
256,192,216078,1,2,0:0:0:0:
256,192,216136,1,2,0:0:0:0:
272,192,216194,1,2,0:0:0:0:
272,192,216251,1,2,0:0:0:0:
272,192,216309,1,2,0:0:0:0:
272,192,216367,1,2,0:0:0:0:
272,192,216424,1,2,0:0:0:0:
272,192,216482,1,0,0:0:0:0:
272,192,216540,1,0,0:0:0:0:
272,192,216597,1,0,0:0:0:0:
272,192,216655,1,0,0:0:0:0:
272,192,216713,1,0,0:0:0:0:
272,192,216771,1,0,0:0:0:0:
272,192,216828,1,0,0:0:0:0:
272,192,216886,1,0,0:0:0:0:
272,160,216944,1,2,0:0:0:0:
256,176,217001,1,2,0:0:0:0:
256,176,217059,1,2,0:0:0:0:
272,176,217117,1,2,0:0:0:0:
272,176,217174,1,0,0:0:0:0:
272,176,217232,1,0,0:0:0:0:
272,176,217290,1,2,0:0:0:0:
272,176,217347,1,2,0:0:0:0:
272,176,217405,1,0,0:0:0:0:
288,160,217463,1,0,0:0:0:0:
288,160,217521,1,2,0:0:0:0:
288,160,217578,1,0,0:0:0:0:
288,160,217636,1,2,0:0:0:0:
288,160,217694,1,2,0:0:0:0:
288,160,217751,1,0,0:0:0:0:
288,160,217809,1,0,0:0:0:0:
288,160,217867,1,2,0:0:0:0:
288,160,217924,1,2,0:0:0:0:
288,160,217982,1,2,0:0:0:0:
288,160,218040,1,2,0:0:0:0:
288,160,218097,1,0,0:0:0:0:
288,160,218155,1,0,0:0:0:0:
304,160,218213,1,2,0:0:0:0:
288,160,218271,1,2,0:0:0:0:
288,160,218328,1,2,0:0:0:0:
288,160,218386,1,0,0:0:0:0:
288,160,218444,1,2,0:0:0:0:
288,160,218501,1,2,0:0:0:0:
272,176,218559,1,0,0:0:0:0:
272,176,218617,1,0,0:0:0:0:
272,176,218674,1,0,0:0:0:0:
272,176,218732,1,0,0:0:0:0:
272,176,218790,1,2,0:0:0:0:
272,176,218847,1,2,0:0:0:0:
272,176,218905,1,2,0:0:0:0:
272,176,218963,1,2,0:0:0:0:
272,176,219021,1,0,0:0:0:0:
272,176,219078,1,0,0:0:0:0:
288,176,219136,1,2,0:0:0:0:
288,176,219194,1,2,0:0:0:0:
288,176,219251,1,2,0:0:0:0:
288,176,219309,1,0,0:0:0:0:
288,176,219367,1,2,0:0:0:0:
288,176,219424,1,2,0:0:0:0:
288,176,219482,1,0,0:0:0:0:
288,176,219540,1,0,0:0:0:0:
288,176,219597,1,0,0:0:0:0:
288,176,219655,1,0,0:0:0:0:
288,176,219713,1,2,0:0:0:0:
272,176,219771,1,2,0:0:0:0:
272,176,219828,1,0,0:0:0:0:
272,176,219886,1,0,0:0:0:0:
272,176,219944,1,2,0:0:0:0:
288,176,220001,1,0,0:0:0:0:
288,176,220059,1,2,0:0:0:0:
288,176,220117,1,2,0:0:0:0:
288,176,220174,1,2,0:0:0:0:
288,176,220232,1,2,0:0:0:0:
288,176,220290,1,0,0:0:0:0:
288,176,220347,1,0,0:0:0:0:
288,176,220405,1,2,0:0:0:0:
288,176,220463,1,2,0:0:0:0:
288,176,220521,1,0,0:0:0:0:
288,176,220578,1,0,0:0:0:0:
288,176,220636,1,2,0:0:0:0:
272,192,220694,1,2,0:0:0:0:
272,192,220751,1,2,0:0:0:0:
272,192,220809,1,2,0:0:0:0:
272,192,220867,1,0,0:0:0:0:
272,192,220924,1,0,0:0:0:0:
272,192,220982,1,2,0:0:0:0:
272,192,221040,1,0,0:0:0:0:
272,192,221097,1,2,0:0:0:0:
288,192,221155,1,2,0:0:0:0:
288,192,221213,1,0,0:0:0:0:
288,192,221271,1,0,0:0:0:0:
288,192,221328,1,2,0:0:0:0:
288,192,221386,1,2,0:0:0:0:
288,192,221444,1,2,0:0:0:0:
288,192,221501,1,2,0:0:0:0:
288,192,221559,1,0,0:0:0:0:
288,192,221617,1,0,0:0:0:0:
288,192,221674,1,0,0:0:0:0:
288,192,221732,1,0,0:0:0:0:
288,192,221790,1,2,0:0:0:0:
288,192,221847,1,0,0:0:0:0:
288,192,221905,1,2,0:0:0:0:
288,192,221963,1,2,0:0:0:0:
288,192,222021,1,0,0:0:0:0:
288,192,222078,1,0,0:0:0:0:
288,192,222136,1,0,0:0:0:0:
288,192,222194,1,0,0:0:0:0:
288,192,222251,1,2,0:0:0:0:
288,192,222309,1,2,0:0:0:0:
288,192,222367,1,0,0:0:0:0:
288,192,222424,1,0,0:0:0:0:
288,192,222482,1,2,0:0:0:0:
288,192,222540,1,2,0:0:0:0:
288,192,222597,1,2,0:0:0:0:
288,192,222655,1,2,0:0:0:0:
288,192,222713,1,2,0:0:0:0:
272,192,222771,1,2,0:0:0:0:
272,192,222828,1,2,0:0:0:0:
272,192,222886,1,2,0:0:0:0:
272,192,222944,1,0,0:0:0:0:
272,192,223001,1,0,0:0:0:0:
272,192,223059,1,0,0:0:0:0:
272,192,223117,1,0,0:0:0:0:
272,192,223174,1,0,0:0:0:0:
272,192,223232,1,0,0:0:0:0:
272,192,223290,1,0,0:0:0:0:
272,192,223347,1,0,0:0:0:0:
272,192,223405,1,2,0:0:0:0:
256,192,223463,1,2,0:0:0:0:
256,192,223521,1,2,0:0:0:0:
272,192,223578,1,2,0:0:0:0:
272,192,223636,1,2,0:0:0:0:
272,192,223694,1,2,0:0:0:0:
272,192,223751,1,2,0:0:0:0:
272,192,223809,1,2,0:0:0:0:
272,192,223867,1,0,0:0:0:0:
272,192,223924,1,0,0:0:0:0:
272,192,223982,1,0,0:0:0:0:
272,192,224040,1,0,0:0:0:0:
272,192,224097,1,0,0:0:0:0:
272,192,224155,1,0,0:0:0:0:
272,192,224213,1,0,0:0:0:0:
272,192,224271,1,0,0:0:0:0:
256,192,224328,1,2,0:0:0:0:
272,192,224444,5,0,0:0:0:0:
272,192,224559,1,2,0:0:0:0:
272,192,224674,1,2,0:0:0:0:
272,192,224732,1,2,0:0:0:0:
272,192,224790,1,2,0:0:0:0:
272,192,224847,1,2,0:0:0:0:
272,192,224905,1,0,0:0:0:0:
272,192,225021,1,2,0:0:0:0:
272,192,225136,1,2,0:0:0:0:
272,192,225194,1,2,0:0:0:0:
272,192,225251,1,0,0:0:0:0:
272,192,225367,1,0,0:0:0:0:
272,192,225482,1,2,0:0:0:0:
272,192,225597,1,2,0:0:0:0:
272,192,225655,1,0,0:0:0:0:
272,192,225713,1,2,0:0:0:0:
272,192,225771,1,2,0:0:0:0:
272,192,225828,1,0,0:0:0:0:
272,192,225944,1,2,0:0:0:0:
272,192,226059,1,0,0:0:0:0:
272,192,226117,1,2,0:0:0:0:
272,192,226174,1,0,0:0:0:0:
272,192,226290,1,0,0:0:0:0:
272,192,226405,1,2,0:0:0:0:
272,192,226521,1,0,0:0:0:0:
272,192,226578,1,0,0:0:0:0:
272,192,226636,1,2,0:0:0:0:
272,192,226694,1,0,0:0:0:0:
272,192,226751,1,0,0:0:0:0:
272,192,226867,1,2,0:0:0:0:
272,192,226982,1,2,0:0:0:0:
272,192,227040,1,0,0:0:0:0:
272,192,227097,1,0,0:0:0:0:
256,192,227213,1,0,0:0:0:0:
256,192,227328,1,2,0:0:0:0:
256,192,227444,1,0,0:0:0:0:
256,192,227501,1,0,0:0:0:0:
256,192,227559,1,2,0:0:0:0:
256,192,227617,1,2,0:0:0:0:
272,192,227674,1,0,0:0:0:0:
272,192,227790,1,2,0:0:0:0:
272,192,227905,1,2,0:0:0:0:
272,176,227963,1,2,0:0:0:0:
272,192,228021,1,0,0:0:0:0:
272,192,228136,1,2,0:0:0:0:
272,192,228251,1,0,0:0:0:0:
272,192,228367,1,2,0:0:0:0:
272,192,228424,1,0,0:0:0:0:
272,192,228482,1,2,0:0:0:0:
272,192,228540,1,0,0:0:0:0:
272,192,228597,1,0,0:0:0:0:
272,192,228713,1,2,0:0:0:0:
272,192,228828,1,2,0:0:0:0:
272,192,228944,1,0,0:0:0:0:
272,176,229001,1,0,0:0:0:0:
272,192,229059,1,0,0:0:0:0:
272,192,229174,1,2,0:0:0:0:
272,192,229290,1,0,0:0:0:0:
272,192,229347,1,0,0:0:0:0:
272,192,229405,1,2,0:0:0:0:
272,192,229463,1,2,0:0:0:0:
272,192,229521,1,0,0:0:0:0:
272,192,229636,1,2,0:0:0:0:
272,176,229751,1,0,0:0:0:0:
272,176,229867,1,2,0:0:0:0:
272,176,229924,1,2,0:0:0:0:
272,176,229982,1,0,0:0:0:0:
272,176,230097,1,2,0:0:0:0:
272,176,230213,1,0,0:0:0:0:
272,176,230271,1,0,0:0:0:0:
272,176,230328,1,2,0:0:0:0:
272,176,230386,1,0,0:0:0:0:
272,176,230444,1,0,0:0:0:0:
272,176,230559,1,2,0:0:0:0:
256,192,230674,1,2,0:0:0:0:
256,192,230790,5,0,0:0:0:0:
256,192,230847,1,0,0:0:0:0:
256,192,230905,1,0,0:0:0:0:
256,192,230963,1,0,0:0:0:0:
256,192,231021,1,2,0:0:0:0:
256,192,231078,1,2,0:0:0:0:
256,192,231136,1,2,0:0:0:0:
256,192,231194,1,2,0:0:0:0:
256,192,231251,1,0,0:0:0:0:
256,192,231309,1,0,0:0:0:0:
256,192,231367,1,0,0:0:0:0:
240,192,231424,1,0,0:0:0:0:
256,192,231482,1,2,0:0:0:0:
256,192,231540,1,2,0:0:0:0:
256,192,231597,1,2,0:0:0:0:
256,192,231655,1,2,0:0:0:0:
256,192,231713,1,0,0:0:0:0:
272,192,231828,5,0,0:0:0:0:
272,192,231944,1,2,0:0:0:0:
272,192,232059,1,2,0:0:0:0:
272,192,232117,1,2,0:0:0:0:
272,192,232174,1,2,0:0:0:0:
272,192,232232,1,2,0:0:0:0:
272,192,232290,1,0,0:0:0:0:
272,192,232405,1,2,0:0:0:0:
272,192,232521,1,2,0:0:0:0:
272,192,232578,1,2,0:0:0:0:
272,192,232636,1,0,0:0:0:0:
272,192,232751,1,0,0:0:0:0:
272,192,232867,1,2,0:0:0:0:
272,192,232982,1,2,0:0:0:0:
272,192,233040,1,0,0:0:0:0:
272,192,233097,1,2,0:0:0:0:
272,192,233155,1,2,0:0:0:0:
272,192,233213,1,0,0:0:0:0:
272,192,233328,1,2,0:0:0:0:
272,192,233444,1,0,0:0:0:0:
272,192,233501,1,2,0:0:0:0:
272,192,233559,1,0,0:0:0:0:
272,192,233674,1,0,0:0:0:0:
272,192,233790,1,2,0:0:0:0:
272,192,233905,1,0,0:0:0:0:
272,192,233963,1,0,0:0:0:0:
272,192,234021,1,2,0:0:0:0:
272,192,234078,1,0,0:0:0:0:
272,192,234136,1,0,0:0:0:0:
272,192,234251,1,2,0:0:0:0:
272,192,234367,1,2,0:0:0:0:
272,192,234424,1,0,0:0:0:0:
272,192,234482,1,0,0:0:0:0:
256,192,234597,1,0,0:0:0:0:
256,192,234713,1,2,0:0:0:0:
256,192,234828,1,0,0:0:0:0:
256,192,234886,1,0,0:0:0:0:
256,192,234944,1,2,0:0:0:0:
256,192,235001,1,2,0:0:0:0:
272,192,235059,1,0,0:0:0:0:
272,192,235174,1,2,0:0:0:0:
272,192,235290,1,2,0:0:0:0:
272,176,235347,1,2,0:0:0:0:
272,192,235405,1,0,0:0:0:0:
272,192,235521,1,2,0:0:0:0:
272,192,235636,1,0,0:0:0:0:
272,192,235751,1,2,0:0:0:0:
272,192,235809,1,0,0:0:0:0:
272,192,235867,1,2,0:0:0:0:
272,192,235924,1,0,0:0:0:0:
272,192,235982,1,0,0:0:0:0:
272,192,236097,1,2,0:0:0:0:
272,192,236213,1,2,0:0:0:0:
272,192,236328,1,0,0:0:0:0:
272,176,236386,1,0,0:0:0:0:
272,192,236444,1,0,0:0:0:0:
272,192,236559,1,2,0:0:0:0:
272,192,236674,1,0,0:0:0:0:
272,192,236732,1,0,0:0:0:0:
272,192,236790,1,2,0:0:0:0:
272,192,236847,1,2,0:0:0:0:
272,192,236905,1,0,0:0:0:0:
272,192,237021,1,2,0:0:0:0:
272,176,237136,1,0,0:0:0:0:
272,176,237251,1,2,0:0:0:0:
272,176,237309,1,0,0:0:0:0:
272,176,237367,1,0,0:0:0:0:
272,176,237482,1,2,0:0:0:0:
272,176,237597,1,0,0:0:0:0:
272,176,237655,1,0,0:0:0:0:
272,176,237713,1,2,0:0:0:0:
272,176,237771,1,0,0:0:0:0:
272,176,237828,1,0,0:0:0:0:
272,176,237944,1,2,0:0:0:0:
256,192,238059,1,2,0:0:0:0:
256,192,238174,5,0,0:0:0:0:
256,192,238232,1,0,0:0:0:0:
256,192,238290,1,0,0:0:0:0:
256,192,238347,1,0,0:0:0:0:
256,192,238405,1,2,0:0:0:0:
256,192,238463,1,2,0:0:0:0:
256,192,238521,1,2,0:0:0:0:
256,192,238578,1,2,0:0:0:0:
256,192,238636,1,0,0:0:0:0:
256,192,238694,1,0,0:0:0:0:
256,192,238751,1,0,0:0:0:0:
240,192,238809,1,0,0:0:0:0:
256,192,238867,1,2,0:0:0:0:
256,192,238924,1,2,0:0:0:0:
256,192,238982,1,2,0:0:0:0:
256,192,239040,1,2,0:0:0:0:
256,192,239097,1,0,0:0:0:0:
256,192,239213,1,0,0:0:0:0:
272,192,239328,1,2,0:0:0:0:
272,192,239386,1,0,0:0:0:0:
256,192,239444,1,2,0:0:0:0:
256,192,239501,1,2,0:0:0:0:
256,192,239559,1,0,0:0:0:0:
272,176,239617,1,0,0:0:0:0:
256,192,239674,1,0,0:0:0:0:
256,192,239732,1,0,0:0:0:0:
256,192,239790,1,2,0:0:0:0:
272,176,239847,1,2,0:0:0:0:
272,176,239905,1,2,0:0:0:0:
272,176,239963,1,2,0:0:0:0:
272,176,240021,1,0,0:0:0:0:
272,176,240136,1,0,0:0:0:0:
272,176,240251,1,2,0:0:0:0:
272,176,240309,1,0,0:0:0:0:
272,176,240367,1,0,0:0:0:0:
272,176,240424,1,0,0:0:0:0:
272,176,240482,1,2,0:0:0:0:
272,176,240540,1,2,0:0:0:0:
272,176,240597,1,0,0:0:0:0:
272,176,240655,1,0,0:0:0:0:
272,176,240713,1,2,0:0:0:0:
272,176,240771,1,2,0:0:0:0:
272,176,240828,1,2,0:0:0:0:
272,176,240886,1,2,0:0:0:0:
272,176,240944,1,0,0:0:0:0:
272,176,241059,1,0,0:0:0:0:
272,176,241174,1,2,0:0:0:0:
272,176,241232,1,0,0:0:0:0:
272,176,241290,1,2,0:0:0:0:
272,176,241347,1,2,0:0:0:0:
272,176,241405,1,0,0:0:0:0:
272,176,241463,1,0,0:0:0:0:
272,176,241521,1,2,0:0:0:0:
272,176,241578,1,0,0:0:0:0:
272,176,241636,1,2,0:0:0:0:
272,176,241751,1,2,0:0:0:0:
272,176,241867,1,0,0:0:0:0:
272,176,241924,1,0,0:0:0:0:
272,176,241982,1,2,0:0:0:0:
272,176,242040,1,2,0:0:0:0:
272,176,242097,1,0,0:0:0:0:
272,176,242155,1,2,0:0:0:0:
272,176,242213,1,2,0:0:0:0:
272,176,242271,1,2,0:0:0:0:
272,176,242328,1,0,0:0:0:0:
272,176,242386,1,0,0:0:0:0:
272,176,242444,1,2,0:0:0:0:
272,176,242501,1,0,0:0:0:0:
272,176,242559,1,2,0:0:0:0:
272,176,242617,1,2,0:0:0:0:
272,176,242674,1,2,0:0:0:0:
272,176,242732,1,2,0:0:0:0:
272,176,242790,1,0,0:0:0:0:
272,176,242905,1,0,0:0:0:0:
256,176,243021,1,2,0:0:0:0:
256,176,243078,1,2,0:0:0:0:
272,176,243136,1,2,0:0:0:0:
272,176,243194,1,2,0:0:0:0:
272,176,243251,1,0,0:0:0:0:
272,176,243309,1,0,0:0:0:0:
272,176,243367,1,2,0:0:0:0:
272,176,243424,1,0,0:0:0:0:
272,176,243482,1,2,0:0:0:0:
272,176,243540,1,2,0:0:0:0:
272,176,243597,1,0,0:0:0:0:
272,160,243713,1,0,0:0:0:0:
272,160,243771,1,0,0:0:0:0:
272,160,243828,1,0,0:0:0:0:
272,160,243886,1,0,0:0:0:0:
272,160,243944,1,2,0:0:0:0:
272,160,244059,1,2,0:0:0:0:
272,160,244174,1,0,0:0:0:0:
272,160,244232,1,0,0:0:0:0:
272,160,244290,1,0,0:0:0:0:
272,160,244347,1,0,0:0:0:0:
272,160,244405,1,2,0:0:0:0:
272,160,244521,1,2,0:0:0:0:
272,160,244636,1,0,0:0:0:0:
272,160,244694,1,0,0:0:0:0:
272,160,244751,1,0,0:0:0:0:
272,160,244809,1,0,0:0:0:0:
272,160,244867,1,2,0:0:0:0:
272,160,244924,1,2,0:0:0:0:
272,160,244982,1,0,0:0:0:0:
272,160,245040,1,0,0:0:0:0:
272,160,245097,1,0,0:0:0:0:
272,160,245155,1,0,0:0:0:0:
272,160,245213,1,2,0:0:0:0:
272,160,245271,1,0,0:0:0:0:
272,160,245328,1,2,0:0:0:0:
272,160,245386,1,2,0:0:0:0:
288,160,245444,1,0,0:0:0:0:
288,160,245501,1,0,0:0:0:0:
288,160,245559,1,2,0:0:0:0:
272,160,245617,1,2,0:0:0:0:
272,160,245674,1,0,0:0:0:0:
272,160,245732,1,0,0:0:0:0:
288,160,245790,1,2,0:0:0:0:
288,160,245847,1,2,0:0:0:0:
288,160,245905,1,2,0:0:0:0:
288,160,245963,1,2,0:0:0:0:
288,160,246021,1,0,0:0:0:0:
288,160,246078,1,0,0:0:0:0:
288,160,246136,1,0,0:0:0:0:
288,160,246194,1,0,0:0:0:0:
288,160,246251,1,2,0:0:0:0:
288,160,246309,1,2,0:0:0:0:
288,160,246367,1,0,0:0:0:0:
256,192,246482,1,2,0:0:0:0:
256,192,246540,1,2,0:0:0:0:
256,192,246597,1,2,0:0:0:0:
256,192,246655,1,2,0:0:0:0:
256,192,246713,1,0,0:0:0:0:
256,192,246771,1,0,0:0:0:0:
272,176,246828,1,0,0:0:0:0:
272,176,246886,1,0,0:0:0:0:
272,176,246944,1,2,0:0:0:0:
272,176,247001,1,0,0:0:0:0:
272,176,247059,1,2,0:0:0:0:
272,176,247117,1,0,0:0:0:0:
272,176,247174,1,2,0:0:0:0:
272,176,247232,1,2,0:0:0:0:
272,176,247290,1,0,0:0:0:0:
272,176,247347,1,0,0:0:0:0:
272,176,247405,1,2,0:0:0:0:
272,176,247463,1,2,0:0:0:0:
272,176,247521,1,2,0:0:0:0:
272,176,247578,1,2,0:0:0:0:
272,176,247636,1,0,0:0:0:0:
272,176,247694,1,0,0:0:0:0:
272,176,247751,1,2,0:0:0:0:
272,176,247809,1,0,0:0:0:0:
272,176,247867,1,2,0:0:0:0:
272,176,247924,1,0,0:0:0:0:
272,176,247982,1,0,0:0:0:0:
272,176,248040,1,0,0:0:0:0:
272,176,248097,1,2,0:0:0:0:
272,176,248155,1,2,0:0:0:0:
272,176,248213,1,0,0:0:0:0:
272,176,248328,1,2,0:0:0:0:
272,176,248386,1,2,0:0:0:0:
272,160,248444,1,0,0:0:0:0:
272,160,248501,1,0,0:0:0:0:
272,192,248559,1,2,0:0:0:0:
272,192,248617,1,2,0:0:0:0:
272,192,248674,1,2,0:0:0:0:
272,192,248732,1,0,0:0:0:0:
272,192,248790,1,2,0:0:0:0:
272,192,248847,1,2,0:0:0:0:
272,192,248905,1,0,0:0:0:0:
272,192,248963,1,0,0:0:0:0:
272,192,249021,1,2,0:0:0:0:
272,176,249078,1,2,0:0:0:0:
272,176,249136,1,2,0:0:0:0:
272,176,249194,1,2,0:0:0:0:
272,176,249251,1,0,0:0:0:0:
272,176,249309,1,0,0:0:0:0:
272,176,249367,1,2,0:0:0:0:
272,176,249424,1,0,0:0:0:0:
272,176,249482,1,2,0:0:0:0:
288,176,249540,1,0,0:0:0:0:
272,176,249597,1,2,0:0:0:0:
272,176,249655,1,2,0:0:0:0:
272,176,249713,1,0,0:0:0:0:
272,176,249771,1,0,0:0:0:0:
272,176,249828,1,2,0:0:0:0:
272,176,249886,1,0,0:0:0:0:
272,176,249944,1,2,0:0:0:0:
272,176,250001,1,2,0:0:0:0:
272,176,250059,1,0,0:0:0:0:
256,192,250174,1,2,0:0:0:0:
256,176,250232,1,2,0:0:0:0:
256,176,250290,1,0,0:0:0:0:
256,176,250347,1,0,0:0:0:0:
256,176,250405,1,2,0:0:0:0:
256,176,250463,1,0,0:0:0:0:
272,176,250521,1,2,0:0:0:0:
272,176,250578,1,2,0:0:0:0:
272,176,250636,1,0,0:0:0:0:
272,176,250694,1,0,0:0:0:0:
272,176,250751,1,2,0:0:0:0:
272,176,250809,1,2,0:0:0:0:
272,176,250867,1,2,0:0:0:0:
272,176,250924,1,0,0:0:0:0:
272,176,250982,1,2,0:0:0:0:
272,176,251040,1,2,0:0:0:0:
272,176,251097,1,0,0:0:0:0:
272,176,251155,1,0,0:0:0:0:
272,176,251213,1,0,0:0:0:0:
272,176,251271,1,0,0:0:0:0:
272,176,251328,1,2,0:0:0:0:
272,176,251386,1,2,0:0:0:0:
272,176,251444,1,2,0:0:0:0:
272,176,251501,1,2,0:0:0:0:
272,176,251559,1,0,0:0:0:0:
272,176,251617,1,0,0:0:0:0:
272,176,251674,1,2,0:0:0:0:
272,176,251732,1,0,0:0:0:0:
272,176,251790,1,2,0:0:0:0:
272,192,251847,1,0,0:0:0:0:
272,192,251905,1,0,0:0:0:0:
272,192,251963,1,0,0:0:0:0:
272,192,252021,1,2,0:0:0:0:
272,192,252078,1,2,0:0:0:0:
272,192,252136,1,2,0:0:0:0:
272,192,252194,1,2,0:0:0:0:
256,192,252251,1,0,0:0:0:0:
256,192,252309,1,0,0:0:0:0:
256,192,252367,1,2,0:0:0:0:
256,192,252424,1,2,0:0:0:0:
256,192,252482,1,0,0:0:0:0:
256,192,252540,1,0,0:0:0:0:
272,192,252597,1,2,0:0:0:0:
272,192,252655,1,0,0:0:0:0:
272,192,252713,1,2,0:0:0:0:
272,192,252771,1,2,0:0:0:0:
272,192,252828,1,2,0:0:0:0:
272,192,252886,1,2,0:0:0:0:
256,192,252944,1,0,0:0:0:0:
256,192,253001,1,0,0:0:0:0:
240,192,253059,1,2,0:0:0:0:
240,192,253117,1,2,0:0:0:0:
256,192,253174,1,2,0:0:0:0:
256,176,253232,1,2,0:0:0:0:
256,176,253290,1,2,0:0:0:0:
256,176,253347,1,2,0:0:0:0:
256,176,253405,1,0,0:0:0:0:
256,176,253463,1,0,0:0:0:0:
256,176,253521,1,0,0:0:0:0:
256,176,253578,1,0,0:0:0:0:
256,176,253636,1,2,0:0:0:0:
256,176,253694,1,2,0:0:0:0:
256,176,253751,1,2,0:0:0:0:
256,176,253809,1,2,0:0:0:0:
256,176,253867,5,0,0:0:0:0:
256,176,253925,1,0,0:0:0:0:
256,176,253983,1,2,0:0:0:0:
256,176,254041,1,0,0:0:0:0:
256,176,254099,1,2,0:0:0:0:
272,176,254157,1,0,0:0:0:0:
272,176,254215,1,0,0:0:0:0:
272,176,254273,1,0,0:0:0:0:
272,176,254332,1,2,0:0:0:0:
256,192,254390,1,0,0:0:0:0:
256,192,254448,1,0,0:0:0:0:
256,192,254507,1,0,0:0:0:0:
256,192,254565,1,2,0:0:0:0:
256,192,254623,1,0,0:0:0:0:
256,192,254682,1,2,0:0:0:0:
256,192,254740,1,2,0:0:0:0:
256,192,254798,1,0,0:0:0:0:
256,192,254856,1,0,0:0:0:0:
256,176,254915,1,2,0:0:0:0:
256,176,254974,1,0,0:0:0:0:
256,176,255033,1,2,0:0:0:0:
256,192,255092,1,0,0:0:0:0:
256,192,255150,1,0,0:0:0:0:
256,192,255209,1,0,0:0:0:0:
256,192,255268,1,2,0:0:0:0:
256,192,255327,1,2,0:0:0:0:
256,192,255386,1,2,0:0:0:0:
256,192,255445,1,2,0:0:0:0:
256,192,255504,1,0,0:0:0:0:
256,192,255563,1,0,0:0:0:0:
256,192,255622,1,2,0:0:0:0:
256,192,255681,1,2,0:0:0:0:
256,192,255740,1,0,0:0:0:0:
256,192,255799,1,0,0:0:0:0:
256,192,255859,1,2,0:0:0:0:
256,192,255919,1,2,0:0:0:0:
256,192,255979,1,0,0:0:0:0:
256,192,256038,1,2,0:0:0:0:
256,192,256098,1,0,0:0:0:0:
256,192,256158,1,0,0:0:0:0:
256,192,256218,1,2,0:0:0:0:
256,192,256278,1,2,0:0:0:0:
272,192,256338,1,2,0:0:0:0:
256,192,256398,1,2,0:0:0:0:
256,192,256458,1,0,0:0:0:0:
272,192,256518,1,0,0:0:0:0:
272,192,256578,1,2,0:0:0:0:
272,192,256638,1,2,0:0:0:0:
272,192,256698,1,0,0:0:0:0:
272,176,256758,1,0,0:0:0:0:
272,176,256818,1,2,0:0:0:0:
256,192,256879,1,2,0:0:0:0:
256,192,256939,1,0,0:0:0:0:
256,192,257000,1,2,0:0:0:0:
256,192,257060,1,0,0:0:0:0:
256,192,257121,1,0,0:0:0:0:
256,192,257181,1,2,0:0:0:0:
256,192,257241,1,2,0:0:0:0:
256,192,257302,1,2,0:0:0:0:
256,192,257363,1,2,0:0:0:0:
256,192,257424,1,0,0:0:0:0:
256,192,257485,1,0,0:0:0:0:
256,192,257546,1,2,0:0:0:0:
256,192,257607,1,2,0:0:0:0:
256,192,257668,1,0,0:0:0:0:
256,192,257729,1,0,0:0:0:0:
240,192,257791,1,0,0:0:0:0:
256,192,257853,1,0,0:0:0:0:
256,192,257914,1,2,0:0:0:0:
256,192,257976,1,0,0:0:0:0:
256,192,258038,1,0,0:0:0:0:
256,192,258100,1,0,0:0:0:0:
256,192,258161,1,2,0:0:0:0:
256,192,258222,1,2,0:0:0:0:
256,192,258284,1,2,0:0:0:0:
256,192,258346,1,2,0:0:0:0:
256,192,258408,1,2,0:0:0:0:
256,192,258470,1,2,0:0:0:0:
256,192,258532,1,2,0:0:0:0:
256,192,258594,1,2,0:0:0:0:
256,192,258656,1,0,0:0:0:0:
256,192,258718,1,0,0:0:0:0:
256,192,258781,1,0,0:0:0:0:
256,192,258843,1,0,0:0:0:0:
256,192,258906,1,2,0:0:0:0:
256,192,258968,1,0,0:0:0:0:
256,192,259031,1,0,0:0:0:0:
256,192,259093,1,0,0:0:0:0:
256,192,259156,1,2,0:0:0:0:
256,192,259218,1,2,0:0:0:0:
256,192,259281,1,2,0:0:0:0:
256,192,259343,1,2,0:0:0:0:
256,192,259406,1,2,0:0:0:0:
256,192,259468,1,2,0:0:0:0:
256,192,259531,1,2,0:0:0:0:
256,192,259593,1,2,0:0:0:0:
256,192,259656,1,0,0:0:0:0:
272,192,259719,1,0,0:0:0:0:
272,192,259782,1,0,0:0:0:0:
272,192,259845,1,0,0:0:0:0:
272,176,259909,1,0,0:0:0:0:
272,176,259972,1,0,0:0:0:0:
272,176,260035,1,0,0:0:0:0:
272,176,260099,1,0,0:0:0:0:
272,176,260162,1,2,0:0:0:0:
256,192,260225,1,2,0:0:0:0:
256,192,260288,1,2,0:0:0:0:
256,192,260352,1,2,0:0:0:0:
256,192,260415,1,2,0:0:0:0:
256,192,260478,1,2,0:0:0:0:
256,192,260542,1,2,0:0:0:0:
256,192,260605,1,2,0:0:0:0:
256,192,260668,1,0,0:0:0:0:
256,192,260732,1,0,0:0:0:0:
256,192,260796,1,0,0:0:0:0:
256,192,260860,1,0,0:0:0:0:
256,192,260924,1,2,0:0:0:0:
256,192,260988,1,2,0:0:0:0:
256,192,261052,1,0,0:0:0:0:
256,192,261116,1,0,0:0:0:0:
256,192,261180,1,2,0:0:0:0:
256,176,261245,1,2,0:0:0:0:
256,192,261310,1,2,0:0:0:0:
256,192,261375,1,2,0:0:0:0:
256,192,261440,1,0,0:0:0:0:
256,192,261506,1,0,0:0:0:0:
256,192,261571,1,0,0:0:0:0:
256,192,261636,1,0,0:0:0:0:
256,192,261701,1,2,0:0:0:0:
256,192,261767,1,0,0:0:0:0:
256,192,261833,1,2,0:0:0:0:
256,192,261899,1,0,0:0:0:0:
256,192,261965,1,2,0:0:0:0:
256,176,262031,1,2,0:0:0:0:
256,176,262097,1,0,0:0:0:0:
256,176,262163,1,0,0:0:0:0:
256,176,262229,1,2,0:0:0:0:
256,176,262295,1,2,0:0:0:0:
256,176,262361,1,0,0:0:0:0:
256,176,262427,1,2,0:0:0:0:
256,176,262493,1,0,0:0:0:0:
256,176,262560,1,0,0:0:0:0:
256,176,262626,1,2,0:0:0:0:
256,176,262692,1,2,0:0:0:0:
256,176,262758,1,0,0:0:0:0:
256,176,262824,1,0,0:0:0:0:
256,176,262890,1,2,0:0:0:0:
256,176,262956,1,0,0:0:0:0:
256,176,263022,1,2,0:0:0:0:
256,176,263088,1,2,0:0:0:0:
256,176,263154,1,0,0:0:0:0:
256,176,263220,1,0,0:0:0:0:
256,176,263286,1,2,0:0:0:0:
256,176,263353,1,2,0:0:0:0:
256,176,263421,1,0,0:0:0:0:
256,176,263489,1,2,0:0:0:0:
256,176,263557,1,0,0:0:0:0:
256,176,263625,1,0,0:0:0:0:
256,176,263693,1,2,0:0:0:0:
256,176,263761,1,2,0:0:0:0:
256,176,263828,1,0,0:0:0:0:
256,176,263895,1,0,0:0:0:0:
256,176,263963,1,2,0:0:0:0:
256,176,264031,1,0,0:0:0:0:
256,176,264099,1,2,0:0:0:0:
256,176,264167,1,2,0:0:0:0:
256,176,264235,1,0,0:0:0:0:
256,176,264303,1,0,0:0:0:0:
256,176,264370,1,2,0:0:0:0:
256,176,264438,1,2,0:0:0:0:
256,176,264506,1,2,0:0:0:0:
256,176,264574,1,0,0:0:0:0:
256,176,264642,1,2,0:0:0:0:
256,176,264710,1,2,0:0:0:0:
256,176,264779,1,0,0:0:0:0:
256,176,264847,1,2,0:0:0:0:
256,176,264915,1,0,0:0:0:0:
272,176,264983,1,0,0:0:0:0:
272,176,265051,1,2,0:0:0:0:
272,176,265120,1,0,0:0:0:0:
272,176,265188,1,2,0:0:0:0:
272,176,265257,1,2,0:0:0:0:
272,176,265325,1,0,0:0:0:0:
272,176,265394,1,0,0:0:0:0:
272,176,265462,1,2,0:0:0:0:
272,176,265531,1,2,0:0:0:0:
272,176,265601,1,2,0:0:0:0:
272,176,265671,1,0,0:0:0:0:
272,176,265741,1,2,0:0:0:0:
272,176,265810,1,2,0:0:0:0:
272,176,265880,1,0,0:0:0:0:
272,176,265950,1,2,0:0:0:0:
272,176,266020,1,0,0:0:0:0:
256,192,266089,1,0,0:0:0:0:
256,192,266159,1,2,0:0:0:0:
256,192,266229,1,0,0:0:0:0:
256,192,266299,1,2,0:0:0:0:
256,192,266368,1,2,0:0:0:0:
256,192,266438,1,0,0:0:0:0:
256,176,266508,1,0,0:0:0:0:
256,176,266578,1,2,0:0:0:0:
256,176,266648,1,0,0:0:0:0:
256,176,266718,1,0,0:0:0:0:
256,176,266789,1,0,0:0:0:0:
256,176,266859,1,2,0:0:0:0:
256,176,266930,1,0,0:0:0:0:
256,176,267000,1,2,0:0:0:0:
256,176,267070,1,2,0:0:0:0:
256,176,267141,1,0,0:0:0:0:
256,176,267212,1,0,0:0:0:0:
256,176,267283,1,2,0:0:0:0:
256,176,267355,1,0,0:0:0:0:
256,176,267426,1,2,0:0:0:0:
256,176,267498,1,2,0:0:0:0:
256,176,267569,1,0,0:0:0:0:
256,176,267641,1,0,0:0:0:0:
256,176,267712,1,2,0:0:0:0:
272,176,267783,1,2,0:0:0:0:
272,176,267855,1,0,0:0:0:0:
256,176,267926,1,0,0:0:0:0:
256,176,267998,1,2,0:0:0:0:
256,176,268069,1,0,0:0:0:0:
256,176,268141,1,2,0:0:0:0:
256,176,268212,1,2,0:0:0:0:
256,176,268283,1,0,0:0:0:0:
256,176,268355,1,0,0:0:0:0:
256,176,268427,1,2,0:0:0:0:
256,176,268500,1,0,0:0:0:0:
256,176,268572,1,2,0:0:0:0:
256,176,268645,1,2,0:0:0:0:
256,176,268717,1,0,0:0:0:0:
256,176,268790,1,0,0:0:0:0:
256,176,268862,1,2,0:0:0:0:
256,160,268935,1,2,0:0:0:0:
256,160,269008,1,2,0:0:0:0:
256,160,269081,1,2,0:0:0:0:
256,160,269154,1,0,0:0:0:0:
256,160,269227,1,0,0:0:0:0:
256,160,269301,1,2,0:0:0:0:
256,160,269374,1,2,0:0:0:0:
256,160,269447,1,0,0:0:0:0:
256,160,269520,1,0,0:0:0:0:
256,160,269594,1,2,0:0:0:0:
256,160,269668,1,0,0:0:0:0:
256,160,269742,1,2,0:0:0:0:
256,160,269816,1,2,0:0:0:0:
256,160,269890,1,0,0:0:0:0:
256,160,269964,1,2,0:0:0:0:
256,160,270038,1,0,0:0:0:0:
256,160,270112,1,2,0:0:0:0:
256,160,270187,1,0,0:0:0:0:
256,160,270261,1,0,0:0:0:0:
256,160,270336,1,2,0:0:0:0:
256,160,270411,1,0,0:0:0:0:
256,160,270485,1,2,0:0:0:0:
