osu file format v14

[General]
AudioFilename: audio.mp3
AudioLeadIn: 0
PreviewTime: 209567
Countdown: 0
SampleSet: Normal
StackLeniency: 0.7
Mode: 1
LetterboxInBreaks: 0
WidescreenStoryboard: 0

[Editor]
Bookmarks: 239095
DistanceSpacing: 1
BeatDivisor: 4
GridSize: 16
TimelineZoom: 3.200005

[Metadata]
Title:Speed of Link
TitleUnicode:Speed of Link
Artist:antiPLUR
ArtistUnicode:antiPLUR
Creator:Nishizumi
Version:Oni
Source:osu!
Tags:featured artist fa chiptune Aaron Dictor Internet Death Machine 8-bit electronic instrumental
BeatmapID:2401517
BeatmapSetID:1142127

[Difficulty]
HPDrainRate:5.5
CircleSize:5
OverallDifficulty:5.5
ApproachRate:5
SliderMultiplier:1.35
SliderTickRate:1

[Events]
//Background and Video events
0,0,"Dark Curve Desktop Abstract Speed - 1920x1200.jpg",0,-90
//Break Periods
//Storyboard Layer 0 (Background)
//Storyboard Layer 1 (Fail)
//Storyboard Layer 2 (Pass)
//Storyboard Layer 3 (Foreground)
//Storyboard Layer 4 (Overlay)
//Storyboard Sound Samples

[TimingPoints]
162,250,4,1,0,70,1,0
16162,-100,4,1,0,70,0,1
48162,-100,4,1,0,70,0,0
175162,-100,4,1,0,70,0,0
175412,-99.7927450824952,4,1,0,70,0,0
175537,-99.6892787591801,4,1,0,70,0,0
175787,-99.4826678267267,4,1,0,70,0,0
175912,-99.3795229952553,4,1,0,70,0,0
176037,-99.2764851055908,4,1,0,70,0,0
176162,247.933884297521,4,1,0,70,1,0
176162,-100,4,1,0,70,0,0
176657,-99.3858695264625,4,1,0,70,0,0
176905,-99.080220076577,4,1,0,70,0,0
177153,244.897959183673,4,1,0,70,1,0
177153,-100,4,1,0,70,0,0
177397,-99.1021536119522,4,1,0,70,0,0
177520,-98.65625793736,4,1,0,70,0,0
177642,-98.2123685052698,4,1,0,70,0,0
177887,-97.3305723020291,4,1,0,70,0,0
178132,236.220472440945,4,1,0,70,1,0
178132,-100,4,1,0,70,0,0
178604,-97.0725343300812,4,1,0,70,0,0
178840,-95.6410977527167,4,1,0,70,0,0
179076,-94.2307692126479,4,1,0,70,0,0
180021,230.769230769231,4,1,0,70,1,1
224328,-100,4,1,0,70,0,0
250174,-100,4,1,0,70,0,0
250405,-100.048274438383,4,1,0,70,0,0
250520,-100.072420395952,4,1,0,70,0,0
250636,-100.096572180981,4,1,0,70,0,0
250751,-100.120729794875,4,1,0,70,0,0
250866,-100.144893239042,4,1,0,70,0,0
251097,-100.193237623823,4,1,0,70,0,0
251155,-100.205327366137,4,1,0,70,0,0
251212,-100.217418567251,4,1,0,70,0,0
251328,-100.241605346583,4,1,0,70,0,0
251443,-100.265797963227,4,1,0,70,0,0
251559,-100.289996418591,4,1,0,70,0,0
251674,-100.314200714084,4,1,0,70,0,0
251789,-100.338410851117,4,1,0,70,0,0
252020,-100.386848655438,4,1,0,70,0,0
252136,-100.411076325547,4,1,0,70,0,0
252251,-100.435309842837,4,1,0,70,0,0
252366,-100.459549208718,4,1,0,70,0,0
252597,-100.508045491901,4,1,0,70,0,0
252712,-100.532302412027,4,1,0,70,0,0
252943,-100.58083381641,4,1,0,70,0,0
253001,-100.59297032773,4,1,0,70,0,0
253059,-100.605108303493,4,1,0,70,0,0
253174,-100.629388649056,4,1,0,70,0,0
253289,-100.653674854512,4,1,0,70,0,0
253405,-100.677966921275,4,1,0,70,0,0
253462,-100.690115153089,4,1,0,70,0,0
253520,-100.70226485076,4,1,0,70,0,0
253636,-100.726568644382,4,1,0,70,0,0
253866,-100.775193829698,4,1,0,70,0,0
253867,232.558139534884,4,1,0,70,1,0
253867,-100,4,1,0,70,0,0
253983,-100.195504350238,4,1,0,70,0,0
254100,-100.391390919986,4,1,0,70,0,0
254216,-100.5876604565,4,1,0,70,0,0
254332,233.463035019456,4,1,0,70,1,8
254332,-100,4,1,0,70,0,0
254565,-100.196657042513,4,1,0,70,0,0
254682,-100.295130543742,4,1,0,70,0,0
254798,235.294117647059,4,1,0,70,1,0
254798,-100,4,1,0,70,0,0
254915,-100.098280226242,4,1,0,70,0,0
255033,-100.196657042513,4,1,0,70,0,0
255150,-100.295130543742,4,1,0,70,0,0
255268,236.220472440945,4,1,0,70,1,8
255268,-100,4,1,0,70,0,0
255504,-100.595834487423,4,1,0,70,0,0
255622,-100.895081732264,4,1,0,70,0,0
255740,239.043824701195,4,1,0,70,1,0
255740,-100,4,1,0,70,0,0
255859,-100.099850355447,4,1,0,70,0,0
255979,-100.199800411828,4,1,0,70,0,0
256098,-100.299850268697,4,1,0,70,0,0
256218,240,4,1,0,70,1,8
256218,-100,4,1,0,70,0,0
256458,-100.402416112812,4,1,0,70,0,0
256578,-100.604231032769,4,1,0,70,0,0
256698,241.935483870968,4,1,0,70,1,0
256698,-100,4,1,0,70,0,0
256939,-100.405681172415,4,1,0,70,0,0
257060,-100.609138506521,4,1,0,70,0,0
257181,243.902439024391,4,1,0,70,1,8
257181,-100,4,1,0,70,0,0
257424,-100.615390426233,4,1,0,70,0,0
257546,-100.924504331291,4,1,0,70,0,0
257668,246.913580246914,4,1,0,70,1,0
257668,-100,4,1,0,70,0,0
257914,-100.206398551426,4,1,0,70,0,0
258038,-100.309757523584,4,1,0,70,0,0
258161,247.933884297521,4,1,0,70,1,8
258161,-100,4,1,0,70,0,0
258408,-100.415802218904,4,1,0,70,0,0
258532,-100.62435122282,4,1,0,70,0,0
258656,250,4,1,0,70,1,0
258656,-100,4,1,0,70,0,0
258781,-100.157358456276,4,1,0,70,0,0
258906,-100.314964529389,4,1,0,70,0,0
259031,-100.472818608986,4,1,0,70,0,0
259156,-100.630921085326,4,1,0,70,0,0
259406,-100.947872792342,4,1,0,70,0,0
259531,-101.106722806611,4,1,0,70,0,0
259656,253.164556962026,4,1,0,70,1,0
259656,-100,4,1,0,70,0,0
259909,-100.318983320769,4,1,0,70,0,0
260035,-100.478856342388,4,1,0,70,0,0
260162,-100.638984145128,4,1,0,70,0,0
260415,-100.960005718743,4,1,0,70,0,0
260542,-101.120900303622,4,1,0,70,0,0
260668,256.410256410257,4,1,0,70,1,0
260668,-100,4,1,0,70,0,0
260796,-100.431975494357,4,1,0,70,0,0
260924,-100.865817016991,4,1,0,70,0,0
261052,-101.301532628687,4,1,0,70,0,0
261180,260.869565217392,4,1,0,70,1,8
261310,-100.328771551443,4,1,0,70,0,0
261440,-100.658624010217,4,1,0,70,0,0
261571,-100.989560930037,4,1,0,70,0,0
261701,264.317180616741,4,1,0,70,1,0
261701,-100,4,1,0,70,0,0
261965,-100.447453361322,4,1,0,70,0,0
262097,-100.671930287418,4,1,0,70,0,0
262229,-100.896908867749,4,1,0,70,0,0
262493,-101.348375477947,4,1,0,70,0,0
262626,-101.5748657575,4,1,0,70,0,0
262758,-101.801862190668,4,1,0,70,0,0
263022,-102.257378044929,4,1,0,70,0,0
263154,-102.485899735883,4,1,0,70,0,0
263286,271.493212669684,4,1,0,70,1,8
263286,-100,4,1,0,70,0,0
263557,-100.113443180355,4,1,0,70,0,0
263693,-100.170213021494,4,1,0,70,0,0
263828,271.493212669684,4,1,0,70,1,0
263828,-100.227015054263,4,1,0,70,0,0
264099,-100.340715767716,4,1,0,70,0,0
264235,-100.39761448494,4,1,0,70,0,0
264370,272.727272727273,4,1,0,70,1,8
264370,-100,4,1,0,70,0,0
264642,-100.228050490088,4,1,0,70,0,0
264779,-100.342270687417,4,1,0,70,0,0
264915,273.972602739726,4,1,0,70,1,0
264915,-100,4,1,0,70,0,0
265051,-100.46190604987,4,1,0,70,0,0
265188,-100.925945671729,4,1,0,70,0,0
265325,-101.392128720675,4,1,0,70,0,0
265462,279.069767441861,4,1,0,70,1,8
265462,-100,4,1,0,70,0,0
265741,-100.233919737327,4,1,0,70,0,0
266020,279.069767441861,4,1,0,70,1,0
266020,-100.468386659088,4,1,0,70,0,0
266159,-100.585825714007,4,1,0,70,0,0
266299,-100.703402045257,4,1,0,70,0,0
266438,-100.821115813305,4,1,0,70,0,0
266578,281.690140845071,4,1,0,70,1,8
266578,-100,4,1,0,70,0,0
266859,-100.711752752211,4,1,0,70,0,0
267000,-101.069526600684,4,1,0,70,0,0
267141,285.714285714286,4,1,0,70,1,0
267141,-100,4,1,0,70,0,0
267283,-100.180021058229,4,1,0,70,0,0
267426,-100.360366192272,4,1,0,70,0,0
267569,-100.541035985534,4,1,0,70,0,0
267712,-100.72203102247,4,1,0,70,0,0
267998,-101.084999170444,4,1,0,70,0,0
268141,-101.266973455662,4,1,0,70,0,0
268283,289.855072463769,4,1,0,70,1,0
268283,-100,4,1,0,70,0,0
268572,-100.486620891396,4,1,0,70,0,0
268717,-100.730818617801,4,1,0,70,0,0
268862,292.682926829269,4,1,0,70,1,8
268862,-100,4,1,0,70,0,0
269008,-100.245400629135,4,1,0,70,0,0
269154,-100.491403472958,4,1,0,70,0,0
269301,-100.738010009308,4,1,0,70,0,0
269447,295.566502463055,4,1,0,70,1,0
269520,-100.123840008945,4,1,0,70,0,0
269594,-100.247833381368,4,1,0,70,0,0
269742,-100.496280976585,4,1,0,70,0,0
269890,-100.745344307878,4,1,0,70,0,0
270038,298.507462686568,4,1,0,70,1,8
270038,-100,4,1,0,70,0,0
270112,-100.062363702214,4,1,0,70,0,0
270187,-100.124766296741,4,1,0,70,0,0
270261,-100.187207807836,4,1,0,70,0,0
270336,-100.24968825977,4,1,0,70,0,0
270485,-100.374766083306,4,1,0,70,0,0

[HitObjects]
256,192,162,5,0,0:0:0:0:
256,192,412,1,0,0:0:0:0:
256,192,662,1,0,0:0:0:0:
256,192,912,1,2,0:0:0:0:
256,192,1037,1,2,0:0:0:0:
256,192,1162,1,2,0:0:0:0:
256,192,1412,1,2,0:0:0:0:
256,192,1537,1,0,0:0:0:0:
256,192,1787,1,0,0:0:0:0:
256,192,1912,1,2,0:0:0:0:
256,192,2162,1,0,0:0:0:0:
256,192,2412,1,0,0:0:0:0:
256,192,2662,1,0,0:0:0:0:
256,192,2912,1,2,0:0:0:0:
256,192,3037,1,2,0:0:0:0:
256,192,3162,1,0,0:0:0:0:
256,192,3412,1,0,0:0:0:0:
256,192,3662,1,0,0:0:0:0:
256,192,3912,1,0,0:0:0:0:
256,192,4037,1,2,0:0:0:0:
256,192,4162,1,0,0:0:0:0:
256,192,4787,1,2,0:0:0:0:
256,192,5037,1,0,0:0:0:0:
256,192,5162,1,2,0:0:0:0:
256,192,5287,1,0,0:0:0:0:
256,192,5412,1,0,0:0:0:0:
256,192,5537,1,2,0:0:0:0:
256,192,5787,1,2,0:0:0:0:
256,192,5912,1,2,0:0:0:0:
256,192,6162,1,0,0:0:0:0:
256,192,6412,1,2,0:0:0:0:
256,192,6537,1,0,0:0:0:0:
256,192,6787,1,0,0:0:0:0:
256,192,6912,1,2,0:0:0:0:
256,192,7162,1,2,0:0:0:0:
256,192,7287,1,2,0:0:0:0:
256,192,7412,1,0,0:0:0:0:
256,192,7537,1,0,0:0:0:0:
256,192,7662,1,2,0:0:0:0:
256,192,8162,5,0,0:0:0:0:
256,192,8412,1,2,0:0:0:0:
257,187,8537,1,0,0:0:0:0:
256,192,8662,1,2,0:0:0:0:
256,192,8912,1,2,0:0:0:0:
256,192,9037,1,2,0:0:0:0:
256,192,9162,1,0,0:0:0:0:
256,192,9412,1,2,0:0:0:0:
256,192,9537,1,0,0:0:0:0:
256,192,9662,1,0,0:0:0:0:
256,192,9787,1,0,0:0:0:0:
256,192,9912,1,2,0:0:0:0:
256,192,10162,1,0,0:0:0:0:
256,192,10412,1,2,0:0:0:0:
259,186,10662,1,0,0:0:0:0:
256,192,10787,1,2,0:0:0:0:
256,192,10912,1,2,0:0:0:0:
256,192,11037,1,2,0:0:0:0:
256,192,11162,1,0,0:0:0:0:
256,192,11412,1,2,0:0:0:0:
256,192,11662,1,0,0:0:0:0:
256,192,12162,1,0,0:0:0:0:
256,192,12412,1,2,0:0:0:0:
256,192,12537,1,0,0:0:0:0:
256,192,12662,1,2,0:0:0:0:
256,192,12912,1,2,0:0:0:0:
256,192,13037,1,2,0:0:0:0:
256,192,13162,1,0,0:0:0:0:
256,192,13412,1,2,0:0:0:0:
256,192,13537,1,0,0:0:0:0:
256,192,13662,1,2,0:0:0:0:
256,192,13912,1,2,0:0:0:0:
256,192,14037,1,2,0:0:0:0:
256,192,14162,1,0,0:0:0:0:
256,192,14412,1,2,0:0:0:0:
256,192,14537,1,0,0:0:0:0:
256,192,14787,1,0,0:0:0:0:
256,192,14912,1,2,0:0:0:0:
256,192,15162,1,2,0:0:0:0:
256,192,15287,1,2,0:0:0:0:
256,192,15412,1,0,0:0:0:0:
256,192,15537,1,0,0:0:0:0:
256,192,15662,1,2,0:0:0:0:
256,192,15912,1,2,0:0:0:0:
256,192,15974,1,2,0:0:0:0:
256,192,16037,1,2,0:0:0:0:
256,192,16162,5,0,0:0:0:0:
256,192,16412,1,2,0:0:0:0:
256,192,16537,1,0,0:0:0:0:
256,192,16662,1,0,0:0:0:0:
256,192,16787,1,0,0:0:0:0:
256,192,16912,1,2,0:0:0:0:
256,192,17162,1,0,0:0:0:0:
256,192,17287,1,0,0:0:0:0:
256,192,17412,1,2,0:0:0:0:
256,192,17537,1,2,0:0:0:0:
256,192,17662,1,0,0:0:0:0:
256,192,17724,1,0,0:0:0:0:
256,192,17787,1,0,0:0:0:0:
256,192,17912,1,2,0:0:0:0:
256,192,18037,1,2,0:0:0:0:
256,192,18162,1,0,0:0:0:0:
256,192,18412,1,2,0:0:0:0:
256,192,18537,1,2,0:0:0:0:
256,192,18662,1,0,0:0:0:0:
256,192,18787,1,0,0:0:0:0:
256,192,18912,1,2,0:0:0:0:
256,192,19162,1,2,0:0:0:0:
256,192,19287,1,2,0:0:0:0:
256,192,19412,1,0,0:0:0:0:
256,192,19537,1,0,0:0:0:0:
256,192,19662,1,2,0:0:0:0:
256,192,19724,1,2,0:0:0:0:
256,192,19787,1,2,0:0:0:0:
256,192,19912,1,2,0:0:0:0:
256,192,20037,1,2,0:0:0:0:
256,192,20162,1,0,0:0:0:0:
256,192,20412,1,0,0:0:0:0:
256,192,20537,1,2,0:0:0:0:
256,192,20662,1,0,0:0:0:0:
256,192,20787,1,2,0:0:0:0:
256,192,20912,1,2,0:0:0:0:
256,192,21162,1,0,0:0:0:0:
256,192,21224,1,0,0:0:0:0:
256,192,21287,1,0,0:0:0:0:
256,192,21412,1,2,0:0:0:0:
256,192,21537,1,2,0:0:0:0:
256,192,21662,1,0,0:0:0:0:
256,192,21724,1,0,0:0:0:0:
256,192,21787,1,0,0:0:0:0:
256,192,21912,1,2,0:0:0:0:
256,192,22037,1,0,0:0:0:0:
256,192,22162,1,2,0:0:0:0:
256,192,22412,1,0,0:0:0:0:
256,192,22537,1,2,0:0:0:0:
256,192,22662,1,0,0:0:0:0:
256,192,22724,1,0,0:0:0:0:
256,192,22787,1,0,0:0:0:0:
256,192,22912,1,2,0:0:0:0:
256,192,23162,1,0,0:0:0:0:
256,192,23287,1,2,0:0:0:0:
256,192,23412,1,2,0:0:0:0:
256,192,23537,1,0,0:0:0:0:
256,192,23662,1,2,0:0:0:0:
256,192,23724,1,2,0:0:0:0:
256,192,23787,1,0,0:0:0:0:
256,192,23849,1,0,0:0:0:0:
256,192,23912,1,2,0:0:0:0:
256,192,24037,1,2,0:0:0:0:
256,192,24162,5,0,0:0:0:0:
256,192,24412,1,2,0:0:0:0:
256,192,24537,1,0,0:0:0:0:
256,192,24662,1,0,0:0:0:0:
256,192,24787,1,0,0:0:0:0:
256,192,24912,1,2,0:0:0:0:
256,192,25162,1,0,0:0:0:0:
256,192,25287,1,0,0:0:0:0:
256,192,25412,1,2,0:0:0:0:
256,192,25537,1,2,0:0:0:0:
256,192,25662,1,0,0:0:0:0:
256,192,25724,1,0,0:0:0:0:
256,192,25787,1,0,0:0:0:0:
256,192,25912,1,2,0:0:0:0:
256,192,26037,1,2,0:0:0:0:
256,192,26162,1,0,0:0:0:0:
256,192,26412,1,2,0:0:0:0:
256,192,26537,1,2,0:0:0:0:
256,192,26662,1,0,0:0:0:0:
256,192,26787,1,0,0:0:0:0:
256,192,26912,1,2,0:0:0:0:
256,192,27162,1,2,0:0:0:0:
256,192,27287,1,2,0:0:0:0:
256,192,27412,1,0,0:0:0:0:
256,192,27537,1,0,0:0:0:0:
256,192,27662,1,2,0:0:0:0:
256,192,27724,1,2,0:0:0:0:
256,192,27787,1,2,0:0:0:0:
256,192,27912,1,2,0:0:0:0:
256,192,28037,1,2,0:0:0:0:
256,192,28162,1,0,0:0:0:0:
256,192,28412,1,0,0:0:0:0:
256,192,28537,1,2,0:0:0:0:
256,192,28662,1,0,0:0:0:0:
256,192,28787,1,2,0:0:0:0:
256,192,28912,1,2,0:0:0:0:
256,192,29162,1,0,0:0:0:0:
256,192,29287,1,0,0:0:0:0:
256,192,29412,1,2,0:0:0:0:
256,192,29537,1,2,0:0:0:0:
256,192,29662,1,0,0:0:0:0:
256,192,29724,1,0,0:0:0:0:
256,192,29787,1,0,0:0:0:0:
256,192,29912,1,2,0:0:0:0:
256,192,30037,1,0,0:0:0:0:
256,192,30162,1,2,0:0:0:0:
256,192,30412,1,0,0:0:0:0:
256,192,30537,1,2,0:0:0:0:
256,192,30662,1,0,0:0:0:0:
256,192,30724,1,0,0:0:0:0:
256,192,30787,1,0,0:0:0:0:
256,192,30912,1,2,0:0:0:0:
256,192,31162,1,0,0:0:0:0:
256,192,31287,1,2,0:0:0:0:
256,192,31412,1,2,0:0:0:0:
256,192,31537,1,0,0:0:0:0:
256,192,31662,1,2,0:0:0:0:
256,192,31724,1,2,0:0:0:0:
256,192,31787,1,0,0:0:0:0:
256,192,31849,1,0,0:0:0:0:
256,192,31912,1,2,0:0:0:0:
256,192,32037,1,2,0:0:0:0:
256,192,32162,5,0,0:0:0:0:
256,192,32411,5,2,0:0:0:0:
256,192,32536,1,0,0:0:0:0:
256,192,32787,1,0,0:0:0:0:
256,192,32912,1,2,0:0:0:0:
256,192,33037,1,0,0:0:0:0:
256,192,33162,1,2,0:0:0:0:
256,192,33287,1,2,0:0:0:0:
256,192,33412,1,0,0:0:0:0:
256,192,33537,1,2,0:0:0:0:
256,192,33787,1,0,0:0:0:0:
256,192,33912,1,2,0:0:0:0:
256,192,34162,1,0,0:0:0:0:
256,192,34287,1,0,0:0:0:0:
256,192,34412,1,2,0:0:0:0:
256,192,34537,1,0,0:0:0:0:
256,192,34662,1,2,0:0:0:0:
256,192,34787,1,0,0:0:0:0:
256,192,34912,1,2,0:0:0:0:
256,192,34974,1,2,0:0:0:0:
256,192,35037,1,2,0:0:0:0:
256,192,35162,1,0,0:0:0:0:
256,192,35412,1,2,0:0:0:0:
256,176,35537,1,2,0:0:0:0:
256,192,35662,1,0,0:0:0:0:
256,192,35787,1,0,0:0:0:0:
256,192,35849,1,0,0:0:0:0:
256,192,35912,1,2,0:0:0:0:
256,192,36037,1,2,0:0:0:0:
256,192,36162,1,0,0:0:0:0:
256,192,36412,1,2,0:0:0:0:
272,192,36537,1,0,0:0:0:0:
256,192,36787,1,0,0:0:0:0:
256,192,36912,1,2,0:0:0:0:
272,192,37037,1,2,0:0:0:0:
256,192,37162,1,0,0:0:0:0:
256,192,37287,1,2,0:0:0:0:
261,191,37349,1,2,0:0:0:0:
256,192,37412,1,0,0:0:0:0:
256,192,37537,1,2,0:0:0:0:
256,192,37787,1,0,0:0:0:0:
256,192,37912,1,2,0:0:0:0:
256,192,38162,1,0,0:0:0:0:
256,176,38224,1,0,0:0:0:0:
256,176,38287,1,0,0:0:0:0:
256,176,38412,1,2,0:0:0:0:
256,176,38537,1,0,0:0:0:0:
256,192,38787,1,2,0:0:0:0:
256,192,38912,1,2,0:0:0:0:
256,192,39037,1,0,0:0:0:0:
256,192,39162,1,2,0:0:0:0:
256,192,39224,1,2,0:0:0:0:
256,192,39287,1,0,0:0:0:0:
256,192,39412,1,2,0:0:0:0:
256,192,39537,1,0,0:0:0:0:
272,192,39662,1,2,0:0:0:0:
256,192,39724,1,2,0:0:0:0:
256,192,39787,1,0,0:0:0:0:
256,192,39912,1,2,0:0:0:0:
256,192,40037,1,2,0:0:0:0:
256,192,40162,5,0,0:0:0:0:
256,192,40412,5,2,0:0:0:0:
256,192,40537,1,0,0:0:0:0:
256,192,40787,1,0,0:0:0:0:
256,192,40912,1,2,0:0:0:0:
256,192,41037,1,0,0:0:0:0:
256,192,41162,1,2,0:0:0:0:
256,192,41287,1,2,0:0:0:0:
256,192,41412,1,0,0:0:0:0:
256,192,41537,1,2,0:0:0:0:
256,192,41787,1,0,0:0:0:0:
256,192,41912,1,2,0:0:0:0:
256,192,42162,1,0,0:0:0:0:
256,192,42287,1,0,0:0:0:0:
256,192,42412,1,2,0:0:0:0:
256,192,42537,1,0,0:0:0:0:
256,192,42662,1,2,0:0:0:0:
256,192,42787,1,0,0:0:0:0:
256,192,42912,1,2,0:0:0:0:
256,192,42974,1,2,0:0:0:0:
256,192,43037,1,2,0:0:0:0:
256,192,43162,1,0,0:0:0:0:
256,192,43412,1,2,0:0:0:0:
256,176,43537,1,2,0:0:0:0:
256,192,43662,1,0,0:0:0:0:
256,192,43787,1,0,0:0:0:0:
256,192,43849,1,0,0:0:0:0:
256,192,43912,1,2,0:0:0:0:
256,192,44037,1,2,0:0:0:0:
256,192,44162,1,0,0:0:0:0:
256,192,44412,1,2,0:0:0:0:
272,192,44537,1,0,0:0:0:0:
256,192,44787,1,0,0:0:0:0:
256,192,44912,1,2,0:0:0:0:
272,192,45037,1,2,0:0:0:0:
256,192,45162,1,0,0:0:0:0:
256,192,45287,1,2,0:0:0:0:
261,191,45349,1,2,0:0:0:0:
256,192,45412,1,0,0:0:0:0:
256,192,45537,1,2,0:0:0:0:
256,192,45787,1,0,0:0:0:0:
256,192,45912,1,2,0:0:0:0:
256,192,46162,1,0,0:0:0:0:
256,176,46224,1,0,0:0:0:0:
256,176,46287,1,0,0:0:0:0:
256,176,46412,1,2,0:0:0:0:
256,176,46537,1,0,0:0:0:0:
256,192,46787,1,2,0:0:0:0:
256,192,46912,1,2,0:0:0:0:
256,192,47037,1,0,0:0:0:0:
256,192,47162,1,2,0:0:0:0:
256,192,47224,5,2,0:0:0:0:
256,192,47287,1,0,0:0:0:0:
256,192,47412,1,2,0:0:0:0:
256,192,47537,1,0,0:0:0:0:
272,192,47662,1,2,0:0:0:0:
256,192,47724,1,2,0:0:0:0:
256,192,47787,1,0,0:0:0:0:
256,192,47912,1,2,0:0:0:0:
256,192,48037,1,0,0:0:0:0:
256,192,48162,5,2,0:0:0:0:
256,192,48662,1,2,0:0:0:0:
256,192,48912,1,0,0:0:0:0:
256,192,49037,1,0,0:0:0:0:
256,192,49162,1,2,0:0:0:0:
256,192,49412,1,2,0:0:0:0:
256,176,49537,1,0,0:0:0:0:
256,176,49787,1,0,0:0:0:0:
256,176,49912,1,2,0:0:0:0:
256,176,50162,1,2,0:0:0:0:
256,176,50412,1,0,0:0:0:0:
256,176,50537,1,0,0:0:0:0:
256,192,50662,1,2,0:0:0:0:
256,192,50787,1,2,0:0:0:0:
256,192,50912,1,0,0:0:0:0:
256,192,51162,1,2,0:0:0:0:
256,176,51412,1,0,0:0:0:0:
256,192,51537,1,2,0:0:0:0:
261,194,51662,1,2,0:0:0:0:
256,176,51787,1,2,0:0:0:0:
256,176,51912,1,0,0:0:0:0:
256,176,52162,1,2,0:0:0:0:
256,176,52662,1,2,0:0:0:0:
256,176,52912,1,2,0:0:0:0:
256,176,53037,1,2,0:0:0:0:
256,176,53162,1,0,0:0:0:0:
256,176,53412,1,0,0:0:0:0:
256,176,53537,1,2,0:0:0:0:
256,176,53787,1,0,0:0:0:0:
256,176,53912,1,2,0:0:0:0:
256,176,54162,1,0,0:0:0:0:
256,176,54412,1,2,0:0:0:0:
256,176,54537,1,0,0:0:0:0:
256,176,54787,1,0,0:0:0:0:
256,176,54912,1,2,0:0:0:0:
256,176,55162,1,2,0:0:0:0:
256,176,55224,1,2,0:0:0:0:
256,176,55287,1,2,0:0:0:0:
256,176,55412,1,0,0:0:0:0:
256,176,55537,1,0,0:0:0:0:
256,176,55662,1,2,0:0:0:0:
256,176,55724,1,2,0:0:0:0:
256,176,55787,1,2,0:0:0:0:
256,176,55912,1,0,0:0:0:0:
256,176,56037,1,0,0:0:0:0:
256,176,56162,1,2,0:0:0:0:
256,192,56662,1,2,0:0:0:0:
256,192,56912,1,0,0:0:0:0:
256,192,57037,1,0,0:0:0:0:
256,192,57162,1,2,0:0:0:0:
256,192,57412,1,2,0:0:0:0:
256,176,57537,1,0,0:0:0:0:
256,176,57787,1,0,0:0:0:0:
256,176,57912,1,2,0:0:0:0:
256,176,58162,1,2,0:0:0:0:
248,167,58412,1,0,0:0:0:0:
248,167,58537,1,0,0:0:0:0:
256,192,58662,1,2,0:0:0:0:
256,192,58787,1,2,0:0:0:0:
256,192,58912,1,0,0:0:0:0:
256,192,59162,1,2,0:0:0:0:
256,176,59412,1,0,0:0:0:0:
256,192,59537,1,2,0:0:0:0:
256,192,59662,1,2,0:0:0:0:
256,176,59787,1,2,0:0:0:0:
256,176,59912,1,0,0:0:0:0:
256,176,60162,1,2,0:0:0:0:
256,176,60662,1,2,0:0:0:0:
256,176,60912,1,2,0:0:0:0:
256,176,61037,1,2,0:0:0:0:
256,176,61162,1,0,0:0:0:0:
256,176,61412,1,0,0:0:0:0:
256,176,61537,1,2,0:0:0:0:
256,176,61787,1,0,0:0:0:0:
256,176,61912,1,2,0:0:0:0:
256,176,62162,1,0,0:0:0:0:
256,176,62412,1,2,0:0:0:0:
256,176,62537,1,0,0:0:0:0:
256,176,62787,1,0,0:0:0:0:
256,176,62912,1,2,0:0:0:0:
256,176,63037,1,0,0:0:0:0:
256,192,63162,12,0,63912,0:0:0:0:
256,176,64162,5,0,0:0:0:0:
256,176,64411,5,0,0:0:0:0:
256,176,64661,1,2,0:0:0:0:
256,176,65161,1,0,0:0:0:0:
256,176,65411,1,0,0:0:0:0:
256,176,65662,1,2,0:0:0:0:
256,176,65912,1,0,0:0:0:0:
256,176,66037,1,0,0:0:0:0:
256,176,66162,1,0,0:0:0:0:
256,176,66412,1,0,0:0:0:0:
256,176,66662,1,2,0:0:0:0:
256,176,67162,1,0,0:0:0:0:
256,176,67412,1,0,0:0:0:0:
256,176,67662,1,2,0:0:0:0:
256,176,67912,1,0,0:0:0:0:
256,176,68162,1,0,0:0:0:0:
256,176,68412,1,0,0:0:0:0:
256,176,68662,1,2,0:0:0:0:
256,176,69162,1,0,0:0:0:0:
256,176,69412,1,0,0:0:0:0:
256,176,69662,1,2,0:0:0:0:
256,176,69912,1,0,0:0:0:0:
256,176,70037,1,2,0:0:0:0:
256,176,70162,1,0,0:0:0:0:
256,176,70412,1,0,0:0:0:0:
256,176,70662,1,2,0:0:0:0:
256,176,71037,1,2,0:0:0:0:
256,176,71162,1,0,0:0:0:0:
256,176,71412,1,0,0:0:0:0:
256,176,71662,1,2,0:0:0:0:
256,176,71912,1,2,0:0:0:0:
256,176,72037,1,2,0:0:0:0:
256,176,72162,1,0,0:0:0:0:
256,176,72412,1,0,0:0:0:0:
256,176,72662,1,2,0:0:0:0:
256,176,73162,1,0,0:0:0:0:
256,176,73412,1,0,0:0:0:0:
256,176,73662,1,2,0:0:0:0:
256,176,73912,1,0,0:0:0:0:
256,176,74037,1,0,0:0:0:0:
256,176,74162,1,0,0:0:0:0:
256,176,74412,1,0,0:0:0:0:
256,176,74662,1,2,0:0:0:0:
256,176,75162,1,0,0:0:0:0:
256,176,75412,1,0,0:0:0:0:
256,176,75662,1,2,0:0:0:0:
256,176,75912,1,0,0:0:0:0:
256,176,76162,1,0,0:0:0:0:
256,176,76412,1,0,0:0:0:0:
256,176,76662,1,2,0:0:0:0:
256,176,77162,1,0,0:0:0:0:
256,176,77412,1,0,0:0:0:0:
256,176,77662,1,2,0:0:0:0:
256,176,77912,1,0,0:0:0:0:
256,176,78037,1,2,0:0:0:0:
256,176,78162,1,0,0:0:0:0:
256,176,78412,1,0,0:0:0:0:
256,176,78662,1,2,0:0:0:0:
256,176,79037,1,2,0:0:0:0:
256,176,79162,1,0,0:0:0:0:
256,176,79412,5,0,0:0:0:0:
256,176,79662,1,2,0:0:0:0:
256,176,79787,1,2,0:0:0:0:
256,176,79912,1,0,0:0:0:0:
256,176,80162,1,2,0:0:0:0:
256,176,80412,5,0,0:0:0:0:
256,176,80662,1,2,0:0:0:0:
256,176,81162,1,0,0:0:0:0:
256,176,81412,1,0,0:0:0:0:
256,176,81662,1,2,0:0:0:0:
256,176,81912,1,2,0:0:0:0:
256,176,82037,1,2,0:0:0:0:
256,176,82162,1,0,0:0:0:0:
256,176,82412,1,0,0:0:0:0:
256,176,82662,1,2,0:0:0:0:
256,176,83162,1,0,0:0:0:0:
256,176,83412,1,0,0:0:0:0:
256,176,83662,1,2,0:0:0:0:
256,176,83912,1,0,0:0:0:0:
256,176,84037,1,2,0:0:0:0:
256,176,84162,1,0,0:0:0:0:
256,176,84412,1,0,0:0:0:0:
256,176,84662,1,2,0:0:0:0:
256,176,85162,1,0,0:0:0:0:
256,176,85412,1,0,0:0:0:0:
256,176,85662,1,2,0:0:0:0:
256,176,86162,1,0,0:0:0:0:
256,160,86412,1,0,0:0:0:0:
256,176,86662,1,2,0:0:0:0:
256,176,86912,1,0,0:0:0:0:
256,176,87037,1,2,0:0:0:0:
256,176,87287,1,2,0:0:0:0:
256,176,87412,1,0,0:0:0:0:
256,176,87662,1,2,0:0:0:0:
256,176,88162,1,0,0:0:0:0:
256,176,88412,1,0,0:0:0:0:
256,176,88662,1,2,0:0:0:0:
256,176,89162,1,0,0:0:0:0:
256,176,89412,1,0,0:0:0:0:
256,176,89662,1,2,0:0:0:0:
256,176,89912,1,2,0:0:0:0:
256,176,90037,1,2,0:0:0:0:
256,176,90162,1,0,0:0:0:0:
256,176,90412,1,0,0:0:0:0:
256,176,90662,1,2,0:0:0:0:
256,176,91162,1,0,0:0:0:0:
256,176,91412,1,0,0:0:0:0:
256,176,91662,1,2,0:0:0:0:
256,176,91912,1,0,0:0:0:0:
256,176,92037,1,2,0:0:0:0:
256,176,92162,1,0,0:0:0:0:
256,176,92412,1,0,0:0:0:0:
256,176,92662,1,2,0:0:0:0:
256,176,93162,1,0,0:0:0:0:
256,176,93412,1,0,0:0:0:0:
256,176,93662,1,2,0:0:0:0:
256,176,94162,1,0,0:0:0:0:
256,160,94412,1,0,0:0:0:0:
256,176,94662,1,2,0:0:0:0:
256,176,94912,1,0,0:0:0:0:
256,176,95037,1,2,0:0:0:0:
256,176,95287,5,2,0:0:0:0:
256,176,95412,1,0,0:0:0:0:
256,176,95662,1,2,0:0:0:0:
256,176,96162,1,0,0:0:0:0:
256,176,96412,1,0,0:0:0:0:
256,176,96662,1,2,0:0:0:0:
256,176,97162,1,0,0:0:0:0:
256,176,97412,1,0,0:0:0:0:
256,176,97662,1,2,0:0:0:0:
256,176,97912,1,2,0:0:0:0:
256,176,98037,1,2,0:0:0:0:
256,176,98162,1,0,0:0:0:0:
256,176,98412,1,0,0:0:0:0:
256,176,98662,1,2,0:0:0:0:
256,176,98912,1,0,0:0:0:0:
256,176,99037,1,2,0:0:0:0:
256,176,99287,1,2,0:0:0:0:
256,176,99412,1,0,0:0:0:0:
256,176,99662,1,2,0:0:0:0:
256,176,100162,1,0,0:0:0:0:
256,176,100412,1,0,0:0:0:0:
256,176,100662,1,2,0:0:0:0:
256,176,101162,1,0,0:0:0:0:
256,176,101412,1,0,0:0:0:0:
256,176,101662,1,2,0:0:0:0:
256,176,101912,1,0,0:0:0:0:
256,176,102037,1,0,0:0:0:0:
256,176,102162,1,0,0:0:0:0:
256,160,102412,1,0,0:0:0:0:
256,176,102662,1,2,0:0:0:0:
256,176,102912,1,0,0:0:0:0:
256,176,103037,1,2,0:0:0:0:
256,176,103287,1,2,0:0:0:0:
256,176,103412,1,0,0:0:0:0:
256,176,103662,1,2,0:0:0:0:
256,176,104162,1,0,0:0:0:0:
256,176,104412,1,0,0:0:0:0:
256,176,104662,1,2,0:0:0:0:
256,176,105162,1,0,0:0:0:0:
256,176,105412,1,0,0:0:0:0:
256,176,105662,1,2,0:0:0:0:
256,176,105912,1,2,0:0:0:0:
256,176,106037,1,2,0:0:0:0:
256,176,106162,1,0,0:0:0:0:
256,176,106412,1,0,0:0:0:0:
256,176,106662,1,2,0:0:0:0:
256,176,106912,1,0,0:0:0:0:
256,176,107037,1,2,0:0:0:0:
256,176,107287,1,2,0:0:0:0:
256,176,107412,1,0,0:0:0:0:
256,176,107662,1,2,0:0:0:0:
256,176,108162,1,0,0:0:0:0:
256,176,108412,1,0,0:0:0:0:
256,176,108662,1,2,0:0:0:0:
256,176,109162,1,0,0:0:0:0:
256,176,109412,1,0,0:0:0:0:
256,176,109662,1,2,0:0:0:0:
256,176,109912,1,0,0:0:0:0:
256,176,110037,1,0,0:0:0:0:
256,176,110162,1,0,0:0:0:0:
256,160,110412,1,0,0:0:0:0:
256,176,110662,1,2,0:0:0:0:
256,176,110912,1,0,0:0:0:0:
256,176,111037,1,2,0:0:0:0:
256,176,111287,5,2,0:0:0:0:
256,176,111412,1,0,0:0:0:0:
256,176,111662,1,2,0:0:0:0:
256,176,111912,1,2,0:0:0:0:
256,176,112162,1,0,0:0:0:0:
256,160,112662,1,2,0:0:0:0:
256,160,112912,1,0,0:0:0:0:
256,160,113037,1,2,0:0:0:0:
256,160,113287,1,2,0:0:0:0:
256,160,113412,1,0,0:0:0:0:
256,160,113537,1,0,0:0:0:0:
256,160,113662,1,2,0:0:0:0:
256,160,113912,1,2,0:0:0:0:
256,160,114162,1,0,0:0:0:0:
256,160,114412,1,0,0:0:0:0:
256,160,114537,1,0,0:0:0:0:
256,160,114662,1,2,0:0:0:0:
256,160,114912,1,0,0:0:0:0:
256,160,115037,1,2,0:0:0:0:
256,160,115287,1,2,0:0:0:0:
256,160,115412,1,2,0:0:0:0:
256,160,115537,1,0,0:0:0:0:
256,160,115662,1,2,0:0:0:0:
256,160,115912,1,2,0:0:0:0:
256,160,116162,1,0,0:0:0:0:
256,160,116662,1,2,0:0:0:0:
256,160,116912,1,2,0:0:0:0:
256,160,117162,1,0,0:0:0:0:
256,160,117412,1,0,0:0:0:0:
256,160,117537,1,2,0:0:0:0:
256,160,117662,1,0,0:0:0:0:
256,160,117787,1,0,0:0:0:0:
256,160,117912,1,2,0:0:0:0:
256,160,118162,1,0,0:0:0:0:
256,160,118412,1,2,0:0:0:0:
256,160,118537,1,0,0:0:0:0:
256,160,118662,1,2,0:0:0:0:
256,160,118912,1,2,0:0:0:0:
256,160,119037,1,2,0:0:0:0:
256,160,119162,1,0,0:0:0:0:
256,160,119412,1,2,0:0:0:0:
256,160,119537,1,2,0:0:0:0:
256,160,119662,1,0,0:0:0:0:
256,160,119787,1,0,0:0:0:0:
256,160,119912,1,2,0:0:0:0:
256,160,120037,1,0,0:0:0:0:
256,160,120162,1,2,0:0:0:0:
256,160,120662,1,2,0:0:0:0:
256,160,120912,1,0,0:0:0:0:
256,160,121037,1,2,0:0:0:0:
256,160,121287,1,2,0:0:0:0:
256,160,121412,1,0,0:0:0:0:
256,160,121537,1,0,0:0:0:0:
256,160,121662,1,2,0:0:0:0:
256,160,121912,1,2,0:0:0:0:
256,160,122162,1,0,0:0:0:0:
256,160,122412,1,2,0:0:0:0:
256,160,122537,1,0,0:0:0:0:
256,160,122662,1,2,0:0:0:0:
256,160,122912,1,2,0:0:0:0:
256,160,123037,1,0,0:0:0:0:
256,160,123287,1,2,0:0:0:0:
256,160,123412,1,2,0:0:0:0:
256,160,123537,1,0,0:0:0:0:
256,160,123662,1,2,0:0:0:0:
256,160,123912,1,2,0:0:0:0:
256,160,124162,1,0,0:0:0:0:
256,160,124662,1,2,0:0:0:0:
256,160,124912,1,2,0:0:0:0:
256,160,125037,1,2,0:0:0:0:
256,160,125162,1,0,0:0:0:0:
256,160,125412,1,2,0:0:0:0:
256,160,125537,1,0,0:0:0:0:
256,160,125662,1,2,0:0:0:0:
256,176,125787,1,0,0:0:0:0:
256,176,125912,1,2,0:0:0:0:
256,176,126162,1,0,0:0:0:0:
256,160,126662,1,2,0:0:0:0:
272,160,126912,1,2,0:0:0:0:
256,160,127037,1,0,0:0:0:0:
256,160,127162,1,2,0:0:0:0:
272,160,127412,1,0,0:0:0:0:
272,160,127537,1,2,0:0:0:0:
272,160,127662,1,0,0:0:0:0:
272,160,127787,1,0,0:0:0:0:
272,160,127912,1,2,0:0:0:0:
256,160,128037,1,0,0:0:0:0:
256,176,128162,1,2,0:0:0:0:
256,160,128661,1,2,0:0:0:0:
256,160,128911,1,0,0:0:0:0:
256,160,129036,1,2,0:0:0:0:
256,160,129286,1,2,0:0:0:0:
256,160,129411,1,0,0:0:0:0:
256,160,129536,1,0,0:0:0:0:
256,160,129661,1,2,0:0:0:0:
256,160,129911,1,2,0:0:0:0:
256,160,130161,1,0,0:0:0:0:
256,160,130411,1,0,0:0:0:0:
256,160,130536,1,0,0:0:0:0:
256,160,130661,1,2,0:0:0:0:
256,160,130911,1,0,0:0:0:0:
256,160,131036,1,2,0:0:0:0:
256,160,131287,1,2,0:0:0:0:
256,160,131412,1,2,0:0:0:0:
256,160,131537,1,0,0:0:0:0:
256,160,131662,1,2,0:0:0:0:
256,160,131912,1,2,0:0:0:0:
256,160,132162,1,0,0:0:0:0:
256,160,132662,1,2,0:0:0:0:
256,160,132912,1,2,0:0:0:0:
256,160,133162,1,0,0:0:0:0:
256,160,133287,1,2,0:0:0:0:
256,160,133412,1,0,0:0:0:0:
256,160,133537,1,2,0:0:0:0:
256,160,133662,1,0,0:0:0:0:
256,160,133912,1,2,0:0:0:0:
256,160,134162,1,0,0:0:0:0:
256,160,134412,1,2,0:0:0:0:
256,160,134537,1,0,0:0:0:0:
256,160,134662,1,2,0:0:0:0:
256,160,134912,1,2,0:0:0:0:
256,160,135037,1,2,0:0:0:0:
256,160,135162,1,0,0:0:0:0:
256,160,135412,1,2,0:0:0:0:
256,160,135537,1,2,0:0:0:0:
256,160,135662,1,0,0:0:0:0:
256,160,135787,1,0,0:0:0:0:
256,160,135912,1,2,0:0:0:0:
256,160,136037,1,0,0:0:0:0:
256,160,136162,1,2,0:0:0:0:
256,160,136662,1,2,0:0:0:0:
256,160,136912,1,0,0:0:0:0:
256,160,137037,1,2,0:0:0:0:
256,160,137287,1,2,0:0:0:0:
256,160,137412,1,0,0:0:0:0:
256,160,137537,1,0,0:0:0:0:
256,160,137662,1,2,0:0:0:0:
256,160,137912,1,2,0:0:0:0:
256,160,138162,1,0,0:0:0:0:
256,160,138412,1,2,0:0:0:0:
256,160,138537,1,0,0:0:0:0:
256,160,138662,1,2,0:0:0:0:
256,160,138912,1,2,0:0:0:0:
256,160,139037,1,0,0:0:0:0:
256,160,139287,1,2,0:0:0:0:
256,160,139412,1,2,0:0:0:0:
256,160,139537,1,0,0:0:0:0:
256,160,139662,1,2,0:0:0:0:
256,160,139912,1,2,0:0:0:0:
256,160,140162,1,0,0:0:0:0:
256,160,140662,1,2,0:0:0:0:
256,160,140912,1,2,0:0:0:0:
256,160,141037,1,2,0:0:0:0:
256,160,141162,1,0,0:0:0:0:
256,160,141412,1,2,0:0:0:0:
256,160,141537,1,0,0:0:0:0:
256,160,141662,1,2,0:0:0:0:
256,176,141787,1,0,0:0:0:0:
256,176,141912,1,2,0:0:0:0:
256,176,142162,1,0,0:0:0:0:
256,160,142662,1,2,0:0:0:0:
272,160,142912,1,2,0:0:0:0:
256,160,143037,1,0,0:0:0:0:
256,160,143162,1,2,0:0:0:0:
272,160,143412,1,0,0:0:0:0:
272,160,143537,5,2,0:0:0:0:
272,160,143662,1,0,0:0:0:0:
272,160,143787,1,0,0:0:0:0:
272,160,143912,1,2,0:0:0:0:
256,160,144037,1,2,0:0:0:0:
256,176,144162,1,0,0:0:0:0:
256,176,144662,5,2,0:0:0:0:
256,176,144912,1,2,0:0:0:0:
256,176,145037,1,2,0:0:0:0:
256,176,145162,1,0,0:0:0:0:
256,176,145412,1,2,0:0:0:0:
256,176,145537,1,0,0:0:0:0:
256,176,145787,1,2,0:0:0:0:
256,176,145912,1,2,0:0:0:0:
256,176,146162,1,0,0:0:0:0:
256,176,146412,1,2,0:0:0:0:
256,192,146662,1,2,0:0:0:0:
256,176,146787,1,0,0:0:0:0:
256,192,146912,1,2,0:0:0:0:
256,192,147037,1,2,0:0:0:0:
256,192,147162,1,0,0:0:0:0:
256,176,147412,1,0,0:0:0:0:
256,176,147662,1,2,0:0:0:0:
272,176,148162,1,0,0:0:0:0:
272,176,148412,1,2,0:0:0:0:
272,176,148537,1,2,0:0:0:0:
272,176,148662,1,2,0:0:0:0:
272,160,148912,1,2,0:0:0:0:
272,160,149037,1,2,0:0:0:0:
272,160,149162,1,0,0:0:0:0:
272,160,149412,1,0,0:0:0:0:
272,160,149662,1,2,0:0:0:0:
254,173,149787,1,0,0:0:0:0:
254,173,149912,1,2,0:0:0:0:
272,160,150162,1,0,0:0:0:0:
272,160,150412,1,2,0:0:0:0:
272,160,150662,1,2,0:0:0:0:
272,160,150787,1,2,0:0:0:0:
272,160,150912,1,2,0:0:0:0:
272,144,151162,1,0,0:0:0:0:
272,160,151412,1,0,0:0:0:0:
272,144,151537,1,0,0:0:0:0:
272,160,151787,1,0,0:0:0:0:
272,160,151912,1,2,0:0:0:0:
272,160,152037,1,2,0:0:0:0:
272,160,152162,1,0,0:0:0:0:
272,160,152662,1,2,0:0:0:0:
272,160,152912,1,2,0:0:0:0:
272,160,153037,1,2,0:0:0:0:
272,160,153162,1,0,0:0:0:0:
288,160,153412,1,2,0:0:0:0:
272,160,153662,1,2,0:0:0:0:
272,160,153787,1,0,0:0:0:0:
272,160,153912,1,2,0:0:0:0:
272,160,154037,1,2,0:0:0:0:
272,160,154162,1,0,0:0:0:0:
272,160,154412,1,2,0:0:0:0:
272,160,154662,1,0,0:0:0:0:
272,160,154787,1,2,0:0:0:0:
272,160,154912,1,2,0:0:0:0:
272,160,155037,1,2,0:0:0:0:
272,160,155162,1,0,0:0:0:0:
256,176,155412,1,0,0:0:0:0:
256,176,155537,1,0,0:0:0:0:
256,160,155787,1,0,0:0:0:0:
256,160,155912,1,2,0:0:0:0:
256,160,156037,1,0,0:0:0:0:
256,160,156162,1,0,0:0:0:0:
256,160,156662,1,2,0:0:0:0:
256,160,156912,1,2,0:0:0:0:
256,160,157037,1,2,0:0:0:0:
256,160,157162,1,0,0:0:0:0:
256,160,157412,1,2,0:0:0:0:
256,160,157662,1,0,0:0:0:0:
256,160,157787,1,0,0:0:0:0:
256,160,157912,1,2,0:0:0:0:
256,160,158037,1,2,0:0:0:0:
256,160,158162,1,0,0:0:0:0:
256,160,158412,1,2,0:0:0:0:
256,160,158662,1,2,0:0:0:0:
256,160,158787,1,0,0:0:0:0:
256,160,158912,1,2,0:0:0:0:
256,160,159037,1,2,0:0:0:0:
256,160,159162,1,0,0:0:0:0:
256,160,159412,1,2,0:0:0:0:
256,160,159537,1,2,0:0:0:0:
256,160,159787,5,0,0:0:0:0:
256,160,159912,1,0,0:0:0:0:
256,160,160037,1,2,0:0:0:0:
256,176,160162,1,0,0:0:0:0:
256,176,160662,5,2,0:0:0:0:
256,176,160912,1,2,0:0:0:0:
256,176,161037,1,2,0:0:0:0:
256,176,161162,1,0,0:0:0:0:
256,176,161412,1,2,0:0:0:0:
256,176,161662,1,0,0:0:0:0:
256,176,161787,1,2,0:0:0:0:
256,176,161912,1,2,0:0:0:0:
256,176,162162,1,0,0:0:0:0:
256,176,162412,1,2,0:0:0:0:
256,192,162662,1,2,0:0:0:0:
256,176,162787,1,0,0:0:0:0:
256,192,162912,1,2,0:0:0:0:
256,192,163037,1,2,0:0:0:0:
256,192,163162,1,0,0:0:0:0:
256,176,163412,1,0,0:0:0:0:
256,176,163662,1,2,0:0:0:0:
272,176,164162,1,0,0:0:0:0:
272,176,164412,1,2,0:0:0:0:
272,176,164537,1,2,0:0:0:0:
272,176,164662,1,2,0:0:0:0:
272,160,164912,1,2,0:0:0:0:
272,160,165037,1,2,0:0:0:0:
272,160,165162,1,0,0:0:0:0:
272,160,165412,1,0,0:0:0:0:
272,160,165662,1,2,0:0:0:0:
254,173,165787,1,0,0:0:0:0:
254,173,165912,1,2,0:0:0:0:
272,160,166162,1,0,0:0:0:0:
272,160,166412,1,2,0:0:0:0:
272,160,166662,1,2,0:0:0:0:
272,160,166787,1,2,0:0:0:0:
272,160,166912,1,2,0:0:0:0:
272,144,167162,1,0,0:0:0:0:
272,160,167412,1,0,0:0:0:0:
272,144,167537,1,0,0:0:0:0:
272,160,167787,1,0,0:0:0:0:
272,160,167912,1,2,0:0:0:0:
272,160,168037,1,2,0:0:0:0:
272,160,168162,1,0,0:0:0:0:
272,160,168662,1,2,0:0:0:0:
272,160,168912,1,2,0:0:0:0:
272,160,169037,1,2,0:0:0:0:
272,160,169162,1,0,0:0:0:0:
288,160,169412,1,2,0:0:0:0:
272,160,169662,1,2,0:0:0:0:
272,160,169787,1,0,0:0:0:0:
272,160,169912,1,2,0:0:0:0:
272,160,170037,1,2,0:0:0:0:
272,160,170162,1,0,0:0:0:0:
272,160,170412,1,2,0:0:0:0:
272,160,170662,1,0,0:0:0:0:
272,160,170787,1,2,0:0:0:0:
272,160,170912,1,2,0:0:0:0:
272,160,171037,1,2,0:0:0:0:
272,160,171162,1,0,0:0:0:0:
256,176,171412,1,0,0:0:0:0:
256,176,171537,1,0,0:0:0:0:
256,160,171787,1,0,0:0:0:0:
256,160,171912,1,2,0:0:0:0:
256,160,172037,1,0,0:0:0:0:
256,160,172162,1,0,0:0:0:0:
256,160,172662,1,2,0:0:0:0:
256,160,172912,1,2,0:0:0:0:
256,160,173037,1,2,0:0:0:0:
256,160,173162,1,0,0:0:0:0:
256,160,173412,1,2,0:0:0:0:
256,160,173662,1,0,0:0:0:0:
256,160,173787,1,0,0:0:0:0:
256,160,173912,1,2,0:0:0:0:
256,160,174037,1,2,0:0:0:0:
256,160,174162,1,0,0:0:0:0:
256,160,174412,1,2,0:0:0:0:
256,160,174662,1,2,0:0:0:0:
256,160,174787,1,0,0:0:0:0:
256,160,174912,1,2,0:0:0:0:
256,160,175037,1,2,0:0:0:0:
256,160,175162,1,0,0:0:0:0:
256,160,175412,1,2,0:0:0:0:
256,160,175537,5,2,0:0:0:0:
256,160,175787,5,0,0:0:0:0:
256,160,175912,1,0,0:0:0:0:
256,160,176037,1,0,0:0:0:0:
256,176,176162,1,2,0:0:0:0:
256,144,176657,5,0,0:0:0:0:
256,160,176905,1,0,0:0:0:0:
256,160,177153,1,2,0:0:0:0:
256,160,177397,1,2,0:0:0:0:
256,160,177520,1,2,0:0:0:0:
256,160,177642,1,0,0:0:0:0:
256,160,177887,1,0,0:0:0:0:
256,160,178132,5,2,0:0:0:0:
256,160,178604,1,0,0:0:0:0:
256,160,178840,1,0,0:0:0:0:
256,160,179076,1,2,0:0:0:0:
256,192,180021,5,0,0:0:0:0:
256,192,180251,1,2,0:0:0:0:
256,176,180367,1,2,0:0:0:0:
256,176,180482,1,0,0:0:0:0:
252,180,180597,1,0,0:0:0:0:
272,176,180713,1,2,0:0:0:0:
272,176,180944,1,2,0:0:0:0:
272,176,181059,1,2,0:0:0:0:
272,176,181174,1,0,0:0:0:0:
272,176,181290,1,2,0:0:0:0:
272,176,181347,1,2,0:0:0:0:
272,176,181405,1,2,0:0:0:0:
272,176,181521,1,0,0:0:0:0:
272,176,181636,1,2,0:0:0:0:
272,176,181867,1,0,0:0:0:0:
272,176,182097,1,0,0:0:0:0:
272,176,182213,1,0,0:0:0:0:
272,176,182328,1,2,0:0:0:0:
272,176,182444,1,2,0:0:0:0:
272,176,182559,1,0,0:0:0:0:
272,176,182790,1,0,0:0:0:0:
284,187,182905,1,2,0:0:0:0:
272,176,182963,1,2,0:0:0:0:
272,176,183021,1,2,0:0:0:0:
261,180,183136,1,0,0:0:0:0:
272,176,183251,1,2,0:0:0:0:
272,176,183309,1,2,0:0:0:0:
288,176,183367,1,0,0:0:0:0:
272,176,183482,1,2,0:0:0:0:
272,176,183713,1,0,0:0:0:0:
256,176,183944,1,2,0:0:0:0:
272,176,184059,1,0,0:0:0:0:
272,160,184290,1,0,0:0:0:0:
272,160,184405,1,2,0:0:0:0:
272,160,184521,1,2,0:0:0:0:
272,160,184636,1,0,0:0:0:0:
272,160,184751,1,2,0:0:0:0:
268,165,184809,1,2,0:0:0:0:
260,168,184867,1,0,0:0:0:0:
272,160,184982,1,2,0:0:0:0:
288,160,185213,1,0,0:0:0:0:
272,176,185328,1,2,0:0:0:0:
272,176,185559,1,0,0:0:0:0:
272,176,185790,1,2,0:0:0:0:
272,176,185905,1,0,0:0:0:0:
272,176,186136,1,2,0:0:0:0:
272,176,186251,1,2,0:0:0:0:
272,176,186482,1,2,0:0:0:0:
267,179,186540,1,2,0:0:0:0:
272,176,186597,1,2,0:0:0:0:
272,176,186713,1,0,0:0:0:0:
272,176,186828,1,0,0:0:0:0:
272,176,186944,1,2,0:0:0:0:
272,176,187001,1,2,0:0:0:0:
272,176,187059,1,0,0:0:0:0:
272,176,187174,1,2,0:0:0:0:
256,192,187405,5,0,0:0:0:0:
256,192,187636,1,2,0:0:0:0:
256,176,187751,1,2,0:0:0:0:
256,176,187867,1,0,0:0:0:0:
252,180,187982,1,0,0:0:0:0:
272,176,188097,1,2,0:0:0:0:
272,176,188328,1,2,0:0:0:0:
272,176,188444,1,2,0:0:0:0:
272,176,188559,1,0,0:0:0:0:
272,176,188674,1,2,0:0:0:0:
272,176,188732,1,2,0:0:0:0:
272,176,188790,1,2,0:0:0:0:
272,176,188905,1,0,0:0:0:0:
272,176,189021,1,2,0:0:0:0:
272,176,189251,1,0,0:0:0:0:
272,176,189482,1,0,0:0:0:0:
272,176,189597,1,0,0:0:0:0:
272,176,189713,1,2,0:0:0:0:
272,176,189828,1,2,0:0:0:0:
272,176,189944,1,0,0:0:0:0:
272,176,190174,1,0,0:0:0:0:
284,187,190290,1,2,0:0:0:0:
272,176,190347,1,2,0:0:0:0:
272,176,190405,1,2,0:0:0:0:
261,180,190521,1,0,0:0:0:0:
272,176,190636,1,2,0:0:0:0:
272,176,190694,1,2,0:0:0:0:
288,176,190751,1,0,0:0:0:0:
272,176,190867,1,2,0:0:0:0:
272,176,191097,1,0,0:0:0:0:
256,176,191328,1,2,0:0:0:0:
272,176,191444,1,0,0:0:0:0:
272,160,191674,1,0,0:0:0:0:
272,160,191790,1,2,0:0:0:0:
272,160,191905,1,2,0:0:0:0:
272,160,192021,1,0,0:0:0:0:
272,160,192136,1,2,0:0:0:0:
268,165,192194,1,2,0:0:0:0:
260,168,192251,1,0,0:0:0:0:
272,160,192367,1,2,0:0:0:0:
288,160,192597,1,0,0:0:0:0:
272,176,192713,1,2,0:0:0:0:
272,176,192944,1,0,0:0:0:0:
272,176,193174,1,2,0:0:0:0:
272,176,193290,1,0,0:0:0:0:
272,176,193521,1,2,0:0:0:0:
272,176,193636,5,2,0:0:0:0:
272,176,193867,1,2,0:0:0:0:
267,179,193924,1,2,0:0:0:0:
272,176,193982,1,2,0:0:0:0:
272,176,194097,1,0,0:0:0:0:
272,176,194213,1,0,0:0:0:0:
272,176,194328,1,2,0:0:0:0:
272,176,194386,1,2,0:0:0:0:
272,176,194444,1,0,0:0:0:0:
272,176,194559,1,2,0:0:0:0:
272,176,194790,5,2,0:0:0:0:
272,176,194847,1,2,0:0:0:0:
272,176,194905,1,2,0:0:0:0:
272,176,195021,5,0,0:0:0:0:
272,176,195136,1,2,0:0:0:0:
272,176,195251,1,0,0:0:0:0:
288,160,195367,1,0,0:0:0:0:
288,160,195482,1,2,0:0:0:0:
288,160,195713,1,2,0:0:0:0:
288,160,195944,1,0,0:0:0:0:
304,160,196059,1,0,0:0:0:0:
288,160,196174,1,2,0:0:0:0:
288,160,196290,1,2,0:0:0:0:
272,176,196405,1,0,0:0:0:0:
272,176,196521,1,0,0:0:0:0:
272,176,196636,1,2,0:0:0:0:
272,176,196867,1,2,0:0:0:0:
288,176,196982,1,2,0:0:0:0:
288,176,197097,1,0,0:0:0:0:
288,176,197328,1,0,0:0:0:0:
288,176,197444,1,2,0:0:0:0:
272,176,197674,1,2,0:0:0:0:
276,181,197790,1,0,0:0:0:0:
288,176,197905,1,0,0:0:0:0:
288,176,198021,1,2,0:0:0:0:
281,191,198078,1,2,0:0:0:0:
288,176,198136,1,2,0:0:0:0:
288,176,198251,1,0,0:0:0:0:
288,176,198367,1,2,0:0:0:0:
288,176,198482,1,0,0:0:0:0:
272,192,198713,1,2,0:0:0:0:
272,192,198828,1,2,0:0:0:0:
272,192,198944,1,0,0:0:0:0:
288,192,199001,1,0,0:0:0:0:
288,192,199059,1,0,0:0:0:0:
288,192,199174,1,2,0:0:0:0:
288,192,199290,1,2,0:0:0:0:
288,192,199405,1,0,0:0:0:0:
288,192,199636,1,2,0:0:0:0:
288,192,199751,1,2,0:0:0:0:
288,192,199867,1,0,0:0:0:0:
288,192,199982,1,0,0:0:0:0:
288,192,200097,1,2,0:0:0:0:
288,192,200328,1,0,0:0:0:0:
264,193,200386,1,0,0:0:0:0:
264,193,200444,1,0,0:0:0:0:
288,192,200559,1,2,0:0:0:0:
272,192,200674,1,2,0:0:0:0:
272,192,200790,1,0,0:0:0:0:
272,192,201021,1,2,0:0:0:0:
272,192,201251,1,0,0:0:0:0:
272,188,201309,1,0,0:0:0:0:
268,188,201367,1,0,0:0:0:0:
268,188,201482,1,2,0:0:0:0:
272,192,201597,1,2,0:0:0:0:
272,192,201713,1,0,0:0:0:0:
261,195,201828,1,0,0:0:0:0:
272,192,201944,1,2,0:0:0:0:
272,176,202174,5,2,0:0:0:0:
272,176,202232,1,2,0:0:0:0:
272,176,202290,1,2,0:0:0:0:
272,176,202405,5,0,0:0:0:0:
272,176,202521,1,2,0:0:0:0:
272,176,202636,1,0,0:0:0:0:
288,160,202751,1,0,0:0:0:0:
288,160,202867,1,2,0:0:0:0:
288,160,203097,1,2,0:0:0:0:
288,160,203328,1,0,0:0:0:0:
304,160,203444,1,0,0:0:0:0:
288,160,203559,1,2,0:0:0:0:
288,160,203674,1,2,0:0:0:0:
272,176,203790,1,0,0:0:0:0:
272,176,203905,1,0,0:0:0:0:
272,176,204021,1,2,0:0:0:0:
272,176,204251,1,2,0:0:0:0:
288,176,204367,1,2,0:0:0:0:
288,176,204482,1,0,0:0:0:0:
288,176,204713,1,0,0:0:0:0:
288,176,204828,1,2,0:0:0:0:
272,176,205059,1,2,0:0:0:0:
276,181,205174,1,0,0:0:0:0:
288,176,205290,1,0,0:0:0:0:
288,176,205405,1,2,0:0:0:0:
281,191,205463,1,2,0:0:0:0:
288,176,205521,1,2,0:0:0:0:
288,176,205636,1,0,0:0:0:0:
288,176,205751,1,2,0:0:0:0:
288,176,205867,1,0,0:0:0:0:
272,192,206097,1,2,0:0:0:0:
272,192,206213,1,2,0:0:0:0:
272,192,206328,1,0,0:0:0:0:
288,192,206386,1,0,0:0:0:0:
288,192,206444,1,0,0:0:0:0:
288,192,206559,1,2,0:0:0:0:
288,192,206674,1,2,0:0:0:0:
288,192,206790,1,0,0:0:0:0:
288,192,207021,1,2,0:0:0:0:
288,192,207136,1,2,0:0:0:0:
288,192,207251,1,0,0:0:0:0:
288,192,207367,1,0,0:0:0:0:
288,192,207482,1,2,0:0:0:0:
288,192,207713,1,0,0:0:0:0:
264,193,207771,1,0,0:0:0:0:
264,193,207828,1,0,0:0:0:0:
288,192,207944,1,2,0:0:0:0:
272,192,208059,1,2,0:0:0:0:
272,192,208174,1,0,0:0:0:0:
272,192,208405,5,2,0:0:0:0:
272,192,208636,1,0,0:0:0:0:
272,188,208694,1,0,0:0:0:0:
268,188,208751,1,0,0:0:0:0:
268,188,208867,1,2,0:0:0:0:
272,192,208982,1,2,0:0:0:0:
272,192,209097,1,0,0:0:0:0:
272,192,209213,1,0,0:0:0:0:
272,192,209328,1,2,0:0:0:0:
256,192,209559,5,2,0:0:0:0:
248,195,209790,1,2,0:0:0:0:
248,195,209905,1,2,0:0:0:0:
251,195,210021,1,0,0:0:0:0:
252,195,210136,1,2,0:0:0:0:
252,195,210251,1,0,0:0:0:0:
254,190,210309,1,0,0:0:0:0:
254,191,210367,1,0,0:0:0:0:
254,191,210482,1,2,0:0:0:0:
254,190,210713,1,0,0:0:0:0:
257,193,210828,1,0,0:0:0:0:
259,192,210944,1,2,0:0:0:0:
259,192,211001,1,2,0:0:0:0:
259,192,211059,1,0,0:0:0:0:
259,192,211117,1,0,0:0:0:0:
259,192,211174,1,2,0:0:0:0:
259,192,211290,1,2,0:0:0:0:
259,192,211405,1,0,0:0:0:0:
264,191,211636,1,0,0:0:0:0:
264,191,211751,1,0,0:0:0:0:
264,191,211867,1,2,0:0:0:0:
264,191,211982,1,2,0:0:0:0:
264,191,212097,1,0,0:0:0:0:
264,191,212213,1,2,0:0:0:0:
264,191,212328,1,0,0:0:0:0:
264,191,212559,1,2,0:0:0:0:
264,191,212674,1,2,0:0:0:0:
264,191,212790,1,0,0:0:0:0:
264,191,212847,1,0,0:0:0:0:
264,191,212905,1,0,0:0:0:0:
264,191,213021,1,2,0:0:0:0:
264,191,213136,1,0,0:0:0:0:
264,191,213251,1,2,0:0:0:0:
264,191,213482,1,2,0:0:0:0:
264,191,213597,1,2,0:0:0:0:
266,186,213713,1,0,0:0:0:0:
266,186,213771,1,0,0:0:0:0:
265,186,213828,1,0,0:0:0:0:
264,191,213944,1,2,0:0:0:0:
264,191,214174,1,0,0:0:0:0:
264,191,214232,1,0,0:0:0:0:
264,191,214290,1,0,0:0:0:0:
266,186,214405,1,2,0:0:0:0:
266,186,214521,1,2,0:0:0:0:
272,187,214636,1,0,0:0:0:0:
271,188,214694,1,0,0:0:0:0:
271,188,214751,1,0,0:0:0:0:
271,188,214867,1,2,0:0:0:0:
271,188,214982,1,2,0:0:0:0:
271,188,215097,1,0,0:0:0:0:
265,191,215328,1,2,0:0:0:0:
265,191,215444,1,2,0:0:0:0:
265,191,215559,1,0,0:0:0:0:
267,195,215617,1,0,0:0:0:0:
267,195,215674,1,2,0:0:0:0:
267,195,215790,1,2,0:0:0:0:
265,191,216021,1,0,0:0:0:0:
265,191,216078,1,0,0:0:0:0:
265,191,216136,1,0,0:0:0:0:
265,191,216194,1,0,0:0:0:0:
265,191,216251,1,2,0:0:0:0:
268,187,216367,1,2,0:0:0:0:
268,186,216482,1,0,0:0:0:0:
265,191,216597,1,0,0:0:0:0:
268,186,216713,1,2,0:0:0:0:
256,192,216944,5,2,0:0:0:0:
248,195,217174,1,2,0:0:0:0:
248,195,217290,1,2,0:0:0:0:
251,195,217405,1,0,0:0:0:0:
252,195,217521,1,2,0:0:0:0:
252,195,217636,1,0,0:0:0:0:
254,190,217694,1,0,0:0:0:0:
254,191,217751,1,0,0:0:0:0:
254,191,217867,1,2,0:0:0:0:
254,190,218097,1,0,0:0:0:0:
257,193,218213,1,0,0:0:0:0:
259,192,218328,1,2,0:0:0:0:
259,192,218386,1,2,0:0:0:0:
259,192,218444,1,0,0:0:0:0:
259,192,218501,1,0,0:0:0:0:
259,192,218559,1,2,0:0:0:0:
259,192,218674,1,2,0:0:0:0:
259,192,218790,1,0,0:0:0:0:
264,191,219021,1,0,0:0:0:0:
264,191,219136,1,0,0:0:0:0:
264,191,219251,1,2,0:0:0:0:
264,191,219367,1,2,0:0:0:0:
264,191,219482,1,0,0:0:0:0:
264,191,219597,1,2,0:0:0:0:
264,191,219713,1,0,0:0:0:0:
264,191,219944,1,2,0:0:0:0:
264,191,220059,1,2,0:0:0:0:
264,191,220174,1,0,0:0:0:0:
264,191,220232,1,0,0:0:0:0:
264,191,220290,1,0,0:0:0:0:
264,191,220405,1,2,0:0:0:0:
264,191,220521,1,0,0:0:0:0:
264,191,220636,1,2,0:0:0:0:
264,191,220867,1,2,0:0:0:0:
264,191,220982,1,2,0:0:0:0:
266,186,221097,1,0,0:0:0:0:
266,186,221155,1,0,0:0:0:0:
265,186,221213,1,0,0:0:0:0:
264,191,221328,1,2,0:0:0:0:
264,191,221559,1,0,0:0:0:0:
264,191,221617,1,0,0:0:0:0:
264,191,221674,1,0,0:0:0:0:
266,186,221790,1,2,0:0:0:0:
266,186,221905,1,2,0:0:0:0:
272,187,222021,1,0,0:0:0:0:
271,188,222078,1,0,0:0:0:0:
271,188,222136,1,0,0:0:0:0:
271,188,222251,1,2,0:0:0:0:
271,188,222367,1,2,0:0:0:0:
271,188,222482,1,0,0:0:0:0:
265,191,222713,1,2,0:0:0:0:
265,191,222828,1,2,0:0:0:0:
265,191,222944,1,0,0:0:0:0:
267,195,223001,1,0,0:0:0:0:
267,195,223059,1,2,0:0:0:0:
267,195,223174,5,2,0:0:0:0:
265,191,223405,1,0,0:0:0:0:
265,191,223463,1,0,0:0:0:0:
265,191,223521,1,0,0:0:0:0:
265,191,223578,1,0,0:0:0:0:
265,191,223636,1,2,0:0:0:0:
268,187,223751,1,2,0:0:0:0:
268,186,223867,1,0,0:0:0:0:
265,191,223982,1,0,0:0:0:0:
268,186,224097,1,2,0:0:0:0:
270,188,224328,5,2,0:0:0:0:
272,192,224559,5,2,0:0:0:0:
272,192,224674,1,2,0:0:0:0:
272,192,224790,1,0,0:0:0:0:
272,192,224905,1,0,0:0:0:0:
272,192,225021,1,2,0:0:0:0:
272,192,225136,1,2,0:0:0:0:
272,192,225251,1,0,0:0:0:0:
272,192,225482,1,0,0:0:0:0:
272,192,225597,1,2,0:0:0:0:
272,192,225713,1,0,0:0:0:0:
272,192,225828,1,0,0:0:0:0:
272,192,225944,1,2,0:0:0:0:
272,192,226059,1,2,0:0:0:0:
272,192,226174,1,0,0:0:0:0:
272,192,226405,1,2,0:0:0:0:
272,192,226521,1,2,0:0:0:0:
272,192,226636,1,2,0:0:0:0:
272,192,226751,1,0,0:0:0:0:
272,192,226867,1,2,0:0:0:0:
272,192,227097,1,0,0:0:0:0:
256,192,227213,1,2,0:0:0:0:
256,192,227328,1,0,0:0:0:0:
256,192,227444,1,0,0:0:0:0:
256,192,227559,1,2,0:0:0:0:
272,192,227674,1,0,0:0:0:0:
272,192,227790,1,2,0:0:0:0:
272,192,227905,1,2,0:0:0:0:
272,192,228021,1,0,0:0:0:0:
272,192,228251,1,0,0:0:0:0:
272,192,228367,1,2,0:0:0:0:
272,192,228482,1,2,0:0:0:0:
272,192,228597,1,0,0:0:0:0:
272,192,228713,1,2,0:0:0:0:
272,192,228828,1,2,0:0:0:0:
272,192,228944,1,0,0:0:0:0:
272,192,229174,1,2,0:0:0:0:
272,192,229290,1,2,0:0:0:0:
272,192,229405,1,0,0:0:0:0:
272,192,229636,1,2,0:0:0:0:
272,176,229867,1,0,0:0:0:0:
272,176,230097,1,2,0:0:0:0:
272,176,230213,1,0,0:0:0:0:
272,176,230328,1,2,0:0:0:0:
272,176,230444,1,2,0:0:0:0:
272,176,230559,1,0,0:0:0:0:
256,192,230790,5,0,0:0:0:0:
256,192,230847,1,0,0:0:0:0:
256,192,230905,1,2,0:0:0:0:
256,192,231021,1,2,0:0:0:0:
256,192,231136,1,2,0:0:0:0:
256,192,231251,1,0,0:0:0:0:
256,192,231309,1,0,0:0:0:0:
256,192,231367,1,0,0:0:0:0:
256,192,231482,1,2,0:0:0:0:
270,188,231713,1,2,0:0:0:0:
272,192,231944,5,2,0:0:0:0:
272,192,232059,1,2,0:0:0:0:
272,192,232174,1,0,0:0:0:0:
272,192,232290,1,0,0:0:0:0:
272,192,232405,1,2,0:0:0:0:
272,192,232521,1,2,0:0:0:0:
272,192,232636,1,0,0:0:0:0:
272,192,232867,1,0,0:0:0:0:
272,192,232982,1,2,0:0:0:0:
272,192,233097,1,0,0:0:0:0:
272,192,233213,1,0,0:0:0:0:
272,192,233328,1,2,0:0:0:0:
272,192,233444,1,2,0:0:0:0:
272,192,233559,1,0,0:0:0:0:
272,192,233790,1,2,0:0:0:0:
272,192,233905,1,2,0:0:0:0:
272,192,234021,1,2,0:0:0:0:
272,192,234136,1,0,0:0:0:0:
272,192,234251,1,2,0:0:0:0:
272,192,234482,1,0,0:0:0:0:
256,192,234597,1,2,0:0:0:0:
256,192,234713,1,0,0:0:0:0:
256,192,234828,1,0,0:0:0:0:
256,192,234944,1,2,0:0:0:0:
272,192,235059,1,0,0:0:0:0:
272,192,235174,1,2,0:0:0:0:
272,192,235290,1,2,0:0:0:0:
272,192,235405,1,0,0:0:0:0:
272,192,235636,1,0,0:0:0:0:
272,192,235751,1,2,0:0:0:0:
272,192,235867,1,2,0:0:0:0:
272,192,235982,1,0,0:0:0:0:
272,192,236097,1,2,0:0:0:0:
272,192,236213,1,2,0:0:0:0:
272,192,236328,1,0,0:0:0:0:
272,192,236559,1,2,0:0:0:0:
272,192,236674,1,2,0:0:0:0:
272,192,236790,1,0,0:0:0:0:
272,192,237021,1,2,0:0:0:0:
272,176,237251,1,0,0:0:0:0:
272,176,237482,1,2,0:0:0:0:
272,176,237597,1,0,0:0:0:0:
272,176,237713,1,2,0:0:0:0:
272,176,237828,1,2,0:0:0:0:
272,176,237944,1,0,0:0:0:0:
256,192,238174,5,0,0:0:0:0:
256,192,238232,1,0,0:0:0:0:
256,192,238290,1,2,0:0:0:0:
256,192,238405,1,2,0:0:0:0:
256,192,238521,1,2,0:0:0:0:
256,192,238636,1,0,0:0:0:0:
256,192,238694,1,0,0:0:0:0:
256,192,238751,1,0,0:0:0:0:
256,192,238867,1,2,0:0:0:0:
256,192,239097,1,0,0:0:0:0:
272,192,239328,5,2,0:0:0:0:
256,192,239444,1,2,0:0:0:0:
256,192,239559,1,0,0:0:0:0:
256,192,239790,1,2,0:0:0:0:
272,176,239905,1,0,0:0:0:0:
272,176,240021,1,2,0:0:0:0:
272,176,240251,1,0,0:0:0:0:
272,176,240367,1,2,0:0:0:0:
272,176,240597,1,0,0:0:0:0:
272,176,240713,1,2,0:0:0:0:
272,176,240944,1,0,0:0:0:0:
272,176,241174,1,2,0:0:0:0:
272,176,241290,1,2,0:0:0:0:
272,176,241405,1,0,0:0:0:0:
272,176,241521,1,0,0:0:0:0:
272,176,241636,1,2,0:0:0:0:
272,176,241867,1,0,0:0:0:0:
272,176,241924,1,0,0:0:0:0:
272,176,241982,1,0,0:0:0:0:
272,176,242097,1,2,0:0:0:0:
272,176,242213,1,2,0:0:0:0:
272,176,242328,1,0,0:0:0:0:
272,176,242444,1,0,0:0:0:0:
272,176,242559,1,2,0:0:0:0:
272,176,242617,1,2,0:0:0:0:
272,176,242674,1,2,0:0:0:0:
272,176,242790,1,0,0:0:0:0:
256,176,243021,1,2,0:0:0:0:
272,176,243136,1,0,0:0:0:0:
272,176,243367,1,0,0:0:0:0:
272,176,243482,1,2,0:0:0:0:
272,160,243713,1,2,0:0:0:0:
272,160,243828,1,0,0:0:0:0:
272,160,243944,1,0,0:0:0:0:
272,160,244059,1,2,0:0:0:0:
272,160,244290,1,0,0:0:0:0:
272,160,244405,1,2,0:0:0:0:
272,160,244636,1,0,0:0:0:0:
272,160,244751,1,0,0:0:0:0:
272,160,244867,1,2,0:0:0:0:
272,160,244982,1,2,0:0:0:0:
272,160,245213,1,2,0:0:0:0:
272,160,245328,1,0,0:0:0:0:
288,160,245559,1,2,0:0:0:0:
272,160,245617,1,2,0:0:0:0:
272,160,245674,1,2,0:0:0:0:
288,160,245790,1,0,0:0:0:0:
288,160,245905,1,0,0:0:0:0:
288,160,246021,1,2,0:0:0:0:
288,160,246136,1,0,0:0:0:0:
288,160,246194,1,0,0:0:0:0:
288,160,246251,1,2,0:0:0:0:
288,160,246367,1,0,0:0:0:0:
256,192,246482,1,2,0:0:0:0:
272,192,246713,5,2,0:0:0:0:
256,192,246828,1,2,0:0:0:0:
256,192,246944,1,0,0:0:0:0:
256,192,247059,1,0,0:0:0:0:
256,192,247174,1,2,0:0:0:0:
272,176,247290,1,0,0:0:0:0:
272,176,247405,1,2,0:0:0:0:
272,176,247636,1,0,0:0:0:0:
272,176,247751,1,2,0:0:0:0:
272,176,247982,1,0,0:0:0:0:
272,176,248097,1,2,0:0:0:0:
272,176,248328,1,0,0:0:0:0:
272,176,248559,1,2,0:0:0:0:
272,176,248674,1,2,0:0:0:0:
272,176,248790,1,0,0:0:0:0:
272,176,248905,1,0,0:0:0:0:
272,176,249021,1,2,0:0:0:0:
272,176,249251,1,0,0:0:0:0:
272,176,249309,1,0,0:0:0:0:
272,176,249367,1,0,0:0:0:0:
272,176,249482,1,2,0:0:0:0:
272,176,249597,1,2,0:0:0:0:
272,176,249713,1,0,0:0:0:0:
272,176,249828,1,0,0:0:0:0:
272,176,249944,1,2,0:0:0:0:
272,176,250001,1,2,0:0:0:0:
272,176,250059,1,2,0:0:0:0:
272,176,250174,1,0,0:0:0:0:
256,176,250405,1,2,0:0:0:0:
272,176,250521,1,2,0:0:0:0:
272,176,250636,1,0,0:0:0:0:
272,176,250751,1,2,0:0:0:0:
272,176,250867,1,2,0:0:0:0:
272,160,251097,1,0,0:0:0:0:
272,176,251155,1,0,0:0:0:0:
272,160,251213,1,0,0:0:0:0:
272,160,251328,1,2,0:0:0:0:
272,160,251444,1,2,0:0:0:0:
272,160,251559,1,0,0:0:0:0:
272,160,251674,1,2,0:0:0:0:
272,160,251790,1,2,0:0:0:0:
272,160,252021,1,0,0:0:0:0:
272,160,252136,1,0,0:0:0:0:
272,160,252251,1,2,0:0:0:0:
272,160,252367,1,2,0:0:0:0:
272,160,252597,1,0,0:0:0:0:
272,160,252713,5,2,0:0:0:0:
288,160,252944,1,2,0:0:0:0:
272,160,253001,1,2,0:0:0:0:
272,160,253059,1,2,0:0:0:0:
288,160,253174,1,0,0:0:0:0:
288,160,253290,1,2,0:0:0:0:
288,160,253405,1,0,0:0:0:0:
288,160,253463,1,0,0:0:0:0:
288,160,253521,1,0,0:0:0:0:
288,160,253636,1,2,0:0:0:0:
256,192,253867,5,2,0:0:0:0:
253,180,253983,5,2,0:0:0:0:
253,180,254099,1,0,0:0:0:0:
253,180,254215,1,0,0:0:0:0:
253,180,254332,1,2,0:0:0:0:
250,184,254565,1,0,0:0:0:0:
252,184,254682,1,0,0:0:0:0:
252,184,254798,1,0,0:0:0:0:
252,184,254915,1,2,0:0:0:0:
252,184,255033,1,0,0:0:0:0:
250,184,255150,1,0,0:0:0:0:
250,184,255268,1,2,0:0:0:0:
252,184,255504,1,2,0:0:0:0:
252,184,255622,1,2,0:0:0:0:
257,180,255740,1,0,0:0:0:0:
257,180,255859,1,0,0:0:0:0:
257,180,255979,1,0,0:0:0:0:
257,180,256098,1,0,0:0:0:0:
257,180,256218,1,2,0:0:0:0:
257,180,256458,1,0,0:0:0:0:
257,180,256578,1,2,0:0:0:0:
257,180,256698,1,0,0:0:0:0:
257,180,256939,1,2,0:0:0:0:
257,180,257060,1,0,0:0:0:0:
257,180,257181,1,2,0:0:0:0:
257,180,257424,1,2,0:0:0:0:
257,180,257546,1,2,0:0:0:0:
257,180,257668,1,0,0:0:0:0:
257,180,257914,1,0,0:0:0:0:
257,180,258038,1,0,0:0:0:0:
257,180,258161,1,2,0:0:0:0:
257,180,258408,1,2,0:0:0:0:
257,180,258532,1,2,0:0:0:0:
257,180,258656,1,0,0:0:0:0:
257,180,258781,1,2,0:0:0:0:
257,180,258906,1,0,0:0:0:0:
257,180,259031,1,0,0:0:0:0:
257,180,259156,1,2,0:0:0:0:
257,180,259406,1,2,0:0:0:0:
257,180,259531,1,2,0:0:0:0:
257,180,259656,1,0,0:0:0:0:
261,180,259909,1,0,0:0:0:0:
261,180,260035,1,0,0:0:0:0:
261,180,260162,1,2,0:0:0:0:
261,180,260415,1,2,0:0:0:0:
261,180,260542,1,2,0:0:0:0:
261,180,260668,1,0,0:0:0:0:
261,180,260796,1,2,0:0:0:0:
261,180,260924,1,0,0:0:0:0:
261,180,261052,1,0,0:0:0:0:
261,180,261180,1,2,0:0:0:0:
261,180,261310,1,2,0:0:0:0:
261,180,261440,1,0,0:0:0:0:
261,180,261571,1,2,0:0:0:0:
261,180,261701,1,0,0:0:0:0:
255,182,261965,1,2,0:0:0:0:
255,182,262097,1,0,0:0:0:0:
254,182,262229,1,2,0:0:0:0:
254,179,262493,1,2,0:0:0:0:
254,179,262626,1,2,0:0:0:0:
255,182,262758,1,0,0:0:0:0:
254,182,263022,1,0,0:0:0:0:
254,179,263154,1,0,0:0:0:0:
254,179,263286,1,2,0:0:0:0:
255,182,263557,1,0,0:0:0:0:
254,177,263693,1,2,0:0:0:0:
254,177,263828,1,0,0:0:0:0:
254,179,264099,1,2,0:0:0:0:
254,177,264235,1,0,0:0:0:0:
254,177,264370,1,2,0:0:0:0:
254,179,264642,1,0,0:0:0:0:
254,179,264779,1,2,0:0:0:0:
254,177,264915,1,0,0:0:0:0:
254,177,265051,1,2,0:0:0:0:
254,177,265188,1,0,0:0:0:0:
254,177,265325,1,0,0:0:0:0:
254,179,265462,1,2,0:0:0:0:
254,177,265741,1,0,0:0:0:0:
254,177,266020,1,0,0:0:0:0:
254,179,266159,1,2,0:0:0:0:
254,177,266299,1,2,0:0:0:0:
254,177,266438,1,0,0:0:0:0:
253,182,266578,1,2,0:0:0:0:
254,179,266859,1,0,0:0:0:0:
254,179,267000,1,2,0:0:0:0:
254,177,267141,1,0,0:0:0:0:
253,182,267283,1,2,0:0:0:0:
254,177,267426,1,2,0:0:0:0:
254,177,267569,1,0,0:0:0:0:
254,179,267712,1,2,0:0:0:0:
254,177,267998,1,2,0:0:0:0:
253,182,268141,1,2,0:0:0:0:
254,177,268283,1,0,0:0:0:0:
254,179,268572,1,2,0:0:0:0:
254,177,268717,1,2,0:0:0:0:
253,182,268862,1,0,0:0:0:0:
254,177,269008,1,2,0:0:0:0:
254,179,269154,1,2,0:0:0:0:
254,179,269301,1,2,0:0:0:0:
254,177,269447,1,0,0:0:0:0:
254,177,269520,1,0,0:0:0:0:
253,182,269594,1,0,0:0:0:0:
254,177,269742,1,2,0:0:0:0:
254,179,269890,1,2,0:0:0:0:
254,179,270038,1,0,0:0:0:0:
254,177,270112,1,0,0:0:0:0:
254,177,270187,1,0,0:0:0:0:
254,177,270261,1,0,0:0:0:0:
253,182,270336,1,2,0:0:0:0:
254,177,270485,1,2,0:0:0:0:
