osu file format v14

[General]
AudioFilename: audio.mp3
AudioLeadIn: 0
PreviewTime: 209567
Countdown: 0
SampleSet: Normal
StackLeniency: 0.7
Mode: 1
LetterboxInBreaks: 0
WidescreenStoryboard: 0

[Editor]
Bookmarks: 239095
DistanceSpacing: 1
BeatDivisor: 12
GridSize: 16
TimelineZoom: 2.643999

[Metadata]
Title:Speed of Link
TitleUnicode:Speed of Link
Artist:antiPLUR
ArtistUnicode:antiPLUR
Creator:Nishizumi
Version:Futsuu
Source:osu!
Tags:featured artist fa chiptune Aaron Dictor Internet Death Machine 8-bit electronic instrumental
BeatmapID:2725801
BeatmapSetID:1142127

[Difficulty]
HPDrainRate:6
CircleSize:5
OverallDifficulty:4
ApproachRate:5
SliderMultiplier:1.2
SliderTickRate:1

[Events]
//Background and Video events
0,0,"Dark Curve Desktop Abstract Speed - 1920x1200.jpg",0,-90
//Break Periods
//Storyboard Layer 0 (Background)
//Storyboard Layer 1 (Fail)
//Storyboard Layer 2 (Pass)
//Storyboard Layer 3 (Foreground)
//Storyboard Layer 4 (Overlay)
//Storyboard Sound Samples

[TimingPoints]
162,250,4,1,0,70,1,0
16162,-100,4,1,0,70,0,1
48162,-100,4,1,0,70,0,0
175162,-100,4,1,0,70,0,0
175412,-99.7927450824952,4,1,0,70,0,0
175912,-99.3795229952553,4,1,0,70,0,0
176162,247.933884297521,4,1,0,70,1,0
176162,-100,4,1,0,70,0,0
177153,244.897959183673,4,1,0,70,1,0
177153,-100,4,1,0,70,0,0
177642,-98.2123685052698,4,1,0,70,0,0
177887,-97.3305723020291,4,1,0,70,0,0
178132,236.220472440945,4,1,0,70,1,0
178132,-100,4,1,0,70,0,0
178604,-97.0725343300812,4,1,0,70,0,0
179076,-94.2307692126479,4,1,0,70,0,0
180021,230.769230769231,4,1,0,70,1,1
224328,-100,4,1,0,70,0,0
250174,-100,4,1,0,70,0,0
250866,-100.144893239042,4,1,0,70,0,0
251097,-100.193237623823,4,1,0,70,0,0
251328,-100.241605346583,4,1,0,70,0,0
251559,-100.289996418591,4,1,0,70,0,0
251674,-100.314200714084,4,1,0,70,0,0
251789,-100.338410851117,4,1,0,70,0,0
252020,-100.386848655438,4,1,0,70,0,0
252482,-100.483794424602,4,1,0,70,0,0
252712,-100.532302412027,4,1,0,70,0,0
252943,-100.58083381641,4,1,0,70,0,0
253059,-100.605108303493,4,1,0,70,0,0
253174,-100.629388649056,4,1,0,70,0,0
253289,-100.653674854512,4,1,0,70,0,0
253405,-100.677966921275,4,1,0,70,0,0
253636,-100.726568644382,4,1,0,70,0,0
253866,-100.775193829698,4,1,0,70,0,0
253867,232.558139534884,4,1,0,70,1,0
253867,-100,4,1,0,70,0,0
254332,233.463035019456,4,1,0,70,1,8
254332,-100,4,1,0,70,0,0
254798,235.294117647059,4,1,0,70,1,0
254798,-100,4,1,0,70,0,0
255033,-100.196657042513,4,1,0,70,0,0
255268,236.220472440945,4,1,0,70,1,8
255268,-100,4,1,0,70,0,0
255740,239.043824701195,4,1,0,70,1,0
255740,-100,4,1,0,70,0,0
256218,240,4,1,0,70,1,8
256218,-100,4,1,0,70,0,0
256698,241.935483870968,4,1,0,70,1,0
256698,-100,4,1,0,70,0,0
256939,-100.405681172415,4,1,0,70,0,0
257181,243.902439024391,4,1,0,70,1,8
257181,-100,4,1,0,70,0,0
257424,-100.615390426233,4,1,0,70,0,0
257668,246.913580246914,4,1,0,70,1,0
257668,-100,4,1,0,70,0,0
257914,-100.206398551426,4,1,0,70,0,0
258161,247.933884297521,4,1,0,70,1,8
258161,-100,4,1,0,70,0,0
258656,250,4,1,0,70,1,0
258656,-100,4,1,0,70,0,0
258906,-100.314964529389,4,1,0,70,0,0
259156,-100.630921085326,4,1,0,70,0,0
259406,-100.947872792342,4,1,0,70,0,0
259656,253.164556962026,4,1,0,70,1,0
259656,-100,4,1,0,70,0,0
260162,-100.638984145128,4,1,0,70,0,0
260668,256.410256410257,4,1,0,70,1,0
260668,-100,4,1,0,70,0,0
260924,-100.865817016991,4,1,0,70,0,0
261180,260.869565217392,4,1,0,70,1,8
261440,-100.658624010217,4,1,0,70,0,0
261701,264.317180616741,4,1,0,70,1,0
261701,-100,4,1,0,70,0,0
262229,-100.896908867749,4,1,0,70,0,0
262758,-101.801862190668,4,1,0,70,0,0
263022,-102.257378044929,4,1,0,70,0,0
263286,271.493212669684,4,1,0,70,1,8
263286,-100,4,1,0,70,0,0
263557,-100.113443180355,4,1,0,70,0,0
263828,271.493212669684,4,1,0,70,1,0
263828,-100.227015054263,4,1,0,70,0,0
264099,-100.340715767716,4,1,0,70,0,0
264370,272.727272727273,4,1,0,70,1,8
264370,-100,4,1,0,70,0,0
264915,273.972602739726,4,1,0,70,1,0
264915,-100,4,1,0,70,0,0
265188,-100.925945671729,4,1,0,70,0,0
265462,279.069767441861,4,1,0,70,1,8
265462,-100,4,1,0,70,0,0
265741,-100.233919737327,4,1,0,70,0,0
266020,279.069767441861,4,1,0,70,1,0
266020,-100.468386659088,4,1,0,70,0,0
266299,-100.703402045257,4,1,0,70,0,0
266578,281.690140845071,4,1,0,70,1,8
266578,-100,4,1,0,70,0,0
266859,-100.711752752211,4,1,0,70,0,0
267141,285.714285714286,4,1,0,70,1,0
267141,-100,4,1,0,70,0,0
267283,-100.180021058229,4,1,0,70,0,0
267426,-100.360366192272,4,1,0,70,0,0
267712,-100.72203102247,4,1,0,70,0,0
268283,289.855072463769,4,1,0,70,1,0
268283,-100,4,1,0,70,0,0
268572,-100.486620891396,4,1,0,70,0,0
268862,292.682926829269,4,1,0,70,1,8
268862,-100,4,1,0,70,0,0
269154,-100.491403472958,4,1,0,70,0,0
269447,295.566502463055,4,1,0,70,1,0
269594,-100.247833381368,4,1,0,70,0,0
269742,-100.496280976585,4,1,0,70,0,0
270038,298.507462686568,4,1,0,70,1,8
270038,-100,4,1,0,70,0,0
270336,-100.24968825977,4,1,0,70,0,0
270485,-100.374766083306,4,1,0,70,0,0

[HitObjects]
256,192,162,5,0,0:0:0:0:
256,192,912,1,2,0:0:0:0:
256,192,1162,1,2,0:0:0:0:
256,192,1537,1,0,0:0:0:0:
256,192,1912,1,2,0:0:0:0:
256,192,2162,1,0,0:0:0:0:
256,192,2912,1,0,0:0:0:0:
256,192,3162,1,0,0:0:0:0:
256,192,3912,1,2,0:0:0:0:
256,192,4162,1,0,0:0:0:0:
256,192,5162,1,2,0:0:0:0:
256,192,5537,1,2,0:0:0:0:
256,192,5912,1,2,0:0:0:0:
256,192,6162,1,0,0:0:0:0:
256,192,6662,1,0,0:0:0:0:
256,192,7162,1,2,0:0:0:0:
256,192,7412,1,0,0:0:0:0:
257,186,7662,1,2,0:0:0:0:
256,192,8162,5,0,0:0:0:0:
256,192,9162,1,0,0:0:0:0:
256,192,9662,1,2,0:0:0:0:
256,192,9912,1,2,0:0:0:0:
256,192,10162,1,0,0:0:0:0:
256,192,10912,1,2,0:0:0:0:
256,192,11162,1,0,0:0:0:0:
256,192,11662,1,0,0:0:0:0:
256,192,11912,1,2,0:0:0:0:
256,192,12162,1,0,0:0:0:0:
256,192,13162,1,0,0:0:0:0:
256,192,13662,1,2,0:0:0:0:
256,192,13912,1,2,0:0:0:0:
256,192,14162,1,0,0:0:0:0:
256,192,14662,1,0,0:0:0:0:
256,192,15162,1,2,0:0:0:0:
256,176,15412,1,0,0:0:0:0:
256,192,15662,1,2,0:0:0:0:
256,192,16162,5,0,0:0:0:0:
256,192,16912,1,2,0:0:0:0:
256,192,17162,1,0,0:0:0:0:
256,192,17662,1,0,0:0:0:0:
256,192,17787,1,0,0:0:0:0:
256,192,17912,1,2,0:0:0:0:
256,192,18162,1,0,0:0:0:0:
256,192,18787,1,0,0:0:0:0:
256,192,18912,1,2,0:0:0:0:
256,192,19162,1,0,0:0:0:0:
256,192,19412,1,2,0:0:0:0:
256,192,19537,1,2,0:0:0:0:
256,192,19662,1,0,0:0:0:0:
256,192,19912,1,2,0:0:0:0:
256,192,20162,1,0,0:0:0:0:
256,192,20912,1,2,0:0:0:0:
256,192,21162,1,0,0:0:0:0:
256,192,21662,1,0,0:0:0:0:
256,192,21787,1,0,0:0:0:0:
256,192,21912,1,0,0:0:0:0:
256,192,22162,1,2,0:0:0:0:
256,192,22787,1,0,0:0:0:0:
256,192,22912,1,2,0:0:0:0:
256,192,23162,1,0,0:0:0:0:
256,192,23412,1,2,0:0:0:0:
256,192,23537,1,2,0:0:0:0:
256,192,23662,1,0,0:0:0:0:
256,192,23787,1,0,0:0:0:0:
256,192,23912,1,2,0:0:0:0:
256,192,24162,5,0,0:0:0:0:
256,192,24912,1,2,0:0:0:0:
256,192,25162,1,0,0:0:0:0:
256,192,25662,1,0,0:0:0:0:
256,192,25787,1,0,0:0:0:0:
256,192,25912,1,2,0:0:0:0:
256,192,26162,1,0,0:0:0:0:
256,192,26787,1,0,0:0:0:0:
256,192,26912,1,2,0:0:0:0:
256,192,27162,1,0,0:0:0:0:
256,192,27412,1,2,0:0:0:0:
256,192,27537,1,2,0:0:0:0:
256,192,27662,1,0,0:0:0:0:
256,192,27912,1,2,0:0:0:0:
256,192,28162,1,0,0:0:0:0:
256,192,28912,1,2,0:0:0:0:
256,192,29162,1,0,0:0:0:0:
256,192,29662,1,0,0:0:0:0:
256,192,29787,1,0,0:0:0:0:
256,192,29912,1,0,0:0:0:0:
256,192,30162,1,2,0:0:0:0:
256,192,30787,1,0,0:0:0:0:
256,192,30912,1,2,0:0:0:0:
256,192,31162,1,0,0:0:0:0:
256,192,31412,1,2,0:0:0:0:
256,192,31537,1,2,0:0:0:0:
256,192,31662,1,0,0:0:0:0:
256,192,31787,5,0,0:0:0:0:
256,192,31912,1,2,0:0:0:0:
256,192,32162,5,0,0:0:0:0:
256,192,32912,5,2,0:0:0:0:
256,192,33162,1,2,0:0:0:0:
256,192,33537,1,2,0:0:0:0:
256,192,33787,1,0,0:0:0:0:
256,192,33912,1,2,0:0:0:0:
256,192,34162,1,0,0:0:0:0:
256,192,34662,1,0,0:0:0:0:
256,192,34912,1,2,0:0:0:0:
256,192,35162,1,0,0:0:0:0:
256,192,35662,1,0,0:0:0:0:
256,192,35912,1,2,0:0:0:0:
256,192,36037,1,2,0:0:0:0:
256,192,36162,1,0,0:0:0:0:
256,192,36912,1,2,0:0:0:0:
256,192,37162,1,0,0:0:0:0:
256,192,37537,1,2,0:0:0:0:
256,192,37787,1,0,0:0:0:0:
256,192,37912,1,2,0:0:0:0:
256,192,38162,1,0,0:0:0:0:
256,176,38662,1,0,0:0:0:0:
256,192,38912,1,2,0:0:0:0:
256,192,39162,1,2,0:0:0:0:
256,192,39287,1,2,0:0:0:0:
256,192,39412,1,0,0:0:0:0:
272,192,39662,1,2,0:0:0:0:
256,192,39912,1,0,0:0:0:0:
256,192,40037,1,2,0:0:0:0:
256,192,40162,5,0,0:0:0:0:
256,192,40912,5,2,0:0:0:0:
256,192,41162,1,2,0:0:0:0:
256,192,41537,1,2,0:0:0:0:
256,192,41787,1,0,0:0:0:0:
256,192,41912,1,2,0:0:0:0:
256,192,42162,1,0,0:0:0:0:
256,192,42662,1,0,0:0:0:0:
256,192,42912,1,2,0:0:0:0:
256,192,43162,1,0,0:0:0:0:
256,192,43662,1,0,0:0:0:0:
256,192,43912,1,2,0:0:0:0:
256,192,44037,1,2,0:0:0:0:
256,192,44162,1,0,0:0:0:0:
256,192,44912,1,2,0:0:0:0:
256,192,45162,1,0,0:0:0:0:
256,192,45537,1,2,0:0:0:0:
256,192,45787,1,0,0:0:0:0:
256,192,45912,1,2,0:0:0:0:
256,192,46162,1,0,0:0:0:0:
256,176,46662,1,0,0:0:0:0:
256,192,46912,1,2,0:0:0:0:
256,192,47162,1,2,0:0:0:0:
256,192,47287,1,2,0:0:0:0:
256,192,47412,1,0,0:0:0:0:
272,192,47662,5,2,0:0:0:0:
256,192,47912,1,0,0:0:0:0:
256,192,48037,1,0,0:0:0:0:
256,192,48162,5,2,0:0:0:0:
256,192,48912,1,0,0:0:0:0:
256,192,49162,1,2,0:0:0:0:
256,176,49537,1,0,0:0:0:0:
256,176,49662,1,2,0:0:0:0:
256,178,49912,1,0,0:0:0:0:
256,176,50162,1,2,0:0:0:0:
256,192,50662,1,0,0:0:0:0:
256,192,50912,1,0,0:0:0:0:
256,192,51162,1,2,0:0:0:0:
256,192,51537,1,0,0:0:0:0:
256,176,51662,1,2,0:0:0:0:
256,176,51912,1,2,0:0:0:0:
256,176,52162,1,0,0:0:0:0:
256,176,52912,1,2,0:0:0:0:
256,176,53162,1,0,0:0:0:0:
256,176,53537,1,2,0:0:0:0:
256,176,53662,1,0,0:0:0:0:
256,176,53912,1,0,0:0:0:0:
256,176,54162,1,2,0:0:0:0:
256,176,54662,1,0,0:0:0:0:
256,176,54912,1,2,0:0:0:0:
256,176,55162,1,0,0:0:0:0:
256,176,55412,1,2,0:0:0:0:
256,176,55662,1,0,0:0:0:0:
256,176,55787,1,0,0:0:0:0:
256,176,55912,1,0,0:0:0:0:
256,176,56162,1,2,0:0:0:0:
256,192,56912,1,0,0:0:0:0:
256,192,57162,1,2,0:0:0:0:
256,176,57537,1,0,0:0:0:0:
256,176,57662,1,2,0:0:0:0:
256,178,57912,1,0,0:0:0:0:
256,176,58162,1,2,0:0:0:0:
256,192,58662,1,0,0:0:0:0:
256,192,58912,1,0,0:0:0:0:
256,192,59162,1,2,0:0:0:0:
256,192,59537,1,0,0:0:0:0:
256,176,59662,1,2,0:0:0:0:
256,176,59912,1,2,0:0:0:0:
256,176,60162,1,0,0:0:0:0:
256,176,60912,1,2,0:0:0:0:
256,176,61162,1,0,0:0:0:0:
256,176,61537,1,2,0:0:0:0:
256,176,61662,1,0,0:0:0:0:
256,176,61912,1,0,0:0:0:0:
256,176,62162,5,2,0:0:0:0:
256,192,62662,1,0,0:0:0:0:
256,176,62912,1,2,0:0:0:0:
256,192,63162,12,0,63912,0:0:0:0:
256,176,64162,5,0,0:0:0:0:
256,176,64661,5,2,0:0:0:0:
256,176,65161,1,0,0:0:0:0:
256,176,66162,1,0,0:0:0:0:
256,176,66662,1,2,0:0:0:0:
256,176,67162,1,0,0:0:0:0:
256,176,67412,1,0,0:0:0:0:
256,176,67662,1,2,0:0:0:0:
256,176,67912,1,0,0:0:0:0:
256,176,68162,1,0,0:0:0:0:
256,176,68662,1,2,0:0:0:0:
256,176,69162,1,0,0:0:0:0:
256,176,70162,1,0,0:0:0:0:
256,176,70662,1,2,0:0:0:0:
256,176,71162,1,0,0:0:0:0:
256,176,71412,1,0,0:0:0:0:
256,176,71662,1,2,0:0:0:0:
256,176,71912,1,2,0:0:0:0:
256,176,72162,1,0,0:0:0:0:
256,176,72662,1,2,0:0:0:0:
256,176,73162,1,0,0:0:0:0:
256,176,74162,1,0,0:0:0:0:
256,176,74662,1,2,0:0:0:0:
256,176,75162,1,0,0:0:0:0:
256,176,75412,1,0,0:0:0:0:
256,176,75662,1,2,0:0:0:0:
256,176,75912,1,0,0:0:0:0:
256,176,76162,1,0,0:0:0:0:
256,176,76662,1,2,0:0:0:0:
256,176,77162,1,0,0:0:0:0:
256,176,77912,1,0,0:0:0:0:
256,176,78162,1,0,0:0:0:0:
256,176,78662,1,2,0:0:0:0:
256,176,79162,1,0,0:0:0:0:
256,176,79412,5,0,0:0:0:0:
256,176,79662,1,2,0:0:0:0:
256,176,79912,1,0,0:0:0:0:
256,176,80162,1,2,0:0:0:0:
256,176,80662,1,0,0:0:0:0:
256,176,81162,1,2,0:0:0:0:
256,176,82162,1,0,0:0:0:0:
256,176,82662,1,2,0:0:0:0:
256,176,83162,1,0,0:0:0:0:
256,176,83412,1,0,0:0:0:0:
256,176,83662,1,2,0:0:0:0:
256,176,84162,1,0,0:0:0:0:
256,176,84662,1,2,0:0:0:0:
256,176,85412,1,0,0:0:0:0:
256,176,85662,1,2,0:0:0:0:
256,176,86162,1,0,0:0:0:0:
255,181,86662,1,2,0:0:0:0:
256,176,87162,1,0,0:0:0:0:
255,181,87412,1,0,0:0:0:0:
256,176,87662,1,2,0:0:0:0:
256,176,88162,1,2,0:0:0:0:
256,176,88662,1,0,0:0:0:0:
256,176,89162,1,2,0:0:0:0:
256,176,90162,1,0,0:0:0:0:
256,176,90662,1,2,0:0:0:0:
256,176,91162,1,0,0:0:0:0:
256,176,91412,1,0,0:0:0:0:
256,176,91662,1,2,0:0:0:0:
256,176,92162,1,0,0:0:0:0:
256,176,92662,1,2,0:0:0:0:
256,176,93412,1,0,0:0:0:0:
256,176,93662,1,2,0:0:0:0:
256,176,94162,1,0,0:0:0:0:
255,181,94662,1,2,0:0:0:0:
256,176,95162,1,0,0:0:0:0:
255,181,95412,1,0,0:0:0:0:
256,176,95662,5,2,0:0:0:0:
256,176,96162,1,2,0:0:0:0:
256,176,96662,1,0,0:0:0:0:
256,176,97162,1,2,0:0:0:0:
256,176,98162,1,2,0:0:0:0:
256,176,98662,1,2,0:0:0:0:
256,176,98912,1,0,0:0:0:0:
256,176,99162,1,2,0:0:0:0:
256,176,99662,1,2,0:0:0:0:
256,176,99912,1,2,0:0:0:0:
256,176,100162,1,0,0:0:0:0:
256,176,100662,1,2,0:0:0:0:
256,176,101162,1,0,0:0:0:0:
256,176,102162,1,0,0:0:0:0:
256,176,102662,1,0,0:0:0:0:
256,176,102912,1,0,0:0:0:0:
256,176,103162,5,2,0:0:0:0:
256,176,103662,1,2,0:0:0:0:
256,176,103912,1,0,0:0:0:0:
256,176,104162,1,2,0:0:0:0:
256,176,104662,1,0,0:0:0:0:
256,176,105162,1,2,0:0:0:0:
256,176,106162,1,2,0:0:0:0:
256,176,106662,1,2,0:0:0:0:
256,176,106912,1,0,0:0:0:0:
256,176,107162,1,2,0:0:0:0:
256,176,107662,1,2,0:0:0:0:
256,176,107912,1,2,0:0:0:0:
256,176,108162,1,0,0:0:0:0:
256,176,108662,1,2,0:0:0:0:
256,176,109162,1,0,0:0:0:0:
256,176,110162,1,0,0:0:0:0:
256,176,110662,1,0,0:0:0:0:
256,176,110912,1,0,0:0:0:0:
256,176,111162,5,2,0:0:0:0:
256,176,111662,1,2,0:0:0:0:
256,176,111912,1,0,0:0:0:0:
256,176,112162,1,2,0:0:0:0:
256,160,113162,1,0,0:0:0:0:
256,160,113662,1,2,0:0:0:0:
256,160,114162,1,0,0:0:0:0:
256,160,114412,1,0,0:0:0:0:
256,160,114662,1,2,0:0:0:0:
256,160,115037,1,0,0:0:0:0:
256,160,115412,1,0,0:0:0:0:
256,160,115662,1,2,0:0:0:0:
256,160,116162,1,0,0:0:0:0:
256,160,117162,1,0,0:0:0:0:
256,160,117662,1,2,0:0:0:0:
256,160,117912,1,2,0:0:0:0:
256,160,118162,1,0,0:0:0:0:
256,160,118662,1,2,0:0:0:0:
256,160,118912,1,0,0:0:0:0:
256,160,119412,1,2,0:0:0:0:
256,160,119662,1,0,0:0:0:0:
256,160,119912,1,2,0:0:0:0:
256,160,120162,1,2,0:0:0:0:
256,160,121162,1,0,0:0:0:0:
256,160,121662,1,2,0:0:0:0:
256,160,122162,1,0,0:0:0:0:
256,160,122412,1,0,0:0:0:0:
256,160,122662,1,2,0:0:0:0:
256,160,123037,1,0,0:0:0:0:
256,160,123412,1,0,0:0:0:0:
256,160,123662,1,2,0:0:0:0:
256,160,123912,1,2,0:0:0:0:
256,160,124162,1,0,0:0:0:0:
256,160,125162,1,0,0:0:0:0:
256,160,125662,1,2,0:0:0:0:
256,176,126162,1,0,0:0:0:0:
256,160,126662,1,0,0:0:0:0:
272,160,126912,1,2,0:0:0:0:
256,160,127162,1,2,0:0:0:0:
272,160,127412,1,0,0:0:0:0:
272,160,127662,1,0,0:0:0:0:
272,160,127912,1,2,0:0:0:0:
256,176,128162,1,2,0:0:0:0:
256,160,128661,1,2,0:0:0:0:
256,160,129036,1,0,0:0:0:0:
256,160,129411,1,0,0:0:0:0:
256,160,129661,1,2,0:0:0:0:
256,160,130161,1,0,0:0:0:0:
256,160,130411,1,0,0:0:0:0:
256,160,130661,1,2,0:0:0:0:
256,160,131036,1,0,0:0:0:0:
256,160,131412,1,0,0:0:0:0:
256,160,131662,1,2,0:0:0:0:
256,160,131912,1,2,0:0:0:0:
256,160,132162,1,0,0:0:0:0:
256,160,132662,1,2,0:0:0:0:
256,160,132912,1,0,0:0:0:0:
256,160,133412,1,0,0:0:0:0:
256,160,133662,1,2,0:0:0:0:
256,160,134162,1,0,0:0:0:0:
256,160,134662,1,2,0:0:0:0:
256,160,134912,1,0,0:0:0:0:
256,160,135162,1,0,0:0:0:0:
256,160,135412,1,2,0:0:0:0:
256,160,135912,1,2,0:0:0:0:
256,176,136162,1,2,0:0:0:0:
256,160,136662,1,2,0:0:0:0:
256,161,137037,1,0,0:0:0:0:
256,160,137412,1,0,0:0:0:0:
256,160,137662,1,2,0:0:0:0:
256,160,138162,1,0,0:0:0:0:
256,160,138412,1,0,0:0:0:0:
256,160,138662,1,2,0:0:0:0:
256,160,139037,1,0,0:0:0:0:
256,160,139412,1,0,0:0:0:0:
256,160,139662,1,2,0:0:0:0:
256,160,140162,1,0,0:0:0:0:
256,160,141162,1,0,0:0:0:0:
256,160,141662,1,2,0:0:0:0:
256,160,141912,1,2,0:0:0:0:
256,160,142162,1,0,0:0:0:0:
256,160,142662,1,2,0:0:0:0:
256,160,142912,1,2,0:0:0:0:
256,160,143162,1,0,0:0:0:0:
256,160,143412,1,2,0:0:0:0:
256,160,143912,1,2,0:0:0:0:
256,160,144162,1,0,0:0:0:0:
256,160,145162,1,0,0:0:0:0:
256,176,145662,1,2,0:0:0:0:
256,160,146162,1,0,0:0:0:0:
256,160,146412,1,0,0:0:0:0:
256,160,146662,1,2,0:0:0:0:
256,160,147162,1,0,0:0:0:0:
256,176,147662,1,2,0:0:0:0:
256,176,147912,1,2,0:0:0:0:
256,160,148162,1,0,0:0:0:0:
272,160,148662,1,2,0:0:0:0:
256,160,149162,1,0,0:0:0:0:
272,160,149412,1,2,0:0:0:0:
258,173,149662,1,0,0:0:0:0:
256,176,150162,1,0,0:0:0:0:
272,160,150412,1,2,0:0:0:0:
254,173,150662,1,2,0:0:0:0:
272,160,150912,1,2,0:0:0:0:
256,160,151162,1,0,0:0:0:0:
272,160,151412,1,0,0:0:0:0:
272,160,151912,1,2,0:0:0:0:
256,176,152162,1,0,0:0:0:0:
272,160,152662,1,2,0:0:0:0:
272,160,153162,1,0,0:0:0:0:
288,160,153412,1,2,0:0:0:0:
272,160,153912,1,2,0:0:0:0:
272,160,154162,1,0,0:0:0:0:
272,160,154662,1,2,0:0:0:0:
272,160,154912,1,2,0:0:0:0:
272,160,155162,1,0,0:0:0:0:
256,176,155412,1,0,0:0:0:0:
256,160,155912,1,2,0:0:0:0:
256,160,156162,1,0,0:0:0:0:
256,160,156662,1,2,0:0:0:0:
256,160,156912,1,2,0:0:0:0:
256,160,157162,1,0,0:0:0:0:
256,160,157412,1,0,0:0:0:0:
256,160,157662,1,2,0:0:0:0:
256,160,157912,1,2,0:0:0:0:
256,160,158162,1,0,0:0:0:0:
256,160,158662,1,2,0:0:0:0:
256,160,158912,1,2,0:0:0:0:
256,160,159162,1,0,0:0:0:0:
256,160,159412,1,2,0:0:0:0:
256,160,159912,1,2,0:0:0:0:
256,160,160162,1,0,0:0:0:0:
256,160,161162,1,0,0:0:0:0:
256,176,161662,1,2,0:0:0:0:
256,160,162162,1,0,0:0:0:0:
256,160,162412,1,0,0:0:0:0:
256,160,162662,1,2,0:0:0:0:
256,160,163162,1,0,0:0:0:0:
256,176,163662,1,2,0:0:0:0:
256,176,163912,1,2,0:0:0:0:
256,160,164162,1,0,0:0:0:0:
272,160,164662,1,2,0:0:0:0:
256,160,165162,1,0,0:0:0:0:
272,160,165412,1,2,0:0:0:0:
258,173,165662,1,0,0:0:0:0:
256,176,166162,1,0,0:0:0:0:
272,160,166412,1,2,0:0:0:0:
254,173,166662,1,2,0:0:0:0:
272,160,166912,1,2,0:0:0:0:
256,160,167162,1,0,0:0:0:0:
272,160,167412,1,0,0:0:0:0:
272,160,167912,1,2,0:0:0:0:
256,176,168162,1,0,0:0:0:0:
272,160,168662,1,2,0:0:0:0:
272,160,169162,1,0,0:0:0:0:
288,160,169412,1,2,0:0:0:0:
272,160,169912,1,2,0:0:0:0:
272,160,170162,1,0,0:0:0:0:
272,160,170662,1,2,0:0:0:0:
272,160,170912,1,2,0:0:0:0:
272,160,171162,1,0,0:0:0:0:
256,176,171412,1,0,0:0:0:0:
256,160,171912,1,2,0:0:0:0:
256,160,172162,1,0,0:0:0:0:
256,160,172662,1,2,0:0:0:0:
256,160,172912,1,2,0:0:0:0:
256,160,173162,1,0,0:0:0:0:
256,160,173412,1,0,0:0:0:0:
256,160,173662,1,2,0:0:0:0:
256,160,173912,1,2,0:0:0:0:
256,160,174162,1,0,0:0:0:0:
256,160,174662,1,2,0:0:0:0:
256,160,174912,1,2,0:0:0:0:
256,160,175162,1,0,0:0:0:0:
256,160,175412,1,2,0:0:0:0:
256,160,175912,1,2,0:0:0:0:
256,176,176162,1,0,0:0:0:0:
256,160,177153,1,2,0:0:0:0:
256,160,177642,1,0,0:0:0:0:
256,160,177887,1,0,0:0:0:0:
256,160,178132,5,2,0:0:0:0:
256,160,178604,1,0,0:0:0:0:
256,160,179076,1,2,0:0:0:0:
256,192,180021,5,0,0:0:0:0:
272,176,180713,1,2,0:0:0:0:
261,182,180828,1,0,0:0:0:0:
272,176,180944,1,2,0:0:0:0:
272,176,181290,1,2,0:0:0:0:
272,176,181521,1,0,0:0:0:0:
272,176,181636,1,2,0:0:0:0:
272,176,181867,1,0,0:0:0:0:
272,176,182559,1,2,0:0:0:0:
274,184,182674,1,2,0:0:0:0:
272,176,182790,1,0,0:0:0:0:
272,176,183021,1,2,0:0:0:0:
261,188,183251,1,0,0:0:0:0:
288,176,183367,1,0,0:0:0:0:
272,176,183482,1,2,0:0:0:0:
272,176,183713,1,0,0:0:0:0:
272,160,184290,1,0,0:0:0:0:
272,160,184636,1,0,0:0:0:0:
272,160,184982,1,2,0:0:0:0:
288,160,185213,1,2,0:0:0:0:
272,176,185328,1,2,0:0:0:0:
272,176,185559,1,0,0:0:0:0:
272,176,185790,1,2,0:0:0:0:
272,176,186136,1,0,0:0:0:0:
272,176,186251,1,0,0:0:0:0:
272,176,186482,1,2,0:0:0:0:
272,176,186713,1,0,0:0:0:0:
272,176,186828,1,0,0:0:0:0:
272,176,186944,1,2,0:0:0:0:
272,176,187174,1,0,0:0:0:0:
256,192,187405,5,0,0:0:0:0:
272,176,188097,1,2,0:0:0:0:
261,182,188213,1,0,0:0:0:0:
272,176,188328,1,2,0:0:0:0:
272,176,188674,1,2,0:0:0:0:
272,176,188905,1,0,0:0:0:0:
272,176,189021,1,2,0:0:0:0:
272,176,189251,1,0,0:0:0:0:
272,176,189944,1,2,0:0:0:0:
274,184,190059,1,2,0:0:0:0:
272,176,190174,1,0,0:0:0:0:
272,176,190405,1,2,0:0:0:0:
261,188,190636,1,0,0:0:0:0:
288,176,190751,1,0,0:0:0:0:
272,176,190867,1,2,0:0:0:0:
272,176,191097,1,0,0:0:0:0:
272,160,191674,1,0,0:0:0:0:
272,160,192021,1,0,0:0:0:0:
272,160,192367,1,2,0:0:0:0:
288,160,192597,1,2,0:0:0:0:
272,176,192713,1,2,0:0:0:0:
272,176,192944,1,0,0:0:0:0:
272,176,193174,1,2,0:0:0:0:
272,176,193521,1,0,0:0:0:0:
272,176,193636,1,0,0:0:0:0:
272,176,193867,5,2,0:0:0:0:
272,176,194097,1,0,0:0:0:0:
272,176,194213,1,0,0:0:0:0:
272,176,194328,1,2,0:0:0:0:
272,176,194559,1,0,0:0:0:0:
256,192,194790,5,2,0:0:0:0:
272,176,195136,1,2,0:0:0:0:
272,176,195251,1,2,0:0:0:0:
288,160,195482,1,0,0:0:0:0:
288,160,195713,1,2,0:0:0:0:
268,172,196059,1,0,0:0:0:0:
272,169,196174,1,0,0:0:0:0:
272,176,196405,1,0,0:0:0:0:
272,176,196636,1,2,0:0:0:0:
288,176,197097,1,0,0:0:0:0:
288,176,197328,1,2,0:0:0:0:
288,176,197559,1,2,0:0:0:0:
276,181,197790,1,0,0:0:0:0:
288,176,198021,1,0,0:0:0:0:
272,176,198136,1,0,0:0:0:0:
288,176,198251,1,2,0:0:0:0:
288,176,198482,1,0,0:0:0:0:
288,192,199174,1,2,0:0:0:0:
288,192,199405,1,0,0:0:0:0:
288,192,199636,1,2,0:0:0:0:
288,192,199867,1,0,0:0:0:0:
288,192,199982,1,0,0:0:0:0:
288,192,200097,1,0,0:0:0:0:
288,192,200328,1,2,0:0:0:0:
272,192,200674,1,0,0:0:0:0:
272,192,200790,1,2,0:0:0:0:
272,192,201021,1,2,0:0:0:0:
272,192,201251,1,0,0:0:0:0:
272,192,201597,1,0,0:0:0:0:
272,192,201713,1,2,0:0:0:0:
272,192,201944,1,0,0:0:0:0:
256,192,202174,5,2,0:0:0:0:
272,176,202521,1,2,0:0:0:0:
272,176,202636,1,2,0:0:0:0:
288,160,202867,1,0,0:0:0:0:
288,160,203097,1,2,0:0:0:0:
268,172,203444,1,0,0:0:0:0:
272,169,203559,1,0,0:0:0:0:
272,176,203790,1,0,0:0:0:0:
272,176,204021,1,2,0:0:0:0:
288,176,204482,1,0,0:0:0:0:
288,176,204713,1,2,0:0:0:0:
288,176,204944,1,2,0:0:0:0:
276,181,205174,1,0,0:0:0:0:
288,176,205405,1,0,0:0:0:0:
272,176,205521,1,0,0:0:0:0:
288,176,205636,1,2,0:0:0:0:
288,176,205867,1,0,0:0:0:0:
288,192,206559,1,2,0:0:0:0:
288,192,206790,1,0,0:0:0:0:
288,192,207021,1,2,0:0:0:0:
288,192,207251,1,0,0:0:0:0:
288,192,207367,1,0,0:0:0:0:
288,192,207482,1,0,0:0:0:0:
288,192,207713,1,2,0:0:0:0:
272,192,208059,1,0,0:0:0:0:
272,192,208174,1,2,0:0:0:0:
272,192,208405,1,0,0:0:0:0:
272,192,208636,1,2,0:0:0:0:
272,192,208982,5,0,0:0:0:0:
272,192,209097,1,2,0:0:0:0:
272,192,209328,1,0,0:0:0:0:
272,176,209559,5,2,0:0:0:0:
258,198,210021,1,0,0:0:0:0:
252,195,210251,1,0,0:0:0:0:
254,191,210482,1,2,0:0:0:0:
254,190,210713,1,0,0:0:0:0:
257,193,210828,1,0,0:0:0:0:
259,192,210944,1,2,0:0:0:0:
259,192,211174,1,2,0:0:0:0:
259,192,211405,1,0,0:0:0:0:
281,187,211867,1,0,0:0:0:0:
264,191,212097,1,2,0:0:0:0:
264,191,212328,1,0,0:0:0:0:
264,191,212444,1,0,0:0:0:0:
264,191,212559,1,2,0:0:0:0:
264,191,212790,1,0,0:0:0:0:
264,191,213021,1,2,0:0:0:0:
264,191,213136,1,0,0:0:0:0:
264,191,213251,1,2,0:0:0:0:
264,191,213944,1,2,0:0:0:0:
264,191,214174,1,0,0:0:0:0:
266,186,214405,1,0,0:0:0:0:
271,188,214521,1,0,0:0:0:0:
265,186,214636,1,0,0:0:0:0:
271,188,214867,1,0,0:0:0:0:
271,188,215097,1,2,0:0:0:0:
265,191,215328,1,2,0:0:0:0:
265,191,215559,1,0,0:0:0:0:
267,195,215790,1,0,0:0:0:0:
265,191,216021,1,2,0:0:0:0:
265,191,216136,1,2,0:0:0:0:
265,191,216251,1,0,0:0:0:0:
268,187,216367,1,0,0:0:0:0:
268,186,216482,1,2,0:0:0:0:
268,186,216713,1,0,0:0:0:0:
272,176,216944,5,2,0:0:0:0:
258,198,217405,1,0,0:0:0:0:
252,195,217636,1,0,0:0:0:0:
254,191,217867,1,2,0:0:0:0:
254,190,218097,1,0,0:0:0:0:
257,193,218213,1,0,0:0:0:0:
259,192,218328,1,2,0:0:0:0:
259,192,218559,1,2,0:0:0:0:
259,192,218790,1,0,0:0:0:0:
281,187,219251,1,0,0:0:0:0:
264,191,219482,1,2,0:0:0:0:
264,191,219713,1,0,0:0:0:0:
264,191,219828,1,0,0:0:0:0:
264,191,219944,1,2,0:0:0:0:
264,191,220174,1,0,0:0:0:0:
264,191,220405,1,2,0:0:0:0:
264,191,220521,1,0,0:0:0:0:
264,191,220636,1,2,0:0:0:0:
264,191,221328,1,2,0:0:0:0:
264,191,221559,1,0,0:0:0:0:
266,186,221790,1,0,0:0:0:0:
271,188,221905,1,0,0:0:0:0:
265,186,222021,1,0,0:0:0:0:
271,188,222251,1,0,0:0:0:0:
271,188,222482,1,2,0:0:0:0:
265,191,222713,1,2,0:0:0:0:
265,191,222944,1,0,0:0:0:0:
267,195,223174,1,0,0:0:0:0:
265,191,223405,1,2,0:0:0:0:
265,191,223521,1,2,0:0:0:0:
265,191,223636,5,0,0:0:0:0:
268,187,223751,1,0,0:0:0:0:
268,186,223867,1,2,0:0:0:0:
268,186,224097,1,0,0:0:0:0:
256,192,224328,5,2,0:0:0:0:
272,192,225021,1,2,0:0:0:0:
272,192,225251,1,0,0:0:0:0:
272,192,225482,1,2,0:0:0:0:
272,192,225713,1,0,0:0:0:0:
272,192,225828,1,0,0:0:0:0:
272,192,225944,1,2,0:0:0:0:
272,192,226174,1,0,0:0:0:0:
272,192,226867,1,2,0:0:0:0:
272,192,227097,1,0,0:0:0:0:
256,192,227328,1,2,0:0:0:0:
261,196,227444,1,0,0:0:0:0:
272,192,227674,1,0,0:0:0:0:
272,192,227790,1,2,0:0:0:0:
272,192,228021,1,0,0:0:0:0:
272,192,228713,1,2,0:0:0:0:
272,192,228944,1,0,0:0:0:0:
272,192,229059,1,0,0:0:0:0:
272,192,229174,1,2,0:0:0:0:
272,192,229405,1,0,0:0:0:0:
272,192,229636,1,2,0:0:0:0:
272,176,229867,1,0,0:0:0:0:
272,176,230328,1,2,0:0:0:0:
272,176,230559,1,0,0:0:0:0:
256,192,230790,5,0,0:0:0:0:
256,192,231021,1,2,0:0:0:0:
256,192,231136,1,2,0:0:0:0:
256,192,231251,1,0,0:0:0:0:
256,192,231367,1,0,0:0:0:0:
256,192,231482,1,2,0:0:0:0:
270,188,231713,1,2,0:0:0:0:
272,192,232174,1,0,0:0:0:0:
272,192,232636,1,2,0:0:0:0:
272,192,232867,1,2,0:0:0:0:
272,192,233097,1,0,0:0:0:0:
272,192,233213,1,0,0:0:0:0:
272,192,233328,1,2,0:0:0:0:
272,192,233559,1,0,0:0:0:0:
272,192,234251,1,2,0:0:0:0:
272,192,234482,1,0,0:0:0:0:
256,192,234713,1,0,0:0:0:0:
256,192,234828,1,0,0:0:0:0:
256,192,234944,1,2,0:0:0:0:
272,192,235174,1,2,0:0:0:0:
272,192,235290,1,2,0:0:0:0:
272,192,235405,1,0,0:0:0:0:
272,192,236097,1,2,0:0:0:0:
272,192,236328,1,0,0:0:0:0:
272,192,236790,1,0,0:0:0:0:
272,192,237021,1,2,0:0:0:0:
272,176,237251,1,0,0:0:0:0:
272,176,237482,1,2,0:0:0:0:
272,176,237713,1,2,0:0:0:0:
272,176,237828,1,2,0:0:0:0:
272,176,237944,1,2,0:0:0:0:
256,192,238174,5,0,0:0:0:0:
256,192,238405,1,2,0:0:0:0:
256,192,238521,1,2,0:0:0:0:
256,192,238636,1,0,0:0:0:0:
256,192,238751,1,0,0:0:0:0:
256,192,238867,1,2,0:0:0:0:
256,192,239097,1,0,0:0:0:0:
272,176,239790,1,0,0:0:0:0:
272,176,240021,1,2,0:0:0:0:
272,176,240367,1,2,0:0:0:0:
272,176,240713,1,2,0:0:0:0:
272,176,240944,1,0,0:0:0:0:
272,176,241636,1,2,0:0:0:0:
272,176,241867,1,0,0:0:0:0:
272,176,242097,1,2,0:0:0:0:
272,176,242328,1,0,0:0:0:0:
272,176,242444,1,0,0:0:0:0:
272,176,242559,1,2,0:0:0:0:
272,176,242790,1,0,0:0:0:0:
272,176,243482,1,2,0:0:0:0:
272,160,243713,1,0,0:0:0:0:
272,160,244059,1,2,0:0:0:0:
272,160,244405,1,2,0:0:0:0:
272,160,244636,1,0,0:0:0:0:
272,160,245097,1,0,0:0:0:0:
256,192,245328,1,0,0:0:0:0:
288,160,245559,1,2,0:0:0:0:
288,160,245790,1,0,0:0:0:0:
288,160,246021,1,0,0:0:0:0:
288,160,246136,1,0,0:0:0:0:
288,160,246251,1,0,0:0:0:0:
256,192,246482,1,2,0:0:0:0:
272,176,246944,1,0,0:0:0:0:
272,176,247405,1,2,0:0:0:0:
272,176,247867,1,2,0:0:0:0:
272,176,248097,1,2,0:0:0:0:
272,176,248328,1,0,0:0:0:0:
272,176,249021,1,2,0:0:0:0:
272,176,249251,1,0,0:0:0:0:
272,176,249482,1,2,0:0:0:0:
272,176,249713,1,0,0:0:0:0:
272,176,249828,1,0,0:0:0:0:
272,176,249944,1,2,0:0:0:0:
272,176,250174,1,0,0:0:0:0:
272,176,250867,1,2,0:0:0:0:
272,160,251097,1,0,0:0:0:0:
272,160,251328,1,2,0:0:0:0:
272,160,251559,1,0,0:0:0:0:
272,160,251674,1,0,0:0:0:0:
272,160,251790,1,2,0:0:0:0:
272,160,252021,1,0,0:0:0:0:
272,160,252482,1,2,0:0:0:0:
272,160,252713,5,2,0:0:0:0:
288,160,252944,1,0,0:0:0:0:
272,160,253059,1,0,0:0:0:0:
288,160,253174,1,2,0:0:0:0:
288,160,253290,1,2,0:0:0:0:
288,160,253405,1,0,0:0:0:0:
288,160,253636,1,0,0:0:0:0:
256,192,253867,5,2,0:0:0:0:
253,180,254332,1,2,0:0:0:0:
252,184,254798,1,0,0:0:0:0:
250,184,255033,1,0,0:0:0:0:
250,184,255268,1,2,0:0:0:0:
257,180,255740,1,0,0:0:0:0:
257,180,256218,1,2,0:0:0:0:
257,180,256698,1,0,0:0:0:0:
257,180,256939,1,0,0:0:0:0:
257,180,257181,1,2,0:0:0:0:
257,180,257424,1,2,0:0:0:0:
257,180,257668,1,0,0:0:0:0:
257,180,257914,1,0,0:0:0:0:
257,180,258161,1,2,0:0:0:0:
257,180,258656,1,0,0:0:0:0:
257,180,258906,1,0,0:0:0:0:
257,180,259156,1,2,0:0:0:0:
257,180,259406,1,0,0:0:0:0:
257,180,259656,1,0,0:0:0:0:
261,180,260162,1,2,0:0:0:0:
261,180,260668,1,0,0:0:0:0:
261,180,260924,1,0,0:0:0:0:
261,180,261180,1,2,0:0:0:0:
261,180,261440,1,0,0:0:0:0:
261,180,261701,1,0,0:0:0:0:
254,182,262229,1,2,0:0:0:0:
255,182,262758,1,0,0:0:0:0:
254,182,263022,1,0,0:0:0:0:
254,179,263286,1,2,0:0:0:0:
255,182,263557,1,0,0:0:0:0:
254,177,263828,1,0,0:0:0:0:
254,179,264099,1,0,0:0:0:0:
254,177,264370,1,2,0:0:0:0:
254,177,264915,1,0,0:0:0:0:
254,177,265188,1,0,0:0:0:0:
254,179,265462,1,2,0:0:0:0:
254,177,265741,1,2,0:0:0:0:
254,177,266020,1,0,0:0:0:0:
254,177,266299,1,0,0:0:0:0:
253,182,266578,1,2,0:0:0:0:
254,179,266859,1,0,0:0:0:0:
254,179,267141,1,0,0:0:0:0:
253,182,267283,1,0,0:0:0:0:
254,177,267426,1,0,0:0:0:0:
254,179,267712,1,2,0:0:0:0:
254,177,268283,1,0,0:0:0:0:
254,179,268572,1,0,0:0:0:0:
253,182,268862,1,2,0:0:0:0:
254,179,269154,1,2,0:0:0:0:
254,177,269447,1,0,0:0:0:0:
254,177,269594,1,0,0:0:0:0:
254,177,269742,1,2,0:0:0:0:
254,179,270038,1,0,0:0:0:0:
253,182,270336,1,2,0:0:0:0:
254,177,270485,1,2,0:0:0:0:
