osu file format v14

[General]
AudioFilename: audio.mp3
AudioLeadIn: 0
PreviewTime: 209567
Countdown: 0
SampleSet: Normal
StackLeniency: 0.7
Mode: 1
LetterboxInBreaks: 0
WidescreenStoryboard: 0

[Editor]
Bookmarks: 239095
DistanceSpacing: 1
BeatDivisor: 4
GridSize: 16
TimelineZoom: 0.3439988

[Metadata]
Title:Speed of Link
TitleUnicode:Speed of Link
Artist:antiPLUR
ArtistUnicode:antiPLUR
Creator:Nishizumi
Version:Beginner
Source:osu!
Tags:featured artist fa chiptune Aaron Dictor Internet Death Machine 8-bit electronic instrumental
BeatmapID:2755440
BeatmapSetID:1142127

[Difficulty]
HPDrainRate:8
CircleSize:5
OverallDifficulty:2
ApproachRate:5
SliderMultiplier:1
SliderTickRate:1

[Events]
//Background and Video events
0,0,"Dark Curve Desktop Abstract Speed - 1920x1200.jpg",0,-90
//Break Periods
//Storyboard Layer 0 (Background)
//Storyboard Layer 1 (Fail)
//Storyboard Layer 2 (Pass)
//Storyboard Layer 3 (Foreground)
//Storyboard Layer 4 (Overlay)
//Storyboard Sound Samples

[TimingPoints]
162,250,4,1,0,70,1,0
16162,-100,4,1,0,70,0,1
48162,-100,4,1,0,70,0,0
175162,-100,4,1,0,70,0,0
175662,-99.5859197109987,4,1,0,70,0,0
176162,247.933884297521,4,1,0,70,1,0
176162,-100,4,1,0,70,0,0
177153,244.897959183673,4,1,0,70,1,0
177153,-100,4,1,0,70,0,0
178132,236.220472440945,4,1,0,70,1,0
178132,-100,4,1,0,70,0,0
180021,230.769230769231,4,1,0,70,1,1
224328,-100,4,1,0,70,0,0
250174,-100,4,1,0,70,0,0
251097,-100.193237623823,4,1,0,70,0,0
252020,-100.386848655438,4,1,0,70,0,0
252482,-100.483794424602,4,1,0,70,0,0
252943,-100.58083381641,4,1,0,70,0,0
253866,-100.775193829698,4,1,0,70,0,0
253867,232.558139534884,4,1,0,70,1,0
253867,-100,4,1,0,70,0,0
254332,233.463035019456,4,1,0,70,1,8
254332,-100,4,1,0,70,0,0
254798,235.294117647059,4,1,0,70,1,0
254798,-100,4,1,0,70,0,0
255268,236.220472440945,4,1,0,70,1,8
255268,-100,4,1,0,70,0,0
255740,239.043824701195,4,1,0,70,1,0
255740,-100,4,1,0,70,0,0
256218,240,4,1,0,70,1,8
256218,-100,4,1,0,70,0,0
256698,241.935483870968,4,1,0,70,1,0
256698,-100,4,1,0,70,0,0
257181,243.902439024391,4,1,0,70,1,8
257181,-100,4,1,0,70,0,0
257668,246.913580246914,4,1,0,70,1,0
257668,-100,4,1,0,70,0,0
258161,247.933884297521,4,1,0,70,1,8
258161,-100,4,1,0,70,0,0
258656,250,4,1,0,70,1,0
258656,-100,4,1,0,70,0,0
259656,253.164556962026,4,1,0,70,1,0
259656,-100,4,1,0,70,0,0
260668,256.410256410257,4,1,0,70,1,0
260668,-100,4,1,0,70,0,0
261180,260.869565217392,4,1,0,70,1,8
261701,264.317180616741,4,1,0,70,1,0
261701,-100,4,1,0,70,0,0
262758,-101.801862190668,4,1,0,70,0,0
263286,271.493212669684,4,1,0,70,1,8
263286,-100,4,1,0,70,0,0
263828,271.493212669684,4,1,0,70,1,0
263828,-100.227015054263,4,1,0,70,0,0
264370,272.727272727273,4,1,0,70,1,8
264370,-100,4,1,0,70,0,0
264915,273.972602739726,4,1,0,70,1,0
264915,-100,4,1,0,70,0,0
265462,279.069767441861,4,1,0,70,1,8
265462,-100,4,1,0,70,0,0
266020,279.069767441861,4,1,0,70,1,0
266020,-100.468386659088,4,1,0,70,0,0
266578,281.690140845071,4,1,0,70,1,8
266578,-100,4,1,0,70,0,0
267141,285.714285714286,4,1,0,70,1,0
267141,-100,4,1,0,70,0,0
268283,289.855072463769,4,1,0,70,1,0
268283,-100,4,1,0,70,0,0
268862,292.682926829269,4,1,0,70,1,8
268862,-100,4,1,0,70,0,0
269447,295.566502463055,4,1,0,70,1,0
270038,298.507462686568,4,1,0,70,1,8
270038,-100,4,1,0,70,0,0

[HitObjects]
256,192,162,5,0,0:0:0:0:
256,192,2162,1,0,0:0:0:0:
256,192,4162,1,0,0:0:0:0:
256,192,6162,1,0,0:0:0:0:
256,192,7162,1,2,0:0:0:0:
256,192,8162,5,0,0:0:0:0:
256,192,10162,1,0,0:0:0:0:
256,192,11162,1,0,0:0:0:0:
256,192,12162,1,0,0:0:0:0:
256,192,14162,1,0,0:0:0:0:
256,192,15162,1,2,0:0:0:0:
256,192,16162,5,0,0:0:0:0:
256,192,18162,1,0,0:0:0:0:
256,192,19162,1,0,0:0:0:0:
256,192,19662,1,2,0:0:0:0:
256,192,20162,1,0,0:0:0:0:
256,192,22162,1,2,0:0:0:0:
256,192,23162,1,2,0:0:0:0:
256,192,23662,1,0,0:0:0:0:
256,192,24162,5,0,0:0:0:0:
256,192,26162,1,0,0:0:0:0:
256,192,27162,1,0,0:0:0:0:
256,192,27662,1,2,0:0:0:0:
256,192,28162,5,0,0:0:0:0:
256,192,30162,1,0,0:0:0:0:
256,192,31162,1,2,0:0:0:0:
256,192,31662,1,0,0:0:0:0:
256,192,32162,5,2,0:0:0:0:
256,192,34162,5,0,0:0:0:0:
256,192,35162,1,0,0:0:0:0:
256,192,36162,1,0,0:0:0:0:
256,192,38162,1,0,0:0:0:0:
256,192,39162,1,2,0:0:0:0:
272,192,39662,1,2,0:0:0:0:
256,192,40162,5,0,0:0:0:0:
256,192,42162,1,0,0:0:0:0:
256,192,43162,1,0,0:0:0:0:
256,192,44162,1,0,0:0:0:0:
256,192,46162,1,0,0:0:0:0:
256,192,47162,1,2,0:0:0:0:
272,192,47662,5,0,0:0:0:0:
256,192,48162,5,2,0:0:0:0:
256,176,50162,1,2,0:0:0:0:
256,176,52162,1,2,0:0:0:0:
256,176,54162,1,2,0:0:0:0:
256,176,55162,1,0,0:0:0:0:
256,176,55662,1,0,0:0:0:0:
256,192,56162,5,2,0:0:0:0:
256,176,58162,1,2,0:0:0:0:
256,176,60162,1,2,0:0:0:0:
256,192,62162,12,0,64162,0:0:0:0:
256,176,66162,5,0,0:0:0:0:
256,192,68162,1,0,0:0:0:0:
256,176,70162,1,0,0:0:0:0:
256,176,71162,1,0,0:0:0:0:
256,176,72162,1,0,0:0:0:0:
256,192,74162,1,0,0:0:0:0:
256,176,76162,1,0,0:0:0:0:
256,176,78162,1,0,0:0:0:0:
256,176,79162,5,0,0:0:0:0:
256,176,80162,5,2,0:0:0:0:
256,192,82162,1,0,0:0:0:0:
256,176,84162,1,2,0:0:0:0:
256,176,86162,1,2,0:0:0:0:
256,176,87162,1,2,0:0:0:0:
256,176,88162,1,2,0:0:0:0:
256,176,90162,1,0,0:0:0:0:
256,176,92162,1,2,0:0:0:0:
256,176,94162,1,0,0:0:0:0:
256,176,95162,1,0,0:0:0:0:
256,176,96162,1,2,0:0:0:0:
256,176,98162,1,0,0:0:0:0:
256,176,100162,1,2,0:0:0:0:
256,176,102162,1,2,0:0:0:0:
256,176,103162,1,2,0:0:0:0:
256,176,104162,1,2,0:0:0:0:
256,176,106162,1,0,0:0:0:0:
256,176,108162,1,2,0:0:0:0:
256,176,110162,1,0,0:0:0:0:
256,176,111162,1,0,0:0:0:0:
256,176,112162,1,2,0:0:0:0:
256,160,114162,1,0,0:0:0:0:
256,160,115162,1,0,0:0:0:0:
256,160,115662,1,2,0:0:0:0:
256,160,116162,1,0,0:0:0:0:
256,160,118162,1,0,0:0:0:0:
256,160,119162,1,2,0:0:0:0:
256,160,119662,1,0,0:0:0:0:
256,160,120162,1,2,0:0:0:0:
256,160,122162,1,0,0:0:0:0:
256,160,123162,1,0,0:0:0:0:
256,160,123662,1,2,0:0:0:0:
256,160,124162,1,0,0:0:0:0:
256,176,126162,1,0,0:0:0:0:
272,160,127162,1,2,0:0:0:0:
272,160,127662,1,0,0:0:0:0:
256,176,128162,1,2,0:0:0:0:
256,160,130161,1,0,0:0:0:0:
256,160,131162,1,2,0:0:0:0:
256,160,131662,1,2,0:0:0:0:
256,160,132162,1,0,0:0:0:0:
256,160,134162,1,0,0:0:0:0:
256,160,135162,1,0,0:0:0:0:
256,160,135662,1,0,0:0:0:0:
256,160,136162,1,2,0:0:0:0:
256,160,138162,1,0,0:0:0:0:
256,160,139162,1,2,0:0:0:0:
256,160,139662,1,2,0:0:0:0:
256,160,140162,1,0,0:0:0:0:
256,176,142162,1,0,0:0:0:0:
272,160,143162,1,0,0:0:0:0:
272,160,143662,1,0,0:0:0:0:
256,176,144162,5,2,0:0:0:0:
256,192,146162,1,0,0:0:0:0:
272,176,148162,1,0,0:0:0:0:
272,160,150162,1,0,0:0:0:0:
272,144,151162,1,0,0:0:0:0:
272,160,151662,1,2,0:0:0:0:
272,160,152162,1,0,0:0:0:0:
272,160,154162,1,0,0:0:0:0:
256,160,156162,1,0,0:0:0:0:
256,160,158162,1,0,0:0:0:0:
256,160,159162,1,2,0:0:0:0:
256,160,159662,1,2,0:0:0:0:
256,176,160162,5,0,0:0:0:0:
256,176,162162,1,0,0:0:0:0:
256,192,163162,1,0,0:0:0:0:
272,176,164162,1,0,0:0:0:0:
272,160,166162,1,0,0:0:0:0:
272,144,167162,1,0,0:0:0:0:
272,160,167662,1,2,0:0:0:0:
272,160,168162,1,0,0:0:0:0:
272,160,170162,1,0,0:0:0:0:
272,160,171162,1,0,0:0:0:0:
256,160,172162,1,0,0:0:0:0:
256,160,174162,1,0,0:0:0:0:
256,160,175162,1,2,0:0:0:0:
256,160,175662,5,2,0:0:0:0:
256,176,176162,1,0,0:0:0:0:
256,192,177153,1,2,0:0:0:0:
256,192,178132,1,0,0:0:0:0:
256,192,180021,5,0,0:0:0:0:
272,176,180944,1,2,0:0:0:0:
272,176,181405,1,2,0:0:0:0:
272,176,181867,1,0,0:0:0:0:
272,176,182790,1,0,0:0:0:0:
272,176,183713,1,0,0:0:0:0:
272,176,185559,1,0,0:0:0:0:
272,176,186482,1,2,0:0:0:0:
272,176,186944,1,2,0:0:0:0:
256,192,187405,5,0,0:0:0:0:
272,176,189251,1,0,0:0:0:0:
272,176,190174,1,0,0:0:0:0:
272,176,190636,1,2,0:0:0:0:
272,176,191097,1,0,0:0:0:0:
272,176,192944,1,0,0:0:0:0:
272,176,193867,5,2,0:0:0:0:
272,176,194328,1,0,0:0:0:0:
256,192,194790,5,2,0:0:0:0:
288,160,195713,1,2,0:0:0:0:
272,176,196636,1,2,0:0:0:0:
288,176,198482,1,0,0:0:0:0:
288,192,199405,1,0,0:0:0:0:
288,192,200328,1,2,0:0:0:0:
272,192,200790,1,0,0:0:0:0:
272,192,201251,1,2,0:0:0:0:
272,192,201713,1,0,0:0:0:0:
256,192,202174,5,2,0:0:0:0:
288,160,203097,1,2,0:0:0:0:
272,176,204021,1,0,0:0:0:0:
288,176,205867,1,0,0:0:0:0:
288,192,206790,1,0,0:0:0:0:
288,192,207713,1,2,0:0:0:0:
272,192,208174,1,0,0:0:0:0:
272,192,208636,1,2,0:0:0:0:
272,192,209097,1,0,0:0:0:0:
256,192,209559,5,2,0:0:0:0:
254,191,210482,1,2,0:0:0:0:
259,192,211405,1,0,0:0:0:0:
264,191,213251,1,0,0:0:0:0:
264,191,214174,1,0,0:0:0:0:
271,188,215097,1,2,0:0:0:0:
265,191,215559,1,2,0:0:0:0:
265,191,216021,1,0,0:0:0:0:
265,191,216482,5,0,0:0:0:0:
256,192,216944,5,2,0:0:0:0:
254,191,217867,1,2,0:0:0:0:
259,192,218790,1,0,0:0:0:0:
264,191,220636,1,0,0:0:0:0:
264,191,221559,1,0,0:0:0:0:
271,188,222482,1,2,0:0:0:0:
265,191,222944,1,2,0:0:0:0:
265,191,223405,1,0,0:0:0:0:
268,186,223867,1,0,0:0:0:0:
268,186,224328,1,2,0:0:0:0:
272,192,226174,1,0,0:0:0:0:
272,192,227097,1,0,0:0:0:0:
256,192,227559,1,2,0:0:0:0:
272,192,228021,1,0,0:0:0:0:
272,176,229867,1,2,0:0:0:0:
256,192,230790,5,2,0:0:0:0:
256,192,231251,1,0,0:0:0:0:
272,176,231713,5,2,0:0:0:0:
272,192,233559,1,0,0:0:0:0:
272,192,235405,1,0,0:0:0:0:
272,192,236328,1,0,0:0:0:0:
272,176,237251,1,2,0:0:0:0:
256,192,238174,5,2,0:0:0:0:
256,192,238636,5,0,0:0:0:0:
256,192,239097,5,2,0:0:0:0:
272,176,240944,1,0,0:0:0:0:
272,176,241867,1,0,0:0:0:0:
272,176,242790,1,0,0:0:0:0:
272,160,244636,1,0,0:0:0:0:
288,160,245559,1,2,0:0:0:0:
288,160,246021,1,0,0:0:0:0:
256,192,246482,1,2,0:0:0:0:
272,176,247405,1,2,0:0:0:0:
272,176,248328,1,0,0:0:0:0:
272,176,250174,1,0,0:0:0:0:
272,160,251097,1,0,0:0:0:0:
272,160,252021,1,0,0:0:0:0:
272,160,252482,1,2,0:0:0:0:
288,160,252944,1,0,0:0:0:0:
256,192,253867,5,2,0:0:0:0:
257,180,255740,1,0,0:0:0:0:
257,180,257668,1,0,0:0:0:0:
257,180,259656,1,0,0:0:0:0:
261,180,261701,1,2,0:0:0:0:
254,177,262758,1,2,0:0:0:0:
254,177,263828,1,0,0:0:0:0:
254,177,266020,1,2,0:0:0:0:
254,179,267141,1,2,0:0:0:0:
254,177,268283,1,2,0:0:0:0:
254,177,269447,1,2,0:0:0:0:
254,179,270038,1,2,0:0:0:0:
