osu file format v14

[General]
AudioFilename: audio.mp3
AudioLeadIn: 0
PreviewTime: 109866
Countdown: 0
SampleSet: Soft
StackLeniency: 0.7
Mode: 0
LetterboxInBreaks: 0
WidescreenStoryboard: 1

[Editor]
DistanceSpacing: 1
BeatDivisor: 4
GridSize: 32
TimelineZoom: 2.5

[Metadata]
Title:One Life Left to Live
TitleUnicode:One Life Left to Live
Artist:antiPLUR
ArtistUnicode:antiPLUR
Creator:Leader
Version:Expert
Source:osu!
Tags:aaron dictor electronic 8-bit featured artist mappers guild zetera mirash
BeatmapID:2014556
BeatmapSetID:962141

[Difficulty]
HPDrainRate:7
CircleSize:4
OverallDifficulty:8.5
ApproachRate:9.4
SliderMultiplier:1.7
SliderTickRate:1

[Events]
//Background and Video events
0,0,"john-fowler-1481530-unsplash.jpg",0,0
//Break Periods
2,66180,76412
2,107237,109326
//Storyboard Layer 0 (Background)
//Storyboard Layer 1 (Fail)
//Storyboard Layer 2 (Pass)
//Storyboard Layer 3 (Foreground)
//Storyboard Sound Samples

[TimingPoints]
152,342.857142857143,4,2,1,40,1,0
152,-133.333333333333,4,2,0,40,0,0
11123,-100,4,2,1,60,0,0
20723,-100,4,2,1,20,0,0
22094,-100,4,2,1,70,0,0
33066,-83.3333333333333,4,2,1,70,0,0
44037,-100,4,2,1,60,0,0
54323,-100,4,2,1,60,0,0
55008,-100,4,2,1,60,0,0
65980,-100,4,2,1,60,0,0
76952,-200,4,2,1,20,0,0
87923,-100,4,2,1,20,0,0
94437,-200,4,2,1,20,0,0
94780,-100,4,2,1,20,0,0
97180,-200,4,2,1,20,0,0
97523,-100,4,2,1,20,0,0
98894,-83.3333333333333,4,2,1,30,0,0
101980,-200,4,2,1,30,0,0
104380,-83.3333333333333,4,2,1,30,0,0
105752,-66.6666666666667,4,2,1,50,0,0
109866,-90.9090909090909,4,2,1,60,0,1
120152,-90.9090909090909,4,2,1,60,0,0
120837,-90.9090909090909,4,2,1,60,0,1
131809,-90.9090909090909,4,2,1,60,0,0
133180,-90.9090909090909,4,2,1,60,0,0
134552,-90.9090909090909,4,2,1,50,0,0
135923,-90.9090909090909,4,2,1,40,0,0
137294,-90.9090909090909,4,2,1,30,0,0
138666,-90.9090909090909,4,2,1,20,0,0
140037,-90.9090909090909,4,2,1,10,0,0
141409,-90.9090909090909,4,2,1,5,0,0

[Colours]
Combo1 : 254,1,96
Combo2 : 180,154,245
Combo3 : 237,126,226
Combo4 : 139,11,255

[HitObjects]
72,57,152,6,0,L|77:128,1,63.7500024318696,0|0,0:0|0:0,0:0:0:0:
86,220,494,1,2,0:0:0:0:
86,220,666,1,0,0:0:0:0:
209,151,837,2,0,L|204:222,1,63.7500024318696,2|0,0:0|0:0,0:0:0:0:
195,314,1180,1,0,0:0:0:0:
195,314,1352,1,0,0:0:0:0:
288,275,1523,6,0,B|353:264|353:264|409:302,1,127.500004863739,2|0,0:0|0:0,0:0:0:0:
340,356,2037,1,0,0:0:0:0:
479,216,2209,1,2,0:0:0:0:
476,204,2380,1,2,0:0:0:0:
387,163,2552,1,2,0:0:0:0:
390,151,2723,1,2,0:0:0:0:
461,85,2894,6,0,P|411:56|337:67,1,127.500004863739,2|0,0:0|0:0,0:0:0:0:
311,274,3409,1,0,0:0:0:0:
311,274,3580,2,0,P|360:302|435:292,1,127.500004863739,2|0,0:0|0:0,0:0:0:0:
234,130,4094,1,0,0:0:0:0:
234,130,4266,2,0,P|178:100|116:108,1,127.500004863739,2|0,0:0|0:0,0:0:0:0:
84,319,4780,1,0,0:0:0:0:
83,318,4952,2,0,P|138:347|200:339,1,127.500004863739,2|0,0:0|0:0,0:0:0:0:
156,210,5466,1,0,0:0:0:0:
321,346,5637,6,0,L|407:355,1,63.7500024318696,2|0,0:0|0:0,0:0:0:0:
488,364,5980,1,2,0:0:0:0:
488,364,6152,1,0,0:0:0:0:
424,272,6323,2,0,L|415:186,1,63.7500024318696,2|0,0:0|0:0,0:0:0:0:
406,105,6666,1,2,0:0:0:0:
406,105,6837,1,0,0:0:0:0:
304,184,7009,6,0,B|242:198|242:198|184:172,1,127.500004863739,2|2,0:0|0:0,0:0:0:0:
253,108,7523,1,0,0:0:0:0:
136,272,7694,1,2,0:0:0:0:
135,283,7866,1,2,0:0:0:0:
211,338,8037,1,2,0:0:0:0:
212,349,8209,1,2,0:0:0:0:
240,248,8380,6,0,P|308:244|376:288,1,127.500004863739,2|0,0:0|0:0,0:0:0:0:
432,348,8894,1,0,0:0:0:0:
456,252,9066,2,0,L|468:108,1,127.500004863739,2|0,0:0|0:0,0:0:0:0:
432,348,9580,1,0,0:0:0:0:
256,192,9752,5,2,0:0:0:0:
256,192,9837,12,0,10952,0:0:0:0:
80,320,11123,6,0,B|164:300|164:352|264:332,1,170,4|0,1:3|0:0,0:0:0:0:
432,304,11637,1,0,0:0:0:0:
300,204,11809,2,0,L|292:116,1,85,2|0,0:0|0:0,0:0:0:0:
432,48,12152,2,0,L|424:132,1,85,2|0,0:0|0:0,0:0:0:0:
288,356,12494,6,0,P|216:344|184:232,1,170,2|0,0:0|0:0,0:0:0:0:
336,136,13009,1,0,0:0:0:0:
264,272,13180,1,2,0:0:0:0:
164,160,13352,1,2,0:0:0:0:
360,256,13523,1,2,0:0:0:0:
172,288,13694,1,2,0:0:0:0:
248,144,13866,6,0,L|256:36,1,85,2|0,0:0|0:0,0:0:0:0:
344,116,14209,1,2,0:0:0:0:
168,60,14380,1,0,0:0:0:0:
196,228,14552,2,0,L|288:240,1,85,2|0,0:0|0:0,0:0:0:0:
316,328,14894,1,2,0:0:0:0:
248,144,15066,1,0,0:0:0:0:
112,288,15237,6,0,L|100:196,1,85,2|0,0:0|0:0,0:0:0:0:
410,203,15580,2,0,L|400:288,1,85,2|0,0:0|0:0,0:0:0:0:
256,88,15923,2,0,L|264:216,1,127.5,2|0,0:0|0:0,0:0:0:0:
263,215,16266,1,2,0:0:0:0:
344,148,16437,1,0,0:0:0:0:
460,340,16609,6,0,B|400:340|400:340|352:368|352:368|288:368,1,170,4|2,0:3|0:0,0:0:0:0:
72,304,17123,1,0,0:0:0:0:
40,156,17294,1,2,0:0:0:0:
176,120,17466,1,0,0:0:0:0:
216,272,17637,1,2,0:0:0:0:
132,216,17809,1,0,0:0:0:0:
192,32,17980,6,0,P|244:48|256:160,1,170,2|0,0:0|0:0,0:0:0:0:
108,308,18494,1,0,0:0:0:0:
176,120,18666,1,2,0:0:0:0:
292,276,18837,1,2,0:0:0:0:
75,181,19009,5,2,0:0:0:0:
209,340,19180,1,2,0:0:0:0:
303,155,19352,2,0,P|348:143|394:136,1,85,2|0,0:0|0:0,0:0:0:0:
384,373,19694,2,0,P|342:366|301:354,1,85,2|0,0:0|0:0,0:0:0:0:
32,274,20037,5,2,0:0:0:0:
303,155,20209,1,0,0:0:0:0:
63,200,20380,5,2,0:0:0:0:
251,219,20552,1,0,0:0:0:0:
169,167,20723,5,0,0:0:0:0:
169,167,22094,5,4,1:3:0:0:
253,281,22266,1,2,0:0:0:0:
388,260,22437,2,0,P|412:264|436:272,1,42.5,8|0,0:0|0:0,0:0:0:0:
496,176,22609,2,0,P|475:182|454:185,1,42.5,2|0,0:0|0:0,0:0:0:0:
361,60,22780,5,0,0:0:0:0:
362,68,22866,1,0,0:0:0:0:
363,76,22952,1,2,0:0:0:0:
364,85,23037,1,0,0:0:0:0:
366,94,23123,2,0,L|374:149,1,42.5,8|0,0:0|0:0,0:0:0:0:
439,341,23294,2,0,P|419:347|389:349,1,42.5,2|0,0:0|0:0,0:0:0:0:
264,312,23466,5,4,1:3:0:0:
242,315,23552,1,0,0:0:0:0:
221,318,23637,1,2,0:0:0:0:
200,321,23723,1,0,0:0:0:0:
179,324,23809,1,8,0:0:0:0:
148,295,23894,1,0,0:0:0:0:
133,256,23980,1,2,0:0:0:0:
138,214,24066,1,0,0:0:0:0:
161,179,24152,6,0,L|208:186,1,42.5,2|2,0:0|0:0,0:0:0:0:
341,107,24323,1,0,0:0:0:0:
327,105,24409,1,0,0:0:0:0:
313,103,24494,2,0,L|253:95,1,42.5,8|0,0:0|0:0,0:0:0:0:
375,217,24666,2,0,L|422:224,1,42.5,10|0,0:0|0:0,0:0:0:0:
497,55,24837,5,4,1:3:0:0:
495,63,24923,1,0,0:0:0:0:
494,71,25009,1,2,0:0:0:0:
492,80,25094,1,0,0:0:0:0:
490,90,25180,2,0,L|480:142,1,42.5,8|0,0:0|0:0,0:0:0:0:
357,299,25352,2,0,L|367:351,1,42.5,2|0,0:0|0:0,0:0:0:0:
445,227,25523,5,2,0:0:0:0:
445,227,25609,1,0,0:0:0:0:
445,227,25694,2,0,P|410:210|395:207,1,42.5,10|0,0:0|0:0,0:0:0:0:
328,202,25866,2,0,P|292:215|279:223,1,42.5,8|0,0:0|0:0,0:0:0:0:
225,265,26037,2,0,P|200:294|193:307,1,42.5,10|0,0:0|0:0,0:0:0:0:
161,360,26209,6,0,L|65:367,1,85,4|2,1:3|0:0,0:0:0:0:
23,226,26466,1,0,0:0:0:0:
29,244,26552,2,0,P|43:271|56:285,1,42.5,8|0,0:0|0:0,0:0:0:0:
165,150,26723,1,2,0:0:0:0:
128,158,26809,1,0,0:0:0:0:
108,190,26894,1,2,0:0:0:0:
117,226,26980,1,0,0:0:0:0:
148,246,27066,1,2,0:0:0:0:
185,237,27152,1,0,0:0:0:0:
204,206,27237,1,8,0:0:0:0:
200,175,27323,1,0,0:0:0:0:
165,150,27409,2,2,L|161:92,1,42.5,10|2,0:0|0:0,0:0:0:0:
77,27,27580,6,0,L|84:123,1,85,4|0,1:3|0:0,0:0:0:0:
196,314,27837,1,0,0:0:0:0:
197,290,27923,2,0,L|204:206,1,85,8|2,0:0|0:0,0:0:0:0:
274,82,28180,1,0,0:0:0:0:
284,100,28266,1,2,0:0:0:0:
320,120,28352,1,0,0:0:0:0:
362,122,28437,1,2,0:0:0:0:
400,103,28523,1,0,0:0:0:0:
425,70,28609,2,0,L|421:130,1,42.5,8|0,0:0|0:0,0:0:0:0:
417,201,28780,2,0,L|421:260,1,42.5,2|0,0:0|0:0,0:0:0:0:
471,338,28952,6,0,B|421:345|375:353,1,85,4|0,1:3|0:0,0:0:0:0:
155,199,29294,1,8,0:0:0:0:
352,281,29466,1,2,0:0:0:0:
148,334,29637,1,2,0:0:0:0:
352,196,29809,1,2,0:0:0:0:
79,239,29980,6,0,P|70:191|70:171,1,42.5,8|0,0:0|0:0,0:0:0:0:
441,197,30152,2,0,P|438:218|433:239,1,42.5,10|0,0:0|0:0,0:0:0:0:
405,366,30323,5,4,1:3:0:0:
363,374,30409,1,0,0:0:0:0:
322,366,30494,1,2,0:0:0:0:
287,342,30580,1,2,0:0:0:0:
263,307,30666,1,8,0:0:0:0:
256,266,30752,1,0,0:0:0:0:
264,224,30837,2,0,P|283:208|312:191,1,42.5,2|2,0:0|0:0,0:0:0:0:
293,98,31009,5,2,0:0:0:0:
334,89,31094,1,0,0:0:0:0:
375,97,31180,1,2,0:0:0:0:
410,121,31266,1,0,0:0:0:0:
434,156,31352,1,8,0:0:0:0:
441,197,31437,1,0,0:0:0:0:
433,238,31523,2,0,P|416:251|399:263,1,42.5,2|0,0:0|0:0,0:0:0:0:
168,355,31694,6,0,L|217:361,1,42.5,4|0,1:3|0:0,0:0:0:0:
336,199,31866,1,2,0:0:0:0:
336,199,31952,1,0,0:0:0:0:
336,199,32037,2,0,L|286:205,1,42.5,8|0,0:0|0:0,0:0:0:0:
181,57,32209,2,0,L|230:63,1,42.5,10|0,0:0|0:0,0:0:0:0:
430,356,32380,5,2,0:3:0:0:
409,354,32466,1,0,0:3:0:0:
388,352,32552,1,2,0:3:0:0:
367,350,32637,1,0,0:3:0:0:
345,347,32723,2,0,L|336:282,1,42.5,8|0,0:3|0:0,0:0:0:0:
336,199,32894,1,0,0:3:0:0:
336,199,32980,1,0,0:3:0:0:
336,199,33066,6,0,L|445:187,1,101.999996887207,4|0,1:3|0:0,0:0:0:0:
498,44,33323,1,0,0:0:0:0:
483,63,33409,2,0,L|381:74,1,101.999996887207,8|0,0:0|0:0,0:0:0:0:
242,37,33666,1,0,0:0:0:0:
252,58,33752,5,2,0:0:0:0:
224,99,33837,1,0,0:0:0:0:
175,105,33923,1,2,0:0:0:0:
139,71,34009,1,0,0:0:0:0:
127,23,34094,1,8,0:0:0:0:
80,5,34180,1,0,0:0:0:0:
34,24,34266,1,2,0:0:0:0:
13,70,34352,1,0,0:0:0:0:
30,117,34437,5,4,1:3:0:0:
280,204,34609,1,2,0:0:0:0:
70,219,34780,1,8,0:0:0:0:
70,219,34866,1,0,0:0:0:0:
70,219,34952,2,0,L|129:231,1,50.9999984436036,2|0,0:0|0:0,0:0:0:0:
251,75,35123,5,2,0:0:0:0:
251,75,35209,1,0,0:0:0:0:
251,75,35294,2,0,L|192:87,1,50.9999984436036,10|0,0:0|0:0,0:0:0:0:
77,25,35466,2,0,P|68:52|61:87,1,50.9999984436036,8|0,0:0|0:0,0:0:0:0:
222,224,35637,2,0,P|216:199|208:175,1,50.9999984436036,10|0,0:0|0:0,0:0:0:0:
32,296,35809,5,4,1:3:0:0:
78,274,35894,1,0,0:0:0:0:
128,276,35980,1,2,0:0:0:0:
171,302,36066,1,0,0:0:0:0:
197,346,36152,1,8,0:0:0:0:
241,371,36237,1,0,0:0:0:0:
291,372,36323,1,2,0:0:0:0:
338,349,36409,1,0,0:0:0:0:
367,310,36494,6,0,L|374:254,1,50.9999984436036,2|0,0:0|0:0,0:0:0:0:
368,187,36666,2,0,L|374:237,1,50.9999984436036,2|0,0:0|0:0,0:0:0:0:
461,353,36837,5,8,0:0:0:0:
464,327,36923,1,0,0:0:0:0:
467,302,37009,1,2,0:0:0:0:
472,276,37094,1,0,0:0:0:0:
475,251,37180,1,4,1:3:0:0:
147,253,37352,5,2,0:0:0:0:
381,289,37523,1,8,0:0:0:0:
171,349,37694,1,2,0:0:0:0:
277,157,37866,2,0,P|272:128|268:95,3,50.9999984436036,2|0|2|0,0:0|0:0|0:0|0:0,0:0:0:0:
368,203,38209,6,0,P|404:197|432:187,1,50.9999984436036,8|0,0:0|0:0,0:0:0:0:
497,87,38380,2,0,P|461:80|433:70,1,50.9999984436036,10|0,0:0|0:0,0:0:0:0:
361,17,38552,5,4,1:3:0:0:
361,17,38637,2,0,L|351:134,1,101.999996887207,2|0,0:0|0:0,0:0:0:0:
195,284,38894,2,0,L|188:182,1,101.999996887207,8|0,0:0|0:0,0:0:0:0:
259,107,39152,1,0,0:0:0:0:
271,132,39237,6,0,P|273:157|273:182,1,50.9999984436036,2|0,0:0|0:0,0:0:0:0:
101,194,39409,2,0,P|98:169|99:144,1,50.9999984436036,2|0,0:0|0:0,0:0:0:0:
216,245,39580,2,0,P|190:247|165:247,1,50.9999984436036,8|0,0:0|0:0,0:0:0:0:
153,75,39752,2,0,P|178:72|203:72,1,50.9999984436036,2|0,0:0|0:0,0:0:0:0:
337,216,39923,5,4,1:3:0:0:
387,213,40009,1,0,0:0:0:0:
429,185,40094,1,2,0:0:0:0:
451,140,40180,1,0,0:0:0:0:
447,90,40266,1,8,0:0:0:0:
418,49,40352,1,0,0:0:0:0:
372,30,40437,1,2,0:0:0:0:
322,39,40523,1,0,0:0:0:0:
286,73,40609,6,0,L|228:79,1,50.9999984436036,2|0,0:0|0:0,0:0:0:0:
47,176,40780,1,10,0:0:0:0:
47,176,40866,1,0,0:0:0:0:
47,176,40952,2,0,L|105:182,1,50.9999984436036,8|0,0:0|0:0,0:0:0:0:
263,292,41123,2,0,L|205:298,1,50.9999984436036,10|0,0:0|0:0,0:0:0:0:
364,318,41294,5,4,1:3:0:0:
360,267,41380,1,0,0:0:0:0:
335,224,41466,1,2,0:0:0:0:
292,196,41552,1,0,0:0:0:0:
242,191,41637,1,8,0:0:0:0:
195,209,41723,1,0,0:0:0:0:
161,247,41809,1,2,0:0:0:0:
148,296,41894,1,0,0:0:0:0:
158,345,41980,5,2,0:0:0:0:
263,292,42152,1,2,0:0:0:0:
54,248,42323,1,8,0:0:0:0:
194,111,42494,1,2,0:0:0:0:
275,308,42666,6,0,L|330:316,1,50.9999984436036,4|0,1:3|0:0,0:0:0:0:
472,230,42837,2,0,L|418:235,1,50.9999984436036,2|0,0:0|0:0,0:0:0:0:
310,156,43009,6,0,L|365:164,1,50.9999984436036,8|0,0:0|0:0,0:0:0:0:
422,135,43180,2,0,L|372:143,1,50.9999984436036,10|0,0:0|0:0,0:0:0:0:
345,18,43352,5,2,0:3:0:0:
346,28,43437,1,0,0:3:0:0:
347,38,43523,1,2,0:3:0:0:
348,48,43609,1,0,0:3:0:0:
350,59,43694,6,0,L|291:65,1,50.9999984436036,8|0,1:3|0:3,0:0:0:0:
218,147,43866,2,0,L|160:152,1,50.9999984436036,0|0,1:3|0:3,0:0:0:0:
33,191,44037,6,0,B|90:196|90:196|128:232|128:232|194:239,1,170,6|8,1:0|1:0,0:0:0:0:
422,194,44552,1,0,0:0:0:0:
218,147,44723,1,2,0:0:0:0:
348,115,44894,1,0,0:0:0:0:
306,233,45066,2,0,L|316:334,1,85,10|2,1:0|1:0,0:0:0:0:
429,176,45409,6,0,P|443:120|378:17,1,170,0|8,1:0|1:0,0:0:0:0:
201,162,45923,1,0,1:0:0:0:
348,115,46094,1,2,0:0:0:0:
209,59,46266,1,2,1:0:0:0:
292,191,46437,1,8,1:0:0:0:
296,34,46609,1,8,1:0:0:0:
124,121,46780,6,0,P|117:175|135:222,1,85,2|0,1:0|0:0,0:0:0:0:
326,297,47123,1,8,1:0:0:0:
201,162,47294,1,2,1:0:0:0:
144,349,47466,2,0,L|236:364,1,85,2|0,1:0|0:0,0:0:0:0:
378,366,47809,1,8,1:0:0:0:
457,271,47980,1,2,1:0:0:0:
339,159,48152,6,0,L|345:70,1,85,4|2,1:3|0:0,0:0:0:0:
432,141,48494,1,2,1:0:0:0:
250,90,48666,1,4,1:3:0:0:
378,267,48837,2,0,L|286:279,1,85,2|4,1:0|1:3,0:0:0:0:
361,361,49180,1,10,1:0:0:0:
279,195,49352,1,10,1:0:0:0:
77,217,49523,6,0,P|62:161|71:45,1,170,0|8,1:0|1:0,0:0:0:0:
279,195,50037,1,2,1:0:0:0:
174,286,50209,2,0,L|164:376,1,85,2|0,0:0|1:0,0:0:0:0:
77,217,50552,1,8,1:0:0:0:
173,166,50723,1,2,1:0:0:0:
283,305,50894,6,0,P|331:311|400:328,1,85,2|0,1:0|0:0,0:0:0:0:
485,186,51237,2,0,P|443:194|401:199,1,85,8|2,1:0|1:0,0:0:0:0:
172,63,51580,5,8,1:3:0:0:
190,153,51752,1,0,0:0:0:0:
295,12,51923,5,10,1:0:0:0:
280,204,52094,1,10,1:0:0:0:
486,71,52266,6,0,P|418:65|364:169,1,170,2|10,1:0|1:0,0:0:0:0:
487,326,52780,1,10,1:0:0:0:
307,276,52952,1,2,1:0:0:0:
458,160,53123,1,0,0:0:0:0:
458,160,53209,1,0,0:0:0:0:
458,160,53294,1,10,1:0:0:0:
377,359,53466,1,8,3:0:0:0:
200,256,53637,6,0,P|196:229|188:193,1,42.5,2|0,1:0|0:0,0:0:0:0:
312,256,53809,2,0,P|316:229|324:193,1,42.5,2|0,1:0|0:0,0:0:0:0:
176,135,53980,6,0,P|172:108|164:72,1,42.5,8|0,1:0|0:0,0:0:0:0:
332,131,54152,2,0,P|336:104|344:68,1,42.5,10|0,1:0|0:0,0:0:0:0:
259,122,54323,5,2,1:0:0:0:
253,147,54409,1,8,1:3:0:0:
246,171,54494,1,0,1:0:0:0:
240,196,54580,1,8,1:3:0:0:
230,220,54666,2,0,P|198:218|176:213,1,42.5,10|8,1:0|3:0,0:0:0:0:
326,277,54837,2,0,P|358:275|380:270,1,42.5,2|8,1:0|3:0,0:0:0:0:
257,340,55009,6,0,L|168:351,1,85,6|0,1:0|0:0,0:0:0:0:
29,224,55352,1,10,1:0:0:0:
80,338,55523,1,0,0:0:0:0:
199,103,55694,5,2,0:0:0:0:
167,235,55866,1,2,1:0:0:0:
70,31,56037,2,0,L|80:136,1,85,8|2,1:0|1:0,0:0:0:0:
288,347,56380,6,0,L|301:164,1,170,2|10,1:0|1:0,0:0:0:0:
257,58,56894,1,10,1:0:0:0:
412,198,57066,1,2,0:0:0:0:
189,175,57237,1,10,1:0:0:0:
363,74,57409,2,0,P|376:105|381:121,1,42.5,10|0,1:0|0:0,0:0:0:0:
383,333,57580,2,0,P|390:312|398:293,1,42.5,8|0,3:0|0:0,0:0:0:0:
496,191,57752,6,0,L|412:198,1,85,6|0,1:0|0:0,0:0:0:0:
171,217,58094,1,10,1:0:0:0:
290,208,58266,1,0,0:0:0:0:
238,344,58437,1,2,0:0:0:0:
216,345,58523,1,8,3:0:0:0:
195,347,58609,1,2,0:0:0:0:
174,348,58694,1,0,1:0:0:0:
153,350,58780,1,10,1:0:0:0:
69,271,58952,1,10,1:0:0:0:
290,208,59123,5,2,1:0:0:0:
181,174,59294,1,0,0:0:0:0:
313,115,59466,5,10,1:0:0:0:
91,188,59637,1,4,1:3:0:0:
211,83,59809,5,2,0:0:0:0:
365,270,59980,1,4,1:3:0:0:
236,340,60152,6,0,P|230:307|230:265,1,42.5,10|0,1:0|0:0,0:0:0:0:
313,115,60323,2,0,P|310:136|306:156,1,42.5,10|0,1:0|0:0,0:0:0:0:
144,339,60494,6,0,L|42:351,1,85,6|0,1:0|0:0,0:0:0:0:
45,172,60837,1,10,1:0:0:0:
95,261,61009,1,2,0:0:0:0:
204,82,61180,1,0,1:0:0:0:
169,203,61352,1,8,3:0:0:0:
92,30,61523,6,0,P|104:67|118:127,1,85,10|2,1:0|1:0,0:0:0:0:
144,339,61866,2,0,B|202:336|202:336|258:362|258:362|317:358,1,170,2|10,1:0|1:0,0:0:0:0:
485,297,62380,1,2,1:0:0:0:
360,231,62552,2,0,P|347:175|346:121,1,85,6|0,1:3|1:0,0:0:0:0:
466,52,62894,1,10,1:0:0:0:
427,175,63066,1,10,1:0:0:0:
225,57,63237,5,6,1:0:0:0:
225,57,63323,2,0,L|231:146,1,85
230,141,63580,1,10,1:0:0:0:
360,339,63752,1,10,1:0:0:0:
360,339,63837,1,0,0:0:0:0:
360,339,63923,1,6,1:3:0:0:
163,268,64094,1,10,1:0:0:0:
357,191,64266,2,0,L|372:82,1,85,10|2,1:0|1:0,0:0:0:0:
474,336,64609,5,2,1:0:0:0:
231,142,64780,1,2,1:0:0:0:
299,351,64952,1,8,1:0:0:0:
465,217,65123,1,10,1:0:0:0:
212,289,65294,5,0,1:0:0:0:
192,293,65380,1,0,1:0:0:0:
172,297,65466,1,0,1:0:0:0:
152,301,65552,1,0,1:0:0:0:
132,305,65637,2,0,L|80:313,1,42.5,10|0,1:0|1:0,0:0:0:0:
16,191,65809,2,0,L|73:197,1,42.5,10|0,1:0|1:0,0:0:0:0:
136,85,65980,5,4,1:0:0:0:
95,341,76952,5,2,0:0:0:0:
105,341,77037,1,0,0:0:0:0:
116,342,77123,1,0,0:0:0:0:
126,343,77209,1,0,0:0:0:0:
137,343,77294,1,0,0:0:0:0:
148,344,77380,1,0,0:0:0:0:
158,345,77466,1,0,0:0:0:0:
169,346,77552,1,0,0:0:0:0:
179,346,77637,1,0,0:0:0:0:
190,347,77723,1,0,0:0:0:0:
201,348,77809,1,0,0:0:0:0:
211,348,77894,1,0,0:0:0:0:
224,349,77980,2,0,L|255:352,3,21.25,0|0|0|0,0:0|0:0|0:0|0:0,0:0:0:0:
286,273,78323,5,2,0:0:0:0:
296,273,78409,1,0,0:0:0:0:
307,272,78494,1,0,0:0:0:0:
317,271,78580,1,0,0:0:0:0:
328,271,78666,1,0,0:0:0:0:
339,270,78752,1,0,0:0:0:0:
349,269,78837,1,0,0:0:0:0:
360,268,78923,1,0,0:0:0:0:
370,268,79009,1,0,0:0:0:0:
381,267,79094,1,0,0:0:0:0:
392,266,79180,1,0,0:0:0:0:
402,266,79266,1,0,0:0:0:0:
415,265,79352,2,0,L|446:262,3,21.25,0|0|0|0,0:0|0:0|0:0|0:0,0:0:0:0:
400,166,79694,5,2,0:0:0:0:
390,166,79780,1,0,0:0:0:0:
379,165,79866,1,0,0:0:0:0:
369,164,79952,1,0,0:0:0:0:
358,164,80037,1,0,0:0:0:0:
347,163,80123,1,0,0:0:0:0:
337,162,80209,1,0,0:0:0:0:
326,161,80294,1,0,0:0:0:0:
316,161,80380,1,0,0:0:0:0:
305,160,80466,1,0,0:0:0:0:
294,159,80552,1,0,0:0:0:0:
284,159,80637,1,0,0:0:0:0:
271,158,80723,2,0,L|240:155,3,21.25,0|0|0|0,0:0|0:0|0:0|0:0,0:0:0:0:
209,234,81066,5,2,0:0:0:0:
199,234,81152,1,0,0:0:0:0:
188,235,81237,1,0,0:0:0:0:
178,236,81323,1,0,0:0:0:0:
167,236,81409,1,0,0:0:0:0:
156,237,81494,1,0,0:0:0:0:
146,238,81580,1,0,0:0:0:0:
135,239,81666,1,0,0:0:0:0:
125,239,81752,1,0,0:0:0:0:
114,240,81837,1,0,0:0:0:0:
103,241,81923,1,0,0:0:0:0:
93,241,82009,1,0,0:0:0:0:
80,242,82094,2,0,L|49:245,3,21.25,0|0|0|0,0:0|0:0|0:0|0:0,0:0:0:0:
67,128,82437,5,2,0:0:0:0:
77,128,82523,1,0,0:0:0:0:
88,129,82609,1,0,0:0:0:0:
98,130,82694,1,0,0:0:0:0:
109,130,82780,1,0,0:0:0:0:
120,131,82866,1,0,0:0:0:0:
130,132,82952,1,0,0:0:0:0:
141,133,83037,1,0,0:0:0:0:
151,133,83123,1,0,0:0:0:0:
162,134,83209,1,0,0:0:0:0:
173,135,83294,1,0,0:0:0:0:
183,135,83380,1,0,0:0:0:0:
196,136,83466,2,0,L|227:139,3,21.25,0|0|0|0,0:0|0:0|0:0|0:0,0:0:0:0:
258,60,83809,5,2,0:0:0:0:
268,60,83894,1,0,0:0:0:0:
279,59,83980,1,0,0:0:0:0:
289,58,84066,1,0,0:0:0:0:
300,58,84152,1,0,0:0:0:0:
311,57,84237,1,0,0:0:0:0:
321,56,84323,1,0,0:0:0:0:
332,55,84409,1,0,0:0:0:0:
342,55,84494,1,0,0:0:0:0:
353,54,84580,1,0,0:0:0:0:
364,53,84666,1,0,0:0:0:0:
374,53,84752,1,0,0:0:0:0:
387,52,84837,2,0,L|418:49,3,21.25,0|0|0|0,0:0|0:0|0:0|0:0,0:0:0:0:
448,147,85180,5,2,0:0:0:0:
462,162,85266,1,0,0:0:0:0:
474,180,85352,1,0,0:0:0:0:
482,200,85437,1,0,0:0:0:0:
486,221,85523,1,0,0:0:0:0:
487,242,85609,1,0,0:0:0:0:
484,263,85694,1,0,0:0:0:0:
477,283,85780,1,0,0:0:0:0:
467,301,85866,1,0,0:0:0:0:
453,318,85952,1,0,0:0:0:0:
437,331,86037,1,0,0:0:0:0:
418,342,86123,1,0,0:0:0:0:
398,349,86209,1,0,0:0:0:0:
377,352,86294,1,0,0:0:0:0:
356,351,86380,1,0,0:0:0:0:
335,347,86466,1,0,0:0:0:0:
315,338,86552,5,2,0:0:0:0:
278,317,86637,1,0,0:0:0:0:
236,311,86723,1,0,0:0:0:0:
195,321,86809,1,0,0:0:0:0:
161,345,86894,1,0,0:0:0:0:
121,360,86980,1,0,0:0:0:0:
80,353,87066,1,0,0:0:0:0:
48,326,87152,1,0,0:0:0:0:
34,287,87237,1,0,0:0:0:0:
43,246,87323,1,0,0:0:0:0:
66,210,87409,1,0,0:0:0:0:
71,168,87494,1,0,0:0:0:0:
59,128,87580,6,0,L|54:102,3,21.25,0|0|0|0,0:0|0:0|0:0|0:0,0:0:0:0:
122,50,87923,5,2,0:0:0:0:
162,39,88008,1,0,0:0:0:0:
204,44,88094,1,0,0:0:0:0:
240,66,88180,1,0,0:0:0:0:
265,100,88265,1,2,0:0:0:0:
275,141,88351,1,0,0:0:0:0:
267,183,88437,1,0,0:0:0:0:
244,218,88523,1,0,0:0:0:0:
209,242,88609,6,0,L|157:252,1,42.5,2|0,0:0|0:0,0:0:0:0:
79,265,88780,2,0,P|84:244|91:224,1,42.5,0|0,0:0|0:0,0:0:0:0:
41,137,88952,6,0,L|82:144,1,42.5,2|0,0:0|0:0,0:0:0:0:
155,113,89123,2,0,P|166:146|171:169,1,42.5,0|0,0:0|0:0,0:0:0:0:
240,341,89294,5,2,0:0:0:0:
261,343,89379,1,0,0:0:0:0:
282,345,89465,1,0,0:0:0:0:
303,347,89551,1,0,0:0:0:0:
324,349,89636,1,2,0:0:0:0:
368,355,89722,1,0,0:0:0:0:
409,343,89808,1,0,0:0:0:0:
440,315,89894,1,0,0:0:0:0:
456,276,89980,6,0,L|460:222,1,42.5,2|0,0:0|0:0,0:0:0:0:
463,162,90152,2,0,L|460:204,1,42.5,0|0,0:0|0:0,0:0:0:0:
360,275,90323,6,0,L|363:220,1,42.5,2|0,0:0|0:0,0:0:0:0:
372,111,90495,2,0,L|369:153,1,42.5,0|0,0:0|0:0,0:0:0:0:
291,341,90666,5,2,0:0:0:0:
248,344,90751,1,0,0:0:0:0:
206,348,90837,1,0,0:0:0:0:
163,352,90923,1,0,0:0:0:0:
121,355,91009,1,2,0:0:0:0:
81,367,91094,1,0,0:0:0:0:
41,354,91180,1,0,0:0:0:0:
14,322,91266,1,0,0:0:0:0:
9,281,91352,1,2,0:0:0:0:
27,243,91437,1,0,0:0:0:0:
64,223,91523,1,0,0:0:0:0:
106,226,91609,1,0,0:0:0:0:
138,252,91694,6,0,L|147:303,1,42.5,2|0,0:0|0:0,0:0:0:0:
226,354,91866,2,0,L|232:312,1,42.5,0|0,0:0|0:0,0:0:0:0:
317,234,92037,5,2,0:0:0:0:
318,242,92122,1,0,0:0:0:0:
319,250,92208,1,0,0:0:0:0:
321,259,92294,1,0,0:0:0:0:
323,269,92380,1,2,0:0:0:0:
353,298,92465,1,0,0:0:0:0:
393,311,92551,1,0,0:0:0:0:
435,306,92637,1,0,0:0:0:0:
470,282,92723,1,2,0:0:0:0:
490,246,92808,1,0,0:0:0:0:
494,204,92894,1,0,0:0:0:0:
481,163,92980,1,0,0:0:0:0:
453,132,93065,1,2,0:0:0:0:
415,114,93151,1,0,0:0:0:0:
373,113,93237,1,0,0:0:0:0:
334,128,93323,1,0,0:0:0:0:
304,158,93408,5,2,0:0:0:0:
257,178,93494,1,0,0:0:0:0:
207,180,93580,1,0,0:0:0:0:
159,162,93666,1,0,0:0:0:0:
119,132,93751,1,2,0:0:0:0:
69,131,93837,1,0,0:0:0:0:
26,157,93923,1,0,0:0:0:0:
2,202,94009,1,0,0:0:0:0:
5,252,94094,1,2,0:0:0:0:
34,293,94180,1,0,0:0:0:0:
78,316,94265,1,0,0:0:0:0:
127,311,94351,1,0,0:0:0:0:
176,294,94437,6,0,L|204:282,3,21.25,2|0|0|0,0:0|0:0|0:0|0:0,0:0:0:0:
273,352,94780,6,0,L|333:361,1,42.5,2|0,0:0|0:0,0:0:0:0:
305,331,94952,2,0,L|365:340,1,42.5,2|0,0:0|0:0,0:0:0:0:
473,278,95123,6,0,L|413:287,1,42.5,2|0,0:0|0:0,0:0:0:0:
441,257,95295,2,0,L|381:266,1,42.5,2|0,0:0|0:0,0:0:0:0:
308,150,95466,6,0,L|312:199,1,42.5,2|0,0:0|0:0,0:0:0:0:
395,146,95637,2,0,L|394:214,1,42.5,2|0,0:0|0:0,0:0:0:0:
246,85,95809,6,0,P|233:111|225:137,1,42.5,2|0,0:0|0:0,0:0:0:0:
473,115,95980,2,0,P|465:95|455:76,1,42.5,2|0,0:0|0:0,0:0:0:0:
149,63,96152,5,2,0:0:0:0:
128,99,96237,1,0,0:0:0:0:
126,141,96323,1,2,0:0:0:0:
143,180,96409,1,0,0:0:0:0:
175,207,96494,1,2,0:0:0:0:
217,217,96580,1,0,0:0:0:0:
257,207,96666,1,2,0:0:0:0:
298,176,96752,1,0,0:0:0:0:
342,151,96837,1,2,0:0:0:0:
392,153,96923,1,0,0:0:0:0:
434,180,97009,1,2,0:0:0:0:
457,225,97094,1,0,0:0:0:0:
453,274,97180,6,0,L|447:310,3,21.25,2|0|0|0,0:0|0:0|0:0|0:0,0:0:0:0:
370,325,97523,6,0,L|321:332,1,42.5,2|0,0:0|0:0,0:0:0:0:
323,236,97694,2,0,L|365:242,1,42.5,2|0,0:0|0:0,0:0:0:0:
207,201,97866,6,0,P|238:185|269:173,1,42.5,2|0,0:0|0:0,0:0:0:0:
248,368,98037,2,0,P|228:359|210:348,1,42.5,2|0,0:0|0:0,0:0:0:0:
139,272,98209,5,2,0:0:0:0:
127,272,98294,1,0,0:0:0:0:
116,273,98380,1,2,0:0:0:0:
104,273,98466,1,0,0:0:0:0:
90,274,98552,2,0,L|32:274,3,42.5,2|0|0|0,0:0|0:0|0:0|0:0,0:0:0:0:
172,346,98894,5,2,0:0:0:0:
217,324,98979,1,0,0:0:0:0:
239,280,99065,1,2,0:0:0:0:
228,231,99151,1,0,0:0:0:0:
189,199,99236,1,2,0:0:0:0:
150,167,99322,1,0,0:0:0:0:
136,118,99408,1,2,0:0:0:0:
151,71,99494,1,0,0:0:0:0:
191,40,99579,1,2,0:0:0:0:
239,27,99665,1,0,0:0:0:0:
287,44,99751,1,2,0:0:0:0:
317,85,99837,1,0,0:0:0:0:
358,113,99922,1,2,0:0:0:0:
408,114,100008,1,0,0:0:0:0:
450,88,100094,1,2,0:0:0:0:
471,42,100179,1,0,0:0:0:0:
442,0,100266,5,2,0:0:0:0:
441,20,100352,1,0,0:0:0:0:
439,41,100437,2,0,L|436:106,1,50.9999984436036,2|0,0:0|0:0,0:0:0:0:
312,276,100609,5,2,0:0:0:0:
311,256,100695,1,0,0:0:0:0:
309,235,100780,2,0,L|306:170,1,50.9999984436036,2|0,0:0|0:0,0:0:0:0:
172,22,100952,5,2,0:0:0:0:
171,42,101038,1,0,0:0:0:0:
169,63,101123,2,0,L|166:128,1,50.9999984436036,2|0,0:0|0:0,0:0:0:0:
53,234,101294,5,2,0:0:0:0:
52,214,101380,1,0,0:0:0:0:
50,193,101466,2,0,L|47:128,1,50.9999984436036,2|0,0:0|0:0,0:0:0:0:
141,184,101637,5,2,0:0:0:0:
178,150,101722,1,0,0:0:0:0:
227,151,101808,1,2,0:0:0:0:
264,185,101894,1,0,0:0:0:0:
267,235,101980,2,0,L|264:274,3,21.25,2|0|0|0,0:0|0:0|0:0|0:0,0:0:0:0:
330,321,102324,5,2,0:0:0:0:
367,354,102409,1,0,0:0:0:0:
416,353,102495,1,2,0:0:0:0:
453,319,102581,1,0,0:0:0:0:
456,269,102667,2,0,L|452:230,3,21.25,2|0|0|0,0:0|0:0|0:0|0:0,0:0:0:0:
371,217,103009,5,2,0:0:0:0:
337,179,103094,1,0,0:0:0:0:
338,130,103180,1,2,0:0:0:0:
372,93,103266,1,0,0:0:0:0:
422,90,103352,2,0,L|460:93,3,21.25,2|0|0|0,0:0|0:0|0:0|0:0,0:0:0:0:
495,289,103694,5,2,0:0:0:0:
457,323,103779,1,0,0:0:0:0:
408,322,103865,1,2,0:0:0:0:
371,288,103951,1,0,0:0:0:0:
368,238,104037,2,0,L|371:199,3,21.25,2|0|0|0,0:0|0:0|0:0|0:0,0:0:0:0:
450,149,104380,5,2,0:0:0:0:
406,123,104465,1,0,0:0:0:0:
355,119,104551,1,2,0:0:0:0:
308,138,104637,1,0,0:0:0:0:
274,175,104722,1,2,0:0:0:0:
259,223,104808,1,0,0:0:0:0:
215,248,104894,1,2,0:0:0:0:
164,252,104980,1,0,0:0:0:0:
117,233,105066,6,0,L|108:165,1,50.9999984436036,2|0,0:0|0:0,0:0:0:0:
224,53,105237,2,0,L|217:103,1,50.9999984436036,2|0,0:0|0:0,0:0:0:0:
76,83,105409,6,0,P|111:89|142:97,1,50.9999984436036,2|0,0:0|0:0,0:0:0:0:
259,223,105580,2,0,P|224:229|193:237,1,50.9999984436036,2|0,0:0|0:0,0:0:0:0:
66,331,105752,5,0,0:0:0:0:
127,314,105837,1,0,0:0:0:0:
190,322,105923,1,2,0:0:0:0:
245,352,106009,1,0,0:0:0:0:
304,375,106094,5,2,0:0:0:0:
367,370,106180,1,0,0:0:0:0:
421,338,106266,1,2,0:0:0:0:
454,284,106351,1,0,0:0:0:0:
452,221,106437,5,2,0:0:0:0:
427,163,106522,1,0,0:0:0:0:
377,124,106608,1,2,0:0:0:0:
315,113,106694,1,0,0:0:0:0:
255,131,106779,5,2,0:0:0:0:
211,176,106865,1,0,0:0:0:0:
192,237,106951,1,2,0:0:0:0:
204,299,107037,1,2,0:0:0:0:
52,318,109866,6,0,B|150:296|148:356|273:327,1,187.000005706787,6|8,1:0|1:0,0:0:0:0:
321,105,110380,1,0,0:0:0:0:
198,250,110552,1,2,0:0:0:0:
374,282,110723,1,0,0:0:0:0:
109,157,110894,2,0,L|102:90,1,46.7500014266968,10|0,1:0|0:0,0:0:0:0:
198,250,111066,2,0,L|189:316,1,46.7500014266968,2|0,1:0|0:0,0:0:0:0:
306,198,111237,6,0,P|359:206|407:205,1,93.5000028533936,0|0,1:0|0:0,0:0:0:0:
270,23,111580,1,8,1:0:0:0:
354,120,111752,1,0,1:0:0:0:
402,16,111923,1,2,0:0:0:0:
402,16,112009,1,0,0:0:0:0:
402,16,112094,1,2,1:0:0:0:
402,16,112180,1,0,0:0:0:0:
402,16,112266,5,8,1:0:0:0:
464,183,112437,1,8,1:0:0:0:
234,137,112609,6,0,P|190:147|142:154,1,93.5000028533936,2|0,1:0|0:0,0:0:0:0:
37,293,112952,2,0,P|83:299|128:309,1,93.5000028533936,8|2,1:0|1:0,0:0:0:0:
239,236,113209,1,0,0:0:0:0:
235,261,113294,2,0,L|219:365,1,93.5000028533936,2|0,1:0|0:0,0:0:0:0:
145,166,113552,1,0,0:0:0:0:
148,186,113637,2,0,L|152:241,1,46.7500014266968,8|0,1:0|0:0,0:0:0:0:
252,103,113809,2,0,L|248:158,1,46.7500014266968,2|0,1:0|0:0,0:0:0:0:
235,262,113980,5,4,1:3:0:0:
329,246,114152,1,2,0:0:0:0:
148,186,114323,5,2,1:0:0:0:
411,278,114494,1,4,1:3:0:0:
147,350,114666,5,2,1:0:0:0:
430,200,114837,1,4,1:3:0:0:
131,154,115009,5,10,1:0:0:0:
135,162,115094,1,0,0:0:0:0:
139,170,115180,1,10,1:0:0:0:
143,178,115266,1,0,0:0:0:0:
148,186,115352,2,0,B|210:190|210:190|266:229|266:229|326:234,1,187.000005706787,0|8,1:0|1:0,0:0:0:0:
491,142,115866,2,0,L|485:204,1,46.7500014266968,2|0,1:0|0:0,0:0:0:0:
428,358,116037,2,0,L|417:248,1,93.5000028533936,2|0,0:0|1:0,0:0:0:0:
414,51,116380,1,8,1:0:0:0:
272,221,116552,1,2,1:0:0:0:
133,42,116723,6,0,P|205:38|239:161,1,187.000005706787,2|8,1:0|1:0,0:0:0:0:
93,338,117237,1,2,1:0:0:0:
115,341,117323,1,0,0:0:0:0:
136,343,117409,2,0,L|194:349,1,46.7500014266968,8|2,1:3|1:0,0:0:0:0:
272,254,117580,2,0,L|214:248,1,46.7500014266968,0|4,0:0|1:3,0:0:0:0:
285,356,117752,1,10,1:0:0:0:
307,359,117838,1,0,0:0:0:0:
328,361,117924,2,0,L|386:367,1,46.7500014266968,10|0,1:0|0:0,0:0:0:0:
492,258,118095,6,0,P|447:270|399:277,1,93.5000028533936,2|0,1:0|0:0,0:0:0:0:
247,158,118437,1,10,1:0:0:0:
406,71,118609,1,10,1:0:0:0:
403,94,118694,1,0,0:0:0:0:
400,117,118780,1,2,1:0:0:0:
397,140,118866,1,8,3:0:0:0:
394,163,118951,1,0,0:0:0:0:
375,324,119123,1,10,1:0:0:0:
375,324,119294,1,8,3:0:0:0:
270,271,119466,5,2,1:0:0:0:
447,251,119637,1,2,1:0:0:0:
342,225,119809,5,8,1:0:0:0:
485,330,119980,1,10,1:0:0:0:
419,163,120152,1,2,1:0:0:0:
420,153,120237,1,8,1:3:0:0:
421,144,120323,1,0,1:0:0:0:
422,135,120409,1,8,1:3:0:0:
423,126,120494,6,0,L|364:132,1,46.7500014266968,10|8,1:0|3:0,0:0:0:0:
285,143,120666,2,0,L|226:149,1,46.7500014266968,2|8,1:0|3:0,0:0:0:0:
88,191,120837,6,0,B|145:196|145:196|189:232|189:232|266:240,1,187.000005706787,6|10,1:0|1:0,0:0:0:0:
409,300,121352,1,0,0:0:0:0:
294,151,121523,1,2,0:0:0:0:
294,151,121609,1,0,0:0:0:0:
294,151,121694,1,2,1:0:0:0:
230,330,121866,2,0,P|206:335|169:338,1,46.7500014266968,8|0,1:0|0:0,0:0:0:0:
43,250,122037,2,0,P|67:255|104:258,1,46.7500014266968,2|0,1:0|0:0,0:0:0:0:
183,99,122209,6,0,L|174:203,1,93.5000028533936,2|0,1:0|0:0,0:0:0:0:
67,338,122552,1,10,1:0:0:0:
287,232,122723,1,10,1:0:0:0:
55,167,122894,1,2,0:0:0:0:
160,254,123066,1,10,1:0:0:0:
287,232,123237,6,0,P|314:229|343:223,1,46.7500014266968,10|0,1:0|0:0,0:0:0:0:
440,140,123409,2,0,P|413:137|384:131,1,46.7500014266968,8|0,3:0|0:0,0:0:0:0:
284,42,123580,6,0,L|293:137,1,93.5000028533936,6|0,1:0|0:0,0:0:0:0:
405,333,123837,1,0,0:0:0:0:
408,308,123923,2,0,L|414:203,1,93.5000028533936,10|0,1:0|0:0,0:0:0:0:
472,32,124266,1,2,0:0:0:0:
427,18,124351,1,8,3:0:0:0:
384,32,124437,1,2,0:0:0:0:
356,69,124523,1,0,1:0:0:0:
355,115,124609,2,0,L|360:167,1,46.7500014266968,10|0,1:0|0:0,0:0:0:0:
408,308,124780,2,0,L|403:360,1,46.7500014266968,10|8,1:0|3:0,0:0:0:0:
225,312,124952,6,0,B|315:304|309:372|426:351,1,187.000005706787,2|10,1:0|1:0,0:0:0:0:
479,158,125466,1,4,1:3:0:0:
370,278,125637,5,2,0:0:0:0:
327,120,125809,1,4,1:3:0:0:
468,264,125980,5,10,1:0:0:0:
413,76,126152,1,10,1:0:0:0:
284,223,126323,6,0,P|232:234|179:237,1,93.5000028533936,6|0,1:0|0:0,0:0:0:0:
385,172,126666,1,10,1:0:0:0:
198,356,126837,1,2,0:0:0:0:
174,357,126922,1,8,3:0:0:0:
151,359,127008,1,0,1:0:0:0:
128,361,127094,1,0,0:0:0:0:
104,365,127180,2,0,L|45:370,1,46.7500014266968,8|0,3:0|1:0,0:0:0:0:
19,263,127352,2,0,L|78:268,1,46.7500014266968,10|0,1:0|0:0,0:0:0:0:
196,132,127523,5,2,1:0:0:0:
186,149,127609,1,8,3:0:0:0:
177,166,127694,2,0,L|83:173,1,93.5000028533936,2|0,1:0|0:0,0:0:0:0:
29,86,128037,1,10,1:0:0:0:
118,246,128209,1,2,1:0:0:0:
269,138,128380,1,6,1:3:0:0:
268,147,128465,1,0,0:0:0:0:
267,156,128551,1,0,1:0:0:0:
266,165,128637,1,8,1:3:0:0:
264,177,128723,6,0,L|258:223,1,46.7500014266968,10|0,1:0|0:0,0:0:0:0:
213,345,128894,2,0,L|207:298,1,46.7500014266968,10|0,1:0|0:0,0:0:0:0:
133,249,129066,6,0,P|85:242|31:224,1,93.5000028533936,6|0,1:0|0:0,0:0:0:0:
35,328,129409,1,10,1:0:0:0:
145,150,129580,1,10,1:0:0:0:
291,264,129752,6,0,P|329:271|359:278,1,46.7500014266968,6|0,1:3|0:0,0:0:0:0:
475,205,129923,2,0,P|452:209|429:213,1,46.7500014266968,10|0,1:0|0:0,0:0:0:0:
316,91,130094,6,0,L|323:147,1,46.7500014266968,10|0,1:0|0:0,0:0:0:0:
425,352,130266,2,0,L|433:292,1,46.7500014266968,2|8,1:0|1:3,0:0:0:0:
475,205,130437,1,2,1:0:0:0:
264,260,130609,1,2,1:0:0:0:
204,51,130780,1,8,1:0:0:0:
416,0,130952,1,10,1:0:0:0:
354,134,131123,5,0,1:0:0:0:
354,134,131209,1,0,1:0:0:0:
354,134,131294,1,0,1:0:0:0:
354,134,131380,1,0,1:0:0:0:
354,134,131466,5,10,1:0:0:0:
378,172,131551,1,0,1:0:0:0:
376,218,131637,1,10,1:0:0:0:
347,254,131723,1,0,1:0:0:0:
303,267,131808,5,4,1:0:0:0:
256,192,131894,12,0,141409,0:0:0:0:
