osu file format v14

[General]
AudioFilename: audio.mp3
AudioLeadIn: 0
PreviewTime: 104380
Countdown: 0
SampleSet: Soft
StackLeniency: 0.7
Mode: 2
LetterboxInBreaks: 0
WidescreenStoryboard: 1

[Editor]
Bookmarks: 152,22094,44037,65980,87923,98894,109866,131809
DistanceSpacing: 1
BeatDivisor: 4
GridSize: 4
TimelineZoom: 1

[Metadata]
Title:One Life Left to Live
TitleUnicode:One Life Left to Live
Artist:antiPLUR
ArtistUnicode:antiPLUR
Creator:JBHyperion
Version:Overdose
Source:osu!
Tags:Aaron Dictor electronic 8-bit Featured Artist Mappers Guild Fruit Factory
BeatmapID:2005440
BeatmapSetID:957842

[Difficulty]
HPDrainRate:6
CircleSize:4.2
OverallDifficulty:9.2
ApproachRate:9.2
SliderMultiplier:1.8
SliderTickRate:1

[Events]
//Background and Video events
0,0,"titlewastoolonglmao.jpg",0,0
//Break Periods
2,77152,87353
//Storyboard Layer 0 (Background)
//Storyboard Layer 1 (Fail)
//Storyboard Layer 2 (Pass)
//Storyboard Layer 3 (Foreground)
//Storyboard Sound Samples

[TimingPoints]
152,342.857142857143,4,2,1,50,1,0
11294,-100,4,2,1,80,0,0
20723,-100,4,2,2,70,0,0
21580,-100,4,2,2,80,0,0
22094,-100,4,3,77,100,0,0
22266,-100,4,2,3,50,0,0
44037,-80,4,3,77,100,0,0
44209,-80,4,2,3,60,0,0
44380,-100,4,2,3,60,0,0
46437,-100,4,2,3,60,0,0
65980,-100,4,2,1,42,0,0
67352,-100,4,2,1,38,0,0
68723,-100,4,2,1,34,0,0
70094,-100,4,2,1,30,0,0
71466,-100,4,2,1,26,0,0
72837,-100,4,2,1,22,0,0
74209,-100,4,2,1,18,0,0
75580,-100,4,2,1,14,0,0
76952,-100,4,2,1,10,0,0
87923,-133.333333333333,4,2,2,50,0,0
88266,-133.333333333333,4,2,1,25,0,0
88609,-133.333333333333,4,2,2,50,0,0
88866,-133.333333333333,4,2,1,25,0,0
89123,-133.333333333333,4,2,2,50,0,0
89637,-133.333333333333,4,2,1,25,0,0
89980,-133.333333333333,4,2,2,50,0,0
90323,-133.333333333333,4,2,1,25,0,0
90409,-133.333333333333,4,2,1,40,0,0
90666,-133.333333333333,4,2,2,40,0,0
91009,-133.333333333333,4,2,1,25,0,0
91352,-133.333333333333,4,2,2,50,0,0
91609,-133.333333333333,4,2,1,25,0,0
91866,-133.333333333333,4,2,2,50,0,0
92380,-133.333333333333,4,2,1,25,0,0
92723,-133.333333333333,4,2,2,50,0,0
93066,-133.333333333333,4,2,1,25,0,0
93152,-133.333333333333,4,2,1,40,0,0
93409,-133.333333333333,4,2,1,25,0,0
94352,-133.333333333333,4,2,1,40,0,0
94609,-133.333333333333,4,2,1,25,0,0
94780,-133.333333333333,4,2,1,25,0,0
95894,-133.333333333333,4,2,1,40,0,0
96323,-133.333333333333,4,2,1,20,0,0
97523,-133.333333333333,4,2,1,25,0,0
97866,-133.333333333333,4,2,1,27,0,0
98209,-133.333333333333,4,2,1,29,0,0
98552,-133.333333333333,4,2,1,31,0,0
98894,-100,4,2,1,40,0,0
100266,-100,4,2,1,45,0,0
101637,-100,4,2,1,50,0,0
103009,-100,4,2,1,55,0,0
104380,-100,4,2,1,60,0,0
105752,-100,4,2,1,65,0,0
109866,-90.9090909090909,4,3,77,100,0,1
110037,-90.9090909090909,4,2,3,60,0,1
120752,-90.9090909090909,4,2,3,60,0,0
120837,-90.9090909090909,4,3,77,100,0,1
121009,-90.9090909090909,4,2,3,60,0,1
131809,-100,4,3,77,100,0,0
131894,-100,4,2,1,60,0,0
132152,-100,4,2,1,55,0,0
132494,-100,4,2,1,50,0,0
132837,-100,4,2,1,45,0,0
133180,-100,4,2,1,40,0,0
133523,-100,4,2,1,35,0,0
133866,-100,4,2,1,30,0,0
134209,-100,4,2,1,25,0,0
134552,-100,4,2,1,17,0,0
134894,-100,4,2,1,15,0,0
135237,-100,4,2,1,13,0,0
135580,-100,4,2,1,11,0,0
135923,-100,4,2,1,9,0,0
136266,-100,4,2,1,8,0,0
136609,-100,4,2,1,7,0,0
136952,-100,4,2,1,6,0,0
137294,-100,4,2,1,5,0,0

[Colours]
Combo1 : 225,175,150
Combo2 : 195,175,235
Combo3 : 215,200,150
Combo4 : 92,172,172

[HitObjects]
168,264,152,6,0,L|164:80,1,180,2|8,0:0|0:0,0:0:0:0:
344,84,837,1,2,0:0:0:0:
244,84,1009,1,2,0:0:0:0:
144,84,1180,1,8,0:0:0:0:
460,84,1523,2,0,L|468:264,1,180,2|8,0:0|0:0,0:0:0:0:
288,264,2209,2,0,L|280:172,1,90,2|2,0:0|0:0,0:0:0:0:
368,172,2552,2,0,L|460:172,1,90,8|0,0:0|0:0,0:0:0:0:
256,172,2894,6,0,L|118:56,1,180,2|8,0:0|0:0,0:0:0:0:
308,172,3580,2,0,L|445:56,1,180,2|8,0:0|0:0,0:0:0:0:
265,55,4266,2,0,L|445:55,1,180,2|8,0:0|0:0,0:0:0:0:
248,56,4952,2,0,L|331:104,1,90,2|0,0:0|0:0,0:0:0:0:
236,136,5294,2,0,L|152:184,1,90,8|0,0:0|0:0,0:0:0:0:
360,192,5637,6,0,L|368:376,1,180,2|8,0:0|0:0,0:0:0:0:
168,372,6323,1,2,0:0:0:0:
268,372,6494,1,2,0:0:0:0:
368,372,6666,1,8,0:0:0:0:
44,368,7009,2,0,L|40:188,1,180,2|8,0:0|0:0,0:0:0:0:
220,188,7694,2,0,L|129:136,1,90,2|2,0:0|0:0,0:0:0:0:
52,144,8037,2,0,L|142:92,1,90,8|2,0:0|0:0,0:0:0:0:
332,100,8380,6,0,L|336:284,1,180,2|8,0:0|0:0,0:0:0:0:
156,280,9066,2,0,L|336:280,1,180,2|8,0:0|0:0,0:0:0:0:
136,280,9752,1,2,0:0:0:0:
352,280,10094,1,8,0:0:0:0:
44,280,10437,2,0,L|36:188,1,90,2|0,0:0|0:0,0:0:0:0:
136,188,10780,2,0,L|40:188,1,90,8|2,0:0|0:0,0:0:0:0:
336,188,11123,6,0,L|432:188,1,90,6|0,0:0|0:0,0:0:0:0:
316,188,11466,2,0,L|308:96,1,90,8|0,0:0|0:0,0:0:0:0:
500,96,11809,2,0,L|404:96,1,90,2|2,0:0|0:0,0:0:0:0:
300,96,12152,1,8,0:0:0:0:
416,96,12323,1,0,0:0:0:0:
148,24,12494,6,0,L|240:24,1,90,2|0,0:0|0:0,0:0:0:0:
336,24,12837,1,8,0:0:0:0:
436,24,13009,1,2,0:0:0:0:
168,24,13180,2,0,L|164:132,1,90,2|0,0:0|0:0,0:0:0:0:
292,116,13523,2,0,L|288:224,1,90,8|0,0:0|0:0,0:0:0:0:
16,204,13866,6,0,L|108:204,1,90,2|0,0:0|0:0,0:0:0:0:
204,204,14209,2,0,L|112:204,1,90,8|0,0:0|0:0,0:0:0:0:
308,204,14552,2,0,L|316:312,1,90,2|2,0:0|0:0,0:0:0:0:
208,296,14894,2,0,L|112:296,1,90,8|0,0:0|0:0,0:0:0:0:
314,293,15237,6,0,L|318:201,1,90,2|0,0:0|0:0,0:0:0:0:
136,200,15580,2,0,L|140:108,1,90,8|8,0:0|0:0,0:0:0:0:
248,112,15923,1,2,0:0:0:0:
139,110,16094,1,2,0:0:0:0:
276,112,16266,1,8,0:0:0:0:
112,112,16437,1,2,0:0:0:0:
384,112,16609,6,0,L|476:112,1,90,2|0,0:0|0:0,0:0:0:0:
292,112,16952,2,0,L|296:20,1,90,8|0,0:0|0:0,0:0:0:0:
28,20,17294,2,0,L|120:20,1,90,2|2,0:0|0:0,0:0:0:0:
228,20,17637,1,8,0:0:0:0:
336,20,17809,1,0,0:0:0:0:
68,96,17980,6,0,L|60:192,1,90,2|0,0:0|0:0,0:0:0:0:
240,188,18323,2,0,L|332:188,1,90,8|2,0:0|0:0,0:0:0:0:
68,264,18666,2,0,L|160:264,1,90,2|0,0:0|0:0,0:0:0:0:
60,264,19009,1,8,0:0:0:0:
196,264,19180,1,0,0:0:0:0:
468,264,19352,6,0,L|456:164,1,90,2|0,0:0|0:0,0:0:0:0:
276,172,19694,2,0,L|288:72,1,90,8|0,0:0|0:0,0:0:0:0:
104,84,20037,2,0,L|196:84,1,90,2|0,0:0|0:0,0:0:0:0:
377,132,20380,2,0,L|457:174,1,90,8|0,0:0|0:0,0:0:0:0:
200,172,20723,6,0,L|292:172,2,90,2|0|0,0:0|0:0|0:0,0:0:0:0:
380,192,21237,2,0,L|459:238,1,90,2|0,0:0|0:0,0:0:0:0:
296,260,21580,2,0,L|216:214,1,90,2|0,0:0|0:0,0:0:0:0:
340,260,21923,1,0,0:0:0:0:
88,260,22094,6,0,L|84:168,1,90,4|0,0:0|0:0,0:0:0:0:
376,168,22437,2,0,L|276:168,1,90,8|0,0:0|0:0,0:0:0:0:
364,168,22694,1,0,0:0:0:0:
444,168,22780,1,2,0:0:0:0:
493,137,22866,1,0,0:0:0:0:
494,80,22952,1,2,0:0:0:0:
446,48,23037,1,0,0:0:0:0:
264,48,23123,1,8,0:0:0:0:
364,48,23294,2,0,L|368:100,1,45,0|0,0:0|0:0,0:0:0:0:
184,48,23466,6,0,L|88:48,1,90,2|0,0:0|0:0,0:0:0:0:
284,128,23809,2,0,L|242:152,1,45,8|0,0:0|0:0,0:0:0:0:
172,152,23980,2,0,L|213:176,1,45,2|0,0:0|0:0,0:0:0:0:
392,172,24152,2,0,L|488:172,1,90,0|2,0:0|0:0,0:0:0:0:
300,256,24494,2,0,L|348:256,1,45,8|0,0:0|0:0,0:0:0:0:
408,256,24666,2,0,L|456:256,1,45,0|0,0:0|0:0,0:0:0:0:
272,256,24837,6,0,L|224:256,1,45,2|0,0:0|0:0,0:0:0:0:
166,174,25009,2,0,L|211:174,1,45,0|0,0:0|0:0,0:0:0:0:
320,172,25180,2,0,L|324:80,1,90,8|0,0:0|0:0,0:0:0:0:
268,84,25437,1,0,0:0:0:0:
88,84,25523,2,0,L|84:136,1,45,2|0,0:0|0:0,0:0:0:0:
184,128,25694,2,0,L|188:180,1,45,2|0,0:0|0:0,0:0:0:0:
17,174,25866,1,8,0:0:0:0:
117,174,26037,2,0,L|165:174,1,45,0|0,0:0|0:0,0:0:0:0:
345,174,26209,6,0,L|393:174,2,45,2|0|2,0:0|0:0|0:0,0:0:0:0:
253,174,26466,1,0,0:0:0:0:
73,174,26552,2,0,L|69:230,1,45,8|0,0:0|0:0,0:0:0:0:
253,286,26723,1,2,0:0:0:0:
282,252,26809,1,0,0:0:0:0:
282,208,26894,1,0,0:0:0:0:
254,174,26980,1,0,0:0:0:0:
145,174,27066,2,0,L|141:126,1,45,2|0,0:0|0:0,0:0:0:0:
321,102,27237,1,8,0:0:0:0:
180,152,27409,2,0,L|139:128,1,45,2|0,0:0|0:0,0:0:0:0:
321,102,27580,6,0,L|328:48,1,45,2|0,0:0|0:0,0:0:0:0:
256,56,27752,2,0,L|263:2,1,45,0|0,0:0|0:0,0:0:0:0:
84,12,27923,2,0,L|40:12,1,45,8|0,0:0|0:0,0:0:0:0:
140,56,28094,2,0,L|184:56,1,45,0|0,0:0|0:0,0:0:0:0:
132,56,28266,1,2,0:0:0:0:
136,116,28352,1,0,0:0:0:0:
176,164,28437,1,2,0:0:0:0:
232,184,28523,1,0,0:0:0:0:
412,184,28609,2,0,L|416:276,1,90,8|0,0:0|0:0,0:0:0:0:
360,276,28866,1,0,0:0:0:0:
180,276,28952,6,0,L|176:224,1,45,2|0,0:0|0:0,0:0:0:0:
248,232,29123,2,0,L|252:184,1,45,2|0,0:0|0:0,0:0:0:0:
80,232,29294,2,0,L|76:188,1,45,8|0,0:0|0:0,0:0:0:0:
140,136,29466,2,0,L|188:136,1,45,0|0,0:0|0:0,0:0:0:0:
356,184,29637,2,0,L|352:132,1,45,2|0,0:0|0:0,0:0:0:0:
280,136,29809,2,0,L|284:88,1,45,2|0,0:0|0:0,0:0:0:0:
456,88,29980,1,8,0:0:0:0:
493,67,30066,1,0,0:0:0:0:
494,24,30152,1,2,0:0:0:0:
456,4,30237,1,0,0:0:0:0:
276,4,30323,5,2,0:0:0:0:
192,4,30409,2,0,L|184:56,2,45,0|0|0,0:0|0:0|0:0,0:0:0:0:
360,4,30666,1,8,0:0:0:0:
356,64,30752,1,0,0:0:0:0:
316,112,30837,1,0,0:0:0:0:
257,127,30923,1,0,0:0:0:0:
148,128,31009,2,0,L|109:106,2,45,2|0|2,0:0|0:0|0:0,0:0:0:0:
420,128,31352,2,0,L|424:228,1,90,8|0,0:0|0:0,0:0:0:0:
368,216,31609,1,0,0:0:0:0:
204,216,31694,6,0,L|200:268,2,45,2|0|2,0:0|0:0|0:0,0:0:0:0:
380,300,32037,1,8,0:0:0:0:
344,300,32123,1,0,0:0:0:0:
308,300,32209,1,0,0:0:0:0:
64,296,32380,6,0,L|22:272,3,45,2|2|2|2,0:0|0:0|0:0|0:0,0:0:0:0:
112,296,32723,1,8,0:0:0:0:
160,265,32809,1,2,0:0:0:0:
160,207,32894,1,2,0:0:0:0:
112,176,32980,1,2,0:0:0:0:
292,172,33066,5,2,0:0:0:0:
352,160,33152,1,0,0:0:0:0:
396,116,33237,1,0,0:0:0:0:
400,56,33323,1,0,0:0:0:0:
228,56,33409,2,0,L|184:56,1,45,8|0,0:0|0:0,0:0:0:0:
247,172,33580,2,0,L|303:172,1,45,0|0,0:0|0:0,0:0:0:0:
236,172,33752,1,2,0:0:0:0:
232,114,33837,1,0,0:0:0:0:
228,56,33923,1,2,0:0:0:0:
490,56,34094,2,0,L|394:56,1,90,8|0,0:0|0:0,0:0:0:0:
356,56,34352,1,0,0:0:0:0:
176,56,34437,6,0,L|168:152,1,90,2|2,0:0|0:0,0:0:0:0:
360,148,34780,2,0,L|368:200,1,45,8|0,0:0|0:0,0:0:0:0:
296,192,34952,2,0,L|304:244,1,45,0|0,0:0|0:0,0:0:0:0:
232,236,35123,2,0,L|188:236,2,45,2|0|2,0:0|0:0|0:0,0:0:0:0:
304,236,35380,1,0,0:0:0:0:
124,236,35466,2,0,L|80:236,1,45,8|0,0:0|0:0,0:0:0:0:
140,324,35637,2,0,L|192:324,1,45,2|0,0:0|0:0,0:0:0:0:
296,325,35809,6,0,L|365:265,1,90,2|0,0:0|0:0,0:0:0:0:
180,236,36152,2,0,L|272:236,1,90,8|0,0:0|0:0,0:0:0:0:
16,236,36494,2,0,L|12:184,1,45,2|0,0:0|0:0,0:0:0:0:
116,192,36666,2,0,L|120:140,1,45,2|0,0:0|0:0,0:0:0:0:
220,148,36837,1,8,0:0:0:0:
112,148,37009,2,0,L|108:104,1,45,0|0,0:0|0:0,0:0:0:0:
280,148,37180,6,0,L|328:148,2,45,2|0|2,0:0|0:0|0:0,0:0:0:0:
184,148,37437,1,0,0:0:0:0:
344,148,37523,2,0,L|348:92,1,45,8|0,0:0|0:0,0:0:0:0:
184,36,37694,1,2,0:0:0:0:
184,84,37780,1,0,0:0:0:0:
220,120,37866,1,0,0:0:0:0:
268,120,37952,1,0,0:0:0:0:
359,58,38037,2,0,L|355:106,1,45,2|0,0:0|0:0,0:0:0:0:
184,36,38209,1,8,0:0:0:0:
316,36,38380,1,2,0:0:0:0:
132,120,38552,6,0,L|125:174,1,45,2|0,0:0|0:0,0:0:0:0:
196,164,38723,2,0,L|203:218,1,45,0|0,0:0|0:0,0:0:0:0:
28,208,38894,2,0,L|72:208,1,45,8|0,0:0|0:0,0:0:0:0:
124,208,39066,1,0,0:0:0:0:
304,296,39237,1,2,0:0:0:0:
248,296,39323,1,0,0:0:0:0:
208,264,39409,1,2,0:0:0:0:
202,209,39494,1,0,0:0:0:0:
376,208,39580,2,0,L|468:208,1,90,8|0,0:0|0:0,0:0:0:0:
416,208,39837,1,0,0:0:0:0:
236,208,39923,6,0,L|232:156,1,45,2|0,0:0|0:0,0:0:0:0:
308,164,40094,2,0,L|312:116,1,45
136,164,40266,2,0,L|132:120,1,45,8|0,0:0|0:0,0:0:0:0:
208,68,40437,2,0,L|212:16,1,45
388,164,40609,2,0,L|384:112,1,45,2|0,0:0|0:0,0:0:0:0:
307,119,40780,2,0,L|259:119,1,45,2|0,0:0|0:0,0:0:0:0:
436,24,40952,2,0,L|380:24,1,45,8|0,0:0|0:0,0:0:0:0:
336,24,41123,2,0,L|392:24,1,45,0|0,0:0|0:0,0:0:0:0:
207,23,41294,5,2,0:0:0:0:
131,23,41380,1,0,0:0:0:0:
169,23,41466,1,0,0:0:0:0:
207,23,41552,1,0,0:0:0:0:
368,24,41637,2,0,L|372:72,1,45,8|0,0:0|0:0,0:0:0:0:
300,132,41809,2,0,L|252:132,1,45,0|0,0:0|0:0,0:0:0:0:
356,132,41980,2,0,L|400:132,2,45,2|0|2,0:0|0:0|0:0,0:0:0:0:
108,216,42323,2,0,L|200:216,1,90,8|0,0:0|0:0,0:0:0:0:
239,216,42580,1,0,0:0:0:0:
59,216,42666,5,2,0:0:0:0:
55,176,42752,1,0,0:0:0:0:
51,136,42837,1,0,0:0:0:0:
231,96,43009,1,8,0:0:0:0:
195,96,43094,1,0,0:0:0:0:
159,96,43180,1,2,0:0:0:0:
415,96,43352,6,0,L|419:140,1,45,2|2,0:0|0:0,0:0:0:0:
331,140,43523,2,0,L|287:140,1,45,2|2,0:0|0:0,0:0:0:0:
456,260,43694,1,8,0:0:0:0:
504,229,43780,1,2,0:0:0:0:
504,171,43866,1,2,0:0:0:0:
456,140,43952,1,2,0:0:0:0:
205,140,44037,6,0,L|89:140,1,112.5,8|0,0:0|0:0,0:0:0:0:
277,140,44380,1,8,0:0:0:0:
169,140,44552,2,0,L|157:88,2,45,0|0|2,0:0|0:0|0:0,0:0:0:0:
331,140,44894,1,2,0:0:0:0:
79,140,45066,2,0,L|171:140,1,90,8|0,0:0|0:0,0:0:0:0:
421,140,45409,6,0,L|329:140,1,90,2|0,0:0|0:0,0:0:0:0:
494,140,45752,1,8,0:0:0:0:
244,140,45923,2,0,L|157:108,1,90,0|2,0:0|0:0,0:0:0:0:
268,140,46266,1,2,0:0:0:0:
20,140,46437,2,0,L|24:44,1,90,8|0,0:0|0:0,0:0:0:0:
296,48,46780,6,0,L|392:48,1,90,2|0,0:0|0:0,0:0:0:0:
216,48,47123,1,8,0:0:0:0:
464,48,47294,1,0,0:0:0:0:
413,68,47380,1,0,0:0:0:0:
391,119,47466,1,2,0:0:0:0:
412,170,47552,1,0,0:0:0:0:
462,191,47637,1,2,0:0:0:0:
280,192,47809,2,0,L|180:192,1,90,8|0,0:0|0:0,0:0:0:0:
444,268,48152,6,0,L|348:268,1,90,2|2,0:0|0:0,0:0:0:0:
496,268,48494,1,8,0:0:0:0:
316,268,48666,2,0,L|224:268,1,90,2|0,0:0|0:0,0:0:0:0:
272,268,48923,1,0,0:0:0:0:
316,268,49009,1,2,0:0:0:0:
128,268,49180,1,8,0:0:0:0:
300,340,49352,1,2,0:0:0:0:
40,268,49523,6,0,L|36:172,1,90,2|0,0:0|0:0,0:0:0:0:
104,176,49780,1,0,0:0:0:0:
172,172,49866,1,8,0:0:0:0:
64,180,50037,2,0,L|60:128,1,45,0|0,0:0|0:0,0:0:0:0:
168,92,50209,2,0,L|176:48,2,45,2|0|2,0:0|0:0|0:0,0:0:0:0:
416,92,50552,1,8,0:0:0:0:
316,92,50723,2,0,L|312:48,1,45,0|0,0:0|0:0,0:0:0:0:
476,48,50894,6,0,L|484:140,1,90,2|0,0:0|0:0,0:0:0:0:
304,192,51237,2,0,L|396:192,1,90,8|0,0:0|0:0,0:0:0:0:
228,192,51580,1,2,0:0:0:0:
380,192,51752,1,2,0:0:0:0:
132,192,51923,2,0,L|40:192,1,90,8|0,0:0|0:0,0:0:0:0:
312,192,52266,6,0,L|316:96,1,90,2|0,0:0|0:0,0:0:0:0:
257,121,52523,1,0,0:0:0:0:
224,173,52609,1,8,0:0:0:0:
232,234,52694,1,0,0:0:0:0:
279,275,52780,1,0,0:0:0:0:
340,277,52866,1,0,0:0:0:0:
264,276,52952,1,2,0:0:0:0:
188,276,53037,1,0,0:0:0:0:
264,276,53123,1,2,0:0:0:0:
496,276,53294,2,0,L|400:276,1,90,8|0,0:0|0:0,0:0:0:0:
152,192,53637,5,2,0:0:0:0:
260,192,53809,1,2,0:0:0:0:
80,192,53980,2,0,L|72:100,1,90,8|0,0:0|0:0,0:0:0:0:
320,100,54323,2,0,L|324:48,1,45,2|2,0:0|0:0,0:0:0:0:
256,56,54494,2,0,L|316:56,1,45,2|2,0:0|0:0,0:0:0:0:
464,56,54666,2,0,L|412:56,1,45,8|2,0:0|0:0,0:0:0:0:
320,100,54837,2,0,L|275:100,1,45,2|2,0:0|0:0,0:0:0:0:
100,188,55009,6,0,L|196:188,1,90,2|0,0:0|0:0,0:0:0:0:
32,188,55352,1,8,0:0:0:0:
263,189,55523,2,0,L|275:97,1,90,0|2,0:0|0:0,0:0:0:0:
176,100,55866,1,2,0:0:0:0:
424,100,56037,1,8,0:0:0:0:
320,100,56209,2,0,L|272:100,1,45,0|0,0:0|0:0,0:0:0:0:
104,192,56380,5,2,0:0:0:0:
248,192,56552,1,0,0:0:0:0:
392,192,56723,1,8,0:0:0:0:
212,192,56894,1,0,0:0:0:0:
376,192,57066,2,0,L|384:144,2,45,2|0|2,0:0|0:0|0:0,0:0:0:0:
124,192,57409,1,8,0:0:0:0:
236,224,57580,2,0,L|199:187,1,45,2|0,0:0|0:0,0:0:0:0:
24,192,57752,6,0,L|16:292,1,90,2|0,0:0|0:0,0:0:0:0:
196,288,58094,1,8,0:0:0:0:
36,284,58266,1,0,0:0:0:0:
44,228,58352,1,0,0:0:0:0:
72,180,58437,1,2,0:0:0:0:
124,160,58523,1,0,0:0:0:0:
184,160,58609,1,2,0:0:0:0:
428,160,58780,1,8,0:0:0:0:
328,160,58952,2,0,L|324:108,1,45,2|0,0:0|0:0,0:0:0:0:
496,160,59123,6,0,L|500:64,1,90,2|0,0:0|0:0,0:0:0:0:
252,72,59466,1,8,0:0:0:0:
432,72,59637,2,0,L|388:72,1,45,2|0,0:0|0:0,0:0:0:0:
324,72,59809,2,0,L|376:72,1,45,0|0,0:0|0:0,0:0:0:0:
432,72,59980,1,2,0:0:0:0:
180,72,60152,1,8,0:0:0:0:
336,72,60323,1,2,0:0:0:0:
104,72,60494,5,2,0:0:0:0:
256,72,60666,1,0,0:0:0:0:
408,72,60837,1,8,0:0:0:0:
228,192,61009,2,0,L|224:136,1,45,0|0,0:0|0:0,0:0:0:0:
296,240,61180,2,0,L|300:184,1,45,2|0,0:0|0:0,0:0:0:0:
224,148,61352,1,2,0:0:0:0:
476,148,61523,1,8,0:0:0:0:
376,148,61694,2,0,L|332:148,1,45,0|0,0:0|0:0,0:0:0:0:
156,148,61866,5,2,0:0:0:0:
312,148,62037,1,2,0:0:0:0:
124,148,62209,1,8,0:0:0:0:
224,148,62380,2,0,L|228:96,1,45,0|0,0:0|0:0,0:0:0:0:
124,64,62552,1,2,0:0:0:0:
79,64,62637,1,0,0:0:0:0:
34,64,62723,1,2,0:0:0:0:
280,24,62894,2,0,L|188:24,1,90,8|0,0:0|0:0,0:0:0:0:
460,24,63237,6,0,L|368:24,1,90,2|0,0:0|0:0,0:0:0:0:
190,24,63580,1,8,0:0:0:0:
344,104,63752,1,0,0:0:0:0:
292,104,63837,1,0,0:0:0:0:
236,104,63923,1,2,0:0:0:0:
180,104,64009,1,0,0:0:0:0:
128,104,64094,1,2,0:0:0:0:
380,104,64266,2,0,L|384:200,1,90,8|2,0:0|0:0,0:0:0:0:
328,192,64523,1,0,0:0:0:0:
152,192,64609,6,0,L|56:192,1,90,2|0,0:0|0:0,0:0:0:0:
252,192,64952,2,0,L|260:284,1,90,8|0,0:0|0:0,0:0:0:0:
204,280,65209,1,0,0:0:0:0:
36,280,65294,2,0,L|80:280,1,45,2|2,0:0|0:0,0:0:0:0:
159,280,65466,2,0,L|207:280,1,45,2|2,0:0|0:0,0:0:0:0:
40,192,65637,2,0,L|36:140,1,45,8|2,0:0|0:0,0:0:0:0:
116,144,65809,6,0,L|160:144,1,45,2|2,0:0|0:0,0:0:0:0:
256,192,65980,12,0,76952,0:0:0:0:
308,204,87923,5,2,0:0:0:0:
325,165,88009,1,0,0:0:0:0:
326,123,88094,1,0,0:0:0:0:
308,85,88180,1,0,0:0:0:0:
240,84,88266,2,0,L|156:84,1,67.5000025749208,8|0,0:0|0:0,0:0:0:0:
239,83,88523,1,0,0:0:0:0:
308,85,88609,2,0,L|312:40,2,33.7500012874604,2|0|0,0:0|0:0|0:0,0:0:0:0:
241,117,88866,2,0,L|239:68,2,33.7500012874604,8|0|0,0:0|0:0|0:0,0:0:0:0:
308,85,89123,2,0,L|312:48,1,33.7500012874604,2|2,0:0|0:0,0:0:0:0:
239,83,89294,6,0,L|200:84,1,33.7500012874604,2|0,0:0|0:0,0:0:0:0:
206,156,89466,2,0,L|254:156,1,33.7500012874604,0|0,0:0|0:0,0:0:0:0:
328,156,89637,2,0,L|368:156,1,33.7500012874604,8|0,0:0|0:0,0:0:0:0:
408,156,89809,2,0,L|368:156,1,33.7500012874604,2|0,0:0|0:0,0:0:0:0:
328,156,89980,1,2,0:0:0:0:
464,156,90152,1,0,0:0:0:0:
489,122,90237,1,0,0:0:0:0:
490,78,90323,1,8,0:0:0:0:
465,43,90409,1,2,0:0:0:0:
423,32,90494,1,2,0:0:0:0:
248,192,90666,6,0,L|240:140,1,33.7500012874604,2|0,0:0|0:0,0:0:0:0:
304,160,90837,2,0,L|296:104,1,33.7500012874604,0|0,0:0|0:0,0:0:0:0:
208,164,91009,2,0,L|200:112,2,33.7500012874604,8|0|0,0:0|0:0|0:0,0:0:0:0:
348,32,91352,2,0,L|392:32,3,33.7500012874604,2|0|0|8,0:0|0:0|0:0|0:0,0:0:0:0:
424,32,91694,2,0,L|468:32,1,33.7500012874604,0|0,0:0|0:0,0:0:0:0:
381,32,91866,2,0,L|337:32,1,33.7500012874604,0|2,0:0|0:0,0:0:0:0:
271,32,92037,5,2,0:0:0:0:
221,51,92123,1,0,0:0:0:0:
197,101,92209,1,0,0:0:0:0:
214,153,92294,1,0,0:0:0:0:
262,179,92380,2,0,L|339:180,1,67.5000025749208,8|0,0:0|0:0,0:0:0:0:
262,179,92637,1,0,0:0:0:0:
195,180,92723,1,2,0:0:0:0:
186,235,92809,1,0,0:0:0:0:
204,288,92894,1,2,0:0:0:0:
251,320,92980,1,0,0:0:0:0:
339,320,93066,2,0,L|347:280,2,33.7500012874604,8|2|2,0:0|0:0|0:0,0:0:0:0:
204,288,93409,5,2,0:0:0:0:
151,288,93494,1,0,0:0:0:0:
204,288,93580,1,0,0:0:0:0:
259,288,93666,1,0,0:0:0:0:
171,288,93752,2,0,L|167:208,1,67.5000025749208,8|0,0:0|0:0,0:0:0:0:
244,192,94009,1,0,0:0:0:0:
320,192,94094,1,8,0:0:0:0:
353,192,94180,1,0,0:0:0:0:
387,192,94266,1,0,0:0:0:0:
308,120,94352,1,0,0:0:0:0:
341,120,94437,1,2,0:0:0:0:
375,120,94523,1,2,0:0:0:0:
284,120,94609,2,0,L|240:120,1,33.7500012874604,10|0,0:0|0:0,0:0:0:0:
156,120,94780,5,2,0:0:0:0:
124,88,94866,1,0,0:0:0:0:
124,44,94952,1,0,0:0:0:0:
156,16,95037,1,0,0:0:0:0:
236,16,95123,2,0,L|272:32,3,33.7500012874604,8|0|0|0,0:0|0:0|0:0|0:0,0:0:0:0:
345,32,95466,2,0,L|349:80,1,33.7500012874604,2|0,0:0|0:0,0:0:0:0:
281,96,95637,2,0,L|277:132,1,33.7500012874604,2|0,0:0|0:0,0:0:0:0:
353,148,95809,1,8,0:0:0:0:
293,171,95894,1,2,0:0:0:0:
293,235,95980,1,2,0:0:0:0:
364,264,96066,1,2,0:0:0:0:
436,264,96152,5,2,0:0:0:0:
256,192,96323,12,0,98723,0:0:0:0:
276,192,98894,5,2,0:0:0:0:
324,160,98980,1,0,0:0:0:0:
323,102,99066,1,0,0:0:0:0:
275,71,99152,1,0,0:0:0:0:
180,72,99237,2,0,L|176:24,1,45,8|0,0:0|0:0,0:0:0:0:
236,28,99409,2,0,L|284:28,1,45,0|0,0:0|0:0,0:0:0:0:
372,28,99580,2,0,L|384:76,2,45,2|0|2,0:0|0:0|0:0,0:0:0:0:
280,72,99837,2,0,L|292:120,2,45,0|8|0,0:0|0:0|0:0,0:0:0:0:
188,116,100094,2,0,L|200:164,1,45
292,192,100266,6,0,L|300:240,1,45,2|0,0:0|0:0,0:0:0:0:
216,240,100437,2,0,L|224:288,1,45,2|0,0:0|0:0,0:0:0:0:
316,192,100609,2,0,L|324:240,1,45,8|0,0:0|0:0,0:0:0:0:
240,240,100780,2,0,L|248:288,1,45,2|0,0:0|0:0,0:0:0:0:
344,236,100952,1,0,0:0:0:0:
337,177,101037,1,0,0:0:0:0:
299,132,101123,1,2,0:0:0:0:
242,116,101209,1,0,0:0:0:0:
164,116,101294,2,0,L|208:96,1,45,8|0,0:0|0:0,0:0:0:0:
296,44,101466,2,0,L|252:24,1,45,2|0,0:0|0:0,0:0:0:0:
164,28,101637,5,2,0:0:0:0:
142,83,101723,1,0,0:0:0:0:
150,142,101809,1,0,0:0:0:0:
185,190,101894,1,0,0:0:0:0:
284,192,101980,2,0,L|328:192,1,45,8|0,0:0|0:0,0:0:0:0:
260,260,102152,2,0,L|216:260,1,45
312,260,102323,1,2,0:0:0:0:
304,200,102409,1,0,0:0:0:0:
260,156,102494,1,2,0:0:0:0:
200,152,102580,1,0,0:0:0:0:
292,116,102666,2,0,L|296:72,1,45,8|0,0:0|0:0,0:0:0:0:
216,72,102837,2,0,L|220:28,1,45
140,28,103009,5,2,0:0:0:0:
125,84,103094,1,0,0:0:0:0:
154,135,103180,1,2,0:0:0:0:
212,152,103266,1,0,0:0:0:0:
124,152,103352,2,0,L|120:212,1,45,8|0,0:0|0:0,0:0:0:0:
216,244,103523,2,0,L|264:244,1,45
172,244,103694,1,2,0:0:0:0:
121,270,103780,1,0,0:0:0:0:
117,327,103866,1,2,0:0:0:0:
165,359,103952,1,0,0:0:0:0:
256,360,104037,2,0,L|304:360,1,45,8|0,0:0|0:0,0:0:0:0:
216,360,104209,2,0,L|212:308,1,45,2|0,0:0|0:0,0:0:0:0:
308,264,104380,5,2,0:0:0:0:
353,227,104466,1,0,0:0:0:0:
353,169,104552,1,0,0:0:0:0:
309,132,104637,1,0,0:0:0:0:
220,132,104723,2,0,L|176:132,1,45,8|0,0:0|0:0,0:0:0:0:
264,132,104894,2,0,L|272:80,1,45
104,132,105066,2,0,L|56:132,1,45,2|0,0:0|0:0,0:0:0:0:
60,72,105237,2,0,L|104:72,1,45,2|0,0:0|0:0,0:0:0:0:
276,20,105409,1,8,0:0:0:0:
336,24,105494,1,0,0:0:0:0:
384,68,105580,1,0,0:0:0:0:
392,133,105666,1,0,0:0:0:0:
220,132,105752,6,0,L|216:188,1,45,2|0,0:0|0:0,0:0:0:0:
312,176,105923,2,0,L|308:228,1,45,2|0,0:0|0:0,0:0:0:0:
404,220,106094,2,0,L|400:272,1,45,8|0,0:0|0:0,0:0:0:0:
308,220,106266,2,0,L|260:220,1,45
428,220,106437,5,2,0:0:0:0:
420,296,106523,1,0,0:0:0:0:
364,348,106609,1,2,0:0:0:0:
289,360,106694,1,0,0:0:0:0:
473,220,106780,2,0,L|425:220,1,45,8|0,0:0|0:0,0:0:0:0:
220,220,106952,2,0,L|172:220,1,45,2|2,0:0|0:0,0:0:0:0:
312,192,109866,6,0,L|212:192,1,99.0000030212403,4|0,0:0|0:0,0:0:0:0:
396,192,110209,1,8,0:0:0:0:
240,192,110380,1,0,0:0:0:0:
244,140,110466,1,0,0:0:0:0:
276,88,110552,1,2,0:0:0:0:
320,64,110637,1,0,0:0:0:0:
364,64,110723,1,2,0:0:0:0:
116,64,110894,2,0,L|112:12,1,49.5000015106202,8|0,0:0|0:0,0:0:0:0:
192,12,111066,2,0,L|244:12,1,49.5000015106202,0|0,0:0|0:0,0:0:0:0:
92,140,111237,6,0,L|192:140,1,99.0000030212403,2|2,0:0|0:0,0:0:0:0:
372,140,111580,1,8,0:0:0:0:
212,140,111752,2,0,L|204:200,1,49.5000015106202,2|0,0:0|0:0,0:0:0:0:
272,188,111923,1,0,0:0:0:0:
205,189,112009,1,0,0:0:0:0:
140,188,112094,1,2,0:0:0:0:
320,188,112266,1,8,0:0:0:0:
160,188,112437,1,2,0:0:0:0:
440,188,112609,6,0,L|336:188,1,99.0000030212403,2|0,0:0|0:0,0:0:0:0:
400,188,112866,1,0,0:0:0:0:
460,188,112952,1,8,0:0:0:0:
280,188,113123,2,0,L|276:244,1,49.5000015106202,0|0,0:0|0:0,0:0:0:0:
356,260,113294,2,0,L|408:260,2,49.5000015106202,2|2|2,0:0|0:0|0:0,0:0:0:0:
108,260,113637,1,8,0:0:0:0:
228,192,113809,1,2,0:0:0:0:
160,192,113894,1,0,0:0:0:0:
16,192,113980,6,0,L|116:192,1,99.0000030212403,2|0,0:0|0:0,0:0:0:0:
296,192,114323,1,8,0:0:0:0:
128,112,114494,2,0,L|228:112,2,99.0000030212403,2|0|2,0:0|0:0|0:0,0:0:0:0:
368,112,115009,1,8,0:0:0:0:
192,112,115180,1,2,0:0:0:0:
440,112,115352,6,0,L|444:4,1,99.0000030212403,2|0,0:0|0:0,0:0:0:0:
381,12,115609,1,0,0:0:0:0:
320,12,115694,1,8,0:0:0:0:
492,12,115866,2,0,L|496:64,1,49.5000015106202,0|0,0:0|0:0,0:0:0:0:
389,111,116037,1,2,0:0:0:0:
385,61,116123,1,0,0:0:0:0:
381,12,116209,1,2,0:0:0:0:
144,12,116380,1,8,0:0:0:0:
312,12,116552,2,0,L|316:64,1,49.5000015106202,0|0,0:0|0:0,0:0:0:0:
172,64,116723,6,0,L|72:64,1,99.0000030212403,2|0,0:0|0:0,0:0:0:0:
252,64,117066,1,8,0:0:0:0:
152,64,117237,1,0,0:0:0:0:
332,124,117409,1,2,0:0:0:0:
172,124,117580,1,2,0:0:0:0:
440,192,117752,2,0,L|340:192,1,99.0000030212403,8|2,0:0|0:0,0:0:0:0:
64,192,118094,6,0,L|164:192,1,99.0000030212403,2|0,0:0|0:0,0:0:0:0:
341,192,118437,1,8,0:0:0:0:
184,192,118609,1,0,0:0:0:0:
244,192,118694,1,0,0:0:0:0:
184,192,118780,1,2,0:0:0:0:
124,192,118866,1,2,0:0:0:0:
184,192,118952,1,2,0:0:0:0:
432,192,119123,2,0,L|436:76,1,99.0000030212403,8|2,0:0|0:0,0:0:0:0:
376,92,119380,1,0,0:0:0:0:
192,92,119466,6,0,L|92:92,1,99.0000030212403,2|0,0:0|0:0,0:0:0:0:
333,192,119809,2,0,L|433:192,1,99.0000030212403,8|2,0:0|0:0,0:0:0:0:
184,192,120152,2,0,L|180:140,1,49.5000015106202,2|2,0:0|0:0,0:0:0:0:
292,192,120323,2,0,L|295:241,1,49.5000015106202,2|2,0:0|0:0,0:0:0:0:
116,192,120494,2,0,L|112:140,1,49.5000015106202,8|2,0:0|0:0,0:0:0:0:
224,144,120666,2,0,L|276:144,1,49.5000015106202,2|2,0:0|0:0,0:0:0:0:
448,144,120837,6,0,L|344:144,2,99.0000030212403,8|0|8,0:0|0:0|0:0,0:0:0:0:
256,236,121352,2,0,L|168:192,1,99.0000030212403,0|2,0:0|0:0,0:0:0:0:
336,236,121694,1,2,0:0:0:0:
56,236,121866,2,0,L|156:236,1,99.0000030212403,8|0,0:0|0:0,0:0:0:0:
216,236,122123,1,0,0:0:0:0:
368,236,122209,6,0,L|472:236,1,99.0000030212403,2|0,0:0|0:0,0:0:0:0:
276,236,122552,1,8,0:0:0:0:
388,236,122723,1,0,0:0:0:0:
192,236,122894,1,2,0:0:0:0:
190,285,122980,1,0,0:0:0:0:
188,334,123066,1,2,0:0:0:0:
440,336,123237,2,0,L|444:280,1,49.5000015106202,8|0,0:0|0:0,0:0:0:0:
332,288,123409,2,0,L|280:288,1,49.5000015106202,2|0,0:0|0:0,0:0:0:0:
120,284,123580,6,0,L|172:284,1,49.5000015106202,2|0,0:0|0:0,0:0:0:0:
233,288,123752,2,0,L|285:288,1,49.5000015106202
156,192,123923,2,0,L|104:192,3,49.5000015106202,8|0|0|0,0:0|0:0|0:0|0:0,0:0:0:0:
280,192,124266,1,2,0:0:0:0:
285,142,124352,1,2,0:0:0:0:
290,93,124437,1,2,0:0:0:0:
32,92,124609,2,0,L|132:92,1,99.0000030212403,8|2,0:0|0:0,0:0:0:0:
372,92,124952,5,2,0:0:0:0:
200,92,125123,1,2,0:0:0:0:
440,92,125294,1,8,0:0:0:0:
264,92,125466,1,2,0:0:0:0:
200,92,125552,1,0,0:0:0:0:
280,92,125637,1,0,0:0:0:0:
210,92,125723,1,0,0:0:0:0:
140,92,125809,1,2,0:0:0:0:
380,92,125980,1,8,0:0:0:0:
204,192,126152,1,2,0:0:0:0:
480,192,126323,6,0,L|484:292,1,99.0000030212403,2|0,0:0|0:0,0:0:0:0:
304,292,126666,1,8,0:0:0:0:
460,292,126837,1,0,0:0:0:0:
452,228,126923,1,0,0:0:0:0:
424,172,127009,1,2,0:0:0:0:
368,144,127094,1,2,0:0:0:0:
308,140,127180,1,2,0:0:0:0:
56,140,127352,2,0,L|108:140,1,49.5000015106202,8|0,0:0|0:0,0:0:0:0:
216,192,127523,2,0,L|166:192,1,49.5000015106202,2|0,0:0|0:0,0:0:0:0:
24,192,127694,5,2,0:0:0:0:
176,192,127866,1,2,0:0:0:0:
424,192,128037,1,8,0:0:0:0:
284,192,128209,2,0,L|280:140,1,49.5000015106202,0|0,0:0|0:0,0:0:0:0:
440,88,128380,1,2,0:0:0:0:
380,88,128466,1,2,0:0:0:0:
320,88,128552,1,2,0:0:0:0:
72,88,128723,1,8,0:0:0:0:
252,88,128894,2,0,L|256:28,1,49.5000015106202,2|0,0:0|0:0,0:0:0:0:
72,88,129066,6,0,L|68:200,1,99.0000030212403,2|0,0:0|0:0,0:0:0:0:
256,188,129409,2,0,L|156:188,1,99.0000030212403,8|0,0:0|0:0,0:0:0:0:
216,188,129666,1,0,0:0:0:0:
276,188,129752,1,2,0:0:0:0:
186,188,129837,1,2,0:0:0:0:
96,188,129923,1,2,0:0:0:0:
364,188,130094,2,0,L|464:188,1,99.0000030212403,8|2,0:0|0:0,0:0:0:0:
188,288,130437,6,0,L|288:288,1,99.0000030212403,2|0,0:0|0:0,0:0:0:0:
476,288,130780,2,0,L|372:288,1,99.0000030212403,8|0,0:0|0:0,0:0:0:0:
128,288,131123,2,0,L|124:236,1,49.5000015106202,2|2,0:0|0:0,0:0:0:0:
236,192,131294,2,0,L|288:192,1,49.5000015106202,2|2,0:0|0:0,0:0:0:0:
84,192,131466,2,0,L|80:140,1,49.5000015106202,8|2,0:0|0:0,0:0:0:0:
285,192,131637,2,0,L|349:192,1,49.5000015106202,2|2,0:0|0:0,0:0:0:0:
104,192,131809,6,0,L|100:140,2,45,4|0|0,0:0|0:0|0:0,0:0:0:0:
285,192,132152,2,0,L|289:80,1,90,8|0,0:0|0:0,0:0:0:0:
233,100,132409,1,0,0:0:0:0:
205,144,132494,1,2,0:0:0:0:
233,192,132580,1,2,0:0:0:0:
285,192,132666,1,2,0:0:0:0:
97,192,132837,2,0,L|5:192,1,90,8|2,0:0|0:0,0:0:0:0:
277,280,133180,6,0,L|385:280,1,90,2|0,0:0|0:0,0:0:0:0:
200,280,133523,1,8,0:0:0:0:
360,280,133694,2,0,L|364:220,1,45,0|0,0:0|0:0,0:0:0:0:
268,192,133866,2,0,L|264:136,2,45,2|0|2,0:0|0:0|0:0,0:0:0:0:
448,192,134209,6,0,L|352:192,1,90,8|0,0:0|0:0,0:0:0:0:
256,192,134552,12,0,137294,0:0:0:0:
