osu file format v14

[General]
AudioFilename: audio.mp3
AudioLeadIn: 0
PreviewTime: 104380
Countdown: 0
SampleSet: Soft
StackLeniency: 0.7
Mode: 2
LetterboxInBreaks: 0
WidescreenStoryboard: 1

[Editor]
Bookmarks: 152,22094,44037,65980,87923,98894,109866,131809
DistanceSpacing: 1.1
BeatDivisor: 4
GridSize: 4
TimelineZoom: 1

[Metadata]
Title:One Life Left to Live
TitleUnicode:One Life Left to Live
Artist:antiPLUR
ArtistUnicode:antiPLUR
Creator:JBHyperion
Version:Advanced Rain
Source:osu!
Tags:Aaron Dictor electronic 8-bit Featured Artist Mappers Guild Fruit Factory
BeatmapID:2005437
BeatmapSetID:957842

[Difficulty]
HPDrainRate:6
CircleSize:4
OverallDifficulty:9
ApproachRate:9
SliderMultiplier:1.7
SliderTickRate:1

[Events]
//Background and Video events
0,0,"titlewastoolonglmao.jpg",0,0
//Break Periods
2,77152,87323
//Storyboard Layer 0 (Background)
//Storyboard Layer 1 (Fail)
//Storyboard Layer 2 (Pass)
//Storyboard Layer 3 (Foreground)
//Storyboard Sound Samples

[TimingPoints]
152,342.857142857143,4,2,1,50,1,0
11294,-100,4,2,1,80,0,0
20723,-100,4,2,2,70,0,0
21580,-100,4,2,2,80,0,0
22094,-100,4,3,77,100,0,0
22266,-100,4,2,3,50,0,0
44037,-80,4,3,77,100,0,0
44209,-80,4,2,3,60,0,0
44380,-100,4,2,3,60,0,0
65980,-100,4,2,1,42,0,0
67352,-100,4,2,1,38,0,0
68723,-100,4,2,1,34,0,0
70094,-100,4,2,1,30,0,0
71466,-100,4,2,1,26,0,0
72837,-100,4,2,1,22,0,0
74209,-100,4,2,1,18,0,0
75580,-100,4,2,1,14,0,0
76952,-100,4,2,1,10,0,0
87923,-133.333333333333,4,2,2,50,0,0
88266,-133.333333333333,4,2,1,25,0,0
88609,-133.333333333333,4,2,2,50,0,0
88866,-133.333333333333,4,2,1,25,0,0
89123,-133.333333333333,4,2,2,50,0,0
89637,-133.333333333333,4,2,1,25,0,0
89980,-133.333333333333,4,2,2,50,0,0
90323,-133.333333333333,4,2,1,25,0,0
90409,-133.333333333333,4,2,1,40,0,0
90666,-133.333333333333,4,2,2,40,0,0
91009,-133.333333333333,4,2,1,25,0,0
91352,-133.333333333333,4,2,2,50,0,0
91609,-133.333333333333,4,2,1,25,0,0
91866,-133.333333333333,4,2,2,50,0,0
92380,-133.333333333333,4,2,1,25,0,0
92723,-133.333333333333,4,2,2,50,0,0
93066,-133.333333333333,4,2,1,25,0,0
93152,-133.333333333333,4,2,1,40,0,0
93409,-133.333333333333,4,2,1,25,0,0
94352,-133.333333333333,4,2,1,40,0,0
94609,-133.333333333333,4,2,1,25,0,0
94780,-133.333333333333,4,2,1,25,0,0
95894,-133.333333333333,4,2,1,40,0,0
96152,-133.333333333333,4,2,1,20,0,0
97523,-133.333333333333,4,2,1,25,0,0
97866,-133.333333333333,4,2,1,27,0,0
98209,-100,4,2,1,29,0,0
98552,-100,4,2,1,31,0,0
98894,-100,4,2,1,40,0,0
100266,-100,4,2,1,45,0,0
101637,-100,4,2,1,50,0,0
103009,-100,4,2,1,55,0,0
104380,-100,4,2,1,60,0,0
105752,-100,4,2,1,65,0,0
109866,-100,4,3,77,100,0,1
110037,-100,4,2,3,60,0,1
120752,-100,4,2,3,60,0,0
120837,-100,4,3,77,100,0,1
121009,-100,4,2,3,60,0,1
131809,-100,4,3,77,100,0,0
131894,-100,4,2,1,60,0,0
132152,-100,4,2,1,55,0,0
132494,-100,4,2,1,50,0,0
132837,-100,4,2,1,45,0,0
133180,-100,4,2,1,40,0,0
133523,-100,4,2,1,35,0,0
133866,-100,4,2,1,30,0,0
134209,-100,4,2,1,25,0,0
134552,-100,4,2,1,17,0,0
134894,-100,4,2,1,15,0,0
135237,-100,4,2,1,13,0,0
135580,-100,4,2,1,11,0,0
135923,-100,4,2,1,9,0,0
136266,-100,4,2,1,8,0,0
136609,-100,4,2,1,7,0,0
136952,-100,4,2,1,6,0,0
137294,-100,4,2,1,5,0,0

[Colours]
Combo1 : 225,175,150
Combo2 : 195,175,235
Combo3 : 215,200,150
Combo4 : 92,172,172

[HitObjects]
448,192,152,6,0,L|276:192,1,170,2|8,0:0|0:0,0:0:0:0:
476,92,837,1,2,0:0:0:0:
400,92,1009,1,2,0:0:0:0:
324,92,1180,1,8,0:0:0:0:
16,92,1523,2,0,L|192:92,1,170,2|8,0:0|0:0,0:0:0:0:
336,192,2209,1,2,0:0:0:0:
244,192,2380,1,2,0:0:0:0:
344,192,2552,1,8,0:0:0:0:
436,192,2723,1,0,0:0:0:0:
264,192,2894,6,0,L|260:16,1,170,2|8,0:0|0:0,0:0:0:0:
72,132,3580,2,0,L|212:13,1,170,2|8,0:0|0:0,0:0:0:0:
500,24,4266,2,0,L|328:24,1,170,2|8,0:0|0:0,0:0:0:0:
160,24,4952,1,2,0:0:0:0:
252,24,5123,1,0,0:0:0:0:
308,92,5294,1,8,0:0:0:0:
316,176,5466,1,0,0:0:0:0:
144,176,5637,6,0,L|136:352,1,170,2|8,0:0|0:0,0:0:0:0:
324,348,6323,1,2,0:0:0:0:
232,348,6494,1,2,0:0:0:0:
324,348,6666,1,8,0:0:0:0:
20,348,7009,2,0,L|192:348,1,170,2|8,0:0|0:0,0:0:0:0:
376,264,7694,2,0,L|288:264,1,85,2|2,0:0|0:0,0:0:0:0:
384,348,8037,2,0,L|472:348,1,85,8|2,0:0|0:0,0:0:0:0:
291,264,8380,6,0,B|463:264,1,170,2|8,0:0|0:0,0:0:0:0:
280,192,9066,2,0,L|108:192,1,170,2|8,0:0|0:0,0:0:0:0:
296,192,9752,2,0,P|324:120|308:28,1,170,2|8,0:0|0:0,0:0:0:0:
132,48,10437,2,0,L|216:32,1,85,2|0,0:0|0:0,0:0:0:0:
324,104,10780,2,0,L|240:120,1,85,8|2,0:0|0:0,0:0:0:0:
496,192,11123,6,0,L|412:192,1,85,6|0,0:0|0:0,0:0:0:0:
317,191,11466,2,0,L|233:191,1,85,8|0,0:0|0:0,0:0:0:0:
411,192,11809,2,0,L|407:108,1,85,2|2,0:0|0:0,0:0:0:0:
312,108,12152,2,0,L|396:108,1,85,8|0,0:0|0:0,0:0:0:0:
140,108,12494,6,0,L|56:108,1,85,2|0,0:0|0:0,0:0:0:0:
140,36,12837,2,0,L|56:36,1,85,8|2,0:0|0:0,0:0:0:0:
228,36,13180,2,0,L|232:80,2,42.5,2|0|0,0:0|0:0|0:0,0:0:0:0:
316,80,13523,2,0,L|320:124,2,42.5,8|0|0,0:0|0:0|0:0,0:0:0:0:
60,192,13866,6,0,L|144:192,1,85,2|0,0:0|0:0,0:0:0:0:
248,272,14209,2,0,L|164:272,1,85,8|0,0:0|0:0,0:0:0:0:
344,272,14552,2,0,L|348:176,1,85,2|2,0:0|0:0,0:0:0:0:
256,188,14894,2,0,L|160:188,1,85,8|0,0:0|0:0,0:0:0:0:
428,188,15237,6,0,L|435:103,1,85,2|0,0:0|0:0,0:0:0:0:
272,104,15580,2,0,L|184:103,1,85,8|8,0:0|0:0,0:0:0:0:
344,104,15923,2,0,L|348:188,1,85,2|2,0:0|0:0,0:0:0:0:
256,188,16266,1,8,0:0:0:0:
360,188,16437,1,2,0:0:0:0:
104,188,16609,6,0,L|12:188,1,85,2|0,0:0|0:0,0:0:0:0:
192,264,16952,2,0,L|276:264,1,85,8|0,0:0|0:0,0:0:0:0:
28,264,17294,2,0,L|120:264,1,85,2|2,0:0|0:0,0:0:0:0:
208,188,17637,2,0,L|104:188,1,85,8|0,0:0|0:0,0:0:0:0:
372,188,17980,6,0,L|456:188,1,85,2|0,0:0|0:0,0:0:0:0:
364,108,18323,2,0,L|280:108,1,85,8|2,0:0|0:0,0:0:0:0:
108,108,18666,1,2,0:0:0:0:
106,65,18752,1,0,0:0:0:0:
104,23,18837,1,0,0:0:0:0:
208,24,19009,2,0,L|116:24,1,85,8|0,0:0|0:0,0:0:0:0:
380,24,19352,6,0,L|464:24,1,85,2|0,0:0|0:0,0:0:0:0:
364,96,19694,2,0,L|448:96,1,85,8|0,0:0|0:0,0:0:0:0:
276,96,20037,2,0,L|185:95,1,85,2|0,0:0|0:0,0:0:0:0:
284,172,20380,1,8,0:0:0:0:
388,172,20552,1,0,0:0:0:0:
132,172,20723,6,0,L|36:172,2,85,2|0|0,0:0|0:0|0:0,0:0:0:0:
292,256,21237,2,0,L|376:256,1,85,2|0,0:0|0:0,0:0:0:0:
196,256,21580,2,0,B|152:256|152:256|200:256,1,85,2|0,0:0|0:0,0:0:0:0:
352,172,21923,1,0,0:0:0:0:
96,172,22094,6,0,L|92:264,1,85,4|0,0:0|0:0,0:0:0:0:
272,260,22437,2,0,L|188:260,1,85,8|0,0:0|0:0,0:0:0:0:
84,260,22780,2,0,L|80:320,1,42.5,2|0,0:0|0:0,0:0:0:0:
144,348,22952,2,0,L|146:305,1,42.5,2|0,0:0|0:0,0:0:0:0:
40,304,23123,1,8,0:0:0:0:
132,192,23294,2,0,L|180:192,1,42.5,0|0,0:0|0:0,0:0:0:0:
336,192,23466,6,0,L|420:192,1,85,2|0,0:0|0:0,0:0:0:0:
244,120,23809,2,0,L|160:120,1,85,8|2,0:0|0:0,0:0:0:0:
328,36,24152,2,0,L|332:84,2,42.5,0|0|2,0:0|0:0|0:0,0:0:0:0:
167,35,24494,2,0,L|159:119,1,85,8|0,0:0|0:0,0:0:0:0:
331,78,24837,5,2,0:0:0:0:
333,120,24923,1,0,0:0:0:0:
335,162,25009,1,0,0:0:0:0:
156,164,25180,2,0,L|244:164,1,85,8|0,0:0|0:0,0:0:0:0:
284,164,25437,1,0,0:0:0:0:
132,236,25523,2,0,L|128:288,1,42.5,2|0,0:0|0:0,0:0:0:0:
180,280,25694,1,2,0:0:0:0:
352,280,25866,1,8,0:0:0:0:
260,280,26037,2,0,L|256:236,1,42.5,0|0,0:0|0:0,0:0:0:0:
420,192,26209,6,0,L|504:192,1,85,2|2,0:0|0:0,0:0:0:0:
452,192,26466,1,0,0:0:0:0:
400,192,26552,1,8,0:0:0:0:
224,192,26723,1,2,0:0:0:0:
273,175,26809,1,0,0:0:0:0:
295,129,26894,1,0,0:0:0:0:
278,81,26980,1,0,0:0:0:0:
230,60,27066,1,2,0:0:0:0:
56,60,27237,2,0,L|144:60,1,85,8|2,0:0|0:0,0:0:0:0:
312,60,27580,5,2,0:0:0:0:
356,92,27666,1,0,0:0:0:0:
358,146,27752,1,0,0:0:0:0:
314,180,27837,1,0,0:0:0:0:
208,176,27923,2,0,L|204:132,2,42.5,8|0|0,0:0|0:0|0:0,0:0:0:0:
380,264,28266,1,2,0:0:0:0:
338,264,28352,1,0,0:0:0:0:
295,264,28437,1,2,0:0:0:0:
56,264,28609,2,0,L|140:264,1,85,8|0,0:0|0:0,0:0:0:0:
380,192,28952,5,2,0:0:0:0:
232,192,29123,1,2,0:0:0:0:
400,192,29294,2,0,L|404:100,1,85,8|0,0:0|0:0,0:0:0:0:
232,108,29637,1,2,0:0:0:0:
336,108,29809,1,2,0:0:0:0:
164,108,29980,2,0,L|160:168,2,42.5,8|0|2,0:0|0:0|0:0,0:0:0:0:
328,192,30323,6,0,L|332:240,1,42.5,2|0,0:0|0:0,0:0:0:0:
284,268,30494,1,0,0:0:0:0:
232,268,30580,1,0,0:0:0:0:
336,340,30666,2,0,L|420:340,1,85,8|0,0:0|0:0,0:0:0:0:
320,340,31009,1,2,0:0:0:0:
472,340,31180,1,2,0:0:0:0:
232,340,31352,2,0,L|144:340,1,85,8|0,0:0|0:0,0:0:0:0:
316,240,31694,6,0,L|232:240,1,85,2|2,0:0|0:0,0:0:0:0:
76,240,32037,2,0,L|160:240,1,85,8|0,0:0|0:0,0:0:0:0:
340,148,32380,2,0,L|344:96,1,42.5,2|2,0:0|0:0,0:0:0:0:
272,108,32552,2,0,L|268:64,1,42.5,2|2,0:0|0:0,0:0:0:0:
332,28,32723,1,8,0:0:0:0:
394,50,32809,1,2,0:0:0:0:
398,117,32894,1,2,0:0:0:0:
339,147,32980,1,2,0:0:0:0:
176,148,33066,5,2,0:0:0:0:
132,179,33152,1,0,0:0:0:0:
130,233,33237,1,0,0:0:0:0:
173,267,33323,1,0,0:0:0:0:
276,268,33409,2,0,L|284:208,2,42.5,8|0|0,0:0|0:0|0:0,0:0:0:0:
104,344,33752,2,0,L|193:344,1,85,2|2,0:0|0:0,0:0:0:0:
428,272,34094,2,0,L|344:272,1,85,8|0,0:0|0:0,0:0:0:0:
112,272,34437,5,2,0:0:0:0:
204,272,34609,1,2,0:0:0:0:
44,272,34780,1,8,0:0:0:0:
5,232,34866,1,0,0:0:0:0:
5,177,34952,1,0,0:0:0:0:
44,137,35037,1,0,0:0:0:0:
148,136,35123,2,0,L|156:76,1,42.5,2|0,0:0|0:0,0:0:0:0:
84,88,35294,2,0,L|80:40,1,42.5,2|0,0:0|0:0,0:0:0:0:
252,44,35466,2,0,L|348:44,1,85,8|2,0:0|0:0,0:0:0:0:
164,44,35809,6,0,L|160:132,1,85,2|0,0:0|0:0,0:0:0:0:
340,156,36152,2,0,L|252:156,1,85,8|0,0:0|0:0,0:0:0:0:
492,156,36494,1,2,0:0:0:0:
388,156,36666,1,2,0:0:0:0:
220,156,36837,2,0,L|308:156,1,85,8|0,0:0|0:0,0:0:0:0:
476,240,37180,6,0,L|388:240,1,85,2|2,0:0|0:0,0:0:0:0:
432,240,37437,1,0,0:0:0:0:
476,240,37523,1,8,0:0:0:0:
296,240,37694,1,2,0:0:0:0:
256,240,37780,1,0,0:0:0:0:
296,240,37866,1,0,0:0:0:0:
336,240,37952,1,0,0:0:0:0:
296,240,38037,1,2,0:0:0:0:
124,244,38209,2,0,L|56:192,1,85,8|2,0:0|0:0,0:0:0:0:
248,160,38552,5,2,0:0:0:0:
298,141,38637,1,0,0:0:0:0:
295,88,38723,1,0,0:0:0:0:
244,76,38809,1,0,0:0:0:0:
144,76,38894,1,8,0:0:0:0:
100,76,38980,1,0,0:0:0:0:
144,76,39066,1,0,0:0:0:0:
320,24,39237,2,0,L|232:24,1,85,2|2,0:0|0:0,0:0:0:0:
476,24,39580,2,0,L|468:108,1,85,8|0,0:0|0:0,0:0:0:0:
236,112,39923,5,2,0:0:0:0:
324,112,40094,1,0,0:0:0:0:
168,112,40266,1,8,0:0:0:0:
129,152,40352,1,0,0:0:0:0:
129,207,40437,1,0,0:0:0:0:
168,247,40523,1,0,0:0:0:0:
268,248,40609,2,0,L|316:248,1,42.5,2|0,0:0|0:0,0:0:0:0:
360,248,40780,2,0,L|404:248,1,42.5,2|0,0:0|0:0,0:0:0:0:
244,332,40952,2,0,L|236:244,1,85,8|0,0:0|0:0,0:0:0:0:
402,248,41294,6,0,L|406:196,1,42.5,2|0,0:0|0:0,0:0:0:0:
364,164,41466,1,0,0:0:0:0:
312,164,41552,1,0,0:0:0:0:
212,164,41637,2,0,L|208:64,1,85,8|0,0:0|0:0,0:0:0:0:
312,80,41980,1,2,0:0:0:0:
144,80,42152,1,2,0:0:0:0:
397,80,42323,2,0,L|313:80,1,85,8|0,0:0|0:0,0:0:0:0:
80,192,42666,6,0,L|164:192,1,85,2|0,0:0|0:0,0:0:0:0:
328,280,43009,2,0,L|236:280,1,85,8|2,0:0|0:0,0:0:0:0:
424,280,43352,1,2,0:0:0:0:
472,280,43437,1,2,0:0:0:0:
472,232,43523,1,2,0:0:0:0:
424,232,43609,1,2,0:0:0:0:
320,232,43694,1,8,0:0:0:0:
272,232,43780,1,2,0:0:0:0:
272,184,43866,1,2,0:0:0:0:
320,184,43952,1,2,0:0:0:0:
492,104,44037,6,0,L|384:104,1,106.25,8|0,0:0|0:0,0:0:0:0:
216,104,44380,1,8,0:0:0:0:
308,104,44552,2,0,L|312:156,1,42.5,0|0,0:0|0:0,0:0:0:0:
240,184,44723,2,0,L|232:288,1,85,2|2,0:0|0:0,0:0:0:0:
404,260,45066,2,0,L|488:260,1,85,8|0,0:0|0:0,0:0:0:0:
252,260,45409,6,0,L|248:156,1,85,2|0,0:0|0:0,0:0:0:0:
412,176,45752,1,8,0:0:0:0:
320,176,45923,2,0,L|272:176,1,42.5,0|0,0:0|0:0,0:0:0:0:
336,176,46094,2,0,L|377:152,2,42.5,2|0|2,0:0|0:0|0:0,0:0:0:0:
164,176,46437,2,0,L|80:176,1,85,8|0,0:0|0:0,0:0:0:0:
316,48,46780,6,0,L|400:48,1,85,2|0,0:0|0:0,0:0:0:0:
232,48,47123,1,8,0:0:0:0:
332,48,47294,1,0,0:0:0:0:
375,76,47380,1,0,0:0:0:0:
393,125,47466,1,2,0:0:0:0:
376,174,47552,1,0,0:0:0:0:
332,202,47637,1,2,0:0:0:0:
160,204,47809,1,8,0:0:0:0:
248,204,47980,2,0,L|256:152,1,42.5,0|0,0:0|0:0,0:0:0:0:
92,120,48152,6,0,L|78:215,1,85,2|2,0:0|0:0,0:0:0:0:
248,280,48494,1,8,0:0:0:0:
84,280,48666,2,0,L|168:280,2,85,2|0|2,0:0|0:0|0:0,0:0:0:0:
256,192,49180,2,0,L|168:192,1,85,8|2,0:0|0:0,0:0:0:0:
408,192,49523,6,0,L|412:100,1,85,2|0,0:0|0:0,0:0:0:0:
240,108,49866,1,8,0:0:0:0:
336,108,50037,2,0,L|340:156,1,42.5,0|0,0:0|0:0,0:0:0:0:
276,192,50209,1,2,0:0:0:0:
232,192,50294,1,0,0:0:0:0:
188,192,50380,1,2,0:0:0:0:
436,192,50552,2,0,L|432:280,1,85,8|0,0:0|0:0,0:0:0:0:
236,280,50894,6,0,L|152:280,2,85,2|0|8,0:0|0:0|0:0,0:0:0:0:
332,280,51409,2,0,L|336:228,1,42.5,0|0,0:0|0:0,0:0:0:0:
232,192,51580,2,0,L|124:192,1,85,2|2,0:0|0:0,0:0:0:0:
324,192,51923,2,0,L|328:108,1,85,8|0,0:0|0:0,0:0:0:0:
88,192,52266,6,0,L|4:192,1,85,2|0,0:0|0:0,0:0:0:0:
176,192,52609,1,8,0:0:0:0:
80,192,52780,1,0,0:0:0:0:
86,139,52866,1,0,0:0:0:0:
113,94,52952,1,2,0:0:0:0:
157,64,53037,1,0,0:0:0:0:
209,55,53123,1,2,0:0:0:0:
384,56,53294,2,0,L|388:148,1,85,8|0,0:0|0:0,0:0:0:0:
204,192,53637,6,0,L|200:100,1,85,2|2,0:0|0:0,0:0:0:0:
387,140,53980,2,0,L|314:97,1,85,8|0,0:0|0:0,0:0:0:0:
132,96,54323,2,0,B|124:144,2,42.5,2|2|2,0:0|0:0|0:0,0:0:0:0:
232,96,54580,2,0,L|276:96,1,42.5,2|8,0:0|0:0,0:0:0:0:
208,96,54752,2,0,L|200:48,2,42.5,2|2|2,0:0|0:0|0:0,0:0:0:0:
376,96,55009,6,0,L|468:96,2,85,2|0|8,0:0|0:0|0:0,0:0:0:0:
196,96,55523,1,0,0:0:0:0:
288,96,55694,1,2,0:0:0:0:
380,96,55866,1,2,0:0:0:0:
200,96,56037,2,0,L|196:184,1,85,8|0,0:0|0:0,0:0:0:0:
436,192,56380,6,0,L|352:192,2,85,2|0|8,0:0|0:0|0:0,0:0:0:0:
256,192,56894,2,0,L|252:236,1,42.5,0|0,0:0|0:0,0:0:0:0:
320,268,57066,2,0,L|364:268,2,42.5,2|0|2,0:0|0:0|0:0,0:0:0:0:
140,320,57409,2,0,L|144:236,1,85,8|2,0:0|0:0,0:0:0:0:
384,192,57752,6,0,L|468:192,1,85,2|0,0:0|0:0,0:0:0:0:
288,192,58094,1,8,0:0:0:0:
384,192,58266,1,0,0:0:0:0:
432,172,58352,1,0,0:0:0:0:
452,125,58437,1,2,0:0:0:0:
434,77,58523,1,0,0:0:0:0:
387,56,58609,1,2,0:0:0:0:
216,56,58780,2,0,L|300:56,1,85,8|2,0:0|0:0,0:0:0:0:
128,192,59123,6,0,L|44:192,1,85,2|0,0:0|0:0,0:0:0:0:
224,192,59466,1,8,0:0:0:0:
64,192,59637,2,0,L|147:161,2,85,2|0|2,0:0|0:0|0:0,0:0:0:0:
248,192,60152,2,0,L|260:108,1,85,8|2,0:0|0:0,0:0:0:0:
28,104,60494,6,0,L|112:104,1,85,2|0,0:0|0:0,0:0:0:0:
284,108,60837,1,8,0:0:0:0:
184,108,61009,1,0,0:0:0:0:
186,160,61094,1,0,0:0:0:0:
210,207,61180,1,2,0:0:0:0:
252,238,61266,1,0,0:0:0:0:
304,248,61352,1,2,0:0:0:0:
64,248,61523,2,0,L|148:248,1,85,8|0,0:0|0:0,0:0:0:0:
384,208,61866,5,2,0:0:0:0:
252,238,62037,1,2,0:0:0:0:
432,208,62209,2,0,L|436:120,1,85,8|0,0:0|0:0,0:0:0:0:
380,124,62466,1,0,0:0:0:0:
324,124,62552,1,2,0:0:0:0:
488,124,62723,1,2,0:0:0:0:
308,192,62894,2,0,L|220:192,1,85,8|0,0:0|0:0,0:0:0:0:
472,192,63237,6,0,L|468:108,1,85,2|0,0:0|0:0,0:0:0:0:
292,108,63580,1,8,0:0:0:0:
384,108,63752,2,0,L|388:60,1,42.5,0|0,0:0|0:0,0:0:0:0:
316,108,63923,2,0,L|312:60,1,42.5,2|0,0:0|0:0,0:0:0:0:
387,65,64094,1,2,0:0:0:0:
219,66,64266,2,0,L|135:66,1,85,8|2,0:0|0:0,0:0:0:0:
391,138,64609,6,0,L|404:52,1,85,2|0,0:0|0:0,0:0:0:0:
292,108,64952,2,0,L|219:66,1,85,8|0,0:0|0:0,0:0:0:0:
459,22,65294,1,2,0:0:0:0:
505,53,65380,1,2,0:0:0:0:
505,107,65466,1,2,0:0:0:0:
461,138,65552,1,2,0:0:0:0:
356,140,65637,6,0,L|300:140,1,42.5,8|2,0:0|0:0,0:0:0:0:
380,212,65809,2,0,L|424:212,1,42.5,2|2,0:0|0:0,0:0:0:0:
256,192,66152,12,0,76952,0:0:0:0:
224,192,87923,5,2,0:0:0:0:
207,153,88009,1,0,0:0:0:0:
206,111,88094,1,0,0:0:0:0:
224,73,88180,1,0,0:0:0:0:
264,72,88266,2,0,L|344:72,1,63.7500024318696,8|0,0:0|0:0,0:0:0:0:
224,192,88609,2,0,L|220:148,2,31.8750012159348,2|0|0,0:0|0:0|0:0,0:0:0:0:
160,252,88866,2,0,L|156:208,3,31.8750012159348,8|0|0|2,0:0|0:0|0:0|0:0,0:0:0:0:
260,252,89294,6,0,L|292:252,1,31.8750012159348,2|0,0:0|0:0,0:0:0:0:
292,324,89466,2,0,L|248:324,1,31.8750012159348,0|0,0:0|0:0,0:0:0:0:
196,324,89637,2,0,L|128:324,2,63.7500024318696,8|2|2,0:0|0:0|0:0,0:0:0:0:
300,324,90152,1,0,0:0:0:0:
336,301,90237,1,0,0:0:0:0:
351,260,90323,1,8,0:0:0:0:
340,219,90409,1,2,0:0:0:0:
305,193,90494,1,2,0:0:0:0:
204,192,90666,6,0,L|196:140,3,31.8750012159348,2|0|0|0,0:0|0:0|0:0|0:0,0:0:0:0:
136,164,91009,2,0,L|128:112,2,31.8750012159348,8|0|0,0:0|0:0|0:0,0:0:0:0:
240,88,91352,1,2,0:0:0:0:
243,56,91437,1,0,0:0:0:0:
246,24,91523,1,0,0:0:0:0:
180,88,91609,1,8,0:0:0:0:
183,56,91694,1,0,0:0:0:0:
186,24,91780,1,0,0:0:0:0:
246,24,91866,1,0,0:0:0:0:
348,20,92037,5,2,0:0:0:0:
398,39,92123,1,0,0:0:0:0:
422,89,92209,1,0,0:0:0:0:
405,141,92294,1,0,0:0:0:0:
357,167,92380,2,0,L|272:168,1,63.7500024318696,8|0,0:0|0:0,0:0:0:0:
396,264,92723,2,0,L|400:216,2,31.8750012159348,2|0|2,0:0|0:0|0:0,0:0:0:0:
296,264,93066,1,8,0:0:0:0:
265,263,93152,1,2,0:0:0:0:
233,261,93237,1,2,0:0:0:0:
128,256,93409,5,2,0:0:0:0:
80,228,93494,1,0,0:0:0:0:
80,172,93580,1,0,0:0:0:0:
128,148,93666,1,0,0:0:0:0:
192,148,93752,2,0,L|196:72,1,63.7500024318696,8|0,0:0|0:0,0:0:0:0:
92,56,94094,2,0,L|48:56,2,31.8750012159348,8|0|0,0:0|0:0|0:0,0:0:0:0:
48,148,94352,2,0,L|92:148,2,31.8750012159348,0|2|2,0:0|0:0|0:0,0:0:0:0:
92,240,94609,2,0,L|132:240,1,31.8750012159348,10|0,0:0|0:0,0:0:0:0:
188,240,94780,5,2,0:0:0:0:
189,271,94866,1,0,0:0:0:0:
190,303,94952,1,0,0:0:0:0:
292,304,95123,2,0,L|356:304,1,63.7500024318696,8|0,0:0|0:0,0:0:0:0:
308,300,95380,1,0,0:0:0:0:
260,304,95466,2,0,L|220:304,2,31.8750012159348,2|0|2,0:0|0:0|0:0,0:0:0:0:
324,216,95723,2,0,L|364:216,2,31.8750012159348,0|8|2,0:0|0:0|0:0,0:0:0:0:
260,216,95980,5,2,0:0:0:0:
256,192,96152,12,2,98723,0:0:0:0:
276,192,98894,5,2,0:0:0:0:
228,171,98980,1,0,0:0:0:0:
208,123,99066,1,0,0:0:0:0:
226,75,99152,1,0,0:0:0:0:
272,52,99237,2,0,L|328:52,2,42.5,8|0|0,0:0|0:0|0:0,0:0:0:0:
116,48,99580,6,0,L|112:104,2,42.5,2|0|2,0:0|0:0|0:0,0:0:0:0:
180,124,99837,2,0,L|176:180,2,42.5,0|8|0,0:0|0:0|0:0,0:0:0:0:
244,200,100094,2,0,L|240:256,1,42.5
168,244,100266,5,2,0:0:0:0:
128,278,100352,1,0,0:0:0:0:
129,333,100437,1,2,0:0:0:0:
168,372,100523,1,0,0:0:0:0:
236,372,100609,2,0,L|240:320,1,42.5,8|0,0:0|0:0,0:0:0:0:
180,284,100780,2,0,L|184:232,1,42.5,2|0,0:0|0:0,0:0:0:0:
252,240,100952,6,0,L|296:240,1,42.5,0|0,0:0|0:0,0:0:0:0:
340,168,101123,2,0,L|288:168,1,42.5,2|0,0:0|0:0,0:0:0:0:
228,168,101294,1,8,0:0:0:0:
232,112,101380,1,0,0:0:0:0:
268,68,101466,1,2,0:0:0:0:
320,56,101552,1,0,0:0:0:0:
420,56,101637,6,0,L|504:56,1,85,2|0,0:0|0:0,0:0:0:0:
456,74,101894,1,0,0:0:0:0:
435,122,101980,1,8,0:0:0:0:
453,170,102066,1,0,0:0:0:0:
501,191,102152,1,0,0:0:0:0:
320,320,102323,5,2,0:0:0:0:
279,284,102409,1,0,0:0:0:0:
278,229,102494,1,2,0:0:0:0:
319,192,102580,1,0,0:0:0:0:
392,192,102666,2,0,L|396:248,1,42.5,8|0,0:0|0:0,0:0:0:0:
319,192,102837,2,0,L|272:192,1,42.5,0|0,0:0|0:0,0:0:0:0:
172,192,103009,6,0,L|128:192,2,42.5,2|0|2,0:0|0:0|0:0,0:0:0:0:
224,192,103266,1,0,0:0:0:0:
172,192,103352,1,8,0:0:0:0:
344,192,103523,2,0,L|348:140,1,42.5
260,148,103694,5,2,0:0:0:0:
201,116,103780,1,0,0:0:0:0:
202,49,103866,1,2,0:0:0:0:
261,16,103952,1,0,0:0:0:0:
168,48,104037,2,0,L|116:48,1,42.5,8|0,0:0|0:0,0:0:0:0:
202,49,104209,2,0,L|206:97,1,42.5,2|0,0:0|0:0,0:0:0:0:
100,116,104380,6,0,L|96:160,1,42.5,2|0,0:0|0:0,0:0:0:0:
168,160,104552,2,0,L|172:208,1,42.5
72,232,104723,2,0,L|28:232,2,42.5,8|0|0,0:0|0:0|0:0,0:0:0:0:
124,232,104980,1,0,0:0:0:0:
228,232,105066,5,2,0:0:0:0:
286,265,105152,1,0,0:0:0:0:
287,332,105237,1,2,0:0:0:0:
229,367,105323,1,0,0:0:0:0:
124,368,105409,2,0,L|120:316,1,42.5,8|0,0:0|0:0,0:0:0:0:
196,300,105580,2,0,L|240:300,1,42.5
92,192,105752,6,0,L|88:132,1,42.5,2|0,0:0|0:0,0:0:0:0:
160,148,105923,2,0,L|164:88,1,42.5,2|0,0:0|0:0,0:0:0:0:
236,104,106094,2,0,L|232:44,1,42.5,8|0,0:0|0:0,0:0:0:0:
304,64,106266,2,0,L|308:4,1,42.5
161,53,106437,5,2,0:0:0:0:
109,53,106523,1,0,0:0:0:0:
109,105,106609,1,2,0:0:0:0:
161,105,106694,1,0,0:0:0:0:
321,173,106780,2,0,L|381:173,1,42.5,8|0,0:0|0:0,0:0:0:0:
192,192,106952,2,0,L|148:192,1,42.5,2|2,0:0|0:0,0:0:0:0:
148,192,109866,6,0,L|234:192,1,85,4|0,0:0|0:0,0:0:0:0:
52,192,110209,1,8,0:0:0:0:
216,192,110380,1,0,0:0:0:0:
264,172,110466,1,0,0:0:0:0:
284,124,110552,1,2,0:0:0:0:
264,76,110637,1,0,0:0:0:0:
216,64,110723,1,2,0:0:0:0:
396,24,110894,2,0,L|484:24,1,85,8|0,0:0|0:0,0:0:0:0:
436,24,111152,1,0,0:0:0:0:
268,24,111237,6,0,L|180:24,1,85,2|2,0:0|0:0,0:0:0:0:
360,24,111580,1,8,0:0:0:0:
200,104,111752,2,0,L|244:104,1,42.5,2|0,0:0|0:0,0:0:0:0:
304,104,111923,1,0,0:0:0:0:
348,104,112009,1,0,0:0:0:0:
392,104,112094,1,2,0:0:0:0:
212,192,112266,2,0,L|296:192,1,85,8|2,0:0|0:0,0:0:0:0:
40,192,112609,6,0,L|32:296,1,85,2|0,0:0|0:0,0:0:0:0:
212,276,112952,1,8,0:0:0:0:
52,276,113123,2,0,L|104:276,1,42.5,0|0,0:0|0:0,0:0:0:0:
156,276,113294,2,0,L|204:276,1,42.5,2|2,0:0|0:0,0:0:0:0:
136,276,113466,1,2,0:0:0:0:
316,276,113637,2,0,L|408:276,1,85,8|2,0:0|0:0,0:0:0:0:
344,276,113894,1,0,0:0:0:0:
180,352,113980,6,0,L|92:352,1,85,2|0,0:0|0:0,0:0:0:0:
272,352,114323,1,8,0:0:0:0:
92,276,114494,2,0,L|180:276,1,85,2|0,0:0|0:0,0:0:0:0:
76,276,114837,1,2,0:0:0:0:
256,276,115009,1,8,0:0:0:0:
96,192,115180,1,2,0:0:0:0:
368,192,115352,6,0,L|372:104,1,85,2|0,0:0|0:0,0:0:0:0:
192,108,115694,2,0,L|276:108,1,85,8|0,0:0|0:0,0:0:0:0:
192,108,115952,1,0,0:0:0:0:
108,108,116037,2,0,L|104:64,2,42.5,2|0|2,0:0|0:0|0:0,0:0:0:0:
288,32,116380,2,0,L|204:32,1,85,8|0,0:0|0:0,0:0:0:0:
256,32,116637,1,0,0:0:0:0:
420,32,116723,6,0,L|424:132,1,85,2|0,0:0|0:0,0:0:0:0:
244,192,117066,2,0,L|236:284,1,85,8|0,0:0|0:0,0:0:0:0:
320,276,117323,1,0,0:0:0:0:
404,276,117409,1,2,0:0:0:0:
252,276,117580,1,2,0:0:0:0:
432,276,117752,2,0,L|440:192,1,85,8|2,0:0|0:0,0:0:0:0:
184,192,118094,6,0,L|92:192,1,85,2|0,0:0|0:0,0:0:0:0:
276,192,118437,1,8,0:0:0:0:
120,192,118609,2,0,L|116:144,1,42.5,0|0,0:0|0:0,0:0:0:0:
188,116,118780,1,2,0:0:0:0:
224,84,118866,1,2,0:0:0:0:
188,52,118952,1,2,0:0:0:0:
12,52,119123,2,0,L|100:52,1,85,8|2,0:0|0:0,0:0:0:0:
144,52,119380,1,0,0:0:0:0:
308,52,119466,6,0,L|396:52,1,85,2|0,0:0|0:0,0:0:0:0:
212,52,119809,1,8,0:0:0:0:
372,52,119980,1,2,0:0:0:0:
124,128,120152,1,2,0:0:0:0:
83,164,120237,1,2,0:0:0:0:
82,219,120323,1,2,0:0:0:0:
123,256,120409,1,2,0:0:0:0:
284,256,120494,2,0,L|328:256,1,42.5,8|2,0:0|0:0,0:0:0:0:
264,336,120666,2,0,L|220:336,1,42.5,2|2,0:0|0:0,0:0:0:0:
392,336,120837,6,0,L|396:244,1,85,8|0,0:0|0:0,0:0:0:0:
221,336,121180,1,8,0:0:0:0:
404,260,121352,2,0,L|320:260,1,85,0|2,0:0|0:0,0:0:0:0:
370,260,121609,1,0,0:0:0:0:
420,260,121694,1,2,0:0:0:0:
240,260,121866,2,0,L|156:260,1,85,8|0,0:0|0:0,0:0:0:0:
412,260,122209,6,0,L|416:172,1,85,2|0,0:0|0:0,0:0:0:0:
236,176,122552,1,8,0:0:0:0:
404,176,122723,2,0,L|408:120,1,42.5,0|0,0:0|0:0,0:0:0:0:
328,80,122894,1,2,0:0:0:0:
276,80,122980,1,0,0:0:0:0:
328,80,123066,1,2,0:0:0:0:
76,80,123237,1,8,0:0:0:0:
164,80,123409,2,0,L|212:80,1,42.5,2|0,0:0|0:0,0:0:0:0:
372,80,123580,6,0,L|380:168,1,85,2|0,0:0|0:0,0:0:0:0:
200,164,123923,1,8,0:0:0:0:
364,164,124094,2,0,L|360:116,1,42.5,0|0,0:0|0:0,0:0:0:0:
296,120,124266,1,2,0:0:0:0:
338,120,124352,1,2,0:0:0:0:
381,120,124437,1,2,0:0:0:0:
200,48,124609,1,8,0:0:0:0:
292,48,124780,2,0,L|296:96,1,42.5,2|0,0:0|0:0,0:0:0:0:
132,88,124952,6,0,L|48:88,1,85,2|2,0:0|0:0,0:0:0:0:
224,144,125294,1,8,0:0:0:0:
104,192,125466,2,0,L|156:192,1,42.5,2|0,0:0|0:0,0:0:0:0:
226,232,125637,2,0,L|274:232,1,42.5
348,272,125809,1,2,0:0:0:0:
168,328,125980,1,8,0:0:0:0:
272,328,126152,1,2,0:0:0:0:
20,328,126323,6,0,L|16:240,1,85,2|0,0:0|0:0,0:0:0:0:
196,244,126666,1,8,0:0:0:0:
36,244,126837,2,0,L|32:184,1,42.5,0|0,0:0|0:0,0:0:0:0:
112,172,127009,1,2,0:0:0:0:
116,129,127094,1,2,0:0:0:0:
120,87,127180,1,2,0:0:0:0:
300,84,127352,1,8,0:0:0:0:
208,84,127523,2,0,L|252:84,1,42.5,2|0,0:0|0:0,0:0:0:0:
416,84,127694,6,0,L|504:84,1,85,2|2,0:0|0:0,0:0:0:0:
320,164,128037,1,8,0:0:0:0:
480,164,128209,2,0,L|484:220,1,42.5,0|0,0:0|0:0,0:0:0:0:
380,208,128380,2,0,L|467:208,1,85,2|2,0:0|0:0,0:0:0:0:
292,280,128723,1,8,0:0:0:0:
456,280,128894,1,2,0:0:0:0:
200,280,129066,6,0,L|116:280,1,85,2|0,0:0|0:0,0:0:0:0:
292,280,129409,1,8,0:0:0:0:
128,280,129580,2,0,L|132:224,1,42.5,0|0,0:0|0:0,0:0:0:0:
212,192,129752,2,0,L|208:136,1,42.5,2|2,0:0|0:0,0:0:0:0:
128,148,129923,1,2,0:0:0:0:
308,148,130094,1,8,0:0:0:0:
208,149,130266,2,0,L|206:107,1,42.5,2|0,0:0|0:0,0:0:0:0:
368,56,130437,6,0,L|456:56,1,85,2|0,0:0|0:0,0:0:0:0:
272,28,130780,2,0,L|188:28,1,85,8|0,0:0|0:0,0:0:0:0:
428,148,131123,2,0,L|432:200,1,42.5,2|2,0:0|0:0,0:0:0:0:
356,216,131294,2,0,L|352:268,1,42.5,2|2,0:0|0:0,0:0:0:0:
248,256,131466,2,0,L|205:256,1,42.5,8|2,0:0|0:0,0:0:0:0:
264,328,131637,2,0,L|316:328,1,42.5,2|2,0:0|0:0,0:0:0:0:
140,328,131809,6,0,L|96:328,2,42.5,4|0|0,0:0|0:0|0:0,0:0:0:0:
320,328,132152,2,0,L|324:240,1,85,8|0,0:0|0:0,0:0:0:0:
264,240,132409,1,0,0:0:0:0:
323,243,132494,1,2,0:0:0:0:
264,240,132580,1,2,0:0:0:0:
204,236,132666,1,2,0:0:0:0:
376,248,132837,2,0,L|380:156,1,85,8|2,0:0|0:0,0:0:0:0:
320,160,133094,1,0,0:0:0:0:
160,160,133180,6,0,L|76:160,1,85,2|0,0:0|0:0,0:0:0:0:
246,117,133523,2,0,L|318:159,1,85,8|0,0:0|0:0,0:0:0:0:
271,140,133780,1,0,0:0:0:0:
251,93,133866,1,2,0:0:0:0:
269,45,133952,1,0,0:0:0:0:
316,24,134037,1,2,0:0:0:0:
144,24,134209,6,0,L|60:24,1,85,8|0,0:0|0:0,0:0:0:0:
256,192,134552,12,0,137294,0:0:0:0:
