osu file format v14

[General]
AudioFilename: audio.mp3
AudioLeadIn: 0
PreviewTime: 88777
Countdown: 0
SampleSet: Soft
StackLeniency: 0.7
Mode: 3
LetterboxInBreaks: 0
SpecialStyle: 0
WidescreenStoryboard: 1

[Editor]
Bookmarks: 88777,103546,118315,133085
DistanceSpacing: 1.3
BeatDivisor: 4
GridSize: 16
TimelineZoom: 1.7

[Metadata]
Title:Clockwork Spooks
TitleUnicode:Clockwork Spooks
Artist:antiPLUR
ArtistUnicode:antiPLUR
Creator:Lenfried-
Version:Hard
Source:osu!
Tags:-MysticEyes - Aries - FAMoss Mappers' Guild Featured Artist FA Chiptune 8bit Aaron Dictor Electronic
BeatmapID:1970420
BeatmapSetID:943516

[Difficulty]
HPDrainRate:8
CircleSize:7
OverallDifficulty:8
ApproachRate:5
SliderMultiplier:1.4
SliderTickRate:1

[Events]
//Background and Video events
0,0,"architecture-2656_1920.jpg",0,0
//Break Periods
//Storyboard Layer 0 (Background)
//Storyboard Layer 1 (Fail)
//Storyboard Layer 2 (Pass)
//Storyboard Layer 3 (Foreground)
//Storyboard Sound Samples
Sample,29469,0,"tom03.wav",70
Sample,161435,0,"tom02.wav",70

[TimingPoints]
162,230.769230769231,4,2,1,40,1,0
146931,226.415094339623,4,2,1,40,1,0
146931,-102.040816326531,4,2,1,40,0,0
147836,214.170979832233,4,2,1,40,1,1
147836,-107.52688172043,4,2,1,40,0,1
170109,210.526315789474,4,2,1,40,1,1
170109,-109.89010989011,4,2,1,40,0,1
170951,207.612456747405,4,2,1,40,1,1
170951,-111.111111111111,4,2,1,40,0,1
171781,206.185567010309,4,2,1,40,1,1
171781,-112.359550561798,4,2,1,40,0,1
172605,204.778156996587,4,2,1,40,1,1
172605,-112.359550561798,4,2,1,40,0,1
173424,203.389830508475,4,2,1,40,1,1
173424,-113.636363636364,4,2,1,40,0,1
174237,200,4,2,1,40,1,1
174237,-114.942528735632,4,2,1,40,0,1
175037,-100,4,2,1,40,0,0

[HitObjects]
36,192,162,128,0,3854:0:0:0:0:
182,192,162,1,0,0:0:0:0:
182,192,392,1,0,0:0:0:0:
256,192,508,1,0,0:0:0:0:
329,192,623,1,0,0:0:0:0:
402,192,738,1,0,0:0:0:0:
329,192,854,1,0,0:0:0:0:
256,192,969,1,0,0:0:0:0:
182,192,1085,1,0,0:0:0:0:
182,192,1315,1,0,0:0:0:0:
256,192,1431,1,0,0:0:0:0:
329,192,1546,1,0,0:0:0:0:
402,192,1662,1,0,0:0:0:0:
329,192,1777,1,0,0:0:0:0:
256,192,1892,1,0,0:0:0:0:
182,192,2008,1,0,0:0:0:0:
182,192,2238,1,0,0:0:0:0:
256,192,2354,1,0,0:0:0:0:
329,192,2469,1,0,0:0:0:0:
402,192,2585,1,0,0:0:0:0:
329,192,2700,1,0,0:0:0:0:
256,192,2815,1,0,0:0:0:0:
182,192,2931,1,0,0:0:0:0:
182,192,3162,1,0,0:0:0:0:
256,192,3277,1,0,0:0:0:0:
329,192,3392,1,0,0:0:0:0:
402,192,3508,1,0,0:0:0:0:
329,192,3623,1,0,0:0:0:0:
256,192,3738,1,0,0:0:0:0:
182,192,3854,1,0,0:0:0:0:
402,192,3854,128,0,5700:0:0:0:0:
36,192,4085,1,0,0:0:0:0:
109,192,4200,1,0,0:0:0:0:
182,192,4315,1,0,0:0:0:0:
256,192,4431,1,0,0:0:0:0:
182,192,4546,1,0,0:0:0:0:
109,192,4662,1,0,0:0:0:0:
36,192,4777,1,0,0:0:0:0:
36,192,5008,1,0,0:0:0:0:
109,192,5123,1,0,0:0:0:0:
182,192,5238,1,0,0:0:0:0:
329,192,5354,1,0,0:0:0:0:
256,192,5469,1,0,0:0:0:0:
182,192,5585,1,0,0:0:0:0:
36,192,5700,1,0,0:0:0:0:
109,192,5700,128,0,7315:0:0:0:0:
182,192,5931,1,0,0:0:0:0:
256,192,6046,1,0,0:0:0:0:
329,192,6162,1,0,0:0:0:0:
402,192,6277,1,0,0:0:0:0:
329,192,6392,1,0,0:0:0:0:
256,192,6508,1,0,0:0:0:0:
182,192,6623,1,0,0:0:0:0:
182,192,6854,1,0,0:0:0:0:
256,192,6969,1,0,0:0:0:0:
329,192,7085,1,0,0:0:0:0:
256,192,7200,1,0,0:0:0:0:
182,192,7315,1,0,0:0:0:0:
402,192,7315,128,0,7546:0:0:0:0:
109,192,7431,1,0,0:0:0:0:
36,192,7546,128,0,11238:0:0:0:0:
182,192,7777,1,0,0:0:0:0:
256,192,7892,1,0,0:0:0:0:
329,192,8008,1,0,0:0:0:0:
402,192,8123,1,0,0:0:0:0:
329,192,8238,1,0,0:0:0:0:
256,192,8354,1,0,0:0:0:0:
182,192,8469,1,0,0:0:0:0:
182,192,8700,1,0,0:0:0:0:
256,192,8815,1,0,0:0:0:0:
329,192,8931,1,0,0:0:0:0:
402,192,9046,1,0,0:0:0:0:
329,192,9162,1,0,0:0:0:0:
256,192,9277,1,0,0:0:0:0:
182,192,9392,1,0,0:0:0:0:
182,192,9623,1,0,0:0:0:0:
256,192,9738,1,0,0:0:0:0:
329,192,9854,1,0,0:0:0:0:
402,192,9969,1,0,0:0:0:0:
329,192,10085,1,0,0:0:0:0:
256,192,10200,1,0,0:0:0:0:
182,192,10315,1,0,0:0:0:0:
182,192,10546,1,0,0:0:0:0:
256,192,10662,1,0,0:0:0:0:
329,192,10777,1,0,0:0:0:0:
402,192,10892,1,0,0:0:0:0:
329,192,11008,1,0,0:0:0:0:
256,192,11123,1,0,0:0:0:0:
182,192,11238,1,0,0:0:0:0:
402,192,11238,128,0,13085:0:0:0:0:
36,192,11469,1,0,0:0:0:0:
109,192,11585,1,0,0:0:0:0:
182,192,11700,1,0,0:0:0:0:
256,192,11815,1,0,0:0:0:0:
182,192,11931,1,0,0:0:0:0:
109,192,12046,1,0,0:0:0:0:
36,192,12162,1,0,0:0:0:0:
36,192,12392,1,0,0:0:0:0:
109,192,12508,1,0,0:0:0:0:
182,192,12623,1,0,0:0:0:0:
329,192,12738,1,0,0:0:0:0:
256,192,12854,1,0,0:0:0:0:
182,192,12969,1,0,0:0:0:0:
36,192,13085,1,0,0:0:0:0:
109,192,13085,128,0,14700:0:0:0:0:
182,192,13315,1,0,0:0:0:0:
256,192,13431,1,0,0:0:0:0:
329,192,13546,1,0,0:0:0:0:
402,192,13662,1,0,0:0:0:0:
329,192,13777,1,0,0:0:0:0:
256,192,13892,1,0,0:0:0:0:
182,192,14008,1,0,0:0:0:0:
182,192,14238,1,0,0:0:0:0:
256,192,14354,1,0,0:0:0:0:
329,192,14469,1,0,0:0:0:0:
256,192,14585,1,0,0:0:0:0:
182,192,14700,1,0,0:0:0:0:
402,192,14700,128,0,14931:0:0:0:0:
109,192,14815,1,0,0:0:0:0:
36,192,14931,128,2,15392:0:0:0:0:
256,192,14931,1,0,0:0:0:0:
182,192,15162,1,8,0:0:0:0:
402,192,15162,1,0,0:0:0:0:
109,192,15392,1,2,0:0:0:0:
329,192,15392,128,0,15854:0:0:0:0:
36,192,15623,1,8,0:0:0:0:
182,192,15623,1,0,0:0:0:0:
182,192,15854,128,2,16546:0:0:0:0:
475,192,15854,1,0,0:0:0:0:
109,192,16085,1,8,0:0:0:0:
256,192,16085,1,0,0:0:0:0:
329,192,16315,1,2,0:0:0:0:
36,192,16546,1,8,0:0:0:0:
402,192,16546,128,0,16777:0:0:0:0:
475,192,16546,1,0,0:0:0:0:
109,192,16777,128,2,18623:0:0:0:0:
256,192,16777,1,0,0:0:0:0:
329,192,17008,1,8,0:0:0:0:
475,192,17008,1,0,0:0:0:0:
182,192,17238,1,2,0:0:0:0:
329,192,17469,1,8,0:0:0:0:
475,192,17469,1,0,0:0:0:0:
182,192,17700,1,2,0:0:0:0:
256,192,17931,1,8,0:0:0:0:
402,192,17931,1,0,0:0:0:0:
329,192,18162,1,2,0:0:0:0:
182,192,18392,1,8,0:0:0:0:
402,192,18392,1,0,0:0:0:0:
256,192,18623,1,2,0:0:0:0:
402,192,18623,128,0,19777:0:0:0:0:
36,192,18854,1,8,0:0:0:0:
182,192,18854,1,0,0:0:0:0:
329,192,19085,1,2,0:0:0:0:
36,192,19315,1,8,0:0:0:0:
256,192,19315,1,0,0:0:0:0:
182,192,19546,1,2,0:0:0:0:
36,192,19777,1,8,0:0:0:0:
109,192,19777,1,0,0:0:0:0:
329,192,19777,128,0,20008:0:0:0:0:
256,192,20008,128,2,20238:0:0:0:0:
475,192,20008,1,0,0:0:0:0:
36,192,20238,1,8,0:0:0:0:
182,192,20238,128,0,20469:0:0:0:0:
402,192,20238,1,0,0:0:0:0:
109,192,20469,128,2,22315:0:0:0:0:
256,192,20469,1,0,0:0:0:0:
182,192,20700,1,8,0:0:0:0:
402,192,20700,1,0,0:0:0:0:
256,192,20931,1,2,0:0:0:0:
329,192,21162,1,8,0:0:0:0:
475,192,21162,1,0,0:0:0:0:
182,192,21392,1,2,0:0:0:0:
256,192,21623,1,8,0:0:0:0:
402,192,21623,1,0,0:0:0:0:
182,192,21854,1,2,0:0:0:0:
329,192,22085,1,8,0:0:0:0:
475,192,22085,1,0,0:0:0:0:
36,192,22315,128,2,22777:0:0:0:0:
256,192,22315,1,0,0:0:0:0:
329,192,22546,1,8,0:0:0:0:
475,192,22546,1,0,0:0:0:0:
182,192,22777,1,2,0:0:0:0:
329,192,22777,128,0,23238:0:0:0:0:
109,192,23008,1,8,0:0:0:0:
256,192,23008,1,0,0:0:0:0:
36,192,23238,1,2,0:0:0:0:
182,192,23238,128,0,23931:0:0:0:0:
329,192,23469,1,8,0:0:0:0:
475,192,23469,1,0,0:0:0:0:
256,192,23700,1,2,0:0:0:0:
36,192,23931,1,8,0:0:0:0:
402,192,23931,128,0,24162:0:0:0:0:
475,192,23931,1,0,0:0:0:0:
109,192,24162,128,2,26008:0:0:0:0:
256,192,24162,1,0,0:0:0:0:
182,192,24392,1,8,0:0:0:0:
402,192,24392,1,0,0:0:0:0:
256,192,24623,1,2,0:0:0:0:
329,192,24854,1,8,0:0:0:0:
475,192,24854,1,0,0:0:0:0:
182,192,25085,1,2,0:0:0:0:
256,192,25315,1,8,0:0:0:0:
402,192,25315,1,0,0:0:0:0:
182,192,25546,1,2,0:0:0:0:
329,192,25777,1,8,0:0:0:0:
475,192,25777,1,0,0:0:0:0:
36,192,26008,1,2,0:0:0:0:
256,192,26008,128,0,26931:0:0:0:0:
182,192,26238,1,8,0:0:0:0:
402,192,26238,1,0,0:0:0:0:
109,192,26469,1,2,0:0:0:0:
182,192,26700,1,8,0:0:0:0:
402,192,26700,1,0,0:0:0:0:
36,192,26931,1,2,0:0:0:0:
402,192,26931,128,0,27854:0:0:0:0:
109,192,27162,1,8,0:0:0:0:
329,192,27162,1,0,0:0:0:0:
256,192,27392,1,2,0:0:0:0:
36,192,27623,1,8,0:0:0:0:
182,192,27623,1,0,0:0:0:0:
109,192,27854,1,2,0:0:0:0:
329,192,27854,128,0,28777:0:0:0:0:
36,192,28085,1,8,0:0:0:0:
256,192,28085,1,0,0:0:0:0:
182,192,28315,1,2,0:0:0:0:
109,192,28546,1,8,0:0:0:0:
402,192,28546,1,0,0:0:0:0:
256,192,28777,1,2,0:0:0:0:
475,192,28777,128,0,29700:0:0:0:0:
36,192,29008,1,8,0:0:0:0:
182,192,29008,1,0,0:0:0:0:
109,192,29238,1,2,0:0:0:0:
402,192,29238,1,0,0:0:0:70:tom01.wav
329,192,29354,1,2,0:0:0:0:
256,192,29469,1,8,0:0:0:0:
182,192,29585,1,0,0:0:0:70:tom02.wav
36,192,29700,128,2,30162:0:0:0:0:
109,192,29700,1,0,0:0:0:0:
402,192,29700,1,0,0:0:0:0:
329,192,29931,1,8,0:0:0:0:
475,192,29931,1,0,0:0:0:0:
109,192,30162,1,2,0:0:0:0:
329,192,30162,128,0,30623:0:0:0:0:
182,192,30277,1,2,0:0:0:0:
36,192,30392,1,8,0:0:0:0:
475,192,30392,1,0,0:0:0:0:
109,192,30508,1,2,0:0:0:0:
182,192,30623,128,2,31315:0:0:0:0:
329,192,30854,1,8,0:0:0:0:
475,192,30854,1,0,0:0:0:0:
329,192,31085,1,2,0:0:0:0:
256,192,31200,1,2,0:0:0:0:
109,192,31315,1,8,0:0:0:0:
36,192,31315,128,0,31546:0:0:0:0:
402,192,31315,1,0,0:0:0:0:
329,192,31431,1,2,0:0:0:0:
475,192,31546,1,2,0:0:0:0:
256,192,31546,128,0,33392:0:0:0:0:
182,192,31777,1,8,0:0:0:0:
36,192,31777,1,0,0:0:0:0:
402,192,32008,1,2,0:0:0:0:
329,192,32123,1,2,0:0:0:0:
36,192,32238,1,8,0:0:0:0:
475,192,32238,1,0,0:0:0:0:
182,192,32354,1,2,0:0:0:0:
329,192,32469,1,2,0:0:0:0:
182,192,32700,1,8,0:0:0:0:
402,192,32700,1,0,0:0:0:0:
109,192,32931,1,2,0:0:0:0:
402,192,33046,1,2,0:0:0:0:
36,192,33162,1,8,0:0:0:0:
182,192,33162,1,0,0:0:0:0:
475,192,33277,1,2,0:0:0:0:
329,192,33392,128,2,34546:0:0:0:0:
109,192,33392,1,0,0:0:0:0:
475,192,33623,1,8,0:0:0:0:
256,192,33623,1,0,0:0:0:0:
109,192,33854,1,2,0:0:0:0:
182,192,33969,1,2,0:0:0:0:
36,192,34085,1,8,0:0:0:0:
256,192,34085,1,0,0:0:0:0:
109,192,34200,1,2,0:0:0:0:
182,192,34315,1,2,0:0:0:0:
256,192,34546,128,8,34777:0:0:0:0:
402,192,34546,1,0,0:0:0:0:
475,192,34546,1,0,0:0:0:0:
182,192,34777,128,2,35008:0:0:0:0:
402,192,34777,1,0,0:0:0:0:
329,192,34892,1,2,0:0:0:0:
109,192,35008,128,8,35238:0:0:0:0:
256,192,35008,1,0,0:0:0:0:
475,192,35008,1,0,0:0:0:0:
402,192,35123,1,2,0:0:0:0:
36,192,35238,128,2,37085:0:0:0:0:
329,192,35238,1,0,0:0:0:0:
256,192,35469,1,8,0:0:0:0:
402,192,35469,1,0,0:0:0:0:
182,192,35700,1,2,0:0:0:0:
256,192,35815,1,2,0:0:0:0:
109,192,35931,1,8,0:0:0:0:
329,192,35931,1,0,0:0:0:0:
182,192,36046,1,2,0:0:0:0:
256,192,36162,1,2,0:0:0:0:
182,192,36392,1,8,0:0:0:0:
402,192,36392,1,0,0:0:0:0:
256,192,36623,1,2,0:0:0:0:
329,192,36738,1,2,0:0:0:0:
182,192,36854,1,8,0:0:0:0:
402,192,36854,1,0,0:0:0:0:
256,192,36969,1,2,0:0:0:0:
109,192,37085,128,2,37546:0:0:0:0:
329,192,37085,1,0,0:0:0:0:
256,192,37315,1,8,0:0:0:0:
402,192,37315,1,0,0:0:0:0:
36,192,37546,1,2,0:0:0:0:
329,192,37546,128,0,38008:0:0:0:0:
109,192,37662,1,2,0:0:0:0:
182,192,37777,1,8,0:0:0:0:
475,192,37777,1,0,0:0:0:0:
256,192,37892,1,2,0:0:0:0:
36,192,38008,1,2,0:0:0:0:
182,192,38008,128,0,38700:0:0:0:0:
329,192,38238,1,8,0:0:0:0:
475,192,38238,1,0,0:0:0:0:
256,192,38469,1,2,0:0:0:0:
36,192,38585,1,2,0:0:0:0:
109,192,38700,1,8,0:0:0:0:
402,192,38700,128,0,38931:0:0:0:0:
475,192,38700,1,0,0:0:0:0:
182,192,38815,1,2,0:0:0:0:
109,192,38931,128,2,40777:0:0:0:0:
256,192,38931,1,0,0:0:0:0:
329,192,39162,1,8,0:0:0:0:
475,192,39162,1,0,0:0:0:0:
182,192,39392,1,2,0:0:0:0:
256,192,39508,1,2,0:0:0:0:
329,192,39623,1,8,0:0:0:0:
475,192,39623,1,0,0:0:0:0:
182,192,39738,1,2,0:0:0:0:
256,192,39854,1,2,0:0:0:0:
329,192,40085,1,8,0:0:0:0:
475,192,40085,1,0,0:0:0:0:
256,192,40315,1,2,0:0:0:0:
182,192,40431,1,2,0:0:0:0:
402,192,40546,1,8,0:0:0:0:
475,192,40546,1,0,0:0:0:0:
329,192,40662,1,2,0:0:0:0:
36,192,40777,1,2,0:0:0:0:
256,192,40777,128,0,41700:0:0:0:0:
329,192,41008,1,8,0:0:0:0:
475,192,41008,1,0,0:0:0:0:
36,192,41238,1,2,0:0:0:0:
109,192,41354,1,2,0:0:0:0:
182,192,41469,1,8,0:0:0:0:
402,192,41469,1,0,0:0:0:0:
329,192,41585,1,2,0:0:0:0:
109,192,41700,1,2,0:0:0:0:
402,192,41700,128,0,42623:0:0:0:0:
36,192,41931,1,8,0:0:0:0:
182,192,41931,1,0,0:0:0:0:
182,192,42162,1,2,0:0:0:0:
256,192,42277,1,2,0:0:0:0:
109,192,42392,1,8,0:0:0:0:
329,192,42392,1,0,0:0:0:0:
182,192,42508,1,2,0:0:0:0:
36,192,42623,1,2,0:0:0:0:
329,192,42623,128,0,43546:0:0:0:0:
109,192,42854,1,8,0:0:0:0:
256,192,42854,1,0,0:0:0:0:
182,192,43085,1,2,0:0:0:0:
109,192,43200,1,2,0:0:0:0:
36,192,43315,1,8,0:0:0:0:
256,192,43315,1,0,0:0:0:0:
182,192,43431,1,2,0:0:0:0:
109,192,43546,1,2,0:0:0:0:
475,192,43546,128,0,44469:0:0:0:0:
182,192,43777,1,8,0:0:0:0:
402,192,43777,1,0,0:0:0:0:
109,192,44008,1,2,0:0:0:0:
182,192,44123,1,2,0:0:0:0:
36,192,44238,1,8,0:0:0:0:
256,192,44238,1,0,0:0:0:0:
109,192,44354,1,2,0:0:0:0:
182,192,44469,1,2,0:0:0:0:
402,192,44469,1,0,0:0:0:0:
256,192,44585,1,2,0:0:0:0:
36,192,44700,1,8,0:0:0:0:
109,192,44700,1,0,0:0:0:0:
182,192,44815,1,2,0:0:0:0:
329,192,44931,1,2,0:0:0:0:
475,192,44931,1,0,0:0:0:0:
256,192,45046,1,2,0:0:0:0:
36,192,45162,1,8,0:0:0:0:
109,192,45162,1,0,0:0:0:0:
256,192,45277,1,2,0:0:0:0:
402,192,45392,1,2,0:0:0:0:
475,192,45392,1,0,0:0:0:0:
109,192,45508,1,2,0:0:0:0:
182,192,45623,1,8,0:0:0:0:
329,192,45623,1,0,0:0:0:0:
402,192,45738,1,2,0:0:0:0:
36,192,45854,1,2,0:0:0:0:
256,192,45854,1,0,0:0:0:0:
329,192,45969,1,2,0:0:0:0:
36,192,46085,1,8,0:0:0:0:
182,192,46085,1,0,0:0:0:0:
256,192,46200,1,2,0:0:0:0:
329,192,46315,1,2,0:0:0:0:
475,192,46315,1,0,0:0:0:0:
182,192,46431,1,2,0:0:0:0:
36,192,46546,1,8,0:0:0:0:
256,192,46546,1,0,0:0:0:0:
402,192,46662,1,2,0:0:0:0:
109,192,46777,1,2,0:0:0:0:
329,192,46777,1,0,0:0:0:0:
182,192,46892,1,2,0:0:0:0:
256,192,47008,1,8,0:0:0:0:
475,192,47008,1,0,0:0:0:0:
402,192,47123,1,2,0:0:0:0:
36,192,47238,1,2,0:0:0:0:
329,192,47238,1,0,0:0:0:0:
182,192,47354,1,2,0:0:0:0:
256,192,47469,1,8,0:0:0:0:
402,192,47469,1,0,0:0:0:0:
109,192,47585,1,2,0:0:0:0:
329,192,47700,1,2,0:0:0:0:
475,192,47700,1,0,0:0:0:0:
256,192,47815,1,2,0:0:0:0:
36,192,47931,1,8,0:0:0:0:
109,192,47931,1,0,0:0:0:0:
256,192,48046,1,2,0:0:0:0:
329,192,48162,1,2,0:0:0:0:
475,192,48162,1,0,0:0:0:0:
182,192,48277,1,2,0:0:0:0:
36,192,48392,1,8,0:0:0:0:
109,192,48392,1,0,0:0:0:0:
329,192,48508,1,2,0:0:0:0:
109,192,48623,1,2,0:0:0:0:
256,192,48623,1,0,0:0:0:0:
402,192,48738,1,2,0:0:0:0:
36,192,48854,1,8,0:0:0:0:
182,192,48854,1,0,0:0:0:0:
329,192,48969,1,2,0:0:0:0:
109,192,49085,1,2,0:0:0:0:
475,192,49085,1,0,0:0:0:0:
329,192,49200,1,2,0:0:0:0:
36,192,49315,1,8,0:0:0:0:
182,192,49315,1,0,0:0:0:0:
329,192,49431,1,2,0:0:0:0:
402,192,49546,1,2,0:0:0:0:
475,192,49546,1,0,0:0:0:0:
256,192,49662,1,2,0:0:0:0:
36,192,49777,1,8,0:0:0:0:
109,192,49777,1,0,0:0:0:0:
182,192,49892,1,2,0:0:0:0:
329,192,50008,1,2,0:0:0:0:
475,192,50008,1,0,0:0:0:0:
182,192,50123,1,2,0:0:0:0:
36,192,50238,1,8,0:0:0:0:
109,192,50238,1,0,0:0:0:0:
402,192,50354,1,2,0:0:0:0:
182,192,50469,1,2,0:0:0:0:
329,192,50469,1,0,0:0:0:0:
256,192,50585,1,2,0:0:0:0:
36,192,50700,1,8,0:0:0:0:
109,192,50700,1,0,0:0:0:0:
256,192,50815,1,2,0:0:0:0:
329,192,50931,1,2,0:0:0:0:
475,192,50931,1,0,0:0:0:0:
182,192,51046,1,2,0:0:0:0:
36,192,51162,1,8,0:0:0:0:
256,192,51162,1,0,0:0:0:0:
402,192,51277,1,2,0:0:0:0:
109,192,51392,1,2,0:0:0:0:
329,192,51392,1,0,0:0:0:0:
182,192,51508,1,2,0:0:0:0:
402,192,51623,1,8,0:0:0:0:
475,192,51623,1,0,0:0:0:0:
256,192,51738,1,2,0:0:0:0:
36,192,51854,1,2,0:0:0:0:
402,192,51854,1,0,0:0:0:0:
329,192,51969,1,2,0:0:0:0:
109,192,52085,1,8,0:0:0:0:
256,192,52085,1,0,0:0:0:0:
182,192,52200,1,2,0:0:0:0:
329,192,52315,1,2,0:0:0:0:
475,192,52315,1,0,0:0:0:0:
256,192,52431,1,2,0:0:0:0:
36,192,52546,1,8,0:0:0:0:
182,192,52546,1,0,0:0:0:0:
402,192,52662,1,2,0:0:0:0:
109,192,52777,1,2,0:0:0:0:
329,192,52777,1,0,0:0:0:0:
182,192,52892,1,2,0:0:0:0:
36,192,53008,1,8,0:0:0:0:
256,192,53008,1,0,0:0:0:0:
402,192,53123,1,2,0:0:0:0:
109,192,53238,1,2,0:0:0:0:
329,192,53238,1,0,0:0:0:0:
256,192,53354,1,2,0:0:0:0:
36,192,53469,1,8,0:0:0:0:
182,192,53469,1,0,0:0:0:0:
329,192,53585,1,2,0:0:0:0:
109,192,53700,1,2,0:0:0:0:
402,192,53700,1,0,0:0:0:0:
256,192,53815,1,2,0:0:0:0:
36,192,53931,1,8,0:0:0:0:
182,192,53931,1,0,0:0:0:0:
329,192,54046,1,2,0:0:0:0:
109,192,54162,1,2,0:0:0:0:
475,192,54162,1,0,0:0:0:0:
256,192,54277,1,2,0:0:0:0:
182,192,54392,1,8,0:0:0:0:
402,192,54392,1,0,0:0:0:0:
109,192,54508,1,2,0:0:0:0:
329,192,54623,1,2,0:0:0:0:
475,192,54623,1,0,0:0:0:0:
36,192,54738,1,2,0:0:0:0:
182,192,54854,1,8,0:0:0:0:
402,192,54854,1,0,0:0:0:0:
256,192,54969,1,2,0:0:0:0:
36,192,55085,1,2,0:0:0:0:
182,192,55085,1,0,0:0:0:0:
329,192,55200,1,2,0:0:0:0:
109,192,55315,1,8,0:0:0:0:
256,192,55315,1,0,0:0:0:0:
475,192,55431,1,2,0:0:0:0:
182,192,55546,1,2,0:0:0:0:
329,192,55546,1,0,0:0:0:0:
402,192,55662,1,2,0:0:0:0:
36,192,55777,1,8,0:0:0:0:
256,192,55777,1,0,0:0:0:0:
402,192,55892,1,2,0:0:0:0:
109,192,56008,1,2,0:0:0:0:
329,192,56008,1,0,0:0:0:0:
256,192,56123,1,2,0:0:0:0:
36,192,56238,1,8,0:0:0:0:
109,192,56238,1,0,0:0:0:0:
402,192,56354,1,2,0:0:0:0:
182,192,56469,1,2,0:0:0:0:
329,192,56469,1,0,0:0:0:0:
109,192,56585,1,2,0:0:0:0:
36,192,56700,1,8,0:0:0:0:
256,192,56700,1,0,0:0:0:0:
329,192,56815,1,2,0:0:0:0:
182,192,56931,1,2,0:0:0:0:
402,192,56931,1,0,0:0:0:0:
256,192,57046,1,2,0:0:0:0:
36,192,57162,1,8,0:0:0:0:
109,192,57162,1,0,0:0:0:0:
402,192,57277,1,2,0:0:0:0:
109,192,57392,1,2,0:0:0:0:
329,192,57392,1,0,0:0:0:0:
256,192,57508,1,2,0:0:0:0:
182,192,57623,1,8,0:0:0:0:
402,192,57623,1,0,0:0:0:0:
329,192,57738,1,2,0:0:0:0:
36,192,57854,1,2,0:0:0:0:
256,192,57854,1,0,0:0:0:0:
182,192,57969,1,2,0:0:0:0:
109,192,58085,1,8,0:0:0:0:
402,192,58085,1,0,0:0:0:0:
329,192,58200,1,2,0:0:0:0:
36,192,58315,1,2,0:0:0:0:
182,192,58315,1,0,0:0:0:0:
256,192,58431,1,2,0:0:0:0:
109,192,58546,1,8,0:0:0:0:
402,192,58546,1,0,0:0:0:0:
182,192,58662,1,2,0:0:0:0:
256,192,58777,1,2,0:0:0:0:
402,192,58777,1,0,0:0:0:0:
36,192,58892,1,2,0:0:0:0:
109,192,59008,1,8,0:0:0:0:
329,192,59008,1,0,0:0:0:0:
256,192,59123,1,2,0:0:0:0:
36,192,59238,1,2,0:0:0:0:
109,192,59354,1,2,0:0:0:0:
182,192,59469,1,8,0:0:0:0:
256,192,59585,1,2,0:0:0:0:
36,192,59700,1,2,0:0:0:0:
402,192,59700,1,0,0:0:0:0:
109,192,59815,1,2,0:0:0:0:
182,192,59931,1,8,0:0:0:0:
329,192,59931,1,0,0:0:0:0:
256,192,60046,1,0,0:0:0:0:
36,192,60162,1,2,0:0:0:0:
182,192,60162,1,0,0:0:0:0:
256,192,60277,1,2,0:0:0:0:
329,192,60392,1,8,0:0:0:0:
402,192,60508,1,2,0:0:0:0:
36,192,60623,1,2,0:0:0:0:
182,192,60623,1,0,0:0:0:0:
256,192,60738,1,2,0:0:0:0:
109,192,60854,1,8,0:0:0:0:
329,192,60854,1,0,0:0:0:0:
402,192,60969,1,0,0:0:0:0:
36,192,61085,1,2,0:0:0:0:
256,192,61085,1,0,0:0:0:0:
329,192,61200,1,2,0:0:0:0:
402,192,61315,1,8,0:0:0:0:
475,192,61431,1,2,0:0:0:0:
109,192,61546,1,2,0:0:0:0:
256,192,61546,1,0,0:0:0:0:
329,192,61662,1,2,0:0:0:0:
182,192,61777,1,8,0:0:0:0:
402,192,61777,1,0,0:0:0:0:
475,192,61892,1,0,0:0:0:0:
36,192,62008,1,2,0:0:0:0:
182,192,62008,1,0,0:0:0:0:
256,192,62123,1,2,0:0:0:0:
329,192,62238,1,8,0:0:0:0:
402,192,62354,1,2,0:0:0:0:
182,192,62469,1,2,0:0:0:0:
475,192,62469,1,0,0:0:0:0:
256,192,62585,1,2,0:0:0:0:
36,192,62700,1,8,0:0:0:0:
329,192,62700,1,0,0:0:0:0:
402,192,62815,1,0,0:0:0:0:
109,192,62931,1,2,0:0:0:0:
475,192,62931,1,0,0:0:0:0:
182,192,63046,1,2,0:0:0:0:
256,192,63162,1,8,0:0:0:0:
329,192,63277,1,2,0:0:0:0:
109,192,63392,1,2,0:0:0:0:
475,192,63392,1,0,0:0:0:0:
182,192,63508,1,2,0:0:0:0:
36,192,63623,1,8,0:0:0:0:
256,192,63623,1,0,0:0:0:0:
329,192,63738,1,0,0:0:0:0:
109,192,63854,1,2,0:0:0:0:
256,192,63854,1,0,0:0:0:0:
329,192,63969,1,2,0:0:0:0:
402,192,64085,1,8,0:0:0:0:
475,192,64200,1,2,0:0:0:0:
109,192,64315,1,2,0:0:0:0:
256,192,64315,1,0,0:0:0:0:
329,192,64431,1,2,0:0:0:0:
182,192,64546,1,8,0:0:0:0:
402,192,64546,1,0,0:0:0:0:
475,192,64662,1,0,0:0:0:0:
109,192,64777,1,2,0:0:0:0:
329,192,64777,1,0,0:0:0:0:
182,192,64892,1,2,0:0:0:0:
256,192,65008,1,8,0:0:0:0:
329,192,65123,1,2,0:0:0:0:
36,192,65238,1,2,0:0:0:0:
109,192,65238,1,0,0:0:0:0:
182,192,65354,1,2,0:0:0:0:
256,192,65469,1,8,0:0:0:0:
402,192,65469,1,0,0:0:0:0:
329,192,65585,1,0,0:0:0:0:
36,192,65700,1,2,0:0:0:0:
182,192,65700,1,0,0:0:0:0:
256,192,65815,1,2,0:0:0:0:
329,192,65931,1,8,0:0:0:0:
402,192,66046,1,2,0:0:0:0:
182,192,66162,1,2,0:0:0:0:
475,192,66162,1,0,0:0:0:0:
256,192,66277,1,2,0:0:0:0:
109,192,66392,1,8,0:0:0:0:
329,192,66392,1,0,0:0:0:0:
402,192,66508,1,0,0:0:0:0:
36,192,66623,1,2,0:0:0:0:
256,192,66623,1,0,0:0:0:0:
109,192,66738,1,2,0:0:0:0:
182,192,66854,1,8,0:0:0:0:
402,192,66854,1,0,0:0:0:0:
475,192,66854,1,0,0:0:0:0:
256,192,66969,1,2,0:0:0:0:
36,192,67085,1,2,0:0:0:0:
109,192,67200,1,2,0:0:0:0:
182,192,67315,1,8,0:0:0:0:
329,192,67315,1,0,0:0:0:0:
475,192,67315,1,0,0:0:0:0:
256,192,67431,1,0,0:0:0:0:
182,192,67546,1,2,0:0:0:0:
256,192,67662,1,2,0:0:0:0:
36,192,67777,1,8,0:0:0:0:
109,192,67777,1,0,0:0:0:0:
329,192,67777,1,0,0:0:0:0:
402,192,67892,1,2,0:0:0:0:
182,192,68008,1,2,0:0:0:0:
256,192,68123,1,2,0:0:0:0:
36,192,68238,1,8,0:0:0:0:
182,192,68238,1,0,0:0:0:0:
329,192,68238,1,0,0:0:0:0:
402,192,68354,1,0,0:0:0:0:
182,192,68469,1,2,0:0:0:0:
256,192,68585,1,2,0:0:0:0:
36,192,68700,1,8,0:0:0:0:
109,192,68700,1,0,0:0:0:0:
329,192,68700,1,0,0:0:0:0:
402,192,68815,1,2,0:0:0:0:
182,192,68931,1,2,0:0:0:0:
256,192,69046,1,2,0:0:0:0:
36,192,69162,1,8,0:0:0:0:
182,192,69162,1,0,0:0:0:0:
329,192,69162,1,0,0:0:0:0:
402,192,69277,1,0,0:0:0:0:
256,192,69392,1,2,0:0:0:0:
329,192,69508,1,2,0:0:0:0:
36,192,69623,1,8,0:0:0:0:
182,192,69623,1,0,0:0:0:0:
402,192,69623,1,0,0:0:0:0:
475,192,69738,1,2,0:0:0:0:
256,192,69854,1,2,0:0:0:0:
329,192,69969,1,2,0:0:0:0:
36,192,70085,1,8,0:0:0:0:
109,192,70085,1,0,0:0:0:0:
402,192,70085,1,0,0:0:0:0:
475,192,70200,1,0,0:0:0:0:
182,192,70315,1,2,0:0:0:0:
256,192,70431,1,2,0:0:0:0:
36,192,70546,1,8,0:0:0:0:
109,192,70546,1,0,0:0:0:0:
329,192,70546,1,0,0:0:0:0:
402,192,70662,1,2,0:0:0:0:
182,192,70777,1,2,0:0:0:0:
256,192,70892,1,2,0:0:0:0:
36,192,71008,1,8,0:0:0:0:
182,192,71008,1,0,0:0:0:0:
329,192,71008,1,0,0:0:0:0:
402,192,71123,1,0,0:0:0:0:
109,192,71238,1,2,0:0:0:0:
182,192,71354,1,2,0:0:0:0:
36,192,71469,1,8,0:0:0:0:
256,192,71469,1,0,0:0:0:0:
475,192,71469,1,0,0:0:0:0:
329,192,71585,1,2,0:0:0:0:
109,192,71700,1,2,0:0:0:0:
182,192,71815,1,2,0:0:0:0:
36,192,71931,1,8,0:0:0:0:
256,192,71931,1,0,0:0:0:0:
475,192,71931,1,0,0:0:0:0:
329,192,72046,1,0,0:0:0:0:
182,192,72162,1,2,0:0:0:0:
256,192,72277,1,2,0:0:0:0:
36,192,72392,1,8,0:0:0:0:
109,192,72392,1,0,0:0:0:0:
329,192,72392,1,0,0:0:0:0:
402,192,72508,1,2,0:0:0:0:
182,192,72623,1,2,0:0:0:0:
256,192,72738,1,2,0:0:0:0:
36,192,72854,1,8,0:0:0:0:
182,192,72854,1,0,0:0:0:0:
329,192,72854,1,0,0:0:0:0:
402,192,72969,1,0,0:0:0:0:
256,192,73085,1,2,0:0:0:0:
329,192,73200,1,2,0:0:0:0:
36,192,73315,1,8,0:0:0:0:
182,192,73315,1,0,0:0:0:0:
402,192,73315,1,0,0:0:0:0:
475,192,73431,1,2,0:0:0:0:
109,192,73546,1,2,0:0:0:0:
256,192,73546,1,0,0:0:0:0:
329,192,73662,1,2,0:0:0:0:
36,192,73777,1,8,0:0:0:0:
182,192,73777,1,0,0:0:0:0:
402,192,73777,1,0,0:0:0:0:
475,192,73892,1,0,0:0:0:0:
36,192,74008,128,2,74469:0:0:0:0:
256,192,74008,1,0,0:0:0:0:
329,192,74123,1,2,0:0:0:0:
402,192,74238,1,8,0:0:0:0:
475,192,74238,1,0,0:0:0:0:
182,192,74354,1,2,0:0:0:0:
329,192,74469,128,2,74931:0:0:0:0:
256,192,74585,1,2,0:0:0:0:
36,192,74700,1,8,0:0:0:0:
182,192,74700,1,0,0:0:0:0:
475,192,74815,1,0,0:0:0:0:
182,192,74931,128,2,75623:0:0:0:0:
329,192,75046,1,2,0:0:0:0:
256,192,75162,1,8,0:0:0:0:
475,192,75162,1,0,0:0:0:0:
402,192,75277,1,2,0:0:0:0:
36,192,75392,1,2,0:0:0:0:
256,192,75508,1,2,0:0:0:0:
402,192,75623,128,8,75854:0:0:0:0:
475,192,75623,1,0,0:0:0:0:
256,192,75738,1,0,0:0:0:0:
109,192,75854,128,2,77700:0:0:0:0:
182,192,75969,1,2,0:0:0:0:
329,192,76085,1,8,0:0:0:0:
475,192,76085,1,0,0:0:0:0:
182,192,76200,1,2,0:0:0:0:
402,192,76315,1,2,0:0:0:0:
256,192,76431,1,2,0:0:0:0:
329,192,76546,1,8,0:0:0:0:
475,192,76546,1,0,0:0:0:0:
182,192,76662,1,0,0:0:0:0:
402,192,76777,1,2,0:0:0:0:
329,192,76892,1,2,0:0:0:0:
182,192,77008,1,8,0:0:0:0:
475,192,77008,1,0,0:0:0:0:
256,192,77123,1,2,0:0:0:0:
402,192,77238,1,2,0:0:0:0:
329,192,77354,1,2,0:0:0:0:
182,192,77469,1,8,0:0:0:0:
475,192,77469,1,0,0:0:0:0:
256,192,77585,1,0,0:0:0:0:
402,192,77700,128,2,78854:0:0:0:0:
329,192,77815,1,2,0:0:0:0:
36,192,77931,1,8,0:0:0:0:
109,192,77931,1,0,0:0:0:0:
182,192,78046,1,2,0:0:0:0:
329,192,78162,1,2,0:0:0:0:
36,192,78277,1,2,0:0:0:0:
109,192,78392,1,8,0:0:0:0:
256,192,78392,1,0,0:0:0:0:
182,192,78508,1,0,0:0:0:0:
329,192,78623,1,2,0:0:0:0:
182,192,78738,1,2,0:0:0:0:
36,192,78854,1,8,0:0:0:0:
329,192,78854,128,0,79085:0:0:0:0:
475,192,78969,1,2,0:0:0:0:
256,192,79085,128,2,79315:0:0:0:0:
36,192,79200,1,2,0:0:0:0:
182,192,79315,128,8,79546:0:0:0:0:
475,192,79315,1,0,0:0:0:0:
329,192,79431,1,0,0:0:0:0:
109,192,79546,128,2,81392:0:0:0:0:
256,192,79662,1,2,0:0:0:0:
329,192,79777,1,8,0:0:0:0:
475,192,79777,1,0,0:0:0:0:
182,192,79892,1,2,0:0:0:0:
402,192,80008,1,2,0:0:0:0:
182,192,80123,1,2,0:0:0:0:
256,192,80238,1,8,0:0:0:0:
402,192,80238,1,0,0:0:0:0:
329,192,80354,1,0,0:0:0:0:
182,192,80469,1,2,0:0:0:0:
475,192,80585,1,2,0:0:0:0:
182,192,80700,1,8,0:0:0:0:
256,192,80700,1,0,0:0:0:0:
402,192,80815,1,2,0:0:0:0:
182,192,80931,1,2,0:0:0:0:
256,192,81046,1,2,0:0:0:0:
329,192,81162,1,8,0:0:0:0:
475,192,81162,1,0,0:0:0:0:
182,192,81277,1,0,0:0:0:0:
36,192,81392,128,2,81854:0:0:0:0:
182,192,81508,1,2,0:0:0:0:
256,192,81623,1,8,0:0:0:0:
475,192,81623,1,0,0:0:0:0:
402,192,81738,1,2,0:0:0:0:
329,192,81854,128,2,82315:0:0:0:0:
182,192,81969,1,2,0:0:0:0:
36,192,82085,1,8,0:0:0:0:
109,192,82085,1,0,0:0:0:0:
402,192,82200,1,0,0:0:0:0:
182,192,82315,128,2,83008:0:0:0:0:
475,192,82431,1,2,0:0:0:0:
36,192,82546,1,8,0:0:0:0:
256,192,82546,1,0,0:0:0:0:
329,192,82662,1,2,0:0:0:0:
402,192,82777,1,2,0:0:0:0:
256,192,82892,1,2,0:0:0:0:
109,192,83008,1,8,0:0:0:0:
402,192,83008,128,0,83238:0:0:0:0:
256,192,83123,1,0,0:0:0:0:
109,192,83238,128,2,84854:0:0:0:0:
329,192,83354,1,2,0:0:0:0:
402,192,83469,1,8,0:0:0:0:
475,192,83469,1,0,0:0:0:0:
182,192,83585,1,2,0:0:0:0:
329,192,83700,1,2,0:0:0:0:
256,192,83815,1,2,0:0:0:0:
182,192,83931,1,8,0:0:0:0:
402,192,83931,1,0,0:0:0:0:
329,192,84046,1,0,0:0:0:0:
256,192,84162,1,2,0:0:0:0:
475,192,84277,1,2,0:0:0:0:
182,192,84392,1,8,0:0:0:0:
329,192,84392,1,0,0:0:0:0:
256,192,84508,1,2,0:0:0:0:
402,192,84623,1,2,0:0:0:0:
182,192,84738,1,2,0:0:0:0:
256,192,84854,128,8,85085:0:0:0:0:
475,192,84854,1,0,0:0:0:0:
109,192,84969,1,0,0:0:0:0:
402,192,85085,128,2,86931:0:0:0:0:
36,192,85200,1,2,0:0:0:0:
182,192,85315,1,8,0:0:0:0:
329,192,85315,1,0,0:0:0:0:
109,192,85431,1,2,0:0:0:0:
256,192,85546,1,2,0:0:0:0:
182,192,85662,1,2,0:0:0:0:
109,192,85777,1,8,0:0:0:0:
329,192,85777,1,0,0:0:0:0:
256,192,85892,1,0,0:0:0:0:
36,192,86008,1,2,0:0:0:0:
109,192,86123,1,2,0:0:0:0:
182,192,86238,1,8,0:0:0:0:
329,192,86238,1,0,0:0:0:0:
256,192,86354,1,2,0:0:0:0:
109,192,86469,1,2,0:0:0:0:
256,192,86585,1,2,0:0:0:0:
36,192,86700,1,8,0:0:0:0:
109,192,86700,1,0,0:0:0:0:
182,192,86815,1,0,0:0:0:0:
329,192,86931,128,2,88777:0:0:0:0:
36,192,87046,1,2,0:0:0:0:
256,192,87162,1,8,0:0:0:0:
475,192,87162,1,0,0:0:0:0:
109,192,87277,1,2,0:0:0:0:
182,192,87392,1,2,0:0:0:0:
36,192,87508,1,2,0:0:0:0:
256,192,87623,1,8,0:0:0:0:
402,192,87623,1,0,0:0:0:0:
109,192,87738,1,0,0:0:0:0:
182,192,87854,1,2,0:0:0:0:
36,192,87969,1,2,0:0:0:0:
109,192,88085,1,8,0:0:0:0:
256,192,88085,1,0,0:0:0:0:
475,192,88200,1,2,0:0:0:0:
36,192,88315,1,2,0:0:0:0:
182,192,88315,1,0,0:0:0:70:tom01.wav
402,192,88431,1,2,0:0:0:0:
109,192,88546,1,8,0:0:0:0:
256,192,88546,1,0,0:0:0:70:tom03.wav
182,192,88662,1,0,0:0:0:70:tom02.wav
36,192,88777,128,2,89700:0:0:0:0:
109,192,88777,1,0,0:0:0:0:
256,192,88892,1,2,0:0:0:0:
182,192,89008,1,8,0:0:0:0:
402,192,89008,1,0,0:0:0:0:
329,192,89123,1,2,0:0:0:0:
109,192,89238,1,2,0:0:0:0:
256,192,89238,1,0,0:0:0:0:
402,192,89354,1,2,0:0:0:0:
182,192,89469,1,8,0:0:0:0:
329,192,89469,1,0,0:0:0:0:
256,192,89585,1,0,0:0:0:0:
182,192,89700,128,2,90623:0:0:0:0:
475,192,89700,1,0,0:0:0:0:
329,192,89815,1,2,0:0:0:0:
109,192,89931,1,8,0:0:0:0:
402,192,89931,1,0,0:0:0:0:
256,192,90046,1,2,0:0:0:0:
329,192,90162,1,2,0:0:0:0:
475,192,90162,1,0,0:0:0:0:
36,192,90277,1,2,0:0:0:0:
109,192,90392,1,8,0:0:0:0:
256,192,90392,1,0,0:0:0:0:
402,192,90508,1,0,0:0:0:0:
36,192,90623,1,2,0:0:0:0:
329,192,90623,128,0,91546:0:0:0:0:
109,192,90738,1,2,0:0:0:0:
182,192,90854,1,8,0:0:0:0:
475,192,90854,1,0,0:0:0:0:
256,192,90969,1,2,0:0:0:0:
36,192,91085,1,2,0:0:0:0:
182,192,91085,1,0,0:0:0:0:
402,192,91200,1,2,0:0:0:0:
109,192,91315,1,8,0:0:0:0:
256,192,91315,1,0,0:0:0:0:
182,192,91431,1,0,0:0:0:0:
402,192,91546,1,2,0:0:0:0:
475,192,91546,128,0,92469:0:0:0:0:
109,192,91662,1,2,0:0:0:0:
182,192,91777,1,8,0:0:0:0:
329,192,91777,1,0,0:0:0:0:
36,192,91892,1,2,0:0:0:0:
109,192,92008,1,2,0:0:0:0:
256,192,92008,1,0,0:0:0:0:
182,192,92123,1,2,0:0:0:0:
329,192,92238,1,8,0:0:0:0:
402,192,92238,1,0,0:0:0:0:
256,192,92354,1,0,0:0:0:0:
109,192,92469,128,2,93392:0:0:0:0:
182,192,92469,1,0,0:0:0:0:
329,192,92585,1,2,0:0:0:0:
256,192,92700,1,8,0:0:0:0:
475,192,92700,1,0,0:0:0:0:
402,192,92815,1,2,0:0:0:0:
182,192,92931,1,2,0:0:0:0:
329,192,92931,1,0,0:0:0:0:
256,192,93046,1,2,0:0:0:0:
402,192,93162,1,8,0:0:0:0:
475,192,93162,1,0,0:0:0:0:
329,192,93277,1,0,0:0:0:0:
36,192,93392,1,2,0:0:0:0:
182,192,93392,128,0,94315:0:0:0:0:
329,192,93508,1,2,0:0:0:0:
256,192,93623,1,8,0:0:0:0:
402,192,93623,1,0,0:0:0:0:
36,192,93738,1,2,0:0:0:0:
109,192,93854,1,2,0:0:0:0:
329,192,93854,1,0,0:0:0:0:
256,192,93969,1,2,0:0:0:0:
402,192,94085,1,8,0:0:0:0:
475,192,94085,1,0,0:0:0:0:
256,192,94200,1,0,0:0:0:0:
36,192,94315,1,2,0:0:0:0:
329,192,94315,128,0,95238:0:0:0:0:
109,192,94431,1,2,0:0:0:0:
182,192,94546,1,8,0:0:0:0:
475,192,94546,1,0,0:0:0:0:
256,192,94662,1,2,0:0:0:0:
36,192,94777,1,2,0:0:0:0:
182,192,94777,1,0,0:0:0:0:
402,192,94892,1,2,0:0:0:0:
109,192,95008,1,8,0:0:0:0:
256,192,95008,1,0,0:0:0:0:
182,192,95123,1,0,0:0:0:0:
36,192,95238,1,2,0:0:0:0:
109,192,95238,1,0,0:0:0:0:
402,192,95238,128,0,96162:0:0:0:0:
256,192,95354,1,2,0:0:0:0:
182,192,95469,1,8,0:0:0:0:
475,192,95469,1,0,0:0:0:0:
109,192,95585,1,2,0:0:0:0:
36,192,95700,1,2,0:0:0:0:
329,192,95700,1,0,0:0:0:0:
182,192,95815,1,2,0:0:0:0:
109,192,95931,1,8,0:0:0:0:
256,192,95931,1,0,0:0:0:0:
329,192,96046,1,0,0:0:0:0:
36,192,96162,128,2,97085:0:0:0:0:
182,192,96162,1,0,0:0:0:0:
329,192,96277,1,2,0:0:0:0:
256,192,96392,1,8,0:0:0:0:
475,192,96392,1,0,0:0:0:0:
182,192,96508,1,2,0:0:0:0:
329,192,96623,1,2,0:0:0:0:
402,192,96623,1,0,0:0:0:0:
109,192,96738,1,2,0:0:0:0:
182,192,96854,1,8,0:0:0:0:
329,192,96854,1,0,0:0:0:0:
256,192,96969,1,0,0:0:0:0:
109,192,97085,128,2,98008:0:0:0:0:
475,192,97085,1,0,0:0:0:0:
402,192,97200,1,2,0:0:0:0:
182,192,97315,1,8,0:0:0:0:
329,192,97315,1,0,0:0:0:0:
256,192,97431,1,2,0:0:0:0:
402,192,97546,1,2,0:0:0:0:
475,192,97546,1,0,0:0:0:0:
182,192,97662,1,2,0:0:0:0:
256,192,97777,1,8,0:0:0:0:
329,192,97892,1,0,0:0:0:0:
182,192,98008,1,2,0:0:0:0:
402,192,98008,128,0,98931:0:0:0:0:
109,192,98123,1,2,0:0:0:0:
36,192,98238,1,8,0:0:0:0:
256,192,98238,1,0,0:0:0:0:
182,192,98354,1,2,0:0:0:0:
109,192,98469,1,2,0:0:0:0:
329,192,98469,1,0,0:0:0:0:
182,192,98585,1,2,0:0:0:0:
36,192,98700,1,8,0:0:0:0:
256,192,98700,1,0,0:0:0:0:
109,192,98815,1,0,0:0:0:0:
182,192,98931,1,2,0:0:0:0:
475,192,98931,128,0,99854:0:0:0:0:
329,192,99046,1,2,0:0:0:0:
109,192,99162,1,8,0:0:0:0:
256,192,99162,1,0,0:0:0:0:
36,192,99277,1,2,0:0:0:0:
182,192,99392,1,2,0:0:0:0:
402,192,99392,1,0,0:0:0:0:
256,192,99508,1,2,0:0:0:0:
109,192,99623,1,8,0:0:0:0:
329,192,99623,1,0,0:0:0:0:
256,192,99738,1,0,0:0:0:0:
36,192,99854,1,2,0:0:0:0:
182,192,99854,128,0,101469:0:0:0:0:
402,192,99969,1,2,0:0:0:0:
109,192,100085,1,8,0:0:0:0:
329,192,100085,1,0,0:0:0:0:
256,192,100200,1,2,0:0:0:0:
402,192,100315,1,2,0:0:0:0:
475,192,100315,1,0,0:0:0:0:
36,192,100431,1,2,0:0:0:0:
109,192,100546,1,8,0:0:0:0:
256,192,100546,1,0,0:0:0:0:
329,192,100662,1,0,0:0:0:0:
36,192,100777,1,2,0:0:0:0:
402,192,100777,1,0,0:0:0:0:
329,192,100892,1,2,0:0:0:0:
256,192,101008,1,8,0:0:0:0:
475,192,101008,1,0,0:0:0:0:
402,192,101123,1,2,0:0:0:0:
109,192,101238,1,2,0:0:0:0:
329,192,101238,1,0,0:0:0:0:
475,192,101354,1,2,0:0:0:0:
36,192,101469,1,8,0:0:0:0:
329,192,101469,128,0,101700:0:0:0:0:
109,192,101585,1,0,0:0:0:0:
182,192,101700,128,2,103546:0:0:0:0:
475,192,101700,1,0,0:0:0:0:
402,192,101815,1,2,0:0:0:0:
36,192,101931,1,8,0:0:0:0:
329,192,101931,1,0,0:0:0:0:
256,192,102046,1,2,0:0:0:0:
402,192,102162,1,2,0:0:0:0:
475,192,102162,1,0,0:0:0:0:
256,192,102277,1,2,0:0:0:0:
36,192,102392,1,8,0:0:0:0:
329,192,102392,1,0,0:0:0:0:
109,192,102508,1,0,0:0:0:0:
402,192,102623,1,2,0:0:0:0:
475,192,102623,1,0,0:0:0:0:
256,192,102738,1,2,0:0:0:0:
36,192,102854,1,8,0:0:0:0:
329,192,102854,1,0,0:0:0:0:
109,192,102969,1,2,0:0:0:0:
256,192,103085,1,2,0:0:0:0:
475,192,103085,1,0,0:0:0:0:
402,192,103200,1,2,0:0:0:0:
109,192,103315,1,8,0:0:0:0:
329,192,103315,1,0,0:0:0:0:
256,192,103431,1,0,0:0:0:0:
36,192,103546,128,2,104469:0:0:0:0:
402,192,103546,1,0,0:0:0:0:
475,192,103546,1,0,0:0:0:0:
256,192,103662,1,2,0:0:0:0:
182,192,103777,1,8,0:0:0:0:
402,192,103777,1,0,0:0:0:0:
329,192,103892,1,2,0:0:0:0:
109,192,104008,1,2,0:0:0:0:
256,192,104008,1,0,0:0:0:0:
402,192,104123,1,2,0:0:0:0:
182,192,104238,1,8,0:0:0:0:
329,192,104238,1,0,0:0:0:0:
256,192,104354,1,0,0:0:0:0:
182,192,104469,128,2,105392:0:0:0:0:
402,192,104469,1,0,0:0:0:0:
475,192,104469,1,0,0:0:0:0:
329,192,104585,1,2,0:0:0:0:
109,192,104700,1,8,0:0:0:0:
402,192,104700,1,0,0:0:0:0:
256,192,104815,1,2,0:0:0:0:
329,192,104931,1,2,0:0:0:0:
475,192,104931,1,0,0:0:0:0:
36,192,105046,1,2,0:0:0:0:
109,192,105162,1,8,0:0:0:0:
256,192,105162,1,0,0:0:0:0:
475,192,105277,1,0,0:0:0:0:
36,192,105392,1,2,0:0:0:0:
256,192,105392,1,0,0:0:0:0:
329,192,105392,128,0,106315:0:0:0:0:
109,192,105508,1,2,0:0:0:0:
182,192,105623,1,8,0:0:0:0:
475,192,105623,1,0,0:0:0:0:
256,192,105738,1,2,0:0:0:0:
36,192,105854,1,2,0:0:0:0:
182,192,105854,1,0,0:0:0:0:
402,192,105969,1,2,0:0:0:0:
109,192,106085,1,8,0:0:0:0:
256,192,106085,1,0,0:0:0:0:
182,192,106200,1,0,0:0:0:0:
36,192,106315,1,2,0:0:0:0:
402,192,106315,1,0,0:0:0:0:
475,192,106315,128,0,107238:0:0:0:0:
109,192,106431,1,2,0:0:0:0:
182,192,106546,1,8,0:0:0:0:
329,192,106546,1,0,0:0:0:0:
36,192,106662,1,2,0:0:0:0:
109,192,106777,1,2,0:0:0:0:
256,192,106777,1,0,0:0:0:0:
182,192,106892,1,2,0:0:0:0:
329,192,107008,1,8,0:0:0:0:
402,192,107008,1,0,0:0:0:0:
256,192,107123,1,0,0:0:0:0:
36,192,107238,1,2,0:0:0:0:
109,192,107238,128,0,108162:0:0:0:0:
182,192,107238,1,0,0:0:0:0:
329,192,107354,1,2,0:0:0:0:
256,192,107469,1,8,0:0:0:0:
475,192,107469,1,0,0:0:0:0:
402,192,107585,1,2,0:0:0:0:
182,192,107700,1,2,0:0:0:0:
329,192,107700,1,0,0:0:0:0:
256,192,107815,1,2,0:0:0:0:
402,192,107931,1,8,0:0:0:0:
475,192,107931,1,0,0:0:0:0:
329,192,108046,1,0,0:0:0:0:
36,192,108162,1,2,0:0:0:0:
182,192,108162,128,0,109085:0:0:0:0:
475,192,108162,1,0,0:0:0:0:
329,192,108277,1,2,0:0:0:0:
256,192,108392,1,8,0:0:0:0:
402,192,108392,1,0,0:0:0:0:
36,192,108508,1,2,0:0:0:0:
109,192,108623,1,2,0:0:0:0:
329,192,108623,1,0,0:0:0:0:
256,192,108738,1,2,0:0:0:0:
402,192,108854,1,8,0:0:0:0:
475,192,108854,1,0,0:0:0:0:
256,192,108969,1,0,0:0:0:0:
36,192,109085,1,2,0:0:0:0:
329,192,109085,128,0,110008:0:0:0:0:
402,192,109085,1,0,0:0:0:0:
109,192,109200,1,2,0:0:0:0:
182,192,109315,1,8,0:0:0:0:
475,192,109315,1,0,0:0:0:0:
256,192,109431,1,2,0:0:0:0:
36,192,109546,1,2,0:0:0:0:
182,192,109546,1,0,0:0:0:0:
402,192,109662,1,2,0:0:0:0:
36,192,109777,1,8,0:0:0:0:
256,192,109777,1,0,0:0:0:0:
182,192,109892,1,0,0:0:0:0:
109,192,110008,1,2,0:0:0:0:
402,192,110008,128,0,110931:0:0:0:0:
475,192,110008,1,0,0:0:0:0:
256,192,110123,1,2,0:0:0:0:
182,192,110238,1,8,0:0:0:0:
475,192,110238,1,0,0:0:0:0:
109,192,110354,1,2,0:0:0:0:
36,192,110469,1,2,0:0:0:0:
329,192,110469,1,0,0:0:0:0:
182,192,110585,1,2,0:0:0:0:
109,192,110700,1,8,0:0:0:0:
256,192,110700,1,0,0:0:0:0:
329,192,110815,1,0,0:0:0:0:
36,192,110931,128,2,111854:0:0:0:0:
109,192,110931,1,0,0:0:0:0:
182,192,110931,1,0,0:0:0:0:
329,192,111046,1,2,0:0:0:0:
256,192,111162,1,8,0:0:0:0:
475,192,111162,1,0,0:0:0:0:
182,192,111277,1,2,0:0:0:0:
329,192,111392,1,2,0:0:0:0:
402,192,111392,1,0,0:0:0:0:
109,192,111508,1,2,0:0:0:0:
182,192,111623,1,8,0:0:0:0:
329,192,111623,1,0,0:0:0:0:
256,192,111738,1,0,0:0:0:0:
109,192,111854,128,2,112777:0:0:0:0:
182,192,111854,1,0,0:0:0:0:
475,192,111854,1,0,0:0:0:0:
402,192,111969,1,2,0:0:0:0:
182,192,112085,1,8,0:0:0:0:
329,192,112085,1,0,0:0:0:0:
256,192,112200,1,2,0:0:0:0:
402,192,112315,1,2,0:0:0:0:
475,192,112315,1,0,0:0:0:0:
182,192,112431,1,2,0:0:0:0:
256,192,112546,1,8,0:0:0:0:
402,192,112546,1,0,0:0:0:0:
329,192,112662,1,0,0:0:0:0:
182,192,112777,1,2,0:0:0:0:
402,192,112777,128,0,113700:0:0:0:0:
475,192,112777,1,0,0:0:0:0:
109,192,112892,1,2,0:0:0:0:
36,192,113008,1,8,0:0:0:0:
256,192,113008,1,0,0:0:0:0:
182,192,113123,1,2,0:0:0:0:
109,192,113238,1,2,0:0:0:0:
329,192,113238,1,0,0:0:0:0:
182,192,113354,1,2,0:0:0:0:
36,192,113469,1,8,0:0:0:0:
256,192,113469,1,0,0:0:0:0:
109,192,113585,1,0,0:0:0:0:
182,192,113700,1,2,0:0:0:0:
329,192,113700,1,0,0:0:0:0:
475,192,113700,128,0,114623:0:0:0:0:
256,192,113815,1,2,0:0:0:0:
36,192,113931,1,8,0:0:0:0:
109,192,113931,1,0,0:0:0:0:
329,192,114046,1,2,0:0:0:0:
182,192,114162,1,2,0:0:0:0:
402,192,114162,1,0,0:0:0:0:
256,192,114277,1,2,0:0:0:0:
109,192,114392,1,8,0:0:0:0:
329,192,114392,1,0,0:0:0:0:
256,192,114508,1,0,0:0:0:0:
36,192,114623,1,2,0:0:0:0:
109,192,114623,1,0,0:0:0:0:
182,192,114623,128,0,116238:0:0:0:0:
402,192,114738,1,2,0:0:0:0:
109,192,114854,1,8,0:0:0:0:
329,192,114854,1,0,0:0:0:0:
256,192,114969,1,2,0:0:0:0:
402,192,115085,1,2,0:0:0:0:
475,192,115085,1,0,0:0:0:0:
36,192,115200,1,2,0:0:0:0:
109,192,115315,1,8,0:0:0:0:
256,192,115315,1,0,0:0:0:0:
329,192,115431,1,0,0:0:0:0:
36,192,115546,1,2,0:0:0:0:
402,192,115546,1,0,0:0:0:0:
329,192,115662,1,2,0:0:0:0:
256,192,115777,1,8,0:0:0:0:
475,192,115777,1,0,0:0:0:0:
402,192,115892,1,2,0:0:0:0:
109,192,116008,1,2,0:0:0:0:
329,192,116008,1,0,0:0:0:0:
475,192,116123,1,2,0:0:0:0:
36,192,116238,1,8,0:0:0:0:
256,192,116238,1,0,0:0:0:0:
329,192,116238,128,0,116469:0:0:0:0:
109,192,116354,1,0,0:0:0:0:
182,192,116469,128,2,118315:0:0:0:0:
256,192,116469,1,0,0:0:0:0:
475,192,116469,1,0,0:0:0:0:
402,192,116585,1,2,0:0:0:0:
36,192,116700,1,8,0:0:0:0:
329,192,116700,1,0,0:0:0:0:
256,192,116815,1,2,0:0:0:0:
402,192,116931,1,2,0:0:0:0:
475,192,116931,1,0,0:0:0:0:
256,192,117046,1,2,0:0:0:0:
36,192,117162,1,8,0:0:0:0:
329,192,117162,1,0,0:0:0:0:
109,192,117277,1,0,0:0:0:0:
402,192,117392,1,2,0:0:0:0:
475,192,117392,1,0,0:0:0:0:
256,192,117508,1,2,0:0:0:0:
36,192,117623,1,8,0:0:0:0:
329,192,117623,1,0,0:0:0:0:
109,192,117738,1,2,0:0:0:0:
256,192,117854,1,2,0:0:0:0:
475,192,117854,1,0,0:0:0:0:
402,192,117969,1,2,0:0:0:0:
109,192,118085,1,8,0:0:0:0:
329,192,118085,1,0,0:0:0:0:
256,192,118200,1,0,0:0:0:0:
36,192,118315,1,2,0:0:0:0:
109,192,118315,1,0,0:0:0:0:
256,192,118431,1,2,0:0:0:0:
182,192,118546,1,8,0:0:0:0:
402,192,118546,1,0,0:0:0:0:
475,192,118546,1,0,0:0:0:0:
329,192,118662,1,2,0:0:0:0:
36,192,118777,1,2,0:0:0:0:
256,192,118777,1,0,0:0:0:0:
109,192,118892,1,2,0:0:0:0:
182,192,119008,1,8,0:0:0:0:
329,192,119008,1,0,0:0:0:0:
475,192,119008,1,0,0:0:0:0:
256,192,119123,1,0,0:0:0:0:
36,192,119238,1,2,0:0:0:0:
182,192,119238,1,0,0:0:0:0:
402,192,119354,1,2,0:0:0:0:
109,192,119469,1,8,0:0:0:0:
256,192,119469,1,0,0:0:0:0:
329,192,119469,1,0,0:0:0:0:
182,192,119585,1,2,0:0:0:0:
329,192,119700,1,2,0:0:0:0:
475,192,119700,1,0,0:0:0:0:
256,192,119815,1,2,0:0:0:0:
36,192,119931,1,8,0:0:0:0:
182,192,119931,1,0,0:0:0:0:
402,192,119931,1,0,0:0:0:0:
329,192,120046,1,0,0:0:0:0:
109,192,120162,1,2,0:0:0:0:
256,192,120162,1,0,0:0:0:0:
182,192,120277,1,2,0:0:0:0:
329,192,120392,1,8,0:0:0:0:
402,192,120392,1,0,0:0:0:0:
475,192,120392,1,0,0:0:0:0:
109,192,120508,1,2,0:0:0:0:
182,192,120623,1,2,0:0:0:0:
329,192,120623,1,0,0:0:0:0:
256,192,120738,1,2,0:0:0:0:
36,192,120854,1,8,0:0:0:0:
109,192,120854,1,0,0:0:0:0:
182,192,120854,1,0,0:0:0:0:
329,192,120969,1,0,0:0:0:0:
109,192,121085,1,2,0:0:0:0:
256,192,121085,1,0,0:0:0:0:
182,192,121200,1,2,0:0:0:0:
36,192,121315,1,8,0:0:0:0:
329,192,121315,1,0,0:0:0:0:
475,192,121315,1,0,0:0:0:0:
256,192,121431,1,2,0:0:0:0:
182,192,121546,1,2,0:0:0:0:
402,192,121546,1,0,0:0:0:0:
329,192,121662,1,2,0:0:0:0:
36,192,121777,1,8,0:0:0:0:
109,192,121777,1,0,0:0:0:0:
256,192,121777,1,0,0:0:0:0:
402,192,121892,1,0,0:0:0:0:
109,192,122008,1,2,0:0:0:0:
182,192,122008,1,0,0:0:0:0:
256,192,122123,1,2,0:0:0:0:
36,192,122238,1,8,0:0:0:0:
329,192,122238,1,0,0:0:0:0:
475,192,122238,1,0,0:0:0:0:
182,192,122354,1,2,0:0:0:0:
256,192,122469,1,2,0:0:0:0:
402,192,122469,1,0,0:0:0:0:
109,192,122585,1,2,0:0:0:0:
182,192,122700,1,8,0:0:0:0:
329,192,122700,1,0,0:0:0:0:
475,192,122700,1,0,0:0:0:0:
256,192,122815,1,0,0:0:0:0:
182,192,122931,1,2,0:0:0:0:
402,192,122931,1,0,0:0:0:0:
329,192,123046,1,2,0:0:0:0:
36,192,123162,1,8,0:0:0:0:
109,192,123162,1,0,0:0:0:0:
256,192,123162,1,0,0:0:0:0:
402,192,123277,1,2,0:0:0:0:
109,192,123392,1,2,0:0:0:0:
182,192,123392,1,0,0:0:0:0:
256,192,123508,1,2,0:0:0:0:
36,192,123623,1,8,0:0:0:0:
329,192,123623,1,0,0:0:0:0:
475,192,123623,1,0,0:0:0:0:
109,192,123738,1,0,0:0:0:0:
182,192,123854,1,2,0:0:0:0:
402,192,123854,1,0,0:0:0:0:
256,192,123969,1,2,0:0:0:0:
36,192,124085,1,8,0:0:0:0:
109,192,124085,1,0,0:0:0:0:
329,192,124085,1,0,0:0:0:0:
182,192,124200,1,2,0:0:0:0:
256,192,124315,1,2,0:0:0:0:
402,192,124315,1,0,0:0:0:0:
329,192,124431,1,2,0:0:0:0:
36,192,124546,1,8,0:0:0:0:
182,192,124546,1,0,0:0:0:0:
475,192,124546,1,0,0:0:0:0:
329,192,124662,1,0,0:0:0:0:
109,192,124777,1,2,0:0:0:0:
256,192,124777,1,0,0:0:0:0:
402,192,124892,1,2,0:0:0:0:
36,192,125008,1,8,0:0:0:0:
182,192,125008,1,0,0:0:0:0:
329,192,125008,1,0,0:0:0:0:
256,192,125123,1,2,0:0:0:0:
402,192,125238,1,2,0:0:0:0:
475,192,125238,1,0,0:0:0:0:
109,192,125354,1,2,0:0:0:0:
182,192,125469,1,8,0:0:0:0:
329,192,125469,1,0,0:0:0:0:
475,192,125469,1,0,0:0:0:0:
256,192,125585,1,0,0:0:0:0:
36,192,125700,1,2,0:0:0:0:
109,192,125700,1,0,0:0:0:0:
329,192,125815,1,2,0:0:0:0:
36,192,125931,1,8,0:0:0:0:
182,192,125931,1,0,0:0:0:0:
475,192,125931,1,0,0:0:0:0:
256,192,126046,1,2,0:0:0:0:
109,192,126162,1,2,0:0:0:0:
329,192,126162,1,0,0:0:0:0:
182,192,126277,1,2,0:0:0:0:
256,192,126392,1,8,0:0:0:0:
402,192,126392,1,0,0:0:0:0:
475,192,126392,1,0,0:0:0:0:
36,192,126508,1,0,0:0:0:0:
182,192,126623,1,2,0:0:0:0:
329,192,126623,1,0,0:0:0:0:
256,192,126738,1,2,0:0:0:0:
36,192,126854,1,8,0:0:0:0:
109,192,126854,1,0,0:0:0:0:
402,192,126854,1,0,0:0:0:0:
182,192,126969,1,2,0:0:0:0:
256,192,127085,1,2,0:0:0:0:
475,192,127085,1,0,0:0:0:0:
402,192,127200,1,2,0:0:0:0:
36,192,127315,1,8,0:0:0:0:
182,192,127315,1,0,0:0:0:0:
329,192,127315,1,0,0:0:0:0:
256,192,127431,1,0,0:0:0:0:
36,192,127546,1,2,0:0:0:0:
109,192,127546,1,0,0:0:0:0:
182,192,127662,1,2,0:0:0:0:
256,192,127777,1,8,0:0:0:0:
402,192,127777,1,0,0:0:0:0:
475,192,127777,1,0,0:0:0:0:
182,192,127892,1,2,0:0:0:0:
109,192,128008,1,2,0:0:0:0:
329,192,128008,1,0,0:0:0:0:
256,192,128123,1,2,0:0:0:0:
36,192,128238,1,8,0:0:0:0:
182,192,128238,1,0,0:0:0:0:
475,192,128238,1,0,0:0:0:0:
402,192,128354,1,0,0:0:0:0:
109,192,128469,1,2,0:0:0:0:
329,192,128469,1,0,0:0:0:0:
182,192,128585,1,2,0:0:0:0:
36,192,128700,1,8,0:0:0:0:
256,192,128700,1,0,0:0:0:0:
475,192,128700,1,0,0:0:0:0:
109,192,128815,1,2,0:0:0:0:
182,192,128931,1,2,0:0:0:0:
402,192,128931,1,0,0:0:0:0:
329,192,129046,1,2,0:0:0:0:
109,192,129162,1,8,0:0:0:0:
256,192,129162,1,0,0:0:0:0:
475,192,129162,1,0,0:0:0:0:
329,192,129277,1,0,0:0:0:0:
36,192,129392,1,2,0:0:0:0:
182,192,129392,1,0,0:0:0:0:
402,192,129508,1,2,0:0:0:0:
36,192,129623,1,8,0:0:0:0:
109,192,129623,1,0,0:0:0:0:
256,192,129623,1,0,0:0:0:0:
329,192,129738,1,2,0:0:0:0:
182,192,129854,1,2,0:0:0:0:
402,192,129854,1,0,0:0:0:0:
109,192,129969,1,2,0:0:0:0:
36,192,130085,1,8,0:0:0:0:
256,192,130085,1,0,0:0:0:0:
475,192,130085,1,0,0:0:0:0:
402,192,130200,1,0,0:0:0:0:
109,192,130315,1,2,0:0:0:0:
329,192,130315,1,0,0:0:0:0:
182,192,130431,1,2,0:0:0:0:
256,192,130546,1,8,0:0:0:0:
402,192,130546,1,0,0:0:0:0:
475,192,130546,1,0,0:0:0:0:
36,192,130662,1,2,0:0:0:0:
109,192,130777,1,2,0:0:0:0:
329,192,130777,1,0,0:0:0:0:
256,192,130892,1,2,0:0:0:0:
182,192,131008,1,8,0:0:0:0:
329,192,131008,1,0,0:0:0:0:
475,192,131008,1,0,0:0:0:0:
109,192,131123,1,0,0:0:0:0:
256,192,131238,1,2,0:0:0:0:
402,192,131238,1,0,0:0:0:0:
36,192,131354,1,2,0:0:0:0:
109,192,131469,1,8,0:0:0:0:
329,192,131469,1,0,0:0:0:0:
475,192,131469,1,0,0:0:0:0:
182,192,131585,1,2,0:0:0:0:
256,192,131700,1,2,0:0:0:0:
402,192,131700,1,0,0:0:0:0:
109,192,131815,1,2,0:0:0:0:
182,192,131931,1,8,0:0:0:0:
329,192,131931,1,0,0:0:0:0:
475,192,131931,1,0,0:0:0:0:
256,192,132046,1,0,0:0:0:0:
36,192,132162,1,2,0:0:0:0:
109,192,132162,1,0,0:0:0:0:
182,192,132277,1,2,0:0:0:0:
256,192,132392,1,8,0:0:0:0:
402,192,132392,1,0,0:0:0:0:
475,192,132392,1,0,0:0:0:0:
109,192,132508,1,2,0:0:0:0:
182,192,132623,1,2,0:0:0:0:
329,192,132623,1,0,0:0:0:70:tom01.wav
475,192,132623,1,0,0:0:0:0:
256,192,132738,1,2,0:0:0:0:
36,192,132854,1,8,0:0:0:0:
109,192,132854,1,0,0:0:0:70:tom03.wav
182,192,132854,1,0,0:0:0:0:
402,192,132969,1,0,0:0:0:70:tom02.wav
36,192,133085,1,2,0:0:0:0:
182,192,133085,1,0,0:0:0:0:
329,192,133085,1,0,0:0:0:0:
256,192,133200,1,2,0:0:0:0:
36,192,133315,1,8,0:0:0:0:
109,192,133315,1,0,0:0:0:0:
329,192,133315,1,0,0:0:0:0:
182,192,133431,1,2,0:0:0:0:
256,192,133546,1,2,0:0:0:0:
475,192,133546,1,0,0:0:0:0:
402,192,133662,1,2,0:0:0:0:
36,192,133777,1,8,0:0:0:0:
182,192,133777,1,0,0:0:0:0:
329,192,133777,1,0,0:0:0:0:
256,192,133892,1,0,0:0:0:0:
329,192,134008,1,2,0:0:0:0:
475,192,134008,1,0,0:0:0:0:
109,192,134123,1,2,0:0:0:0:
182,192,134238,1,8,0:0:0:0:
256,192,134238,1,0,0:0:0:0:
402,192,134238,1,0,0:0:0:0:
329,192,134354,1,2,0:0:0:0:
36,192,134469,1,2,0:0:0:0:
182,192,134469,1,0,0:0:0:0:
256,192,134585,1,2,0:0:0:0:
109,192,134700,1,8,0:0:0:0:
329,192,134700,1,0,0:0:0:0:
475,192,134700,1,0,0:0:0:0:
182,192,134815,1,0,0:0:0:0:
256,192,134931,1,2,0:0:0:0:
402,192,134931,1,0,0:0:0:0:
329,192,135046,1,2,0:0:0:0:
36,192,135162,1,8,0:0:0:0:
109,192,135162,1,0,0:0:0:0:
182,192,135162,1,0,0:0:0:0:
402,192,135277,1,2,0:0:0:0:
182,192,135392,1,2,0:0:0:0:
329,192,135392,1,0,0:0:0:0:
256,192,135508,1,2,0:0:0:0:
329,192,135623,1,8,0:0:0:0:
402,192,135623,1,0,0:0:0:0:
475,192,135623,1,0,0:0:0:0:
182,192,135738,1,0,0:0:0:0:
256,192,135854,1,2,0:0:0:0:
402,192,135854,1,0,0:0:0:0:
329,192,135969,1,2,0:0:0:0:
36,192,136085,1,8,0:0:0:0:
182,192,136085,1,0,0:0:0:0:
475,192,136085,1,0,0:0:0:0:
256,192,136200,1,2,0:0:0:0:
109,192,136315,1,2,0:0:0:0:
329,192,136315,1,0,0:0:0:0:
182,192,136431,1,2,0:0:0:0:
256,192,136546,1,8,0:0:0:0:
402,192,136546,1,0,0:0:0:0:
475,192,136546,1,0,0:0:0:0:
109,192,136662,1,0,0:0:0:0:
329,192,136777,1,2,0:0:0:0:
402,192,136777,1,0,0:0:0:0:
256,192,136892,1,2,0:0:0:0:
36,192,137008,1,8,0:0:0:0:
182,192,137008,1,0,0:0:0:0:
475,192,137008,1,0,0:0:0:0:
329,192,137123,1,2,0:0:0:0:
109,192,137238,1,2,0:0:0:0:
256,192,137238,1,0,0:0:0:0:
402,192,137354,1,2,0:0:0:0:
36,192,137469,1,8,0:0:0:0:
182,192,137469,1,0,0:0:0:0:
329,192,137469,1,0,0:0:0:0:
256,192,137585,1,0,0:0:0:0:
329,192,137700,1,2,0:0:0:0:
475,192,137700,1,0,0:0:0:0:
182,192,137815,1,2,0:0:0:0:
256,192,137931,1,8,0:0:0:0:
402,192,137931,1,0,0:0:0:0:
475,192,137931,1,0,0:0:0:0:
109,192,138046,1,2,0:0:0:0:
329,192,138162,1,2,0:0:0:0:
402,192,138162,1,0,0:0:0:0:
256,192,138277,1,2,0:0:0:0:
36,192,138392,1,8,0:0:0:0:
182,192,138392,1,0,0:0:0:0:
475,192,138392,1,0,0:0:0:0:
402,192,138508,1,0,0:0:0:0:
109,192,138623,1,2,0:0:0:0:
329,192,138623,1,0,0:0:0:0:
256,192,138738,1,2,0:0:0:0:
182,192,138854,1,8,0:0:0:0:
402,192,138854,1,0,0:0:0:0:
475,192,138854,1,0,0:0:0:0:
329,192,138969,1,2,0:0:0:0:
109,192,139085,1,2,0:0:0:0:
256,192,139085,1,0,0:0:0:0:
182,192,139200,1,2,0:0:0:0:
36,192,139315,1,8,0:0:0:0:
329,192,139315,1,0,0:0:0:0:
475,192,139315,1,0,0:0:0:0:
182,192,139431,1,0,0:0:0:0:
256,192,139546,1,2,0:0:0:0:
402,192,139546,1,0,0:0:0:0:
109,192,139662,1,2,0:0:0:0:
182,192,139777,1,8,0:0:0:0:
329,192,139777,1,0,0:0:0:0:
475,192,139777,1,0,0:0:0:0:
256,192,139892,1,2,0:0:0:0:
36,192,140008,1,2,0:0:0:0:
109,192,140008,1,0,0:0:0:0:
402,192,140123,1,2,0:0:0:0:
36,192,140238,1,8,0:0:0:0:
182,192,140238,1,0,0:0:0:0:
329,192,140238,1,0,0:0:0:0:
256,192,140354,1,0,0:0:0:0:
402,192,140469,1,2,0:0:0:0:
475,192,140469,1,0,0:0:0:0:
182,192,140585,1,2,0:0:0:0:
36,192,140700,1,8,0:0:0:0:
329,192,140700,1,0,0:0:0:0:
475,192,140700,1,0,0:0:0:0:
256,192,140815,1,2,0:0:0:0:
182,192,140931,1,2,0:0:0:0:
402,192,140931,1,0,0:0:0:0:
329,192,141046,1,2,0:0:0:0:
36,192,141162,1,8,0:0:0:0:
109,192,141162,1,0,0:0:0:0:
256,192,141162,1,0,0:0:0:0:
475,192,141277,1,0,0:0:0:0:
182,192,141392,1,2,0:0:0:0:
329,192,141392,1,0,0:0:0:0:
256,192,141508,1,2,0:0:0:0:
109,192,141623,1,8,0:0:0:0:
402,192,141623,1,0,0:0:0:0:
475,192,141623,1,0,0:0:0:0:
329,192,141738,1,2,0:0:0:0:
36,192,141854,1,2,0:0:0:0:
256,192,141854,1,0,0:0:0:0:
109,192,141969,1,2,0:0:0:0:
182,192,142085,1,8,0:0:0:0:
329,192,142085,1,0,0:0:0:0:
475,192,142085,1,0,0:0:0:0:
256,192,142200,1,0,0:0:0:0:
402,192,142315,1,2,0:0:0:0:
475,192,142315,1,0,0:0:0:0:
329,192,142431,1,2,0:0:0:0:
36,192,142546,1,8,0:0:0:0:
109,192,142546,1,0,0:0:0:0:
256,192,142546,1,0,0:0:0:0:
329,192,142662,1,2,0:0:0:0:
182,192,142777,1,2,0:0:0:0:
402,192,142777,1,0,0:0:0:0:
256,192,142892,1,2,0:0:0:0:
36,192,143008,1,8,0:0:0:0:
329,192,143008,1,0,0:0:0:0:
475,192,143008,1,0,0:0:0:0:
109,192,143123,1,0,0:0:0:0:
182,192,143238,1,2,0:0:0:0:
402,192,143238,1,0,0:0:0:0:
329,192,143354,1,2,0:0:0:0:
36,192,143469,1,8,0:0:0:0:
256,192,143469,1,0,0:0:0:0:
475,192,143469,1,0,0:0:0:0:
402,192,143585,1,2,0:0:0:0:
109,192,143700,1,2,0:0:0:0:
329,192,143700,1,0,0:0:0:0:
182,192,143815,1,2,0:0:0:0:
36,192,143931,1,8,0:0:0:0:
256,192,143931,1,0,0:0:0:0:
402,192,143931,1,0,0:0:0:0:
182,192,144046,1,0,0:0:0:0:
329,192,144162,1,2,0:0:0:0:
475,192,144162,1,0,0:0:0:0:
109,192,144277,1,2,0:0:0:0:
256,192,144392,1,8,0:0:0:0:
402,192,144392,1,0,0:0:0:0:
475,192,144392,1,0,0:0:0:0:
182,192,144508,1,2,0:0:0:0:
109,192,144623,1,2,0:0:0:0:
329,192,144623,1,0,0:0:0:0:
402,192,144738,1,2,0:0:0:0:
36,192,144854,1,8,0:0:0:0:
256,192,144854,1,0,0:0:0:0:
475,192,144854,1,0,0:0:0:0:
109,192,144969,1,0,0:0:0:0:
182,192,145085,1,2,0:0:0:0:
402,192,145085,1,0,0:0:0:0:
329,192,145200,1,2,0:0:0:0:
36,192,145315,1,8,0:0:0:0:
109,192,145315,1,0,0:0:0:0:
256,192,145315,1,0,0:0:0:0:
475,192,145431,1,2,0:0:0:0:
182,192,145546,1,2,0:0:0:0:
402,192,145546,1,0,0:0:0:0:
256,192,145662,1,2,0:0:0:0:
36,192,145777,1,8,0:0:0:0:
182,192,145777,1,0,0:0:0:0:
329,192,145777,1,0,0:0:0:0:
402,192,145892,1,0,0:0:0:0:
109,192,146008,1,2,0:0:0:0:
256,192,146008,1,0,0:0:0:0:
475,192,146123,1,2,0:0:0:0:
36,192,146238,1,8,0:0:0:0:
182,192,146238,1,0,0:0:0:0:
402,192,146238,1,0,0:0:0:0:
329,192,146354,1,2,0:0:0:0:
109,192,146469,1,2,0:0:0:0:
256,192,146469,1,0,0:0:0:0:
402,192,146585,1,2,0:0:0:0:
36,192,146700,128,8,146931:0:0:0:0:
182,192,146700,1,0,0:0:0:0:
329,192,146700,1,0,0:0:0:0:
256,192,146815,1,8,0:0:0:0:
402,192,146931,1,2,0:0:0:0:
475,192,146931,1,8,0:0:0:0:
182,192,147044,1,8,0:0:0:0:
402,192,147157,1,2,0:0:0:0:
475,192,147157,1,8,0:0:0:0:
256,192,147270,1,2,0:0:0:0:
36,192,147383,1,8,0:0:0:0:
109,192,147383,1,0,0:0:0:0:
329,192,147497,1,2,0:0:0:0:
36,192,147610,1,2,0:0:0:0:
109,192,147610,1,8,0:0:0:0:
402,192,147723,1,0,0:0:0:70:tom01.wav
36,192,147836,1,2,0:0:0:0:
182,192,147836,1,0,0:0:0:0:
256,192,147943,1,2,0:0:0:0:
329,192,148050,1,8,0:0:0:0:
475,192,148050,1,0,0:0:0:0:
109,192,148157,1,2,0:0:0:0:
182,192,148264,1,2,0:0:0:0:
402,192,148264,1,0,0:0:0:0:
329,192,148371,1,2,0:0:0:0:
36,192,148478,1,8,0:0:0:0:
256,192,148478,1,0,0:0:0:0:
182,192,148585,1,0,0:0:0:0:
402,192,148692,1,2,0:0:0:0:
475,192,148692,1,0,0:0:0:0:
256,192,148799,1,2,0:0:0:0:
36,192,148906,1,8,0:0:0:0:
109,192,148906,1,0,0:0:0:0:
182,192,149013,1,2,0:0:0:0:
256,192,149121,1,2,0:0:0:0:
402,192,149121,1,0,0:0:0:0:
329,192,149228,1,2,0:0:0:0:
36,192,149335,1,8,0:0:0:0:
182,192,149335,1,0,0:0:0:0:
402,192,149442,1,0,0:0:0:0:
109,192,149549,1,2,0:0:0:0:
256,192,149549,1,0,0:0:0:0:
475,192,149656,1,2,0:0:0:0:
182,192,149763,1,8,0:0:0:0:
329,192,149763,1,0,0:0:0:0:
36,192,149870,1,2,0:0:0:0:
256,192,149977,1,2,0:0:0:0:
402,192,149977,1,0,0:0:0:0:
182,192,150084,1,2,0:0:0:0:
109,192,150191,1,8,0:0:0:0:
329,192,150191,1,0,0:0:0:0:
256,192,150298,1,0,0:0:0:0:
36,192,150406,1,2,0:0:0:0:
182,192,150406,1,0,0:0:0:0:
402,192,150513,1,2,0:0:0:0:
109,192,150620,1,8,0:0:0:0:
329,192,150620,1,0,0:0:0:0:
182,192,150727,1,2,0:0:0:0:
256,192,150834,1,2,0:0:0:0:
475,192,150834,1,0,0:0:0:0:
402,192,150941,1,2,0:0:0:0:
36,192,151048,1,8,0:0:0:0:
329,192,151048,1,0,0:0:0:0:
182,192,151155,1,0,0:0:0:0:
329,192,151262,1,2,0:0:0:0:
475,192,151262,1,0,0:0:0:0:
256,192,151369,1,2,0:0:0:0:
36,192,151476,1,8,0:0:0:0:
182,192,151476,1,0,0:0:0:0:
329,192,151583,1,2,0:0:0:0:
109,192,151691,1,2,0:0:0:0:
256,192,151691,1,0,0:0:0:0:
402,192,151798,1,2,0:0:0:0:
182,192,151905,1,8,0:0:0:0:
329,192,151905,1,0,0:0:0:0:
109,192,152012,1,0,0:0:0:0:
36,192,152119,1,2,0:0:0:0:
256,192,152119,1,0,0:0:0:0:
182,192,152226,1,2,0:0:0:0:
329,192,152333,1,8,0:0:0:0:
475,192,152333,1,0,0:0:0:0:
109,192,152440,1,2,0:0:0:0:
256,192,152547,1,2,0:0:0:0:
402,192,152547,1,0,0:0:0:0:
109,192,152654,1,2,0:0:0:0:
329,192,152761,1,8,0:0:0:0:
475,192,152761,1,0,0:0:0:0:
182,192,152869,1,0,0:0:0:0:
36,192,152976,1,2,0:0:0:0:
402,192,152976,1,0,0:0:0:0:
256,192,153083,1,2,0:0:0:0:
182,192,153190,1,8,0:0:0:0:
475,192,153190,1,0,0:0:0:0:
329,192,153297,1,2,0:0:0:0:
36,192,153404,1,2,0:0:0:0:
109,192,153404,1,0,0:0:0:0:
256,192,153511,1,2,0:0:0:0:
402,192,153618,1,8,0:0:0:0:
475,192,153618,1,0,0:0:0:0:
182,192,153725,1,0,0:0:0:0:
329,192,153832,1,2,0:0:0:0:
475,192,153832,1,0,0:0:0:0:
256,192,153939,1,2,0:0:0:0:
36,192,154046,1,8,0:0:0:0:
182,192,154046,1,0,0:0:0:0:
329,192,154154,1,2,0:0:0:0:
109,192,154261,1,2,0:0:0:0:
256,192,154261,1,0,0:0:0:0:
402,192,154368,1,2,0:0:0:0:
36,192,154475,1,8,0:0:0:0:
109,192,154475,1,0,0:0:0:0:
256,192,154582,1,0,0:0:0:0:
402,192,154689,1,2,0:0:0:0:
475,192,154689,1,0,0:0:0:0:
256,192,154796,1,2,0:0:0:0:
36,192,154903,1,8,0:0:0:0:
182,192,154903,1,0,0:0:0:0:
402,192,155010,1,2,0:0:0:0:
109,192,155117,1,2,0:0:0:0:
329,192,155117,1,0,0:0:0:0:
182,192,155224,1,2,0:0:0:0:
256,192,155331,1,8,0:0:0:0:
475,192,155331,1,0,0:0:0:0:
329,192,155439,1,0,0:0:0:0:
36,192,155546,1,2,0:0:0:0:
109,192,155546,1,0,0:0:0:0:
256,192,155653,1,2,0:0:0:0:
402,192,155760,1,8,0:0:0:0:
475,192,155760,1,0,0:0:0:0:
329,192,155867,1,2,0:0:0:0:
109,192,155974,1,2,0:0:0:0:
256,192,155974,1,0,0:0:0:0:
182,192,156081,1,2,0:0:0:0:
329,192,156188,1,8,0:0:0:0:
475,192,156188,1,0,0:0:0:0:
109,192,156295,1,0,0:0:0:0:
256,192,156402,1,2,0:0:0:0:
402,192,156402,1,0,0:0:0:0:
36,192,156509,1,2,0:0:0:0:
182,192,156617,1,8,0:0:0:0:
329,192,156617,1,0,0:0:0:0:
475,192,156724,1,2,0:0:0:0:
109,192,156831,1,2,0:0:0:0:
256,192,156831,1,0,0:0:0:0:
329,192,156938,1,2,0:0:0:0:
182,192,157045,1,8,0:0:0:0:
402,192,157045,1,0,0:0:0:0:
256,192,157152,1,0,0:0:0:0:
329,192,157259,1,2,0:0:0:0:
475,192,157259,1,0,0:0:0:0:
109,192,157366,1,2,0:0:0:0:
182,192,157473,1,8,0:0:0:0:
402,192,157473,1,0,0:0:0:0:
329,192,157580,1,2,0:0:0:0:
36,192,157687,1,2,0:0:0:0:
256,192,157687,1,0,0:0:0:0:
109,192,157794,1,2,0:0:0:0:
182,192,157902,1,8,0:0:0:0:
475,192,157902,1,0,0:0:0:0:
329,192,158009,1,0,0:0:0:0:
36,192,158116,1,2,0:0:0:0:
182,192,158116,1,0,0:0:0:0:
256,192,158223,1,2,0:0:0:0:
329,192,158330,1,8,0:0:0:0:
475,192,158330,1,0,0:0:0:0:
182,192,158437,1,2,0:0:0:0:
256,192,158544,1,2,0:0:0:0:
402,192,158544,1,0,0:0:0:0:
109,192,158651,1,2,0:0:0:0:
182,192,158758,1,8,0:0:0:0:
329,192,158758,1,0,0:0:0:0:
402,192,158865,1,0,0:0:0:0:
256,192,158972,1,2,0:0:0:0:
475,192,158972,1,0,0:0:0:0:
329,192,159079,1,2,0:0:0:0:
36,192,159187,1,8,0:0:0:0:
182,192,159187,1,0,0:0:0:0:
402,192,159294,1,2,0:0:0:0:
109,192,159401,1,2,0:0:0:0:
256,192,159401,1,0,0:0:0:0:
402,192,159508,1,2,0:0:0:0:
36,192,159615,1,8,0:0:0:0:
182,192,159615,1,0,0:0:0:0:
329,192,159722,1,0,0:0:0:0:
109,192,159829,1,2,0:0:0:0:
475,192,159829,1,0,0:0:0:0:
256,192,159936,1,2,0:0:0:0:
36,192,160043,1,8,0:0:0:0:
329,192,160043,1,0,0:0:0:0:
182,192,160150,1,2,0:0:0:0:
402,192,160257,1,2,0:0:0:0:
475,192,160257,1,0,0:0:0:0:
256,192,160365,1,2,0:0:0:0:
36,192,160472,1,8,0:0:0:0:
109,192,160472,1,0,0:0:0:0:
329,192,160579,1,0,0:0:0:0:
36,192,160686,1,2,0:0:0:0:
182,192,160686,1,0,0:0:0:0:
256,192,160793,1,2,0:0:0:0:
329,192,160900,1,8,0:0:0:0:
475,192,160900,1,0,0:0:0:0:
182,192,161007,1,2,0:0:0:0:
256,192,161114,1,2,0:0:0:0:
402,192,161114,1,0,0:0:0:70:tom01.wav
109,192,161221,1,2,0:0:0:0:
182,192,161328,1,8,0:0:0:0:
475,192,161328,1,0,0:0:0:70:tom03.wav
256,192,161435,1,8,0:0:0:0:
329,192,161435,1,0,0:0:0:0:
36,192,161542,1,2,0:0:0:0:
402,192,161542,1,0,0:0:0:0:
109,192,161650,1,2,0:0:0:0:
182,192,161757,1,8,0:0:0:0:
329,192,161757,1,0,0:0:0:0:
256,192,161864,1,2,0:0:0:0:
36,192,161971,1,2,0:0:0:0:
475,192,161971,1,0,0:0:0:0:
109,192,162078,1,2,0:0:0:0:
182,192,162185,1,8,0:0:0:0:
402,192,162185,1,0,0:0:0:0:
256,192,162292,1,0,0:0:0:0:
109,192,162399,1,2,0:0:0:0:
329,192,162399,1,0,0:0:0:0:
182,192,162506,1,2,0:0:0:0:
256,192,162613,1,8,0:0:0:0:
475,192,162613,1,0,0:0:0:0:
329,192,162720,1,2,0:0:0:0:
36,192,162827,1,2,0:0:0:0:
109,192,162827,1,0,0:0:0:0:
182,192,162935,1,2,0:0:0:0:
256,192,163042,1,8,0:0:0:0:
402,192,163042,1,0,0:0:0:0:
329,192,163149,1,0,0:0:0:0:
36,192,163256,1,2,0:0:0:0:
182,192,163256,1,0,0:0:0:0:
256,192,163363,1,2,0:0:0:0:
109,192,163470,1,8,0:0:0:0:
329,192,163470,1,0,0:0:0:0:
402,192,163577,1,2,0:0:0:0:
182,192,163684,1,2,0:0:0:0:
475,192,163684,1,0,0:0:0:0:
256,192,163791,1,2,0:0:0:0:
109,192,163898,1,8,0:0:0:0:
329,192,163898,1,0,0:0:0:0:
402,192,164005,1,0,0:0:0:0:
36,192,164112,1,2,0:0:0:0:
256,192,164112,1,0,0:0:0:0:
329,192,164220,1,2,0:0:0:0:
182,192,164327,1,8,0:0:0:0:
402,192,164327,1,0,0:0:0:0:
475,192,164434,1,2,0:0:0:0:
109,192,164541,1,2,0:0:0:0:
256,192,164541,1,0,0:0:0:0:
329,192,164648,1,2,0:0:0:0:
182,192,164755,1,8,0:0:0:0:
402,192,164755,1,0,0:0:0:0:
475,192,164862,1,0,0:0:0:0:
36,192,164969,1,2,0:0:0:0:
329,192,164969,1,0,0:0:0:0:
109,192,165076,1,2,0:0:0:0:
182,192,165183,1,8,0:0:0:0:
402,192,165183,1,0,0:0:0:0:
256,192,165290,1,2,0:0:0:0:
36,192,165398,1,2,0:0:0:0:
475,192,165398,1,0,0:0:0:0:
109,192,165505,1,2,0:0:0:0:
182,192,165612,1,8,0:0:0:0:
329,192,165612,1,0,0:0:0:0:
256,192,165719,1,0,0:0:0:0:
109,192,165826,1,2,0:0:0:0:
402,192,165826,1,0,0:0:0:0:
182,192,165933,1,2,0:0:0:0:
256,192,166040,1,8,0:0:0:0:
475,192,166040,1,0,0:0:0:0:
329,192,166147,1,2,0:0:0:0:
36,192,166254,1,2,0:0:0:0:
109,192,166254,1,0,0:0:0:0:
182,192,166361,1,2,0:0:0:0:
256,192,166468,1,8,0:0:0:0:
475,192,166468,1,0,0:0:0:0:
329,192,166575,1,0,0:0:0:0:
36,192,166683,1,2,0:0:0:0:
182,192,166683,1,0,0:0:0:0:
256,192,166790,1,2,0:0:0:0:
109,192,166897,1,8,0:0:0:0:
329,192,166897,1,0,0:0:0:0:
402,192,167004,1,2,0:0:0:0:
182,192,167111,1,2,0:0:0:0:
475,192,167111,1,0,0:0:0:0:
256,192,167218,1,2,0:0:0:0:
109,192,167325,1,8,0:0:0:0:
329,192,167325,1,0,0:0:0:0:
402,192,167432,1,0,0:0:0:0:
36,192,167539,1,2,0:0:0:0:
256,192,167539,1,0,0:0:0:0:
329,192,167646,1,2,0:0:0:0:
182,192,167753,1,8,0:0:0:0:
402,192,167753,1,0,0:0:0:0:
475,192,167860,1,2,0:0:0:0:
109,192,167968,1,2,0:0:0:0:
256,192,167968,1,0,0:0:0:0:
329,192,168075,1,2,0:0:0:0:
36,192,168182,1,8,0:0:0:0:
402,192,168182,1,0,0:0:0:0:
475,192,168289,1,0,0:0:0:0:
36,192,168396,1,2,0:0:0:0:
329,192,168396,1,0,0:0:0:0:
109,192,168503,1,2,0:0:0:0:
182,192,168610,1,8,0:0:0:0:
402,192,168610,1,0,0:0:0:0:
256,192,168717,1,2,0:0:0:0:
36,192,168824,1,2,0:0:0:0:
475,192,168824,1,0,0:0:0:0:
109,192,168931,1,2,0:0:0:0:
182,192,169038,1,8,0:0:0:0:
402,192,169038,1,0,0:0:0:0:
256,192,169146,1,0,0:0:0:0:
109,192,169253,1,2,0:0:0:0:
329,192,169253,1,0,0:0:0:0:
182,192,169360,1,2,0:0:0:0:
256,192,169467,1,8,0:0:0:0:
475,192,169467,1,0,0:0:0:0:
329,192,169574,1,2,0:0:0:0:
109,192,169681,1,2,0:0:0:0:
402,192,169681,1,0,0:0:0:0:
182,192,169788,1,2,0:0:0:0:
36,192,169895,1,8,0:0:0:0:
256,192,169895,1,0,0:0:0:0:
329,192,170002,1,0,0:0:0:0:
36,192,170109,1,2,0:0:0:0:
182,192,170109,1,0,0:0:0:0:
256,192,170214,1,2,0:0:0:0:
109,192,170319,1,8,0:0:0:0:
329,192,170319,1,0,0:0:0:0:
402,192,170424,1,2,0:0:0:0:
182,192,170530,1,2,0:0:0:0:
475,192,170530,1,0,0:0:0:0:
256,192,170635,1,2,0:0:0:0:
36,192,170740,1,8,0:0:0:0:
329,192,170740,1,0,0:0:0:0:
402,192,170845,1,0,0:0:0:0:
109,192,170951,1,2,0:0:0:0:
256,192,170951,1,0,0:0:0:0:
329,192,171054,1,2,0:0:0:0:
182,192,171158,1,8,0:0:0:0:
402,192,171158,1,0,0:0:0:0:
475,192,171262,1,2,0:0:0:0:
36,192,171366,1,2,0:0:0:0:
256,192,171366,1,0,0:0:0:0:
329,192,171470,1,2,0:0:0:0:
182,192,171573,1,8,0:0:0:0:
402,192,171573,1,0,0:0:0:0:
475,192,171677,1,0,0:0:0:0:
36,192,171781,1,2,0:0:0:0:
256,192,171781,1,0,0:0:0:0:
109,192,171884,1,2,0:0:0:0:
182,192,171987,1,8,0:0:0:0:
402,192,171987,1,0,0:0:0:0:
256,192,172090,1,2,0:0:0:0:
36,192,172193,1,2,0:0:0:0:
475,192,172193,1,0,0:0:0:0:
109,192,172296,1,2,0:0:0:0:
182,192,172399,1,8,0:0:0:0:
402,192,172399,1,0,0:0:0:0:
256,192,172502,1,0,0:0:0:0:
109,192,172605,1,2,0:0:0:0:
475,192,172605,1,0,0:0:0:0:
182,192,172707,1,2,0:0:0:0:
36,192,172809,1,8,0:0:0:0:
256,192,172809,1,0,0:0:0:0:
329,192,172912,1,2,0:0:0:0:
109,192,173014,1,2,0:0:0:0:
475,192,173014,1,0,0:0:0:0:
182,192,173116,1,2,0:0:0:0:
36,192,173219,1,8,0:0:0:0:
256,192,173219,1,0,0:0:0:0:
329,192,173321,1,0,0:0:0:0:
36,192,173424,1,2,0:0:0:0:
182,192,173424,1,0,0:0:0:0:
256,192,173525,1,2,0:0:0:0:
109,192,173627,1,8,0:0:0:0:
329,192,173627,1,0,0:0:0:0:
402,192,173729,1,2,0:0:0:0:
182,192,173830,1,2,0:0:0:0:
475,192,173830,1,0,0:0:0:0:
256,192,173932,1,2,0:0:0:0:
36,192,174034,1,8,0:0:0:0:
329,192,174034,1,0,0:0:0:0:
402,192,174135,1,8,0:0:0:0:
109,192,174237,1,8,0:0:0:0:
256,192,174237,1,0,0:0:0:0:
329,192,174337,1,8,0:0:0:0:
182,192,174437,1,8,0:0:0:0:
402,192,174437,1,0,0:0:0:0:
475,192,174537,1,2,0:0:0:0:
36,192,174637,1,0,0:0:0:70:tom01.wav
256,192,174637,1,0,0:0:0:0:
329,192,174737,1,2,0:0:0:0:
109,192,174837,1,0,0:0:0:70:tom03.wav
402,192,174837,1,0,0:0:0:0:
475,192,174937,1,0,0:0:0:70:tom02.wav
182,192,175037,1,0,0:0:0:0:
