osu file format v14

[General]
AudioFilename: audio.mp3
AudioLeadIn: 0
PreviewTime: 62277
Countdown: 0
SampleSet: Soft
StackLeniency: 0.4
Mode: 0
LetterboxInBreaks: 0
WidescreenStoryboard: 0

[Editor]
Bookmarks: 75654,84140
DistanceSpacing: 0.6
BeatDivisor: 8
GridSize: 32
TimelineZoom: 1.799999

[Metadata]
Title:Chu, Tayousei. (TV Size)
TitleUnicode:ちゅ、多様性。(TV Size)
Artist:ano
ArtistUnicode:ano
Creator:Aurorance
Version:Gero
Source:チェンソーマン
Tags:あの Chainsaw Man J-Pop JPop Pop Chinese Cantonese Mandarin English Japanese Anime Ending ED 7 Seven All Kinds of Kisses Kiss Diversity tayousei sankaku△ 庄一 TOY'S FACTORY TAKU INOUE 真部脩一 Shuichi Mabe 西浦謙助 Kensuke Nishiura imaginative iredi mocaotic kyouren kittyadventure gokugohan12468 しみずあやの 志水彩乃 chu
BeatmapID:4189337
BeatmapSetID:2013109

[Difficulty]
HPDrainRate:5
CircleSize:4.2
OverallDifficulty:8.3
ApproachRate:9.2
SliderMultiplier:1.4
SliderTickRate:1

[Events]
//Background and Video events
Video,-70,"BGA.mp4"
0,0,"79109083_p0.jpg",0,0
//Break Periods
//Storyboard Layer 0 (Background)
//Storyboard Layer 1 (Fail)
//Storyboard Layer 2 (Pass)
//Storyboard Layer 3 (Foreground)
//Storyboard Layer 4 (Overlay)
//Storyboard Sound Samples

[TimingPoints]
219,392.156862745098,4,2,1,55,1,0
3552,-100,4,2,1,60,0,0
3748,-100,4,2,1,65,0,0
3944,-100,4,2,1,70,0,0
4140,-100,4,2,1,75,0,0
4336,-100,4,2,2,65,0,0
4434,-100,4,2,1,55,0,0
4728,-100,4,2,1,55,0,0
6101,-100,4,2,2,55,0,0
6199,-100,4,2,1,55,0,0
6297,-100,4,2,1,55,0,0
6493,-90.9090909090909,4,2,1,65,0,0
8650,-90.9090909090909,4,2,2,65,0,0
8748,-90.9090909090909,4,2,1,65,0,0
8846,-90.9090909090909,4,2,1,65,0,0
10415,-90.9090909090909,4,2,1,72,0,0
11003,-90.9090909090909,4,2,1,80,0,0
11395,-80,4,2,1,80,0,0
12768,-100,4,2,1,60,0,0
23552,-55.5555555555556,4,2,1,80,0,0
23601,-55.5555555555556,4,2,1,5,0,0
23944,-76.9230769230769,4,2,1,80,0,0
25317,-80,4,2,1,70,0,0
31199,-80,4,2,2,70,0,0
31297,-80,4,2,1,70,0,0
31395,-80,4,2,1,70,0,0
36101,-66.6666666666667,4,2,1,70,0,0
36297,-66.6666666666667,4,2,1,80,0,0
37866,-100,4,2,1,60,0,0
37964,-100,4,2,3,60,0,0
40611,-76.9230769230769,4,2,3,60,0,0
41003,-100,4,2,1,60,0,0
41101,-100,4,2,3,60,0,0
43552,-100,4,2,1,60,0,0
44140,-83.3333333333333,4,2,1,60,0,0
44238,-83.3333333333333,4,2,3,60,0,0
47277,-100,4,2,1,60,0,0
47375,-100,4,2,3,60,0,0
47669,-100,4,2,4,60,0,0
47768,-100,4,2,3,60,0,0
48454,-100,4,2,3,60,0,0
49042,-83.3333333333333,4,2,3,60,0,0
49434,-83.3333333333333,4,2,1,60,0,0
49826,-83.3333333333333,4,2,2,60,0,0
49924,-83.3333333333333,4,2,1,60,0,0
50022,-83.3333333333333,4,2,1,60,0,0
50219,-83.3333333333333,4,2,2,60,0,0
50317,-83.3333333333333,4,2,1,70,0,0
50415,-80,4,2,1,70,0,0
61395,-80,4,2,1,80,0,0
61591,-76.9230769230769,4,2,1,80,0,0
62964,-66.6666666666667,4,2,1,85,0,0
63160,-57.1428571428571,4,2,1,85,0,0
63356,-50,4,2,1,85,0,0
63552,-24.9781441238915,4,2,1,85,0,0
63748,-66.6666666666667,4,2,1,85,0,0
63944,-57.1428571428571,4,2,1,85,0,0
64140,-50,4,2,1,85,0,0
64336,-24.9781441238915,4,2,1,85,0,0
64532,-66.6666666666667,4,2,1,85,0,0
64924,-74.0740740740741,4,2,1,85,0,0
66101,-66.6666666666667,4,2,1,85,0,0
66297,-57.1428571428571,4,2,1,85,0,0
66493,-50,4,2,1,85,0,0
66689,-24.9781441238915,4,2,1,85,0,0
66885,-66.6666666666667,4,2,1,85,0,0
67081,-57.1428571428571,4,2,1,85,0,0
67277,-50,4,2,1,85,0,0
67473,-44.4444444444445,4,2,1,85,0,0
68062,-50,4,2,1,85,0,0
68650,-66.6666666666667,4,2,1,85,0,0
69630,-50,4,2,1,85,0,0
70022,-66.6666666666667,4,2,1,85,0,0
70415,-50,4,2,1,85,0,0
70807,-80,4,2,1,85,0,0
71983,-66.6666666666667,4,2,1,85,0,0
72179,-57.1428571428571,4,2,1,85,0,0
72768,-50,4,2,1,85,0,0
74140,-66.6666666666667,4,2,1,85,0,0
74336,-57.1428571428571,4,2,1,85,0,0
74532,-50,4,2,1,85,0,0
75513,-66.6666666666667,4,2,1,88,0,0
75709,-57.1428571428571,4,2,1,88,0,0
75905,-50,4,2,1,88,0,0
76101,-24.9781441238915,4,2,1,88,0,0
76297,-66.6666666666667,4,2,1,88,0,0
76493,-57.1428571428571,4,2,1,88,0,0
76689,-50,4,2,1,88,0,0
76885,-24.9781441238915,4,2,1,88,0,0
77081,-66.6666666666667,4,2,1,88,0,0
77473,-74.0740740740741,4,2,1,88,0,0
78650,-66.6666666666667,4,2,1,88,0,0
78846,-57.1428571428571,4,2,1,88,0,0
79042,-50,4,2,1,88,0,0
79238,-24.9781441238915,4,2,1,88,0,0
79434,-66.6666666666667,4,2,1,88,0,0
79630,-57.1428571428571,4,2,1,88,0,0
79826,-50,4,2,1,88,0,0
81003,-57.1428571428571,4,2,1,88,0,0
81395,-66.6666666666667,4,2,1,88,0,0
81591,-66.6666666666667,4,2,2,75,0,0
81689,-66.6666666666667,4,2,1,75,0,0
81787,-71.4285714285714,4,2,1,75,0,0
83160,-71.4285714285714,4,2,2,75,0,0
83258,-71.4285714285714,4,2,1,75,0,0
83356,-100,4,2,1,75,0,0
84924,-80,4,2,1,75,0,0
85317,-66.6666666666667,4,2,1,75,0,0
86101,-80,4,2,1,75,0,0
86297,-57.1428571428571,4,2,1,75,0,0
86689,-100,4,2,1,75,0,0
86885,-83.3333333333333,4,2,1,75,0,0
87081,-71.4285714285714,4,2,1,75,0,0
87277,-62.5,4,2,1,75,0,0
87473,-55.5555555555556,4,2,1,75,0,0
87669,-50,4,2,1,75,0,0

[Colours]
Combo1 : 133,207,209
Combo2 : 36,142,204
Combo3 : 237,220,135
Combo4 : 81,88,55

[HitObjects]
19,71,219,6,0,P|48:88|83:88,1,70,6|2,3:2|0:2,0:0:0:0:
134,29,611,1,2,3:2:0:0:
134,29,807,2,0,P|107:93|120:165,1,140,2|2,0:2|0:2,0:0:0:0:
216,41,1395,1,0,3:2:0:0:
216,41,1591,2,0,P|226:109|199:172,1,140,2|2,0:2|0:2,0:0:0:0:
48,275,2179,5,2,3:2:0:0:
48,275,2375,1,2,0:2:0:0:
3,201,2571,2,0,P|37:191|80:197,1,70,2|2,3:2|0:2,0:0:0:0:
194,247,2964,2,0,P|160:256|126:254,1,70,2|2,3:2|0:2,0:0:0:0:
3,201,3356,1,2,3:2:0:0:
88,39,3552,5,10,0:2:0:0:
135,15,3650,1,8,0:2:0:0:
189,22,3748,1,10,0:2:0:0:
231,56,3846,1,8,0:2:0:0:
258,86,3944,1,10,0:2:0:0:
299,120,4042,1,8,0:2:0:0:
353,127,4140,1,8,0:2:0:0:
402,105,4238,1,8,0:2:0:0:
428,95,4336,5,10,0:3:0:0:
445,94,4434,1,8,0:3:0:0:
460,101,4532,2,0,L|455:142,3,35,4|4|2|0,0:3|0:3|3:2|3:2,0:0:0:0:
493,200,4924,6,0,P|460:210|426:203,1,70,4|2,3:2|0:2,0:0:0:0:
314,146,5317,2,0,P|346:135|380:142,1,70,2|2,3:2|0:2,0:0:0:0:
493,200,5709,1,2,3:2:0:0:
353,248,5905,6,0,L|349:209,1,35,2|0,1:2|0:0,0:0:0:0:
279,256,6101,2,0,L|275:217,1,35,10|0,1:3|0:0,0:0:0:0:
512,350,6297,5,2,0:2:0:0:
505,358,6395,1,0,3:2:0:0:
497,366,6493,2,0,L|411:351,1,77,6|2,3:2|0:2,0:0:0:0:
493,200,6885,1,10,3:1:0:0:
353,248,7081,1,2,0:2:0:0:
354,259,7179,1,2,0:0:0:0:
356,270,7277,1,0,3:2:0:0:
188,356,7473,6,0,L|199:277,1,77,2|8,0:2|3:1,0:0:0:0:
279,292,7866,2,0,L|268:368,1,77,2|8,0:2|0:3,0:0:0:0:
114,304,8258,1,2,0:2:0:0:
249,215,8454,1,2,1:2:0:0:
247,204,8552,1,2,0:0:0:0:
246,193,8650,1,6,0:3:0:0:
111,163,8846,6,0,L|99:85,1,77,2|2,0:2|3:2,0:0:0:0:
29,185,9140,1,2,0:0:0:0:
36,176,9238,2,0,L|23:98,1,77,10|2,3:1|0:2,0:0:0:0:
51,28,9532,1,2,0:0:0:0:
99,86,9630,6,0,P|136:90|171:76,1,77,6|2,3:2|0:2,0:0:0:0:
250,21,10022,1,10,3:1:0:0:
231,185,10219,2,0,P|254:154|258:117,1,77,2|0,0:2|3:2,0:0:0:0:
250,21,10611,1,2,3:2:0:0:
99,86,10807,6,0,L|109:138,1,38.5,10|0,0:2|0:0,0:0:0:0:
217,285,11003,1,6,3:2:0:0:
217,285,11395,6,0,L|277:272,1,43.75,10|0,3:2|0:0,0:0:0:0:
450,301,11591,2,0,L|437:239,1,43.75,10|0,3:2|0:0,0:0:0:0:
330,341,11787,2,0,L|362:288,1,43.75,10|0,3:2|0:0,0:0:0:0:
506,187,11983,2,0,L|469:163,1,43.75,8|0,3:2|0:0,0:0:0:0:
344,57,12179,5,2,3:2:0:0:
382,47,12277,1,8,0:2:0:0:
420,37,12375,2,0,L|413:93,1,43.75,2|0,3:2|0:0,0:0:0:0:
355,200,12571,2,0,L|350:157,1,43.75,10|0,0:2|0:0,0:0:0:0:
208,14,12768,6,0,L|133:26,1,70,6|2,3:2|0:0,0:0:0:0:
149,167,13062,1,2,0:0:0:0:
166,163,13160,2,0,L|193:92,1,70,2|2,3:2|0:0,0:0:0:0:
63,36,13454,1,2,0:0:0:0:
57,52,13552,2,0,L|104:110,1,70,2|2,3:2|0:0,0:0:0:0:
20,289,13944,5,0,3:2:0:0:
174,242,14140,2,0,L|125:257,1,35,8|0,0:2|0:0,0:0:0:0:
20,289,14336,1,0,3:2:0:0:
59,199,14532,1,2,0:2:0:0:
101,343,14728,6,0,P|128:354|170:350,1,70,2|2,3:2|0:2,0:0:0:0:
277,233,15120,2,0,P|312:229|345:241,1,70,2|2,3:2|0:2,0:0:0:0:
223,292,15513,1,2,3:2:0:0:
85,48,15709,5,10,0:2:0:0:
117,60,15807,1,8,0:2:0:0:
149,73,15905,2,0,L|176:144,1,70,2|2,3:2|0:0,0:0:0:0:
46,200,16199,1,2,0:0:0:0:
40,184,16297,2,0,L|87:126,1,70,2|2,3:2|0:0,0:0:0:0:
202,209,16591,1,2,0:0:0:0:
191,223,16689,2,0,L|117:212,1,70,2|2,3:2|0:0,0:0:0:0:
300,159,17081,5,0,3:2:0:0:
454,206,17277,2,0,L|405:191,1,35,8|0,0:2|0:0,0:0:0:0:
300,159,17473,1,0,3:2:0:0:
339,249,17669,1,2,0:2:0:0:
343,71,17866,6,0,P|316:60|274:64,1,70,2|2,3:2|0:2,0:0:0:0:
68,151,18258,2,0,P|100:162|135:158,1,70,2|2,3:2|0:2,0:0:0:0:
182,15,18650,1,2,3:2:0:0:
190,57,18748,1,8,0:2:0:0:
197,99,18846,1,10,0:2:0:0:
371,261,19042,6,0,L|296:249,1,70,4|2,3:2|0:0,0:0:0:0:
312,108,19336,1,2,0:0:0:0:
329,112,19434,2,0,L|356:183,1,70,2|2,3:2|0:0,0:0:0:0:
226,239,19728,1,2,0:0:0:0:
220,223,19826,2,0,L|267:165,1,70,2|2,3:2|0:0,0:0:0:0:
393,6,20219,5,0,3:2:0:0:
447,158,20415,2,0,L|429:109,1,35,8|0,0:2|0:0,0:0:0:0:
393,6,20611,1,0,3:2:0:0:
484,40,20807,1,2,0:2:0:0:
344,90,21003,6,0,P|335:124|343:158,1,70,2|2,3:2|0:2,0:0:0:0:
392,307,21395,2,0,P|401:273|394:240,1,70,2|2,3:2|0:2,0:0:0:0:
344,90,21787,1,2,3:2:0:0:
155,162,21983,5,10,0:2:0:0:
113,154,22081,1,8,0:2:0:0:
71,147,22179,1,2,3:2:0:0:
8,229,22375,6,0,L|19:306,1,70,2|0,0:0|3:2,0:0:0:0:
91,289,22669,2,0,L|81:219,1,70,2|0,0:0|0:0,0:0:0:0:
8,229,22964,1,2,3:2:0:0:
70,366,23160,1,2,0:0:0:0:
70,366,23258,1,2,0:0:0:0:
70,366,23356,1,2,3:2:0:0:
150,196,23552,6,0,L|189:202,1,31.4999990386963,14|0,0:2|0:0,0:0:0:0:
415,115,23944,6,0,L|376:162,1,45.5,10|0,3:2|0:0,0:0:0:0:
322,330,24140,2,0,L|272:290,1,45.5,10|0,3:2|0:0,0:0:0:0:
413,241,24336,2,0,L|351:245,1,45.5,10|0,3:2|0:0,0:0:0:0:
195,328,24532,2,0,L|190:284,1,45.5,10|0,3:2|0:0,0:0:0:0:
84,188,24728,5,2,3:2:0:0:
124,198,24826,1,8,0:2:0:0:
165,207,24924,2,0,L|158:151,1,45.5,2|0,3:2|0:0,0:0:0:0:
266,10,25120,2,0,L|273:66,1,45.5,10|0,0:2|0:0,0:0:0:0:
123,96,25317,6,0,P|165:85|206:100,1,87.5,6|2,3:2|0:0,0:0:0:0:
316,235,25611,1,2,0:0:0:0:
295,237,25709,2,0,P|265:206|257:163,1,87.5,2|2,1:2|0:0,0:0:0:0:
320,0,26003,1,2,0:0:0:0:
332,17,26101,2,0,P|320:58|287:86,1,87.5,2|2,3:2|0:0,0:0:0:0:
195,79,26395,5,2,0:0:0:0:
205,99,26493,1,0,1:2:0:0:
70,89,26689,2,0,L|123:81,1,43.75,8|0,0:2|0:0,0:0:0:0:
243,171,26885,1,0,3:2:0:0:
148,302,27081,5,2,0:2:0:0:
128,308,27179,1,2,0:0:0:0:
108,314,27277,2,0,P|112:270|120:226,1,87.5,2|2,1:2|0:2,0:0:0:0:
28,196,27571,1,2,0:0:0:0:
43,211,27669,2,0,P|39:255|31:299,1,87.5,2|2,3:2|0:2,0:0:0:0:
168,165,28062,1,2,1:2:0:0:
335,300,28258,5,10,0:2:0:0:
375,273,28356,1,8,0:2:0:0:
414,244,28454,2,0,P|419:200|399:162,1,87.5,2|2,3:2|0:0,0:0:0:0:
252,69,28748,1,2,0:0:0:0:
252,90,28846,2,0,P|286:115|330:118,1,87.5,2|2,1:2|0:0,0:0:0:0:
484,36,29140,1,2,0:0:0:0:
465,27,29238,2,0,P|425:43|401:80,1,87.5,2|2,3:2|0:0,0:0:0:0:
409,182,29532,5,2,0:0:0:0:
399,162,29630,1,0,1:2:0:0:
286,111,29826,2,0,L|339:119,1,43.75,8|0,0:2|0:0,0:0:0:0:
440,257,30022,1,0,3:2:0:0:
213,355,30218,5,2,0:2:0:0:
233,361,30317,1,2,0:0:0:0:
253,367,30415,2,0,P|248:324|239:278,1,87.5,2|2,1:2|0:2,0:0:0:0:
137,95,30807,6,0,L|132:139,1,43.75,2|8,3:2|0:2,0:0:0:0:
0,280,31003,2,0,L|4:235,1,43.75,2|0,3:2|3:2,0:0:0:0:
68,187,31199,1,10,0:3:0:0:
229,261,31395,5,2,0:2:0:0:
208,257,31493,1,2,0:0:0:0:
187,251,31591,2,0,P|166:212|169:170,1,87.5,6|2,3:2|0:0,0:0:0:0:
269,27,31885,1,2,0:0:0:0:
278,46,31983,2,0,P|257:82|217:102,1,87.5,2|2,1:2|0:0,0:0:0:0:
43,88,32277,1,2,0:0:0:0:
57,72,32375,2,0,P|100:70|137:95,1,87.5,2|2,3:2|0:0,0:0:0:0:
189,176,32669,5,2,0:0:0:0:
168,170,32768,1,0,1:2:0:0:
326,189,32964,2,0,L|283:197,1,43.75,8|0,0:2|0:0,0:0:0:0:
152,267,33160,1,0,3:2:0:0:
358,371,33356,5,2,0:2:0:0:
338,377,33454,1,2,0:0:0:0:
318,383,33552,2,0,P|322:339|330:295,1,87.5,2|2,1:2|0:2,0:0:0:0:
234,266,33846,1,2,0:0:0:0:
248,281,33944,2,0,P|244:325|236:369,1,87.5,2|2,3:2|0:2,0:0:0:0:
383,235,34336,1,2,1:2:0:0:
222,176,34532,5,10,0:2:0:0:
174,187,34630,1,8,0:2:0:0:
129,196,34728,1,2,3:2:0:0:
15,351,34924,6,0,L|100:334,1,87.5,2|0,0:0|1:2,0:0:0:0:
2,279,35219,2,0,L|87:262,1,87.5,2|0,0:0|0:0,0:0:0:0:
157,284,35513,1,2,3:2:0:0:
281,184,35709,5,2,0:0:0:0:
301,177,35807,1,2,0:0:0:0:
322,180,35905,2,0,L|317:223,1,43.75,2|0,1:2|0:0,0:0:0:0:
434,357,36101,2,0,L|411:243,1,105,10|4,0:2|3:2,0:0:0:0:
217,41,36493,6,0,L|268:52,1,52.5,10|0,0:2|0:0,0:0:0:0:
495,119,36689,2,0,L|459:157,1,52.5,10|0,0:2|0:0,0:0:0:0:
379,0,36885,2,0,L|395:49,1,52.5,2|0,3:2|0:0,0:0:0:0:
450,279,37081,2,0,L|398:267,1,52.5,10|0,0:2|0:0,0:0:0:0:
309,301,37277,1,10,0:2:0:0:
293,302,37375,1,8,0:2:0:0:
271,279,37473,5,10,0:2:0:0:
224,259,37571,1,8,0:2:0:0:
175,275,37669,1,10,0:2:0:0:
149,319,37768,1,8,0:2:0:0:
159,368,37866,6,0,P|138:304|75:280,1,140,6|2,3:2|3:2,0:0:0:0:
0,311,38454,1,0,0:0:0:0:
46,113,38650,2,0,P|0:163|12:230,1,140,2|2,0:2|3:2,0:0:0:0:
299,350,39434,6,0,L|370:326,1,70,2|2,0:2|0:2,0:0:0:0:
448,210,39826,2,0,L|432:283,1,70,2|2,3:2|0:2,0:0:0:0:
299,350,40219,2,0,L|332:338,3,35,2|2|2|2,0:3|0:3|0:3|0:3,0:0:0:0:
316,265,40611,2,0,L|273:280,3,45.5,2|2|2|2,3:3|0:3|0:3|0:3,0:0:0:0:
221,377,41003,6,0,P|164:340|157:273,1,140,6|2,3:2|3:2,0:0:0:0:
204,206,41591,1,0,0:0:0:0:
2,201,41787,2,0,P|62:169|123:198,1,140,2|2,0:2|3:2,0:0:0:0:
357,15,42571,6,0,P|363:49|368:84,1,70,2|2,0:2|0:2,0:0:0:0:
337,160,42964,1,2,3:2:0:0:
276,27,43160,2,0,P|283:67|285:95,1,70,2|2,0:2|0:0,0:0:0:0:
374,234,43552,5,0,3:2:0:0:
390,239,43650,1,0,3:2:0:0:
407,244,43748,2,0,L|401:194,3,35,0|0|0|0,3:2|3:2|3:2|3:2,0:0:0:0:
326,354,44140,6,0,P|301:276|225:247,1,168,6|2,3:2|3:2,0:0:0:0:
148,275,44728,1,0,0:0:0:0:
202,54,44924,2,0,P|146:113|160:193,1,168,2|2,0:2|3:2,0:0:0:0:
318,222,45513,6,0,P|359:217|400:209,1,84,2|0,0:2|3:0,0:0:0:0:
512,117,45905,2,0,P|470:122|429:130,1,84,2|0,0:2|3:2,0:0:0:0:
318,222,46297,1,2,0:2:0:0:
268,99,46493,5,2,0:2:0:0:
249,178,46689,1,2,0:2:0:0:
326,42,46885,5,2,3:2:0:0:
346,122,47081,1,2,0:2:0:0:
512,200,47277,6,0,P|479:190|445:195,2,70,6|0|4,3:2|0:0|0:3,0:0:0:0:
295,238,47866,1,2,0:3:0:0:
303,248,47964,1,2,0:3:0:0:
312,258,48062,2,0,P|345:268|379:263,1,70,2|0,0:3|0:0,0:0:0:0:
444,195,48454,1,2,3:2:0:0:
433,341,48650,2,0,P|458:317|470:285,1,70,2|0,0:2|0:0,0:0:0:0:
316,26,49042,6,0,L|270:37,1,42,2|0,0:2|0:0,0:0:0:0:
203,0,49238,2,0,L|189:45,1,42,2|0,0:2|0:0,0:0:0:0:
123,84,49434,2,0,L|155:118,1,42,10|0,0:2|0:0,0:0:0:0:
155,195,49630,2,0,L|200:184,1,42,2|0,0:2|0:0,0:0:0:0:
48,56,49826,6,0,L|0:62,1,42,10|0,0:3|0:0,0:0:0:0:
227,116,50022,2,0,L|275:122,1,42,2|0,0:2|0:0,0:0:0:0:
84,160,50219,5,6,3:3:0:0:
59,166,50317,1,2,0:0:0:0:
38,172,50415,2,0,L|55:273,1,87.5,6|0,3:2|0:0,0:0:0:0:
116,384,50709,1,2,0:0:0:0:
116,384,50807,2,0,L|126:297,1,87.5,2|0,1:2|0:0,0:0:0:0:
293,181,51199,6,0,L|276:282,1,87.5,2|0,3:2|0:0,0:0:0:0:
206,306,51493,1,2,0:0:0:0:
206,319,51591,1,2,1:2:0:0:
368,224,51787,2,0,L|361:268,1,43.75,8|0,0:2|0:0,0:0:0:0:
324,100,51983,6,0,P|281:95|242:115,1,87.5,2|2,3:2|0:2,0:0:0:0:
242,114,52277,1,2,0:0:0:0:
242,114,52375,1,2,1:2:0:0:
217,31,52571,1,2,0:2:0:0:
75,101,52768,2,0,P|118:106|157:86,1,87.5,0|0,3:2|0:0,0:0:0:0:
156,86,53062,1,2,0:0:0:0:
156,86,53160,1,2,1:2:0:0:
319,40,53356,5,8,0:2:0:0:
364,56,53454,1,8,0:2:0:0:
407,76,53552,2,0,L|390:177,1,87.5,2|0,3:2|0:0,0:0:0:0:
329,288,53846,1,2,0:0:0:0:
329,288,53944,2,0,L|319:201,1,87.5,2|0,1:2|0:0,0:0:0:0:
152,85,54336,6,0,L|169:186,1,87.5,2|0,3:2|0:0,0:0:0:0:
239,210,54630,1,2,0:0:0:0:
240,222,54728,1,2,1:2:0:0:
78,125,54924,2,0,L|85:169,1,43.75,8|0,0:2|0:0,0:0:0:0:
177,279,55120,6,0,P|133:275|99:248,1,87.5,2|2,3:2|0:2,0:0:0:0:
99,249,55415,1,2,0:0:0:0:
99,249,55513,1,2,1:2:0:0:
144,359,55709,1,2,0:2:0:0:
258,182,55905,5,0,3:2:0:0:
301,185,56003,1,8,0:2:0:0:
311,228,56101,1,0,3:2:0:0:
273,250,56199,1,0,3:2:0:0:
240,222,56297,1,8,0:3:0:0:
462,134,56493,5,0,3:2:0:0:
446,118,56591,1,0,3:2:0:0:
429,104,56689,2,0,L|328:121,1,87.5,6|0,3:2|0:0,0:0:0:0:
196,54,56983,1,2,0:0:0:0:
196,54,57081,2,0,L|283:64,1,87.5,2|0,1:2|0:0,0:0:0:0:
448,226,57473,6,0,L|347:243,1,87.5,2|0,3:2|0:0,0:0:0:0:
301,185,57768,1,2,0:0:0:0:
287,184,57866,1,2,1:2:0:0:
437,308,58062,2,0,L|378:318,1,43.75,10|0,0:2|0:0,0:0:0:0:
285,264,58258,5,0,3:2:0:0:
218,379,58454,1,2,0:2:0:0:
203,362,58552,1,2,0:0:0:0:
189,345,58650,2,0,L|206:244,1,87.5,0|2,1:2|0:2,0:0:0:0:
113,68,59042,5,2,3:2:0:0:
69,191,59238,1,2,0:2:0:0:
33,47,59434,1,2,1:2:0:0:
134,146,59630,1,10,0:2:0:0:
177,138,59728,1,8,0:2:0:0:
220,131,59826,1,6,3:2:0:0:
339,32,60022,6,0,L|439:47,1,87.5,2|0,0:0|1:2,0:0:0:0:
327,104,60317,2,0,L|427:119,1,87.5,2|0,0:0|0:0,0:0:0:0:
483,90,60611,1,2,3:2:0:0:
368,191,60807,1,2,0:0:0:0:
368,191,60905,1,2,0:0:0:0:
368,191,61003,1,2,1:2:0:0:
512,256,61199,6,0,L|468:261,1,43.75,10|0,0:2|0:0,0:0:0:0:
251,371,61395,1,4,3:2:0:0:
251,371,61591,6,0,L|199:352,1,45.5,8|0,3:2|0:0,0:0:0:0:
33,205,61787,2,0,L|74:169,1,45.5,8|0,3:2|0:0,0:0:0:0:
95,351,61983,2,0,L|85:297,1,45.5,8|0,3:2|0:0,0:0:0:0:
129,79,62179,2,0,L|180:97,1,45.5,8|0,3:2|0:0,0:0:0:0:
303,121,62375,5,10,0:2:0:0:
281,128,62473,1,8,0:2:0:0:
259,136,62571,5,10,0:2:0:0:
258,82,62669,1,8,0:2:0:0:
286,36,62768,1,10,0:2:0:0:
334,13,62866,1,8,0:2:0:0:
387,18,62964,6,0,P|391:43|383:68,1,52.5,6|0,3:2|0:0,0:0:0:0:
409,282,63160,2,0,P|381:270|361:248,1,61.2500000000001,2|0,3:2|0:0,0:0:0:0:
475,136,63356,2,0,P|448:157|414:164,1,70,10|0,0:2|0:0,0:0:0:0:
299,150,63552,6,1,B|301:133|301:133|320:135|318:151|317:168|297:165|297:165|278:163|280:146|281:130|301:133|301:133|299:150,1,140.122500000001,2|0,0:2|0:0,0:0:0:0:
211,18,63748,6,0,P|207:43|215:68,1,52.5,2|0,3:2|0:0,0:0:0:0:
188,282,63944,2,0,P|216:270|236:247,1,61.2500000000001,2|0,3:2|0:0,0:0:0:0:
122,136,64140,2,0,P|149:157|183:163,1,70,10|0,0:2|0:0,0:0:0:0:
299,150,64336,6,1,B|301:133|301:133|320:135|318:151|317:168|297:165|297:165|278:163|280:146|281:130|301:133|301:133|299:150,1,140.122500000001,2|0,0:2|0:0,0:0:0:0:
436,151,64532,6,0,P|415:167|390:173,1,52.5,2|0,3:2|0:0,0:0:0:0:
245,74,64728,2,0,P|267:60|293:57,1,52.5,2|0,3:2|0:0,0:0:0:0:
359,6,64924,2,0,P|370:45|380:111,1,94.5,10|2,0:2|0:2,0:0:0:0:
356,200,65317,5,0,3:2:0:0:
215,370,65513,1,8,3:1:0:0:
130,240,65709,1,8,1:2:0:0:
130,240,65905,1,0,0:0:0:0:
298,338,66101,6,0,P|307:314|305:288,1,52.5,2|0,3:2|0:0,0:0:0:0:
378,84,66297,2,0,P|348:89|323:106,1,61.2500000000001,2|0,3:2|0:0,0:0:0:0:
410,242,66493,2,0,P|388:215|356:200,1,70,10|0,0:2|0:0,0:0:0:0:
241,188,66689,6,1,B|239:205|239:205|258:207|259:191|262:174|242:172|242:172|223:170|221:187|218:203|239:205|239:205|241:188,1,140.122500000001,2|0,0:2|0:0,0:0:0:0:
125,297,66885,6,0,P|126:271|140:249,1,52.5,2|0,3:2|0:0,0:0:0:0:
162,35,67081,2,0,P|186:52|200:79,1,61.2500000000001,2|0,3:2|0:0,0:0:0:0:
65,162,67277,2,0,P|96:147|130:149,1,70,10|0,0:2|0:0,0:0:0:0:
241,188,67473,6,0,B|354:203|322:65|435:85,1,236.25,2|0,0:2|0:0,0:0:0:0:
254,97,67866,1,2,3:2:0:0:
421,174,68062,2,0,P|447:236|419:298,2,140,10|0|0,0:2|0:0|3:2,0:0:0:0:
106,318,68650,6,0,L|157:311,1,52.5,14|0,0:2|0:0,0:0:0:0:
358,361,68846,1,2,3:2:0:0:
105,310,69042,6,0,L|168:301,1,52.5,14|0,0:2|0:0,0:0:0:0:
360,140,69238,6,0,P|377:158|384:184,1,52.5,2|0,3:2|0:0,0:0:0:0:
466,298,69434,2,0,P|460:323|444:344,1,52.5,2|0,3:2|0:0,0:0:0:0:
226,259,69630,2,0,P|295:266|365:277,1,140,10|2,0:2|0:2,0:0:0:0:
22,124,70022,6,0,P|40:107|66:100,1,52.5,2|0,3:2|0:0,0:0:0:0:
180,18,70219,2,0,P|205:24|226:40,1,52.5,2|0,3:2|0:0,0:0:0:0:
141,258,70415,2,0,P|148:189|159:119,1,140,10|2,0:2|0:2,0:0:0:0:
414,13,70807,6,0,P|424:33|424:54,1,43.75,2|0,3:2|0:0,0:0:0:0:
503,123,71003,2,0,P|496:145|480:160,1,43.75,2|0,3:2|0:0,0:0:0:0:
474,246,71199,2,0,P|453:245|434:235,1,43.75,10|0,0:2|0:0,0:0:0:0:
308,163,71395,2,0,P|352:157|395:155,1,87.5,2|0,0:2|3:2,0:0:0:0:
212,350,71787,6,0,P|188:339|174:322,1,43.75,2|0,3:2|0:0,0:0:0:0:
69,340,71983,2,0,P|65:314|71:289,1,52.5,10|0,0:2|0:0,0:0:0:0:
0,182,72179,2,0,P|23:163|53:156,1,61.2500000000001,2|0,0:2|0:0,0:0:0:0:
150,247,72375,5,2,3:2:0:0:
150,247,72571,1,0,3:2:0:0:
248,59,72768,2,0,P|232:128|221:196,1,140,12|0,0:2|0:0,0:0:0:0:
220,196,73062,1,8,0:2:0:0:
220,196,73160,5,0,3:2:0:0:
291,265,73356,1,0,3:2:0:0:
389,77,73552,2,0,P|373:146|362:214,1,140,12|0,0:2|0:0,0:0:0:0:
361,214,73846,1,8,0:2:0:0:
361,214,73944,5,0,3:2:0:0:
415,293,74140,6,0,P|434:274|443:249,1,52.5,10|0,0:2|0:0,0:0:0:0:
501,198,74336,2,0,P|478:178|449:173,1,61.2500000000001,2|8,3:2|0:2,0:0:0:0:
333,294,74532,2,0,P|337:328|360:354,1,70,2|0,0:2|3:2,0:0:0:0:
222,180,74728,6,0,P|154:164|77:153,1,140,14|10,0:2|0:2,0:0:0:0:
5,210,75022,1,8,0:2:0:0:
5,210,75120,1,10,0:2:0:0:
232,383,75317,5,10,0:2:0:0:
232,383,75415,1,8,0:2:0:0:
278,315,75513,6,0,L|267:263,1,52.5,6|0,3:2|0:0,0:0:0:0:
277,39,75709,2,0,L|290:99,1,61.2500000000001,2|8,0:2|0:2,0:0:0:0:
288,313,75905,2,0,L|273:242,1,70,2|0,3:2|0:0,0:0:0:0:
195,161,76101,6,1,B|197:144|197:144|216:146|214:162|213:179|193:176|193:176|174:174|176:157|177:141|197:144|197:144|195:161,1,140.122500000001,10|0,0:2|0:0,0:0:0:0:
112,7,76297,6,0,L|123:59,1,52.5,2|8,3:2|0:2,0:0:0:0:
113,283,76493,2,0,L|100:223,1,61.2500000000001,10|8,0:2|0:2,0:0:0:0:
102,9,76689,2,0,L|117:80,1,70,2|0,3:2|0:0,0:0:0:0:
195,161,76885,6,1,B|197:144|197:144|216:146|214:162|213:179|193:176|193:176|174:174|176:157|177:141|197:144|197:144|195:161,1,140.122500000001,10|8,0:2|0:2,0:0:0:0:
254,40,77081,6,0,L|311:35,1,52.5,6|0,3:2|0:0,0:0:0:0:
512,117,77277,2,0,L|455:122,1,52.5,2|8,0:2|0:2,0:0:0:0:
379,0,77473,2,0,L|387:97,1,94.5,2|10,3:2|0:2,0:0:0:0:
512,208,77866,5,0,3:2:0:0:
467,199,77964,1,8,0:2:0:0:
422,190,78062,1,8,0:2:0:0:
377,181,78160,1,8,0:2:0:0:
309,210,78258,5,8,3:2:0:0:
314,236,78356,1,8,0:3:0:0:
319,261,78454,1,4,0:3:0:0:
324,286,78552,1,0,3:2:0:0:
277,343,78650,6,0,L|225:332,1,52.5,6|0,3:2|0:0,0:0:0:0:
1,342,78846,2,0,L|61:355,1,61.2500000000001,2|8,0:2|0:2,0:0:0:0:
275,353,79042,2,0,L|204:338,1,70,2|0,3:2|0:0,0:0:0:0:
123,260,79238,6,1,B|106:262|106:262|108:281|124:279|141:278|138:258|138:258|136:239|119:241|103:242|106:262|106:262|123:260,1,140.122500000001,10|0,0:2|0:0,0:0:0:0:
0,163,79434,6,0,L|52:152,1,52.5,2|8,3:2|0:2,0:0:0:0:
281,190,79630,2,0,L|221:203,1,61.2500000000001,2|8,0:2|0:2,0:0:0:0:
2,173,79826,2,0,L|73:158,1,70,2|0,3:2|0:0,0:0:0:0:
252,50,80022,6,0,B|344:66|344:66|362:90|362:90|451:104,1,210,10|0,0:2|0:0,0:0:0:0:
409,10,80415,1,10,0:2:0:0:
297,144,80611,5,2,3:2:0:0:
281,190,80709,1,0,3:2:0:0:
292,236,80807,1,10,0:2:0:0:
320,276,80905,1,8,0:2:0:0:
365,292,81003,6,0,P|393:292|425:285,1,61.2500000000001,6|0,3:2|0:0,0:0:0:0:
221,140,81199,2,0,P|193:140|161:147,1,61.2500000000001,10|8,0:2|0:2,0:0:0:0:
41,265,81395,6,0,P|32:242|30:207,1,52.5,2|0,3:2|3:2,0:0:0:0:
103,199,81591,2,0,P|112:222|114:257,1,52.5,10|4,0:3|0:3,0:0:0:0:
250,328,81787,6,0,B|233:271|141:291|210:162|267:233,1,196,4|2,3:2|3:2,0:0:0:0:
334,308,82375,1,8,0:2:0:0:
334,308,82473,1,8,0:2:0:0:
262,330,82571,2,0,B|297:283|376:332|355:188|278:235,1,196,6|0,3:2|3:2,0:0:0:0:
187,78,83160,5,10,0:3:0:0:
187,78,83258,1,8,0:3:0:0:
187,78,83356,2,0,B|123:57|119:125|55:106,1,140,4|0,3:2|3:2,0:0:0:0:
3,23,83944,2,0,P|41:27|81:35,1,70,10|0,0:2|3:0,0:0:0:0:
170,149,84336,5,8,0:3:0:0:
407,33,84728,5,8,0:3:0:0:
333,0,84924,6,0,P|326:38|346:86,1,87.5,6|0,3:2|0:0,0:0:0:0:
407,255,85317,2,0,P|449:239|485:192,1,105,2|0,3:2|0:0,0:0:0:0:
407,33,85709,5,2,3:2:0:0:
287,140,85905,1,0,0:0:0:0:
218,69,86101,2,0,L|225:20,1,43.75,2|0,3:2|0:0,0:0:0:0:
67,120,86297,6,0,B|101:204|-13:196|15:282,1,183.75,6|0,3:2|0:0,0:0:0:0:
75,336,86689,6,0,P|91:330|108:327,1,35,8|0,3:2|0:0,0:0:0:0:
196,372,86885,2,0,P|200:351|207:332,1,42,8|0,3:2|0:0,0:0:0:0:
303,269,87081,2,0,P|284:253|269:234,1,49,8|0,3:2|0:0,0:0:0:0:
202,88,87277,6,0,P|192:114|195:141,1,56,8|0,3:2|0:0,0:0:0:0:
109,217,87473,2,0,P|129:240|158:252,1,63,8|0,3:2|0:0,0:0:0:0:
295,356,87669,2,0,P|330:353|361:336,1,70,8|0,3:2|0:0,0:0:0:0:
446,136,87866,5,12,3:2:0:0:
